osu file format v14

[General]
AudioFilename: audio.mp3
AudioLeadIn: 0
PreviewTime: 40273
Countdown: 0
SampleSet: Soft
StackLeniency: 0.7
Mode: 0
LetterboxInBreaks: 0
WidescreenStoryboard: 0

[Editor]
DistanceSpacing: 1.8
BeatDivisor: 4
GridSize: 16
TimelineZoom: 1

[Metadata]
Title:falling for u
TitleUnicode:falling for u
Artist:mxmtoono
ArtistUnicode:mxmtoono
Creator:Explain
Version:Normal
Source:
Tags:chill hip-hop hiphop lo-fi lofi you
BeatmapID:1970513
BeatmapSetID:943540

[Difficulty]
HPDrainRate:3
CircleSize:3.4
OverallDifficulty:4
ApproachRate:4
SliderMultiplier:0.8
SliderTickRate:1

[Events]
//Background and Video events
0,0,"bg.png",0,0
//Break Periods
2,63629,74061
//Storyboard Layer 0 (Background)
//Storyboard Layer 1 (Fail)
//Storyboard Layer 2 (Pass)
//Storyboard Layer 3 (Foreground)
//Storyboard Sound Samples

[TimingPoints]
16371,373.482726423903,4,2,0,50,1,0
100031,-100,4,2,0,5,0,0

[Colours]
Combo1 : 128,128,192
Combo2 : 0,64,128

[HitObjects]
142,62,16370,5,4,0:0:0:0:
244,163,16744,2,0,B|298:229|253:250|295:320,1,160
429,271,17864,1,4,0:0:0:0:
429,271,18238,1,4,0:0:0:0:
410,128,18611,2,0,P|388:90|347:60,1,80,8|0,0:0|0:0,0:0:0:0:
221,31,19358,5,4,0:0:0:0:
186,170,19732,2,0,P|163:151|90:233,1,160
200,302,20852,1,4,0:0:0:0:
200,302,21226,1,4,0:0:0:0:
340,270,21599,2,0,P|321:324|294:351,2,80,8|4|4,0:0|0:0|0:0,0:0:0:0:
213,199,22720,6,0,L|123:190,1,80,0|8,0:0|0:0,0:0:0:0:
74,59,23467,5,0,0:0:0:0:
217,72,23840,2,0,L|379:88,1,160,4|8,0:0|0:0,0:0:0:0:
343,228,24961,1,0,0:0:0:0:
202,258,25334,2,0,P|156:234|134:202,1,80,4|0,0:0|0:0,0:0:0:0:
97,74,26081,6,0,B|352:97|167:194|438:263,1,400,8|4,0:0|0:0,0:0:0:0:
430,260,28322,1,4,0:0:0:0:
439,116,28695,6,0,P|404:94|361:84,1,80,0|8,0:0|0:0,0:0:0:0:
227,46,29442,1,0,0:0:0:0:
84,67,29816,1,4,0:0:0:0:
77,210,30189,2,0,P|135:240|203:176,1,160,4|0,0:0|0:0,0:0:0:0:
227,46,31310,5,4,0:0:0:0:
366,63,31683,2,0,P|376:108|356:146,1,80,0|8,0:0|0:0,0:0:0:0:
273,250,32430,1,0,0:0:0:0:
174,145,32804,1,4,0:0:0:0:
31,162,33177,2,0,P|26:241|99:265,1,160,4|4,0:0|0:0,0:0:0:0:
91,266,34298,1,4,0:0:0:0:
233,288,34671,6,0,L|316:271,1,80,0|8,0:0|0:0,0:0:0:0:
383,147,35418,1,0,0:0:0:0:
455,271,35792,2,0,P|431:308|394:322,1,80,4|4,0:0|0:0,0:0:0:0:
255,304,36539,1,8,0:0:0:0:
116,264,36912,1,0,0:0:0:0:
101,120,37286,2,0,P|86:96|172:42,1,160,4|8,0:0|0:0,0:0:0:0:
307,74,38406,1,0,0:0:0:0:
258,209,38779,2,0,L|222:296,1,80,4|4,0:0|0:0,0:0:0:0:
57,99,39900,5,0,0:0:0:0:
57,99,40273,2,0,B|174:184|185:51|290:149,1,240,4|0,0:0|0:0,0:0:0:0:
414,87,41767,1,4,0:0:0:0:
414,87,42141,2,0,P|421:135|405:175,1,80,4|0,0:0|0:0,0:0:0:0:
453,288,42888,5,0,0:0:0:0:
453,288,43261,2,0,B|336:373|325:240|220:338,1,240,4|0,0:0|0:0,0:0:0:0:
88,304,44755,1,4,0:0:0:0:
88,304,45129,2,0,P|81:256|97:216,1,80,4|8,0:0|0:0,0:0:0:0:
169,105,45876,5,4,0:0:0:0:
169,105,46249,2,0,P|167:177|277:125,1,240,4|0,0:0|0:0,0:0:0:0:
418,103,47743,1,4,0:0:0:0:
418,103,48117,2,0,P|425:151|409:191,1,80,4|8,0:0|0:0,0:0:0:0:
332,297,48863,5,0,0:0:0:0:
332,297,49236,2,0,P|334:225|224:277,1,240,4|0,0:0|0:0,0:0:0:0:
84,311,50731,1,4,0:0:0:0:
84,311,51105,2,0,P|77:263|93:223,1,80,4|0,0:0|0:0,0:0:0:0:
57,99,51851,5,0,0:0:0:0:
57,99,52224,2,0,B|203:51|296:109,1,240,4|0,0:0|0:0,0:0:0:0:
433,89,53719,2,0,B|348:206|481:217|383:322,1,240,4|0,0:0|0:0,0:0:0:0:
248,325,55213,2,0,B|102:373|9:315,1,240,4|0,0:0|0:0,0:0:0:0:
96,200,56706,1,4,0:0:0:0:
96,200,57080,2,0,B|149:188|202:213,1,80,4|8,0:0|0:0,0:0:0:0:
310,152,57827,5,4,0:0:0:0:
310,152,58200,2,0,P|308:224|418:172,1,240,4|0,0:0|0:0,0:0:0:0:
436,39,59694,2,0,B|290:-9|197:49,1,240,4|0,0:0|0:0,0:0:0:0:
73,107,61188,2,0,P|70:177|170:105,1,240,4|0,0:0|0:0,0:0:0:0:
325,115,62682,1,4,0:0:0:0:
325,115,63056,2,0,P|332:163|316:203,1,80,4|0,0:0|0:0,0:0:0:0:
200,57,75381,5,8,0:0:0:0:
200,57,75754,2,0,P|220:104|209:153,1,80,4|4,0:0|0:0,0:0:0:0:
74,152,76501,2,0,P|54:199|65:248,1,80,0|8,0:0|0:0,0:0:0:0:
171,313,77248,1,0,0:0:0:0:
311,335,77622,1,4,0:0:0:0:
311,335,77995,2,0,P|360:347|407:328,1,80,4|8,0:0|0:0,0:0:0:0:
379,196,78742,5,0,0:0:0:0:
361,52,79116,2,0,P|255:40|159:63,1,160,4|8,0:0|0:0,0:0:0:0:
60,73,80236,1,0,0:0:0:0:
78,215,80610,2,0,P|91:296|115:318,1,80,4|4,0:0|0:0,0:0:0:0:
231,306,81356,2,0,P|292:347|306:348,1,80,8|4,0:0|0:0,0:0:0:0:
434,305,82103,2,0,P|453:220|417:120,1,160,4|8,0:0|0:0,0:0:0:0:
335,48,83224,6,0,B|218:133|207:0|102:98,1,240,0|8,0:0|0:0,0:0:0:0:
110,233,84718,2,0,B|227:318|238:185|343:283,1,240,0|8,0:0|0:0,0:0:0:0:
332,273,86212,1,0,0:0:0:0:
437,175,86585,2,0,P|456:236|444:265,1,80,4|4,0:0|0:0,0:0:0:0:
348,148,87332,1,8,0:0:0:0:
348,148,87706,1,4,0:0:0:0:
313,286,88079,6,4,P|315:319|219:293,1,160,4|12,0:0|0:0,0:0:0:0:
83,274,89200,2,0,B|110:238|163:215,1,80,0|4,0:0|0:0,0:0:0:0:
284,189,89947,1,4,0:0:0:0:
218,61,90320,1,8,0:0:0:0:
101,146,90694,1,0,0:0:0:0:
92,289,91067,2,0,B|186:364|209:237|316:274,1,240,4|0,0:0|0:0,0:0:0:0:
444,210,92561,6,0,P|431:167|409:137,1,80,4|4,0:0|0:0,0:0:0:0:
282,73,93307,2,0,P|221:32|207:31,1,80,8|4,0:0|0:0,0:0:0:0:
72,22,94055,2,0,P|37:78|25:260,1,240,4|0,0:0|0:0,0:0:0:0:
130,153,95549,1,4,0:0:0:0:
130,153,95922,1,4,0:0:0:0:
158,290,96296,5,8,0:0:0:0:
158,290,96669,2,0,P|199:312|252:305,1,80,0|4,0:0|0:0,0:0:0:0:
375,297,97416,2,0,P|410:241|422:59,1,240,0|4,0:0|0:0,0:0:0:0:
425,71,98910,1,4,0:0:0:0:
281,55,99284,2,0,P|293:102|277:136,1,80,8|4,0:0|0:0,0:0:0:0:
256,192,100031,12,0,110862,0:0:0:0:
