osu file format v14

[General]
AudioFilename: audio.mp3
AudioLeadIn: 0
PreviewTime: 40273
Countdown: 0
SampleSet: Normal
StackLeniency: 0.7
Mode: 0
LetterboxInBreaks: 0
WidescreenStoryboard: 1

[Editor]
DistanceSpacing: 1.9
BeatDivisor: 4
GridSize: 4
TimelineZoom: 1

[Metadata]
Title:falling for u
TitleUnicode:falling for u
Artist:mxmtoono
ArtistUnicode:mxmtoono
Creator:Explain
Version:Insane
Source:
Tags:chill hip-hop hiphop lo-fi lofi you
BeatmapID:1983470
BeatmapSetID:943540

[Difficulty]
HPDrainRate:6
CircleSize:4.8
OverallDifficulty:7.8
ApproachRate:8.8
SliderMultiplier:1.8
SliderTickRate:1

[Events]
//Background and Video events
0,0,"bg.png",0,0
//Break Periods
//Storyboard Layer 0 (Background)
//Storyboard Layer 1 (Fail)
//Storyboard Layer 2 (Pass)
//Storyboard Layer 3 (Foreground)
//Storyboard Layer 4 (Overlay)
//Storyboard Sound Samples

[TimingPoints]
16371,373.482726423903,4,1,0,50,1,0
39526,-333.333333333333,4,1,0,50,0,0
40273,-76.9230769230769,4,1,0,50,0,0
63616,-333.333333333333,4,1,0,50,0,0
73140,-166.666666666667,4,1,0,50,0,0
73887,-133.333333333333,4,1,0,50,0,0
74634,-111.111111111111,4,1,0,50,0,0
75381,-100,4,1,0,50,0,0
100031,-909.090909090909,4,1,0,5,0,0

[Colours]
Combo1 : 128,128,192
Combo2 : 0,64,128

[HitObjects]
159,227,16370,5,4,0:0:0:0:
105,130,16744,2,0,P|94:179|124:224,1,90
214,320,17117,2,0,P|225:271|195:226,1,90,8|0,0:0|0:0,0:0:0:0:
105,130,17491,1,0,0:0:0:0:
79,256,17678,2,0,P|137:330|226:309,1,180
287,159,18238,1,4,0:0:0:0:
351,249,18425,2,0,P|362:298|332:343,1,90,0|8,0:0|0:0,0:0:0:0:
208,236,18798,1,0,0:0:0:0:
95,106,18985,2,0,B|137:-1|256:59|255:120|350:56,1,270
462,177,19732,5,0,0:0:0:0:
346,302,19919,1,0,0:0:0:0:
281,144,20105,1,8,0:0:0:0:
419,245,20292,1,0,0:0:0:0:
248,236,20478,1,0,0:0:0:0:
85,179,20666,2,0,P|69:248|132:346,1,180
291,333,21226,1,4,0:0:0:0:
312,163,21413,1,0,0:0:0:0:
153,224,21599,2,0,P|178:300|89:318,2,180,8|4|4,0:0|0:0|0:0,0:0:0:0:
306,29,22720,6,0,B|321:219,1,180,0|8,0:0|0:0,0:0:0:0:
135,318,23467,1,0,0:0:0:0:
415,288,23840,1,4,0:0:0:0:
120,202,24214,1,4,0:0:0:0:
413,170,24587,1,8,0:0:0:0:
92,75,24961,2,0,P|47:110|35:150,1,90,0|8,0:0|0:0,0:0:0:0:
37,301,25334,2,0,B|94:318|94:318|151:299|151:299|226:317,1,180,4|0,0:0|0:0,0:0:0:0:
402,107,26081,6,0,B|321:198|192:35|103:125,1,315,8|0,0:0|0:0,0:0:0:0:
106,121,26828,1,4,0:0:0:0:
33,242,27201,2,0,B|64:280|119:258|119:258|141:306|198:309,1,180,4|8,0:0|0:0,0:0:0:0:
422,226,27948,1,4,0:0:0:0:
422,226,28322,1,4,0:0:0:0:
305,338,28509,5,0,0:0:0:0:
143,333,28695,2,0,P|113:298|106:254,1,90
219,138,29069,2,0,P|264:129|305:145,1,90,8|0,0:0|0:0,0:0:0:0:
219,290,29442,2,0,P|134:289|105:198,1,180,0|4,0:0|0:0,0:0:0:0:
264,201,30003,1,0,0:0:0:0:
373,79,30189,1,4,0:0:0:0:
477,203,30376,1,0,0:0:0:0:
318,238,30563,2,0,P|356:204|367:159,1,90,8|0,0:0|0:0,0:0:0:0:
464,297,30936,2,0,B|409:307|389:357|389:357|303:365,1,180,0|4,0:0|0:0,0:0:0:0:
225,225,31497,5,0,0:0:0:0:
140,362,31683,2,0,P|82:317|71:272,1,90
96,141,32057,2,0,P|73:213|133:299,1,180,8|0,0:0|0:0,0:0:0:0:
280,246,32617,2,0,B|349:274|349:274|392:269|392:269|472:290,1,180
325,183,33177,5,4,0:0:0:0:
243,323,33364,1,0,0:0:0:0:
80,330,33551,2,0,P|50:302|30:254,1,90,8|0,0:0|0:0,0:0:0:0:
112,117,33924,2,0,P|89:169|131:284,1,180,4|4,0:0|0:0,0:0:0:0:
269,316,34671,6,0,B|308:281|357:305|357:305|407:219,1,180,0|8,0:0|0:0,0:0:0:0:
214,104,35418,1,0,0:0:0:0:
48,333,35792,1,4,0:0:0:0:
85,58,36165,1,4,0:0:0:0:
178,308,36539,1,8,0:0:0:0:
392,184,36912,2,0,P|370:220|377:272,1,90,0|8,0:0|0:0,0:0:0:0:
292,169,37286,2,0,P|376:307|465:186,1,360,4|8,0:0|0:0,0:0:0:0:
303,91,38406,5,0,0:0:0:0:
142,66,38686,2,0,L|76:80,1,45,0|4,0:0|0:0,0:0:0:0:
97,75,39153,1,4,0:0:0:0:
363,93,39526,6,0,L|396:101,3,26.9999991760254
478,241,40273,6,0,B|454:288|454:288|397:290|342:250|342:250|280:260,1,233.999989288331,4|0,0:0|0:0,0:0:0:0:
71,73,41020,2,0,B|153:88|153:88|201:28|328:65,1,233.999989288331,8|0,0:0|0:0,0:0:0:0:
390,319,41767,1,4,0:0:0:0:
377,74,42141,2,0,P|409:82|331:113,1,233.999989288331,4|8,0:0|0:0,0:0:0:0:
60,69,42888,5,0,0:0:0:0:
193,24,43075,1,8,0:0:0:0:
261,170,43261,2,0,B|310:231|269:283|269:283|358:370,1,233.999989288331,4|0,0:0|0:0,0:0:0:0:
52,299,44008,2,0,B|25:206|25:206|126:157|44:50,1,233.999989288331,8|0,0:0|0:0,0:0:0:0:
206,243,44662,2,0,L|243:189,1,58.4999973220826,0|4,0:0|0:0,0:0:0:0:
497,85,45129,2,0,B|452:90|417:57|417:57|357:94|357:94|322:64|281:72,1,233.999989288331,4|8,0:0|0:0,0:0:0:0:
44,148,45876,1,4,0:0:0:0:
156,334,46249,6,0,B|210:373|269:338|269:338|320:375|383:338,1,233.999989288331,4|0,0:0|0:0,0:0:0:0:
482,26,46996,2,0,B|427:65|369:30|369:30|318:67|253:30,1,233.999989288331,8|0,0:0|0:0,0:0:0:0:
325,266,47743,1,4,0:0:0:0:
73,64,48117,2,0,P|21:85|113:117,1,233.999989288331,4|8,0:0|0:0,0:0:0:0:
340,299,48863,5,0,0:0:0:0:
137,292,49050,1,8,0:0:0:0:
111,126,49237,2,0,P|159:97|129:189,1,233.999989288331,4|0,0:0|0:0,0:0:0:0:
387,117,49984,2,0,B|443:182|443:182|416:246|443:332,1,233.999989288331,8|0,0:0|0:0,0:0:0:0:
130,321,50638,2,0,L|141:260,1,58.4999973220826,0|4,0:0|0:0,0:0:0:0:
412,83,51104,2,0,B|372:105|327:88|327:88|286:145|286:145|242:132|208:155,1,233.999989288331,4|0,0:0|0:0,0:0:0:0:
453,283,51851,6,0,B|425:324|425:324|328:344,1,116.999994644165
364,196,52225,1,4,0:0:0:0:
115,326,52598,1,0,0:0:0:0:
70,192,52785,1,0,0:0:0:0:
205,153,52972,2,0,B|245:98|241:45|241:45|301:80|379:69,1,233.999989288331,8|0,0:0|0:0,0:0:0:0:
479,273,53719,5,4,0:0:0:0:
199,289,54092,1,4,0:0:0:0:
325,227,54279,1,0,0:0:0:0:
290,90,54466,2,0,B|233:91|208:128|208:128|153:128|90:55,1,233.999989288331,8|0,0:0|0:0,0:0:0:0:
159,211,55026,5,8,0:0:0:0:
26,308,55213,2,0,B|121:354|192:342|192:342|265:264,1,233.999989288331,4|0,0:0|0:0,0:0:0:0:
90,94,55773,1,0,0:0:0:0:
226,61,55960,1,8,0:0:0:0:
355,309,56333,1,0,0:0:0:0:
432,38,56707,1,4,0:0:0:0:
236,239,57080,2,0,B|216:294|216:294|153:353|86:334|86:334|21:287,1,233.999989288331,4|8,0:0|0:0,0:0:0:0:
142,81,57827,1,4,0:0:0:0:
64,351,58201,5,4,0:0:0:0:
292,187,58574,1,0,0:0:0:0:
397,93,58761,1,0,0:0:0:0:
379,232,58948,2,0,B|427:193|427:193|436:150|503:131|503:131|500:207,1,233.999989288331,8|0,0:0|0:0,0:0:0:0:
475,61,59508,5,0,0:0:0:0:
336,42,59694,2,0,B|277:66|221:43|221:43|246:143|187:178,1,233.999989288331,4|4,0:0|0:0,0:0:0:0:
343,206,60255,2,0,B|333:289|333:289|282:338,1,116.999994644165,0|8,0:0|0:0,0:0:0:0:
69,164,60815,1,0,0:0:0:0:
160,57,61002,1,8,0:0:0:0:
174,195,61188,6,0,B|113:120|113:120|91:42|91:42|53:40|25:27,1,233.999989288331,4|0,0:0|0:0,0:0:0:0:
69,164,61749,1,0,0:0:0:0:
201,120,61935,2,0,B|248:62|248:62|309:44|422:132,1,233.999989288331,8|0,0:0|0:0,0:0:0:0:
504,293,62589,2,0,L|497:356,1,58.4999973220826,0|4,0:0|0:0,0:0:0:0:
257,204,63056,2,0,P|178:222|239:337,1,233.999989288331,4|0,0:0|0:0,0:0:0:0:
247,45,63803,6,0,P|262:96|258:132,1,80.9999975280763
187,74,64550,2,0,B|218:118|170:171|117:160|117:160|135:203|119:233|119:233|185:230|219:202|243:170,1,350.99998928833
345,165,67164,2,0,B|419:170|446:241|446:241|411:270|355:258|355:258|311:288|265:264|265:264|226:332,1,404.999987640381
128,286,70152,2,0,B|72:239|72:239|112:186|177:186|198:251|198:251|222:206|232:180|232:180|216:147|185:136|148:132,1,404.999987640381
240,89,73140,6,0,B|286:93|321:101|344:129|344:129|307:162,1,161.999995056153
166,153,73887,2,0,B|225:158|271:168|300:204|300:204|252:247,1,202.500007724762
90,217,74634,2,0,B|163:223|219:236|255:280|255:280|196:333,1,242.999992584229
160,139,75381,5,8,0:0:0:0:
397,54,75754,1,4,0:0:0:0:
397,54,75941,2,0,B|338:80|327:117|327:117|401:189|354:287,1,270
121,300,76875,1,8,0:0:0:0:
249,83,77248,1,0,0:0:0:0:
322,326,77622,1,4,0:0:0:0:
148,107,77995,2,0,B|179:146|227:145|227:145|192:189|211:234,1,180,4|8,0:0|0:0,0:0:0:0:
345,211,78742,5,0,0:0:0:0:
399,117,78929,1,8,0:0:0:0:
316,46,79116,2,0,B|221:31|221:31|146:46|143:105,2,180,4|0|8,0:0|0:0|0:0,0:0:0:0:
160,244,80236,1,0,0:0:0:0:
218,64,80516,1,0,0:0:0:0:
218,64,80610,2,0,B|294:52|294:52|345:83|325:167,1,180,4|4,0:0|0:0,0:0:0:0:
136,213,81356,2,0,B|60:201|60:201|9:232|29:316,1,180,8|4,0:0|0:0,0:0:0:0:
270,348,82103,2,0,B|282:299|282:299|246:261|252:202|252:202|278:176,2,180,4|0|8,0:0|0:0|0:0,0:0:0:0:
151,33,83224,6,0,P|100:32|62:58,1,90
183,102,83597,2,0,B|132:127|132:127|119:194|173:202|144:268,2,180,4|4|8,0:0|0:0|0:0,0:0:0:0:
406,159,84718,6,0,P|457:158|495:184,1,90,0|8,0:0|0:0,0:0:0:0:
374,228,85091,2,0,B|425:253|425:253|438:320|384:328|413:394,2,180,4|0|8,0:0|0:0|0:0,0:0:0:0:
136,141,86212,1,0,0:0:0:0:
222,309,86492,2,0,L|210:388,1,45,0|4,0:0|0:0,0:0:0:0:
65,150,86959,2,0,B|86:200|131:219|131:219|214:197,1,180,4|8,0:0|0:0,0:0:0:0:
429,246,87706,1,4,0:0:0:0:
301,28,88079,6,0,B|322:57|288:91|237:90|237:90|243:131|227:154|227:154|296:163|356:129|371:68,1,360,4|8,0:0|0:0,0:0:0:0:
128,141,89200,2,0,B|83:155|60:190|60:190|105:231|92:300,1,180,0|4,0:0|0:0,0:0:0:0:
342,324,89947,1,4,0:0:0:0:
389,76,90320,1,8,0:0:0:0:
136,82,90694,1,0,0:0:0:0:
50,174,90880,1,8,0:0:0:0:
112,283,91067,2,0,B|164:287|204:330|204:330|221:279|221:279|331:346|339:258|421:326,1,360,4|8,0:0|0:0,0:0:0:0:
401,142,92468,5,0,0:0:0:0:
401,142,92561,2,0,B|350:99|350:99|285:86|236:131,1,180,4|4,0:0|0:0,0:0:0:0:
484,320,93307,2,0,B|454:283|369:276|369:276|308:313,1,180,8|4,0:0|0:0,0:0:0:0:
194,210,94055,2,0,B|143:220|118:258|118:258|130:298|196:344,2,180,4|0|8,0:0|0:0|0:0,0:0:0:0:
419,158,95549,1,4,0:0:0:0:
234,45,95922,1,4,0:0:0:0:
205,259,96296,1,8,0:0:0:0:
374,125,96669,6,0,B|309:113|291:63|291:63|197:114,1,180,0|4,0:0|0:0,0:0:0:0:
395,278,97416,2,0,B|430:222|407:172|407:172|443:74,2,180,0|8|0,0:0|0:0|0:0,0:0:0:0:
314,169,98443,2,0,L|244:178,1,45,0|4,0:0|0:0,0:0:0:0:
98,232,98910,1,4,0:0:0:0:
181,98,99284,2,0,B|216:56|256:96|256:96|317:46|355:129,1,180,8|4,0:0|0:0,0:0:0:0:
180,124,100031,6,0,B|184:231|256:256|256:256|332:232|332:123,1,326.700009970093
256,192,106567,12,0,110862,0:0:0:0:
