osu file format v14

[General]
AudioFilename: audio.mp3
AudioLeadIn: 0
PreviewTime: 50495
Countdown: 0
SampleSet: Soft
StackLeniency: 0.4
Mode: 0
LetterboxInBreaks: 0
WidescreenStoryboard: 1

[Editor]
Bookmarks: 94,14494,33694,52894,72094,84094,103294,122494,141694,160894,180094,199294
DistanceSpacing: 1
BeatDivisor: 2
GridSize: 8
TimelineZoom: 1.98

[Metadata]
Title:Sirius
TitleUnicode:Sirius
Artist:muzzle-lab
ArtistUnicode:まずらぼ
Creator:DigiDrake
Version:Normal
Source:
Tags:f-live!! 狼音アロ 紅鏡緋色 Rouon Aro Akagami Hero Hiiro furloid UTAU utauloid furry rock j-rock jrock japanese male vocals vocalists vocaloid ayyri eiri- _orange ezek peter bearizm zekeyache zekeyhache
BeatmapID:2347558
BeatmapSetID:952606

[Difficulty]
HPDrainRate:3.5
CircleSize:3
OverallDifficulty:4
ApproachRate:6
SliderMultiplier:1.1
SliderTickRate:1

[Events]
//Background and Video events
Video,0,"sirius.avi"
0,0,"doggies.jpg",0,0
//Break Periods
2,144295,150095
2,161095,164045
//Storyboard Layer 0 (Background)
//Storyboard Layer 1 (Fail)
//Storyboard Layer 2 (Pass)
//Storyboard Layer 3 (Foreground)
//Storyboard Layer 4 (Overlay)
//Storyboard Sound Samples

[TimingPoints]
95,300,4,2,1,50,1,0
95,-111.111111111111,4,2,1,50,0,0
3995,-111.111111111111,4,2,1,65,0,0
4895,-100,4,2,1,65,0,0
5195,-100,4,2,1,65,0,0
5795,-100,4,2,1,65,0,0
6095,-100,4,2,1,65,0,0
6545,-100,4,2,1,65,0,0
8495,-100,4,2,1,65,0,0
8945,-100,4,2,1,65,0,0
14495,-100,4,2,1,60,0,0
21395,-100,4,2,1,60,0,0
21695,-100,4,2,1,60,0,0
21995,-100,4,2,1,60,0,0
22295,-100,4,2,1,60,0,0
33695,-100,4,2,1,80,0,1
34895,-100,4,2,1,80,0,1
35195,-100,4,2,1,80,0,1
38495,-100,4,2,1,80,0,0
39695,-100,4,2,1,80,0,0
40295,-100,4,2,1,80,0,0
40445,-100,4,2,1,60,0,0
40895,-100,4,2,1,60,0,0
43295,-100,4,2,1,60,0,0
49295,-100,4,2,1,60,0,0
50495,-100,4,2,1,65,0,0
52295,-100,4,2,1,65,0,0
52895,-100,4,2,1,80,0,1
53795,-100,4,2,1,80,0,1
57395,-100,4,2,1,80,0,1
57695,-100,4,2,1,80,0,1
58595,-100,4,2,1,80,0,1
58895,-100,4,2,1,80,0,1
60095,-100,4,2,1,80,0,1
60395,-100,4,2,1,80,0,1
72095,-100,4,2,1,80,0,0
72395,-100,4,2,1,65,0,0
74495,-100,4,2,1,65,0,0
74795,-100,4,2,1,65,0,0
75395,-100,4,2,1,65,0,0
75695,-100,4,2,1,65,0,0
75920,-100,4,2,1,65,0,0
78245,-100,4,2,1,65,0,0
78545,-100,4,2,1,65,0,0
84245,-100,4,2,1,65,0,0
87545,-100,4,2,1,65,0,0
87845,-100,4,2,1,65,0,0
88745,-100,4,2,1,65,0,0
89045,-100,4,2,1,65,0,0
91295,-100,4,2,1,65,0,0
91745,-100,4,2,1,65,0,0
97295,-100,4,2,1,65,0,0
97595,-100,4,2,1,65,0,0
99695,-100,4,2,1,65,0,0
99995,-100,4,2,1,65,0,0
101945,-90.9090909090909,4,2,1,75,0,0
102695,-100,4,2,1,75,0,0
103295,-100,4,2,1,80,0,1
104495,-100,4,2,1,80,0,1
104795,-100,4,2,1,80,0,1
108095,-100,4,2,1,65,0,0
109295,-100,4,2,1,65,0,0
109895,-100,4,2,1,65,0,0
110495,-100,4,2,1,65,0,0
112895,-100,4,2,1,70,0,1
114095,-100,4,2,1,70,0,1
114395,-100,4,2,1,70,0,1
116795,-100,4,2,1,75,0,1
117095,-100,4,2,1,77,0,1
117395,-100,4,2,1,80,0,1
117695,-100,4,2,1,80,0,0
117995,-100,4,2,1,65,0,0
122495,-100,4,2,1,80,0,1
123395,-100,4,2,1,80,0,1
126995,-100,4,2,1,80,0,1
127295,-100,4,2,1,80,0,1
128195,-100,4,2,1,80,0,1
128495,-100,4,2,1,80,0,1
129695,-100,4,2,1,80,0,1
129995,-100,4,2,1,80,0,1
141695,-100,4,2,1,80,0,0
151295,-100,4,2,1,65,0,0
156095,-100,4,2,1,70,0,0
157295,-100,4,2,1,70,0,0
160895,-100,4,2,1,70,0,0
165245,-100,4,2,1,60,0,0
165695,-100,4,2,1,60,0,0
170345,-100,4,2,1,40,0,0
170495,-100,4,2,1,60,0,0
175295,-100,4,2,1,75,0,0
177695,-100,4,2,1,80,0,0
180095,-100,4,2,1,80,0,1
180995,-100,4,2,1,80,0,1
184595,-100,4,2,1,80,0,1
184895,-100,4,2,1,80,0,1
185795,-100,4,2,1,80,0,1
186095,-100,4,2,1,80,0,1
187295,-100,4,2,1,80,0,1
187595,-100,4,2,1,80,0,1
194495,-100,4,2,1,70,0,1
196595,-100,4,2,1,75,0,1
196895,-100,4,2,1,80,0,1
199295,-100,4,2,1,80,0,0
200795,-100,4,2,1,70,0,0
201545,-100,4,2,1,70,0,0
201845,-100,4,2,1,70,0,0
202895,-100,4,2,1,70,0,0
203195,-100,4,2,1,70,0,0
203645,-100,4,2,1,50,0,0
203945,-100,4,2,1,55,0,0
204245,-100,4,2,1,70,0,0
205295,-100,4,2,1,70,0,0
205595,-100,4,2,1,70,0,0
206495,-100,4,2,1,75,0,0
207845,-100,4,2,1,80,0,0

[Colours]
Combo1 : 255,218,106
Combo2 : 19,170,183
Combo3 : 249,163,134
Combo4 : 248,18,18

[HitObjects]
56,341,95,5,14,0:1:0:0:
152,319,395,2,0,P|185:329|219:332,1,49.4999984893799,8|8,0:0|0:0,0:0:0:0:
241,358,695,2,0,P|304:346|347:340,1,98.9999969787599,8|8,0:1|0:0,0:0:0:0:
409,272,1295,5,10,0:1:0:0:
349,192,1595,2,0,P|340:164|356:139,1,49.4999984893799,8|8,0:0|0:0,0:0:0:0:
393,130,1895,2,0,P|459:148|506:157,1,98.9999969787599,8|8,0:1|0:0,0:0:0:0:
485,54,2495,5,10,0:1:0:0:
390,25,2795,2,0,P|365:32|335:44,1,49.4999984893799,8|8,0:0|0:0,0:0:0:0:
304,71,3095,2,0,P|275:71|249:40,1,49.4999984893799,8|0,0:1|0:0,0:0:0:0:
231,18,3395,1,8,0:0:0:0:
151,76,3695,6,0,B|135:88|127:102|127:102|96:90|47:83,1,98.9999969787599,12|8,0:1|0:0,0:0:0:0:
85,184,4295,2,0,P|110:191|143:206,2,49.4999984893799,8|8|8,0:0|0:0|0:0,0:0:0:0:
43,167,4745,1,8,0:0:0:0:
43,166,4895,6,0,P|3:211|8:266,1,110,14|10,0:0|0:0,0:0:0:0:
77,341,5495,2,0,P|128:335|193:332,1,110,10|10,0:1|0:0,0:0:0:0:
294,353,6095,2,0,B|332:358|332:358|307:280,1,110,10|8,0:1|0:0,0:0:0:0:
278,244,6545,2,0,P|329:250|393:255,1,110,2|2,0:0|0:0,0:0:0:0:
432,285,6995,1,8,0:0:0:0:
485,188,7295,6,0,L|495:74,1,110,8|10,0:1|0:0,0:0:0:0:
396,29,7895,1,10,0:1:0:0:
290,58,8195,1,10,0:0:0:0:
269,166,8495,1,10,0:1:0:0:
169,205,8795,1,10,0:0:0:0:
169,205,8945,2,0,B|106:201|130:170|64:162,2,110,2|2|2,0:0|0:0|0:0,0:0:0:0:
321,268,9995,5,10,0:0:0:0:
224,320,10295,1,10,0:1:0:0:
121,367,10595,2,0,P|69:373|56:375,1,55,10|2,0:0|0:0,0:0:0:0:
25,336,10895,2,0,B|-1:306|-1:306|12:212,1,110,10|10,0:1|0:0,0:0:0:0:
42,193,11345,1,2,0:0:0:0:
150,210,11645,2,0,L|230:226,1,55,2|8,0:0|0:0,0:0:0:0:
301,270,12095,6,0,P|364:227|363:187,1,110,14|10,0:0|0:0,0:0:0:0:
298,108,12695,1,10,0:0:0:0:
400,63,12995,1,10,0:0:0:0:
400,63,13145,2,0,B|446:51|475:82|475:82|475:111|465:114,1,110,14|10,0:0|0:1,0:0:0:0:
440,156,13595,1,10,0:0:0:0:
428,279,13895,6,0,P|484:278|513:227,2,110,10|10|12,0:1|0:1|0:1,0:0:0:0:
351,358,14795,2,0,L|232:340,1,110,10|10,0:0|0:1,0:0:0:0:
164,263,15395,2,0,L|94:273,1,55,10|2,0:0|0:0,0:0:0:0:
61,298,15695,2,0,L|67:361,2,55,10|2|10,0:1|0:0|0:0,0:0:0:0:
28,253,16145,2,0,P|5:193|40:152,1,110,10|10,0:1|0:1,0:0:0:0:
81,143,16595,2,0,L|152:153,1,55,10|2,0:0|0:0,0:0:0:0:
248,167,17045,5,10,0:1:0:0:
248,167,17195,2,0,P|288:159|317:96,1,110,10|2,0:0|0:0,0:0:0:0:
421,20,17795,2,0,P|447:36|458:76,1,55,10|10,0:0|0:1,0:0:0:0:
494,97,18095,2,0,P|475:165|468:216,1,110,14|10,0:1|0:0,0:0:0:0:
464,314,18695,2,0,P|413:346|368:312,1,110,2|10,0:0|0:0,0:0:0:0:
302,240,19295,6,0,B|234:248|268:279|202:288,1,110,12|10,0:0|0:0,0:0:0:0:
97,318,19895,1,10,0:1:0:0:
12,247,20195,1,10,0:0:0:0:
110,198,20495,2,0,L|119:132,1,55,10|2,0:1|0:0,0:0:0:0:
79,112,20795,1,10,0:0:0:0:
79,112,20945,2,0,P|112:114|168:63,1,110,10|8,0:0|0:1,0:0:0:0:
208,28,21395,1,10,0:0:0:0:
294,95,21695,6,0,B|313:111|333:120|333:120|324:149|316:190,2,110,10|10|2,0:1|0:0|0:0,0:0:0:0:
216,173,22595,1,10,0:0:0:0:
253,276,22895,2,0,P|285:286|315:281,1,55,10|0,0:0|0:0,0:0:0:0:
345,322,23195,2,0,P|375:309|395:285,1,55,8|10,0:0|0:1,0:0:0:0:
445,294,23495,2,0,P|439:232|432:167,1,110,8|8,0:0|0:0,0:0:0:0:
426,74,24095,5,2,0:0:0:0:
328,24,24395,2,0,L|253:34,2,55,10|8|2,0:0|0:0|0:0,0:0:0:0:
339,133,24995,2,0,L|264:143,2,55,10|8|10,0:0|0:1|0:1,0:0:0:0:
360,245,25595,1,10,0:0:0:0:
360,245,25745,2,0,B|365:290|365:290|360:307|360:307|366:361,1,110,10|10,0:1|0:1,0:0:0:0:
315,377,26195,1,10,0:0:0:0:
211,332,26495,6,0,P|151:325|95:324,1,110,12|10,0:1|0:0,0:0:0:0:
52,342,26945,1,10,0:0:0:0:
52,342,27095,2,0,P|9:304|19:249,1,110,2|10,0:0|0:0,0:0:0:0:
116,216,27695,2,0,L|106:145,2,55,10|2|10,0:1|0:0|0:0,0:0:0:0:
169,229,28145,2,0,P|229:222|285:221,1,110,10|0,0:0|0:0,0:0:0:0:
332,232,28595,1,10,0:0:0:0:
441,241,28895,6,0,B|466:207|466:207|448:124,1,110,12|10,0:1|0:0,0:0:0:0:
386,53,29495,2,0,B|305:41|305:41|323:4,2,110,10|10|10,0:1|0:0|0:1,0:0:0:0:
334,152,30395,1,8,0:0:0:0:
334,152,30545,2,0,L|346:286,1,110,8|8,0:1|0:1,0:0:0:0:
389,291,30995,2,0,L|326:324,1,55,8|8,0:0|0:1,0:0:0:0:
331,370,31295,6,0,B|299:349|299:349|251:365|194:341,1,110,12|8,0:1|0:0,0:0:0:0:
67,314,32045,2,0,P|47:343|21:352,2,55,8|8|8,0:1|0:1|0:1,0:0:0:0:
123,290,32495,6,0,B|143:262|143:262|122:234,1,55,12|8,0:0|0:1,0:0:0:0:
109,194,32795,2,0,L|34:166,1,55,12|8,0:0|0:1,0:0:0:0:
34,125,33095,1,14,0:1:0:0:
119,55,33395,1,10,0:0:0:0:
220,92,33695,2,0,B|241:107|241:107|341:79,1,110,14|10,0:0|0:0,0:0:0:0:
345,191,34295,2,0,B|355:208|288:244|253:203,1,110,10|10,0:0|0:0,0:0:0:0:
156,253,34895,2,0,P|140:280|157:312,1,55,10|0,0:0|0:0,0:0:0:0:
182,343,35195,2,0,B|243:333|243:333|260:324|260:324|308:319,1,110,10|10,0:0|0:0,0:0:0:0:
397,302,35795,1,10,0:0:0:0:
457,210,36095,6,0,B|459:177|466:141|466:141|437:149|406:135,1,110,14|10,0:0|0:0,0:0:0:0:
319,115,36695,2,0,B|283:64|314:22|348:25|340:54,1,110,10|10,0:0|0:0,0:0:0:0:
223,17,37295,2,0,P|150:24|93:44,2,110,14|12|10,0:0|0:0|1:2,0:0:0:0:
211,126,38195,1,10,1:2:0:0:
126,197,38495,6,0,P|69:193|30:146,1,110,12|10,0:1|0:0,0:0:0:0:
2,261,39095,2,0,B|-13:299|-13:299|26:376,1,110,2|10,0:0|0:0,0:0:0:0:
126,340,39695,1,10,0:1:0:0:
233,317,39995,1,10,0:0:0:0:
340,294,40295,2,0,B|355:256|355:256|316:179,1,110,2|10,0:0|0:0,0:0:0:0:
240,122,40895,6,0,B|248:96|235:67|235:67|262:84|286:79,1,110,10|8,0:1|0:0,0:0:0:0:
343,103,41345,1,10,0:1:0:0:
343,103,41495,2,0,B|355:107|376:108|376:108|394:123|394:123|434:128|479:142,1,137.5,2|8,0:0|0:0,0:0:0:0:
479,222,42095,2,0,B|467:318|467:318|453:332,2,110,12|12|10,0:0|0:0|0:0,0:0:0:0:
368,229,42995,2,0,P|334:231|300:246,1,55,10|8,0:0|0:0,0:0:0:0:
278,281,43295,6,0,P|246:276|162:262,1,110,10|10,0:1|0:1,0:0:0:0:
79,199,43895,2,0,P|44:148|58:100,2,110,10|10|10,0:1|0:1|0:1,0:0:0:0:
184,167,44795,1,10,0:1:0:0:
236,70,45095,2,0,B|250:45|250:45|306:56|309:122,1,110,10|10,0:1|0:1,0:0:0:0:
372,185,45695,6,0,P|356:261|350:332,1,110,2|10,0:1|0:1,0:0:0:0:
442,356,46295,1,10,0:1:0:0:
511,270,46595,1,10,0:1:0:0:
468,169,46895,6,0,P|455:115|448:60,1,110,8|10,0:3|0:0,0:0:0:0:
343,27,47495,1,8,0:0:0:0:
256,95,47795,1,8,0:0:0:0:
252,205,48095,6,0,B|205:211|205:211|188:225|188:225|147:231,2,110,14|8|0,0:0|0:0|0:0,0:0:0:0:
350,154,48995,1,10,0:0:0:0:
356,263,49295,2,0,B|369:302|394:329|394:329|372:327|354:338,1,110,10|8,0:1|0:0,0:0:0:0:
259,373,49895,2,0,P|222:373|197:358,1,55,10|0,0:1|0:0,0:0:0:0:
181,315,50195,1,8,0:0:0:0:
75,344,50495,5,10,0:0:0:0:
52,236,50795,1,8,0:3:0:0:
126,155,51095,2,0,L|111:101,1,55,10|8,0:0|0:0,0:0:0:0:
100,48,51395,2,0,L|154:33,1,55,8|10,0:0|0:0,0:0:0:0:
203,56,51695,6,0,P|269:88|256:157,2,110,10|10|10,0:0|0:0|0:0,0:0:0:0:
94,33,52595,1,8,3:0:0:0:
25,118,52895,6,0,P|3:188|62:225,1,110,6|8,0:0|0:0,0:0:0:0:
12,321,53495,2,0,P|37:313|82:307,1,55,8|0,0:1|0:0,0:0:0:0:
112,279,53795,2,0,P|161:294|249:312,1,110,2|10,0:0|0:1,0:0:0:0:
328,299,54395,1,10,0:0:0:0:
399,215,54695,1,10,0:1:0:0:
390,105,54995,1,10,0:0:0:0:
298,43,55295,2,0,B|265:74|265:74|283:162,1,110,10|8,0:1|0:0,0:0:0:0:
198,214,55895,2,0,P|191:179|185:155,1,55,8|0,0:1|0:0,0:0:0:0:
141,130,56195,6,0,P|63:175|74:225,1,110,10|2,0:0|0:0,0:0:0:0:
78,292,56795,1,10,0:0:0:0:
175,343,57095,1,10,0:1:0:0:
271,290,57395,1,10,0:0:0:0:
374,327,57695,2,0,B|412:335|443:345|443:345|449:318|466:276,1,110,6|8,0:0|0:0,0:0:0:0:
446,197,58295,2,0,B|428:195|428:195|401:148,1,55,8|0,0:1|0:0,0:0:0:0:
404,107,58595,6,0,P|457:96|532:86,2,110,10|10|8,0:0|0:1|0:0,0:0:0:0:
296,128,59495,1,10,0:1:0:0:
240,32,59795,2,0,P|212:38|177:45,1,55,8|0,0:0|0:0,0:0:0:0:
143,77,60095,6,0,B|143:108|140:143|140:143|160:161|166:188,1,110,14|10,0:1|0:0,0:0:0:0:
159,234,60545,1,10,0:1:0:0:
123,276,60695,2,0,B|91:300|56:288|56:288|42:255|58:228,1,110,8|12,0:3|0:0,0:0:0:0:
252,337,61595,1,8,0:0:0:0:
360,321,61895,1,10,0:0:0:0:
468,303,62195,2,0,P|462:269|452:226,1,55,10|8,0:3|0:1,0:0:0:0:
415,214,62495,6,0,B|382:188|382:188|392:104,1,110,10|8,0:0|0:0,0:0:0:0:
331,27,63095,2,0,B|278:13|249:46|249:46|265:56|278:81,1,110,10|10,0:0|0:0,0:0:0:0:
176,126,63695,2,0,B|139:136|120:163|120:163|95:141|59:139,2,110,14|8|10,0:0|0:0|0:0,0:0:0:0:
276,170,64595,1,10,0:0:0:0:
311,275,64895,6,0,B|320:322|279:347|279:347|228:342,1,110,12|10,0:0|0:0,0:0:0:0:
147,313,65495,1,10,0:1:0:0:
192,212,65795,1,10,0:0:0:0:
298,182,66095,2,0,P|344:195|420:242,1,110,10|8,0:0|0:0,0:0:0:0:
493,168,66695,2,0,B|513:134|513:134|490:54,1,110,10|8,0:1|0:1,0:0:0:0:
385,44,67295,6,0,P|330:50|276:60,1,110,14|8,0:1|0:0,0:0:0:0:
171,25,67895,1,2,0:0:0:0:
120,124,68195,1,10,0:0:0:0:
222,163,68495,2,0,P|259:198|269:282,1,110,10|8,0:1|0:0,0:0:0:0:
163,253,69095,2,0,B|129:257|105:285|105:285|101:258|79:242,1,110,10|10,0:1|0:0,0:0:0:0:
16,163,69695,5,8,0:0:0:0:
120,124,69995,1,8,0:0:0:0:
222,163,70295,1,10,0:0:0:0:
263,264,70595,1,8,0:0:0:0:
237,371,70895,6,0,B|282:365|282:365|298:373|298:373|344:365,1,110,14|10,0:0|0:0,0:0:0:0:
436,305,71495,2,0,P|468:252|441:192,1,110,10|10,0:0|0:1,0:0:0:0:
409,191,71945,1,10,0:0:0:0:
409,191,72095,6,0,P|398:136|394:71,1,110,12|10,0:1|0:1,0:0:0:0:
294,36,72695,2,0,P|239:40|185:50,1,110,8|8,0:1|0:1,0:0:0:0:
100,122,73295,2,0,P|110:175|114:230,1,110,8|8,0:1|0:1,0:0:0:0:
206,301,73895,1,8,0:1:0:0:
206,301,74045,2,0,B|237:304|237:304|271:271,1,55,8|8,0:1|0:0,0:0:0:0:
351,235,74495,6,0,B|380:241|405:242|405:242|415:274|440:287,2,110,6|10|10,0:0|0:0|0:1,0:0:0:0:
259,173,75395,1,8,0:0:0:0:
215,72,75695,2,0,P|156:81|94:87,1,110,10|8,0:1|0:0,0:0:0:0:
59,116,76145,2,0,P|35:155|70:232,1,110,2|2,0:0|0:0,0:0:0:0:
87,253,76595,1,8,0:0:0:0:
152,341,76895,6,0,B|106:371|106:371|51:355,2,110,10|10|10,0:1|0:0|0:0,0:0:0:0:
261,313,77795,1,10,0:0:0:0:
261,313,77945,2,0,B|294:315|294:315|308:321|308:321|379:328,1,110,2|0,0:0|0:0,0:0:0:0:
460,265,78545,2,0,B|484:229|484:229|464:139,1,110,2|2,0:0|0:0,0:0:0:0:
456,110,78995,1,8,0:0:0:0:
347,130,79295,6,0,L|209:150,2,110,14|10|10,0:1|0:0|0:1,0:0:0:0:
381,25,80195,1,10,0:0:0:0:
272,41,80495,6,0,L|209:50,1,55,10|8,0:0|0:3,0:0:0:0:
166,60,80795,1,10,0:1:0:0:
166,60,80945,2,0,B|128:95|128:95|150:146|135:193,1,110,14|8,0:0|0:1,0:0:0:0:
115,200,81395,1,8,0:0:0:0:
156,302,81695,6,0,P|206:291|275:283,1,110,10|10,0:3|0:1,0:0:0:0:
316,267,82145,1,10,0:0:0:0:
399,338,82445,2,0,B|392:312|392:312|416:286,1,55
442,246,82745,6,0,B|468:203|468:203|447:124,1,110,14|8,0:1|0:3,0:0:0:0:
459,90,83195,1,10,0:1:0:0:
349,69,83495,2,0,P|315:87|307:100,1,55,10|10,0:3|0:3,0:0:0:0:
270,141,83795,2,0,P|197:125|132:97,1,110,10|12,0:0|0:1,0:0:0:0:
59,77,84395,6,0,P|64:143|67:202,1,110,10|2,0:1|0:0,0:0:0:0:
26,289,84995,1,10,0:0:0:0:
127,334,85295,2,0,P|170:332|206:269,1,110,10|2,0:1|0:0,0:0:0:0:
316,280,85895,2,0,P|313:248|295:214,1,55,2|10,0:0|0:1,0:0:0:0:
263,189,86195,1,10,0:0:0:0:
304,87,86495,5,10,0:1:0:0:
406,46,86795,2,0,P|437:40|458:31,2,55,2|10|2,0:0|0:1|0:0,0:0:0:0:
396,157,87395,1,10,0:0:0:0:
396,157,87545,2,0,P|414:206|425:272,1,110,2|2,0:0|0:0,0:0:0:0:
414,317,87995,5,2,0:0:0:0:
307,344,88295,2,0,L|243:336,1,55,2|0,0:0|0:0,0:0:0:0:
218,300,88595,1,2,0:0:0:0:
218,300,88745,2,0,L|96:313,1,110,2|2,0:0|0:0,0:0:0:0:
60,284,89195,6,0,P|43:246|50:228,1,55,2|10,0:0|0:1,0:0:0:0:
81,192,89495,1,2,0:0:0:0:
190,179,89795,1,10,0:0:0:0:
299,166,90095,2,0,P|331:160|363:156,2,55,10|2|2,0:1|0:0|0:0,0:0:0:0:
272,123,90545,1,10,0:1:0:0:
272,123,90695,2,0,B|248:103|248:103|245:61,1,55,10|8,0:0|0:3,0:0:0:0:
271,30,90995,1,10,0:0:0:0:
161,27,91295,6,0,B|87:40|136:69|52:91,1,110,14|0,0:0|0:0,0:0:0:0:
20,105,91745,1,2,0:0:0:0:
67,204,92045,2,0,P|99:220|136:203,1,55,2|2,0:0|0:0,0:0:0:0:
34,290,92495,6,0,P|41:321|45:349,1,55,10|8,0:0|0:1,0:0:0:0:
102,363,92795,1,8,0:1:0:0:
102,363,92945,2,0,B|131:363|145:358|145:358|171:366|171:366|193:360|259:355,1,110,10|10,0:0|0:0,0:0:0:0:
263,348,93395,2,0,P|278:311|255:270,1,55,8|8,0:0|0:3,0:0:0:0:
322,267,93695,6,0,P|262:255|253:207,1,110,12|10,0:1|0:0,0:0:0:0:
335,141,94295,2,0,P|366:145|396:160,2,55,10|2|8,0:1|0:0|0:0,0:0:0:0:
337,33,94895,2,0,P|367:32|391:39,2,55,10|2|10,0:1|0:0|0:0,0:0:0:0:
283,48,95345,2,0,P|230:41|156:22,1,110,2|2,0:0|0:0,0:0:0:0:
126,49,95795,1,10,0:0:0:0:
126,49,95945,2,0,P|107:78|112:104,1,55,2|8,0:0|0:1,0:0:0:0:
86,204,96395,6,0,P|121:199|163:189,1,55,8|2,0:0|0:0,0:0:0:0:
183,160,96695,2,0,P|235:168|260:231,1,110,10|10,0:1|0:0,0:0:0:0:
256,269,97145,2,0,P|235:313|206:326,1,55,2|10,0:0|0:1,0:0:0:0:
336,343,97595,1,10,0:0:0:0:
439,304,97895,1,10,0:1:0:0:
449,198,98195,1,10,0:0:0:0:
449,198,98345,1,2,0:0:0:0:
322,92,98795,6,0,P|287:94|228:99,1,55,10|2,0:0|0:0,0:0:0:0:
224,60,99095,1,10,0:1:0:0:
224,60,99245,2,0,B|192:57|151:52|151:52|165:79|159:107,1,110,2|2,0:0|0:0,0:0:0:0:
127,130,99695,1,2,0:0:0:0:
153,241,99995,1,10,0:0:0:0:
153,241,100145,2,0,P|210:232|276:225,1,110,2|2,0:0|0:0,0:0:0:0:
316,236,100595,2,0,P|339:259|346:289,1,55,10|10,0:0|0:1,0:0:0:0:
381,322,100895,6,0,P|476:308|474:251,1,165,14|14,0:1|0:0,0:0:0:0:
505,150,101645,1,8,0:3:0:0:
445,44,101945,2,0,B|411:62|402:101|402:101|377:72|334:60|302:86,1,181.500005538941,8|12,0:0|0:0,0:0:0:0:
273,177,102695,2,0,L|212:171,1,55,10|8,0:1|0:1,0:0:0:0:
175,138,102995,1,10,0:0:0:0:
67,160,103295,5,10,0:0:0:0:
32,264,103595,1,10,0:1:0:0:
100,350,103895,1,10,0:0:0:0:
202,310,104195,1,10,0:0:0:0:
299,360,104495,2,0,B|359:361|407:384|407:384|370:337|373:278,1,220,10|10,0:0|0:0,0:0:0:0:
438,194,105395,1,10,0:0:0:0:
395,92,105695,5,10,0:0:0:0:
289,121,105995,1,10,0:0:0:0:
179,109,106295,1,10,0:0:0:0:
87,48,106595,1,10,0:0:0:0:
87,48,106895,2,0,P|79:107|74:191,1,110,10|10,0:0|0:0,0:0:0:0:
79,267,107495,2,0,B|48:273|48:273|25:255,2,55,8|10|8,0:1|0:3|0:0,0:0:0:0:
174,320,108095,6,0,B|255:306|255:306|271:324|321:338,1,110,12|10,0:1|0:0,0:0:0:0:
382,355,108695,2,0,B|415:344|415:344|432:306,1,55,2|8,0:0|0:1,0:0:0:0:
439,272,108995,1,8,0:0:0:0:
376,181,109295,2,0,P|328:187|242:194,1,110,2|10,0:0|0:0,0:0:0:0:
217,212,109745,1,8,0:0:0:0:
217,212,109895,2,0,B|184:201|184:201|167:163,1,55,10|0,0:1|0:0,0:0:0:0:
176,127,110195,1,10,0:0:0:0:
258,54,110495,5,10,0:1:0:0:
367,63,110795,1,10,0:0:0:0:
476,73,111095,2,0,P|471:110|461:233,1,110,2|8,0:0|0:0,0:0:0:0:
424,284,111695,1,8,0:1:0:0:
338,215,111995,2,0,B|309:216|309:216|289:236,1,55,8|8,0:0|0:3,0:0:0:0:
236,244,112295,2,0,L|255:334,1,55,10|8,0:3|0:1,0:0:0:0:
260,351,112595,1,10,0:0:0:0:
150,346,112895,6,0,B|109:369|71:364|71:364|61:349|36:327,2,110,14|10|10,0:0|0:1|0:1,0:0:0:0:
113,241,113795,1,2,0:0:0:0:
151,138,114095,2,0,P|208:144|283:151,1,110,2|8,0:0|0:1,0:0:0:0:
318,140,114545,1,8,0:1:0:0:
318,140,114695,2,0,P|349:134|377:115,1,55,2|0,0:0|0:0,0:0:0:0:
423,128,114995,2,0,P|441:156|438:184,1,55,10|8,0:1|0:1,0:0:0:0:
463,226,115295,6,0,B|448:208|448:208|334:231,2,110,10|10|10,0:3|0:1|0:1,0:0:0:0:
512,326,116195,2,0,P|489:355|464:360,1,55
418,350,116495,2,0,L|307:340,1,110,2|10,0:0|0:1,0:0:0:0:
197,324,117095,1,8,0:0:0:0:
87,308,117395,1,10,0:0:0:0:
103,199,117695,6,0,B|118:113|118:113|142:124,1,110,14|8,0:1|0:0,0:0:0:0:
188,145,118145,1,8,0:1:0:0:
188,145,118295,2,0,B|220:144|220:144|246:121,1,55,8|8,0:1|0:3,0:0:0:0:
268,83,118595,2,0,L|350:96,1,55,10|8,0:0|0:3,0:0:0:0:
376,102,118895,1,10,0:1:0:0:
484,120,119195,2,0,B|499:105|499:105|498:42,2,55,8|8|10,0:0|0:3|0:0,0:0:0:0:
455,168,119645,1,8,0:3:0:0:
455,168,119795,1,8,0:0:0:0:
467,277,120095,6,0,B|409:267|371:318|371:318|349:292|307:290,1,165,10|8,0:0|0:0,0:0:0:0:
294,245,120695,2,0,L|193:261,1,55,10|8,0:1|0:0,0:0:0:0:
185,263,120995,2,0,L|94:277,1,55,8|2,0:1|0:0,0:0:0:0:
76,280,121295,5,10,0:1:0:0:
8,193,121595,1,2,0:0:0:0:
66,99,121895,1,2,0:0:0:0:
171,128,122195,1,10,0:0:0:0:
171,128,122495,6,0,B|215:120|215:120|240:126|240:126|279:118,1,110,14|8,0:1|0:0,0:0:0:0:
345,30,123095,2,0,L|429:57,1,55,8|0,0:1|0:0,0:0:0:0:
449,64,123395,1,10,0:0:0:0:
463,173,123695,1,10,0:1:0:0:
362,218,123995,1,10,0:0:0:0:
379,326,124295,2,0,L|223:299,1,110,10|10,0:1|0:0,0:0:0:0:
175,250,124895,6,0,B|112:246|101:302|101:302|115:318,2,110,10|8|8,0:1|0:0|0:1,0:0:0:0:
268,191,125795,2,0,P|273:155|242:143,1,55,10|0,0:0|0:0,0:0:0:0:
205,147,126095,1,2,0:0:0:0:
260,51,126395,1,10,0:0:0:0:
364,21,126695,1,10,0:3:0:0:
466,61,126995,1,10,0:0:0:0:
512,154,127295,2,0,P|494:271|494:297,1,110,10|8,0:1|0:0,0:0:0:0:
470,370,127895,2,0,B|451:380|451:380|411:343,1,55,8|0,0:0|0:0,0:0:0:0:
395,319,128195,6,0,B|371:306|360:274|360:274|324:312|303:307,1,110,10|2,0:1|0:0,0:0:0:0:
218,348,128795,1,8,0:0:0:0:
146,262,129095,2,0,B|129:270|115:286|115:286|82:265|45:265,1,110,10|8,0:1|0:0,0:0:0:0:
11,161,129695,1,10,0:1:0:0:
59,62,129995,1,10,0:0:0:0:
59,62,130145,2,0,P|127:73|182:81,1,110,2|0,0:0|0:0,0:0:0:0:
215,106,130595,2,0,P|248:91|275:88,1,55,8|0,0:1|0:0,0:0:0:0:
308,51,130895,2,0,P|352:73|358:104,1,55,8|0,0:1|0:0,0:0:0:0:
371,128,131195,1,8,0:0:0:0:
466,181,131495,5,10,0:3:0:0:
381,251,131795,2,0,P|362:295|372:327,1,55,14|0,0:0|0:0,0:0:0:0:
398,342,132095,2,0,B|282:358,2,110,14|10|10,0:1|0:0|0:1,0:0:0:0:
506,321,132995,1,10,0:0:0:0:
481,213,133295,1,10,0:1:0:0:
372,231,133595,1,10,0:0:0:0:
263,250,133895,2,0,B|185:261|185:261|197:212,1,110,10|10,0:1|0:0,0:0:0:0:
82,240,134495,6,0,B|72:242|72:242|126:127,1,110,10|10,0:1|0:0,0:0:0:0:
142,104,134945,1,2,0:0:0:0:
284,20,135395,2,0,P|323:40|333:62,1,55,10|0,0:0|0:0,0:0:0:0:
340,102,135695,2,0,B|373:73|418:85|418:85|427:103|450:124,1,110,10|10,0:1|0:0,0:0:0:0:
406,154,136145,1,2,0:0:0:0:
512,179,136445,2,0,P|480:225|487:251,1,55,2|8,0:0|0:0,0:0:0:0:
459,271,136745,1,2,0:0:0:0:
461,326,136895,6,0,P|383:308|334:313,1,110,14|8,0:0|0:1,0:0:0:0:
254,261,137495,1,8,0:3:0:0:
195,354,137795,2,0,B|122:345|76:335,1,110,10|2,0:0|0:0,0:0:0:0:
51,301,138245,1,8,0:3:0:0:
51,301,138395,2,0,P|44:259|66:228,1,55,8|8,0:1|0:1,0:0:0:0:
103,249,138695,2,0,B|121:246|121:246|143:215,1,55,10|8,0:0|0:3,0:0:0:0:
195,198,138995,2,0,B|203:166|203:166|164:138,1,55,8|8,0:3|0:3,0:0:0:0:
142,118,139295,6,0,B|99:102|99:102|104:56|104:56|81:14,2,110,14|8|10,0:0|0:0|0:0,0:0:0:0:
251,105,140195,1,8,0:0:0:0:
327,26,140495,1,14,0:0:0:0:
436,35,140795,1,10,0:0:0:0:
493,128,141095,1,10,0:0:0:0:
458,232,141395,1,10,0:1:0:0:
352,264,141695,6,0,P|236:240|211:240,1,110,14|10,0:1|0:0,0:0:0:0:
191,251,142145,1,2,0:0:0:0:
256,192,142220,12,10,144095,0:1:0:0:
382,33,151295,6,0,P|329:31|285:87,2,110,14|2|10,0:1|0:0|0:0,0:0:0:0:
329,189,152345,2,0,P|278:171|252:169,1,55,10|0,0:1|0:0,0:0:0:0:
234,203,152645,1,8,0:1:0:0:
234,203,152795,2,0,P|213:221|174:207,1,55,0|10,0:0|0:1,0:0:0:0:
132,211,153095,2,0,L|58:204,2,55,10|10|2,0:0|0:3|0:0,0:0:0:0:
162,107,153695,5,10,0:1:0:0:
162,107,153845,2,0,B|190:112|190:112|211:90,2,55,10|0|8,0:1|0:0|0:1,0:0:0:0:
116,76,154295,2,0,B|100:69|86:50|86:50|35:61|25:107,1,110,10|0,0:0|0:0,0:0:0:0:
23,143,154745,1,10,0:1:0:0:
14,307,155195,2,0,B|13:344|13:344|41:356,1,55,8|2,0:0|0:0,0:0:0:0:
85,345,155495,2,0,P|104:319|147:320,1,55,8|10,0:3|0:1,0:0:0:0:
162,272,155795,2,0,P|205:283|221:309,1,55,10|8,0:0|0:3,0:0:0:0:
226,342,156095,5,14,0:1:0:0:
390,326,156545,2,0,B|427:340|427:340|457:327|503:313,2,110,10|10|10,0:1|0:1|0:1,0:0:0:0:
417,222,157445,2,0,P|397:195|370:184,1,55,10|8,0:1|0:0,0:0:0:0:
323,184,157745,2,0,P|293:190|255:192,1,55,10|8,0:1|0:3,0:0:0:0:
213,187,158045,1,10,0:3:0:0:
170,151,158195,2,0,B|154:123|154:123|170:90,1,55,10|10,0:1|0:3,0:0:0:0:
191,54,158495,6,0,B|257:44|257:44|268:70|299:75,1,110,10|8,0:0|0:1,0:0:0:0:
342,75,158945,6,0,B|419:59|419:59|411:113,1,110,10|8,0:0|0:1,0:0:0:0:
439,139,159395,6,0,B|424:194|466:185|450:244,1,110,10|8,0:0|0:1,0:0:0:0:
422,292,159845,5,10,0:0:0:0:
320,333,160145,2,0,P|295:340|261:360,2,55,8|10|10,0:0|0:1|0:3,0:0:0:0:
327,279,160595,1,10,0:3:0:0:
304,226,160745,1,8,0:3:0:0:
250,214,160895,1,12,0:1:0:0:
165,61,165245,5,10,0:1:0:0:
165,61,165395,2,0,L|175:129,1,55,10|10,0:0|0:3,0:0:0:0:
211,155,165695,6,0,B|244:147|291:143|291:143|299:118|313:102,2,110,12|0|8,0:1|0:0|0:0,0:0:0:0:
74,247,166745,2,0,L|69:319,1,55,8|2,0:0|0:0,0:0:0:0:
40,348,167045,1,8,2:0:0:0:
153,353,167345,1,8,0:1:0:0:
153,353,167495,1,10,0:0:0:0:
262,342,167795,1,0,0:0:0:0:
365,380,168095,6,0,B|354:347|354:347|363:303|351:266,1,110,10|0,0:1|0:0,0:0:0:0:
447,214,168695,2,0,P|400:203|335:182,1,110,8|0,0:0|0:0,0:0:0:0:
301,145,169145,1,8,0:0:0:0:
401,100,169445,1,8,0:0:0:0:
291,47,169745,1,8,0:1:0:0:
291,47,169895,2,0,P|267:60|231:69,1,55,8|8,0:0|0:0,0:0:0:0:
195,99,170195,2,0,P|161:91|124:87,1,55,8|8,0:3|0:3,0:0:0:0:
86,94,170495,5,14,0:1:0:0:
112,200,170795,2,0,P|60:263|29:250,2,110,10|10|8,0:1|0:1|0:1,0:0:0:0:
221,214,171695,2,0,B|231:230|224:261|224:261|263:264|295:285,1,110,8|10,0:1|0:1,0:0:0:0:
392,277,172295,2,0,B|418:243|418:243|411:211,1,55,8|0,0:1|0:0,0:0:0:0:
442,182,172595,2,0,B|439:169|439:169|455:124,1,55,8|0,0:1|0:0,0:0:0:0:
501,100,172895,5,10,0:1:0:0:
442,7,173195,1,10,0:1:0:0:
335,33,173495,1,10,0:1:0:0:
337,142,173795,1,10,0:1:0:0:
241,196,174095,5,10,0:1:0:0:
284,297,174395,1,10,0:1:0:0:
197,364,174695,1,10,0:1:0:0:
98,315,174995,1,10,0:1:0:0:
120,213,175295,6,0,P|107:112|104:97,1,110,14|10,0:0|0:0,0:0:0:0:
202,50,175895,2,0,P|259:91|252:150,1,110,8|12,0:0|0:0,0:0:0:0:
307,226,176495,2,0,B|327:237|327:237|365:216,1,55,12|8,0:0|0:1,0:0:0:0:
410,219,176795,2,0,P|411:194|418:153,1,55,12|8,0:0|0:1,0:0:0:0:
453,124,177095,5,12,0:0:0:0:
371,49,177395,1,12,0:0:0:0:
275,103,177695,1,12,0:3:0:0:
275,103,177845,1,8,0:3:0:0:
275,103,177995,2,0,B|252:111|252:111|213:86,1,55,12|8,0:1|0:0,0:0:0:0:
178,66,178295,2,0,L|112:58,1,55,12|8,0:3|0:3,0:0:0:0:
68,53,178595,1,10,0:0:0:0:
13,47,178745,1,8,0:3:0:0:
256,325,179795,5,14,0:0:0:0:
256,325,180095,6,0,P|300:284|351:274,1,110,12|8,0:0|0:1,0:0:0:0:
383,232,180545,6,0,P|357:177|363:125,1,110,8|8,0:0|0:1,0:0:0:0:
326,87,180995,6,0,P|266:94|219:72,1,110,10|10,0:0|0:1,0:0:0:0:
170,94,181445,6,0,P|158:153|123:191,1,110,12|8,0:0|0:0,0:0:0:0:
129,244,181895,6,0,P|163:263|180:293,1,55,10|8,0:0|0:0,0:0:0:0:
205,318,182195,1,10,0:1:0:0:
274,232,182495,6,0,B|361:220|361:220|339:263,1,110,8|8,0:1|0:0,0:0:0:0:
385,344,183095,2,0,P|415:364|466:336,1,55,8|0,0:1|0:0,0:0:0:0:
484,343,183395,1,10,0:0:0:0:
510,236,183695,1,10,0:1:0:0:
446,146,183995,1,10,0:0:0:0:
336,142,184295,2,0,P|311:145|281:153,1,55,10|0,0:1|0:0,0:0:0:0:
233,178,184595,1,10,0:0:0:0:
137,131,184895,6,0,B|105:102|105:102|139:24,2,110,10|8|8,0:1|0:0|0:1,0:0:0:0:
63,213,185795,2,0,B|71:235|71:235|116:218,1,55,10|0,0:0|0:0,0:0:0:0:
132,268,186095,2,0,L|243:296,1,110,10|8,0:1|0:0,0:0:0:0:
292,309,186545,1,8,0:0:0:0:
292,309,186695,1,10,0:1:0:0:
393,351,186995,2,0,B|404:306|404:306|392:287,1,55,8|0,0:0|0:0,0:0:0:0:
370,252,187295,6,0,B|363:223|363:223|371:200|371:200|359:139,1,110,10|10,0:1|0:0,0:0:0:0:
370,91,187745,2,0,P|333:77|314:80,1,55,2|8,0:0|0:1,0:0:0:0:
262,173,188195,1,8,0:0:0:0:
156,151,188495,2,0,P|121:143|127:126,1,55,8|0,0:1|0:0,0:0:0:0:
124,79,188795,2,0,P|85:93|57:85,1,55,8|0,0:0|0:0,0:0:0:0:
19,74,189095,1,10,0:1:0:0:
45,180,189395,1,10,0:0:0:0:
19,285,189695,6,0,B|45:323|76:353|113:356,2,110,10|10|10,0:0|0:0|0:0,0:0:0:0:
122,247,190595,1,10,0:0:0:0:
229,271,190895,6,0,B|221:295|291:287|294:207,1,110,6|10,0:0|0:0,0:0:0:0:
333,115,191495,2,0,B|342:78|280:56|280:56|273:79|257:80,1,110,10|2,0:0|0:0,0:0:0:0:
222,101,191945,1,8,0:0:0:0:
222,101,192095,2,0,P|155:112|98:125,2,110,10|10|10,0:1|0:0|0:0,0:0:0:0:
290,187,192995,1,10,0:0:0:0:
295,296,193295,6,0,B|329:295|363:317|363:317|389:313|419:323,1,110,14|8,0:0|0:0,0:0:0:0:
486,249,193895,2,0,B|494:247|500:219|464:196,1,55,10|0,0:0|0:0,0:0:0:0:
417,211,194195,1,10,0:0:0:0:
456,108,194495,6,0,B|435:72|386:94|395:131|353:134,2,110,14|8|10,0:1|0:0|0:1,0:0:0:0:
422,3,195395,1,10,0:0:0:0:
325,55,195695,2,0,L|209:35,1,110,10|8,0:1|0:0,0:0:0:0:
108,14,196295,2,0,B|81:32|81:32|97:50,1,55,10|0,0:1|0:0,0:0:0:0:
117,99,196595,1,10,0:0:0:0:
82,203,196895,6,0,P|77:235|65:255,1,55,14|8,0:0|0:0,0:0:0:0:
78,307,197195,2,0,P|113:328|145:317,1,55,8|8,0:0|0:3,0:0:0:0:
178,340,197495,2,0,P|199:311|186:281,1,55,10|8,0:0|0:0,0:0:0:0:
234,255,197795,2,0,P|202:238|195:207,1,55,8|8,0:3|0:0,0:0:0:0:
180,169,198095,1,0,0:0:0:0:
278,121,198395,1,10,0:0:0:0:
365,189,198695,5,10,0:3:0:0:
422,181,198845,1,8,0:0:0:0:
422,181,198995,2,0,B|416:152|416:152|421:141|421:141|416:115,1,55,10|8,0:0|0:3,0:0:0:0:
458,90,199295,6,0,B|462:16|347:13|327:23|327:23|359:52|353:88,1,220,14|10,0:1|0:1,0:0:0:0:
289,155,200195,1,10,0:0:0:0:
193,101,200495,2,0,P|126:92|117:93,1,55,10|0,0:1|0:0,0:0:0:0:
83,94,200795,1,8,0:0:0:0:
52,48,200945,2,0,P|41:96|32:162,1,110,2|2,0:0|0:0,0:0:0:0:
37,265,201545,6,0,B|61:311|76:357|76:357|93:326|130:317,1,165,2|10,0:0|0:0,0:0:0:0:
236,338,202295,1,10,0:1:0:0:
334,288,202595,1,10,0:0:0:0:
354,179,202895,2,0,P|384:186|418:189,2,55,10|8|10,0:1|0:3|0:0,0:0:0:0:
308,147,203345,1,14,0:0:0:0:
397,82,203645,1,14,0:1:0:0:
299,32,203945,6,0,B|266:33|266:33|248:40|248:40|184:51,1,110,14|10,0:1|0:1,0:0:0:0:
142,74,204395,2,0,P|88:61|72:58,1,55,10|2,0:0|0:0,0:0:0:0:
39,35,204695,2,0,P|3:74|10:90,1,55,10|0,0:1|0:0,0:0:0:0:
4,123,204995,1,10,0:0:0:0:
31,234,205295,1,10,0:1:0:0:
31,234,205445,2,0,P|61:201|132:235,1,110,2|2,0:0|0:0,0:0:0:0:
82,372,206195,1,0,0:0:0:0:
191,365,206495,6,0,L|264:356,1,55,14|0,0:1|0:0,0:0:0:0:
300,351,206795,2,0,L|372:341,1,55,10|8,0:0|0:1,0:0:0:0:
409,336,207095,1,10,0:0:0:0:
426,230,207395,5,10,0:3:0:0:
426,230,207545,1,10,0:3:0:0:
331,174,207845,5,8,0:3:0:0:
289,209,207995,2,0,B|269:211|269:211|260:221|259:221|234:224,2,55,10|10|10,0:3|0:3|0:3,0:0:0:0:
318,255,208445,1,10,0:3:0:0:
316,309,208595,1,10,0:3:0:0:
269,338,208745,5,10,0:3:0:0:
