osu file format v14

[General]
AudioFilename: Rou-selfish.mp3
AudioLeadIn: 0
PreviewTime: 44625
Countdown: 0
SampleSet: Normal
StackLeniency: 0.7
Mode: 0
LetterboxInBreaks: 0
WidescreenStoryboard: 0

[Editor]
Bookmarks: 5349,14625,23900,33175,44769,63320,72596,103900,120422
DistanceSpacing: 1
BeatDivisor: 1
GridSize: 4
TimelineZoom: 3.199999

[Metadata]
Title:SELFISH
TitleUnicode:SELFISH
Artist:muzzle-lab
ArtistUnicode:まずらぼ
Creator:Sauziteoi
Version:Normal
Source:
Tags:獣音ロウ kemonone rou ユウマ Yuuma 吟p ぎんP Gin-P clavinord 緑のたぬP Midori no Tanu ロクサメル TRICHROMATIK UTAU獣人 utau juujin furry
BeatmapID:797014
BeatmapSetID:352375

[Difficulty]
HPDrainRate:3
CircleSize:3
OverallDifficulty:4
ApproachRate:5
SliderMultiplier:0.999999999999999
SliderTickRate:1

[Events]
//Background and Video events
0,0,"BG.jpg",0,0
//Break Periods
2,5549,13135
2,120618,140667
//Storyboard Layer 0 (Background)
//Storyboard Layer 1 (Fail)
//Storyboard Layer 2 (Pass)
//Storyboard Layer 3 (Foreground)
//Storyboard Sound Samples

[TimingPoints]
712,289.855072463768,4,2,1,60,1,0
5349,-100,4,1,1,70,0,0
14625,-100,4,1,2,60,0,0
23320,-100,4,1,1,60,0,0
23900,-100,4,1,1,70,0,0
44769,-100,4,1,1,80,0,1
63320,-100,4,1,1,65,0,0
72596,289.855072463768,6,1,1,60,1,0
87088,289.855072463768,4,1,1,70,1,0
95493,-100,6,1,1,60,0,0
96363,289.855072463768,6,1,1,60,1,0
96363,-100,6,1,1,60,0,0
103899,289.855072463768,4,1,3,60,1,0
107956,289.855072463768,4,1,3,60,1,0
112303,289.855072463768,4,1,3,60,1,0
113172,289.855072463768,4,1,3,60,1,0
116071,289.855072463768,4,1,3,60,1,0
120128,-100,6,1,1,60,0,0
120418,289.855072463768,4,1,1,60,1,0
141867,289.855072463768,4,2,0,60,1,0
148823,-100,6,1,1,50,0,0
151142,-100,6,1,1,60,0,0
151867,-100,6,1,1,70,0,0
153461,-100,6,1,1,80,0,0
158098,-100,6,1,1,80,0,1
172011,-100,6,1,1,70,0,0
181287,289.855072463768,6,1,3,60,1,0
181287,-100,6,1,3,60,0,0

[Colours]
Combo1 : 255,110,110
Combo2 : 20,76,125
Combo3 : 0,28,220
Combo4 : 0,192,254
Combo5 : 254,130,170

[HitObjects]
218,290,712,6,0,B|270:308|270:308|382:289,2,150,2|2|2,0:0|0:0|0:0,0:0:0:0:
84,221,2016,2,0,B|102:172|102:172|86:61,1,150,2|2,0:0|0:0,0:0:0:0:
176,28,2740,1,2,0:0:0:0:
229,112,3030,6,0,P|286:138|370:89,1,150,2|2,0:0|0:0,0:0:0:0:
416,19,3755,1,0,0:0:0:0:
475,99,4045,2,0,P|475:164|439:260,1,150,2|2,0:0|0:0,0:0:0:0:
352,273,4769,2,0,P|303:251|237:262,1,99.9999999999999,2|8,0:0|0:0,0:0:0:0:
164,292,5349,5,2,0:0:0:0:
54,125,14335,5,8,0:0:0:0:
130,189,14625,2,0,P|170:207|237:191,1,99.9999999999999,2|8,0:0|0:0,0:0:0:0:
303,137,15204,2,0,L|420:122,1,99.9999999999999,2|8,0:0|0:0,0:0:0:0:
450,136,15639,2,0,P|474:248|366:331,1,250,0|2,0:0|0:0,0:0:0:0:
280,324,16654,1,8,0:0:0:0:
181,310,16943,6,0,B|95:289|95:289|58:265|49:225|69:175,1,200,2|2,0:0|0:0,0:0:0:0:
104,99,17813,1,8,0:0:0:0:
196,61,18103,2,0,L|308:55,1,99.9999999999999,2|8,0:0|0:0,0:0:0:0:
388,93,18683,2,0,P|411:137|391:202,1,99.9999999999999,2|8,0:0|0:0,0:0:0:0:
314,213,19262,6,0,P|249:176|147:242,1,200,2|2,0:0|0:0,0:0:0:0:
118,329,20132,2,0,L|226:333,1,99.9999999999999,8|0,0:0|0:0,0:0:0:0:
314,307,20711,2,0,P|368:295|415:319,2,99.9999999999999,8|2|8,0:0|0:0|0:0,0:0:0:0:
237,242,21581,6,0,P|194:186|237:73,1,200,2|2,0:0|0:0,0:0:0:0:
334,60,22451,2,0,B|404:88|404:88|427:131|427:172|392:209,1,200,8|8,0:0|0:0,0:0:0:0:
322,271,23320,1,0,0:0:0:0:
230,310,23610,6,0,P|193:299|114:306,1,99.9999999999999,0|8,0:0|0:2,0:0:0:0:
36,332,24190,1,8,0:0:0:0:
58,234,24480,2,0,P|119:215|187:159,2,150,2|0|8,0:0|0:0|0:0,0:0:0:0:
46,134,25639,2,0,P|52:76|75:26,1,99.9999999999999,2|8,0:0|0:0,0:0:0:0:
159,78,26219,6,0,P|202:81|261:60,1,99.9999999999999,2|8,0:0|0:0,0:0:0:0:
347,24,26798,2,0,L|508:34,2,150,2|2|8,0:0|0:0|0:0,0:0:0:0:
380,118,27958,2,0,P|398:176|395:233,1,99.9999999999999,2|8,0:0|0:0,0:0:0:0:
403,315,28538,6,0,P|358:330|287:314,1,99.9999999999999,2|8,0:0|0:0,0:0:0:0:
210,296,29117,2,0,B|156:286|156:286|104:299,1,99.9999999999999,2|8,0:0|0:0,0:0:0:0:
66,317,29552,2,0,P|37:254|77:173,1,150,0|8,0:0|0:0,0:0:0:0:
152,133,30277,2,0,B|201:141|201:141|250:122,1,99.9999999999999,2|8,0:0|0:0,0:0:0:0:
279,27,30856,6,0,P|329:61|344:157,1,150,2|0,0:0|0:0,0:0:0:0:
322,241,31581,1,0,0:0:0:0:
247,305,31871,2,0,B|192:321|192:321|88:312,1,150,0|4,0:0|0:3,0:0:0:0:
47,226,32596,6,0,L|57:154,1,50
92,145,32885,2,0,L|102:73,1,50
133,59,33175,2,0,P|178:51|250:46,1,99.9999999999999,8|0,0:2|0:0,0:0:0:0:
325,84,33755,2,0,P|372:77|428:54,1,99.9999999999999,8|0,0:0|0:0,0:0:0:0:
447,15,34190,2,0,B|465:58|454:92|416:124|416:124|422:143|422:143|389:171|383:204|408:249,1,250,0|8,0:0|0:0,0:0:0:0:
487,291,35204,1,0,0:0:0:0:
400,341,35494,6,0,L|188:328,1,200,2|8,0:0|0:0,0:0:0:0:
68,255,36509,2,0,B|115:223|115:223|223:233|223:233,1,150
306,216,37233,2,0,P|339:174|334:113,1,99.9999999999999,8|0,0:0|0:0,0:0:0:0:
265,61,37813,6,0,P|218:43|158:39,1,99.9999999999999,2|0,0:0|0:0,0:0:0:0:
101,112,38393,2,0,P|114:162|88:201,1,99.9999999999999,8|0,0:0|0:0,0:0:0:0:
57,238,38827,2,0,B|77:298|77:298|106:324|199:341|260:270,1,250,0|8,0:0|0:0,0:0:0:0:
303,197,39842,1,8,0:3:0:0:
360,114,40132,6,0,P|407:140|461:123,1,99.9999999999999,2|0,0:0|0:0,0:0:0:0:
470,233,40711,2,0,L|362:226,1,99.9999999999999,8|0,0:0|0:0,0:0:0:0:
319,224,41146,2,0,P|288:251|250:362,1,150
152,324,41871,1,8,0:0:0:0:
164,224,42161,1,0,0:0:0:0:
181,125,42451,6,0,L|195:23,1,99.9999999999999,8|8,0:0|0:0,0:0:0:0:
294,32,43030,2,0,L|274:188,2,150,8|0|4,0:0|0:0|0:3,0:0:0:0:
247,304,44769,6,0,L|141:319,1,99.9999999999999,8|0,0:2|0:0,0:0:0:0:
98,324,45204,2,0,B|74:281|74:281|86:205,1,99.9999999999999
99,183,45639,2,0,L|220:169,1,99.9999999999999
245,190,46074,2,0,P|311:190|375:111,1,150,2|2,0:0|0:0,0:0:0:0:
410,45,46798,1,8,0:0:0:0:
462,130,47088,6,0,L|457:281,1,150,2|0,0:0|0:0,0:0:0:0:
369,328,47813,1,0,0:0:0:0:
304,251,48103,2,0,P|249:221|173:271,1,150,0|8,0:0|0:0,0:0:0:0:
103,326,48827,2,0,L|81:224,1,99.9999999999999,2|8,0:0|0:0,0:0:0:0:
63,129,49407,6,0,P|102:89|203:93,1,150,2|0,0:0|0:0,0:0:0:0:
283,126,50132,1,0,0:0:0:0:
329,37,50422,1,0,0:0:0:0:
383,120,50711,2,0,B|406:167|406:167|402:286,1,150,0|2,0:0|0:0,0:0:0:0:
322,324,51436,1,8,0:0:0:0:
222,319,51726,6,0,P|172:315|65:278,1,150,2|0,0:0|0:0,0:0:0:0:
27,197,52451,1,0,0:0:0:0:
56,101,52740,2,0,B|132:88|132:88|219:103,1,150,0|8,0:0|0:0,0:0:0:0:
302,116,53465,2,0,L|412:94,1,99.9999999999999,0|8,0:0|0:2,0:0:0:0:
453,181,54045,6,0,B|454:244|454:244|423:329,2,150,2|0|8,0:0|0:0|0:0,0:0:0:0:
365,229,55204,2,0,B|267:263|267:263|160:236,1,200,2|2,0:0|0:0,0:0:0:0:
77,211,56074,1,8,0:0:0:0:
161,156,56364,6,0,P|217:131|280:60,1,150,2|0,0:0|0:0,0:0:0:0:
367,25,57088,1,0,0:0:0:0:
437,96,57378,2,0,B|485:155|485:155|444:228,1,150,0|8,0:0|0:0,0:0:0:0:
365,268,58103,2,0,B|310:268|310:268|263:300,1,99.9999999999999,2|8,0:0|0:0,0:0:0:0:
194,356,58683,6,0,P|171:303|184:254,1,99.9999999999999,8|8,0:0|0:0,0:0:0:0:
77,256,59262,2,0,P|100:203|87:154,1,99.9999999999999,8|8,0:0|0:0,0:0:0:0:
192,160,59842,2,0,P|169:107|182:58,1,99.9999999999999,8|8,0:0|0:0,0:0:0:0:
270,30,60422,2,0,L|376:38,1,99.9999999999999,8|8,0:0|0:0,0:0:0:0:
451,95,61001,5,10,0:0:0:0:
471,192,61291,1,8,0:0:0:0:
377,156,61581,2,0,L|265:145,1,99.9999999999999,10|8,0:0|0:0,0:0:0:0:
192,199,62161,5,8,0:3:0:0:
172,296,62451,1,8,0:3:0:0:
266,260,62740,2,0,L|378:249,1,99.9999999999999,8|8,0:3|0:3,0:0:0:0:
458,286,63320,5,2,0:3:0:0:
465,186,63610,2,0,L|473:70,1,99.9999999999999,8|2,0:2|0:0,0:0:0:0:
379,47,64190,1,8,0:0:0:0:
296,103,64480,6,0,P|227:114|128:23,2,200,2|2|2,0:0|0:0|0:0,0:0:0:0:
391,131,65929,1,8,0:0:0:0:
460,203,66219,2,0,B|452:254|452:254|471:314,1,99.9999999999999,2|8,0:0|0:0,0:0:0:0:
366,291,66798,6,0,B|236:269|236:269|158:295,2,200,2|2|2,0:0|3:0|0:0,0:0:0:0:
338,194,68248,1,8,0:0:0:0:
257,133,68538,2,0,P|246:95|265:32,1,99.9999999999999,2|8,0:0|0:0,0:0:0:0:
343,91,69117,6,0,P|411:122|423:248,2,200,2|2|2,0:0|0:0|0:0,0:0:0:0:
256,147,70567,1,8,0:0:0:0:
167,192,70856,2,0,P|133:191|67:168,1,99.9999999999999,2|8,0:0|0:0,0:0:0:0:
22,154,71291,6,0,L|127:288,1,150,2|8,0:0|0:0,0:0:0:0:
200,324,72016,2,0,L|306:318,1,99.9999999999999,8|8,0:2|0:0,0:0:0:0:
390,275,72596,5,0,0:0:0:0:
241,149,73175,2,0,P|202:178|107:156,2,150,8|0|8,0:0|0:0|0:0,0:0:0:0:
303,70,74335,5,0,0:0:0:0:
425,227,74914,2,0,B|416:286|416:286|343:344,2,150,8|0|8,0:0|0:0|0:0,0:0:0:0:
436,127,76074,5,0,0:0:0:0:
293,267,76653,2,0,L|130:282,2,150,8|0|8,0:0|0:0|0:0,0:0:0:0:
320,170,77813,5,0,0:0:0:0:
152,59,78393,2,0,P|118:104|146:206,2,150,8|0|8,0:0|0:0|0:0,0:0:0:0:
250,38,79552,6,0,L|356:49,1,99.9999999999999,4|0,0:2|0:0,0:0:0:0:
432,105,80132,2,0,B|453:159|453:159|441:198|407:212|375:203,2,150,8|0|8,0:0|0:0|0:0,0:0:0:0:
349,48,81291,6,0,P|301:66|244:49,1,99.9999999999999
155,69,81871,2,0,B|135:128|135:128|175:218,2,150,8|0|8,0:0|0:0|0:0,0:0:0:0:
231,133,83030,6,0,L|282:238,1,99.9999999999999
346,293,83610,2,0,B|403:302|403:302|502:269,2,150,8|0|0,0:0|0:0|0:0,0:0:0:0:
274,222,84769,6,0,P|209:221|124:280,1,150
64,331,85494,1,0,0:0:0:0:
46,232,85784,2,0,B|70:189|70:189|60:122,1,99.9999999999999
41,40,86364,1,0,0:0:0:0:
131,81,86653,2,0,P|178:87|225:57,1,99.9999999999999
264,34,87088,6,0,L|373:57,1,99.9999999999999,8|8,0:2|0:0,0:0:0:0:
455,89,87667,1,0,0:0:0:0:
376,150,87957,2,0,P|324:146|264:163,2,99.9999999999999,8|0|8,0:0|0:0|0:0,0:0:0:0:
451,216,88827,1,0,0:0:0:0:
356,249,89116,5,8,0:0:0:0:
266,294,89406,2,0,P|230:337|218:393,1,99.9999999999999,0|8,0:0|0:0,0:0:0:0:
150,300,89986,2,0,L|145:185,1,99.9999999999999,0|8,0:0|0:0,0:0:0:0:
67,136,90566,6,0,P|99:108|173:104,1,99.9999999999999,0|8,0:0|0:0,0:0:0:0:
247,145,91145,2,0,P|297:153|351:133,1,99.9999999999999,0|8,0:0|0:0,0:0:0:0:
430,89,91725,6,0,L|425:209,1,99.9999999999999,2|8,0:0|0:0,0:0:0:0:
417,288,92305,1,2,0:0:0:0:
320,312,92595,1,8,0:0:0:0:
222,336,92885,6,0,L|114:318,1,99.9999999999999,2|8,0:0|0:0,0:0:0:0:
75,231,93464,1,2,0:0:0:0:
256,192,93899,12,0,95203,0:0:0:0:
337,133,96363,6,0,L|459:128,1,99.9999999999999,4|0,0:3|0:0,0:0:0:0:
472,222,96943,2,0,L|304:228,1,150,8|0,0:0|0:0,0:0:0:0:
240,168,97667,1,0,0:0:0:0:
184,251,97957,6,0,P|149:212|159:111,1,150
231,59,98682,2,0,L|397:75,1,150,8|0,0:0|0:0,0:0:0:0:
470,116,99406,1,0,0:0:0:0:
485,214,99696,6,0,P|464:260|354:282,1,150,0|0,0:0|0:0,0:0:0:0:
280,256,100421,1,8,0:0:0:0:
181,236,100711,2,0,L|13:256,1,150,0|0,0:0|0:0,0:0:0:0:
77,164,101435,6,0,P|107:118|195:75,1,150,0|8,0:0|0:0,0:0:0:0:
290,79,102160,2,0,L|446:97,1,150,8|0,0:0|0:0,0:0:0:0:
481,187,102885,1,8,0:0:0:0:
420,266,103174,2,0,P|375:304|270:283,1,150,8|0,0:0|0:0,0:0:0:0:
207,236,103899,5,0,0:0:0:0:
137,164,104188,2,0,L|147:55,2,99.9999999999999,0|0|0,0:0|0:0|0:0,0:0:0:0:
81,247,105058,1,0,0:0:0:0:
155,313,105348,2,0,L|260:304,2,99.9999999999999,0|0|0,0:0|0:0|0:0,0:0:0:0:
196,222,106217,5,0,0:0:0:0:
111,168,106507,2,0,P|95:138|113:66,1,99.9999999999999
152,56,106942,2,0,L|254:37,1,99.9999999999999
339,94,107522,2,0,L|441:75,1,99.9999999999999
479,102,107956,2,0,B|495:149|495:149|474:214,1,99.9999999999999,2|0,0:0|0:0,0:0:0:0:
419,276,108535,6,0,L|303:272,1,99.9999999999999
225,258,109115,1,0,0:0:0:0:
141,313,109405,2,0,L|125:201,1,99.9999999999999
116,114,109984,1,0,0:0:0:0:
187,43,110274,5,0,0:0:0:0:
282,73,110564,2,0,B|330:88|330:88|391:68,1,99.9999999999999
424,54,110999,2,0,P|458:78|466:148,1,99.9999999999999,0|2,0:0|0:0,0:0:0:0:
444,229,111579,2,0,B|412:268|412:268|339:260,1,99.9999999999999,2|0,0:0|0:0,0:0:0:0:
313,256,112013,1,0,0:0:0:0:
214,238,112303,6,0,L|95:220,1,99.9999999999999,8|0,0:0|0:0,0:0:0:0:
87,126,112882,1,8,0:0:0:0:
187,104,113172,2,0,L|305:118,2,99.9999999999999
113,35,114042,1,0,0:0:0:0:
47,110,114331,6,0,L|52:218,1,99.9999999999999,8|0,0:0|0:0,0:0:0:0:
63,258,114766,2,0,B|99:284|99:284|171:268,1,99.9999999999999
253,245,115345,1,0,0:0:0:0:
332,305,115635,2,0,B|379:309|379:309|423:279,1,99.9999999999999
440,232,116071,6,0,L|447:117,1,99.9999999999999,8|8,0:0|0:0,0:0:0:0:
357,85,116650,2,0,L|350:200,1,99.9999999999999,8|8,0:0|0:0,0:0:0:0:
268,241,117230,6,0,L|152:224,1,99.9999999999999,8|8,0:0|0:0,0:0:0:0:
153,127,117810,2,0,L|251:141,1,99.9999999999999,8|8,0:0|0:0,0:0:0:0:
345,177,118389,5,8,0:0:0:0:
416,247,118679,2,0,P|439:204|415:105,1,150,8|2,0:0|0:0,0:0:0:0:
342,43,119404,5,2,0:0:0:0:
252,87,119694,1,2,0:0:0:0:
161,130,119984,2,0,B|117:147|117:147|90:122|76:77|91:42,1,150,0|4,0:0|0:3,0:0:0:0:
255,100,141867,5,4,0:0:0:0:
388,248,142446,2,0,B|337:278|337:278|132:284,2,250,0|0|0,0:0|0:0|0:0,0:0:0:0:
418,50,144475,2,0,P|316:32|244:106,2,200,0|0|0,0:0|0:0|0:0,0:0:0:0:
346,120,145924,2,0,P|337:168|355:214,1,99.9999999999999,0|0,0:0|0:0,0:0:0:0:
452,242,146504,6,0,L|252:195,1,200,4|0,0:0|0:0,0:0:0:0:
228,343,147519,2,0,P|159:314|113:241,2,150
249,195,148823,6,0,L|239:34,1,150
441,38,149838,2,0,P|477:79|457:172,1,150,2|8,0:0|0:0,0:0:0:0:
341,320,150852,1,8,0:0:0:0:
252,273,151142,6,0,L|83:262,1,150,0|8,0:0|0:0,0:0:0:0:
44,181,151867,1,0,0:0:0:0:
106,103,152156,2,0,P|176:131|244:95,1,150,2|8,0:0|0:0,0:0:0:0:
305,25,152881,1,0,0:0:0:0:
374,96,153171,1,8,0:2:0:0:
409,189,153461,6,0,P|403:254|401:305,1,99.9999999999999,2|0,0:0|0:0,0:0:0:0:
366,325,153895,2,0,P|332:297|274:293,1,99.9999999999999,2|0,0:0|0:0,0:0:0:0:
227,293,154330,2,0,L|118:287,1,99.9999999999999,2|0,0:0|0:0,0:0:0:0:
95,253,154765,2,0,B|65:179|65:179|92:93,1,150,2|2,0:0|0:0,0:0:0:0:
137,25,155490,1,8,0:0:0:0:
229,64,155780,6,0,L|382:51,1,150,0|0,0:0|0:0,0:0:0:0:
462,106,156504,1,8,0:0:0:0:
473,205,156794,2,0,P|452:270|378:319,1,150,8|8,0:0|0:0,0:0:0:0:
287,324,157519,1,0,0:0:0:0:
187,315,157809,2,0,L|83:320,1,99.9999999999999,0|8,0:0|0:2,0:0:0:0:
49,227,158388,6,0,P|39:177|112:103,1,150,8|0,0:0|0:0,0:0:0:0:
196,125,159113,1,0,0:0:0:0:
254,43,159403,2,0,L|408:53,1,150,0|2,0:0|0:0,0:0:0:0:
477,120,160127,1,8,0:0:0:0:
425,205,160417,6,0,P|383:218|285:156,1,150,2|0,0:0|0:0,0:0:0:0:
200,133,161142,1,0,0:0:0:0:
148,218,161432,2,0,P|189:296|249:349,1,150,0|8,0:0|0:0,0:0:0:0:
332,331,162156,2,0,P|372:312|435:333,1,99.9999999999999,2|8,0:0|0:0,0:0:0:0:
461,231,162736,6,0,P|431:179|424:132,1,99.9999999999999,2|8,0:0|0:0,0:0:0:0:
404,93,163171,2,0,L|301:80,1,99.9999999999999
254,73,163606,2,0,P|202:78|150:116,1,99.9999999999999,8|0,0:0|0:0,0:0:0:0:
132,143,164040,2,0,B|127:213|127:213|132:244|146:272|189:283,1,150,0|2,0:0|0:0,0:0:0:0:
265,306,164765,1,8,0:0:0:0:
359,274,165055,6,0,B|406:228|418:180|418:180|396:133,1,150,2|0,0:0|0:0,0:0:0:0:
354,57,165780,1,0,0:0:0:0:
278,122,166069,2,0,P|240:140|128:97,1,150,0|8,0:0|0:0,0:0:0:0:
62,48,166794,2,0,L|52:163,1,99.9999999999999,2|8,0:0|0:0,0:0:0:0:
56,247,167374,6,0,B|110:260|110:260|148:293,1,99.9999999999999,2|8,0:0|0:0,0:0:0:0:
215,358,167953,2,0,B|248:328|248:328|302:315,1,99.9999999999999,2|8,0:0|0:0,0:0:0:0:
400,295,168533,2,0,B|423:245|423:245|408:186,1,99.9999999999999,2|8,0:0|0:0,0:0:0:0:
493,142,169113,2,0,B|448:116|448:116|435:66,1,99.9999999999999,2|8,0:0|0:0,0:0:0:0:
337,49,169693,6,0,P|284:43|234:70,1,99.9999999999999,2|8,0:0|0:0,0:0:0:0:
206,155,170272,2,0,P|259:149|309:176,1,99.9999999999999,2|8,0:0|0:0,0:0:0:0:
328,264,170852,2,0,L|312:379,1,99.9999999999999,8|8,0:0|0:0,0:0:0:0:
213,363,171432,2,0,L|199:263,1,99.9999999999999,8|0,0:0|0:0,0:0:0:0:
108,219,172011,5,2,0:0:0:0:
54,133,172301,2,0,B|127:130|127:130|182:151|182:151|260:148,2,200,8|8|8,0:2|0:0|0:0,0:0:0:0:
96,42,173751,2,0,P|148:38|204:74,1,99.9999999999999,0|8,0:0|0:0,0:0:0:0:
289,66,174330,6,0,L|387:50,1,99.9999999999999,0|8,0:0|0:0,0:0:0:0:
462,107,174910,2,0,B|486:179|486:179|461:260,2,150,0|0|8,0:0|0:0|0:0,0:0:0:0:
393,180,176069,2,0,P|366:202|293:222,1,99.9999999999999,0|0,3:0|3:0,0:0:0:0:
204,230,176649,5,0,0:0:0:0:
107,203,176939,1,8,0:0:0:0:
21,151,177229,2,0,B|59:83|59:83|19:16,2,150,0|0|8,0:0|0:0|0:0,0:0:0:0:
26,250,178388,2,0,P|62:283|134:292,1,99.9999999999999,0|8,0:0|0:0,0:0:0:0:
210,290,178968,6,0,B|257:269|257:269|306:292,1,99.9999999999999,0|8,0:0|0:0,0:0:0:0:
392,329,179548,2,0,P|428:299|433:199,2,150,0|0|8,0:0|0:0|0:0,0:0:0:0:
300,289,180707,2,0,L|303:180,1,99.9999999999999,8|0,0:2|0:0,0:0:0:0:
227,122,181287,6,0,P|194:155|50:129,1,200,0|2,0:0|0:2,0:0:0:0:
122,61,182156,2,0,B|143:113|143:113|126:266,1,200,0|2,0:0|0:2,0:0:0:0:
45,314,183026,6,0,P|98:350|219:284,1,200,0|2,0:0|0:2,0:0:0:0:
238,203,183895,2,0,B|254:93|254:93|344:47,1,200,0|6,0:0|0:2,0:0:0:0:
412,114,184765,6,0,L|426:218,2,99.9999999999999,0|0|2,0:0|0:0|0:2,0:0:0:0:
330,171,185634,2,0,B|337:228|337:228|365:278,2,99.9999999999999,0|0|2,0:0|0:0|0:2,0:0:0:0:
231,188,186504,6,0,B|186:209|186:209|133:197,1,99.9999999999999,0|0,0:0|0:0,0:0:0:0:
45,156,187084,1,2,0:2:0:0:
104,73,187373,2,0,B|152:60|152:60|210:74,1,99.9999999999999,0|4,0:0|0:2,0:0:0:0:
294,109,187953,6,0,B|341:118|341:118|404:109,1,99.9999999999999,4|0,0:2|0:0,0:0:0:0:
488,82,188533,1,0,0:0:0:0:
492,181,188823,2,0,P|472:246|336:268,1,200,2|0,0:2|0:0,0:0:0:0:
259,248,189692,1,2,0:2:0:0:
162,224,189982,6,0,B|164:278|164:278|197:322,2,99.9999999999999,0|0|2,0:0|0:0|0:2,0:0:0:0:
101,143,190852,1,0,0:0:0:0:
175,76,191142,2,0,B|225:62|225:62|286:78,1,99.9999999999999,0|6,0:0|0:2,0:0:0:0:
367,103,191721,6,0,L|471:94,2,99.9999999999999,0|0|2,0:0|0:0|0:2,0:0:0:0:
362,203,192591,2,0,L|482:222,2,99.9999999999999,0|0|2,0:0|0:0|0:2,0:0:0:0:
342,301,193460,6,0,L|455:345,2,99.9999999999999,0|0|2,0:0|0:0|0:2,0:0:0:0:
246,269,194330,2,0,B|153:240|153:240|86:260,1,150,0|0,0:0|0:0,0:0:0:0:
90,155,195055,1,0,0:0:0:0:
