osu file format v14

[General]
AudioFilename: Rou-selfish.mp3
AudioLeadIn: 0
PreviewTime: 44625
Countdown: 0
SampleSet: Normal
StackLeniency: 0.7
Mode: 0
LetterboxInBreaks: 0
WidescreenStoryboard: 0

[Editor]
Bookmarks: 4769,9407,44190,67378,120422,176074
DistanceSpacing: 1.4
BeatDivisor: 6
GridSize: 4
TimelineZoom: 3.399999

[Metadata]
Title:SELFISH
TitleUnicode:SELFISH
Artist:muzzle-lab
ArtistUnicode:まずらぼ
Creator:Sauziteoi
Version:Insane
Source:
Tags:獣音ロウ kemonone rou ユウマ Yuuma 吟p ぎんP Gin-P clavinord 緑のたぬP Midori no Tanu ロクサメル TRICHROMATIK UTAU獣人 utau juujin furry
BeatmapID:825256
BeatmapSetID:352375

[Difficulty]
HPDrainRate:5
CircleSize:4
OverallDifficulty:7
ApproachRate:9
SliderMultiplier:1.6
SliderTickRate:1

[Events]
//Background and Video events
0,0,"BG.jpg",0,0
//Break Periods
2,120618,141267
//Storyboard Layer 0 (Background)
//Storyboard Layer 1 (Fail)
//Storyboard Layer 2 (Pass)
//Storyboard Layer 3 (Foreground)
//Storyboard Sound Samples

[TimingPoints]
712,289.855072463768,4,2,1,60,1,0
712,-133.333333333333,4,2,1,60,0,0
5349,-100,4,1,1,70,0,0
14625,-100,4,1,2,60,0,0
23320,-100,4,1,1,60,0,0
23900,-100,4,1,1,70,0,0
33175,-133.333333333333,4,1,1,70,0,0
44769,-100,4,1,1,80,0,1
63320,-100,4,1,1,65,0,0
72596,289.855072463768,6,1,1,60,1,0
72596,-133.333333333333,6,1,1,60,0,0
87088,289.855072463768,4,1,1,70,1,0
87088,-100,6,1,1,70,0,0
95493,-100,6,1,1,60,0,0
96073,-200,6,1,1,60,0,0
96363,289.855072463768,6,1,1,60,1,0
96363,-133.333333333333,6,1,1,60,0,0
103899,289.855072463768,4,1,3,60,1,0
103899,-117.647058823529,6,1,3,60,0,0
107956,289.855072463768,4,1,3,60,1,0
107956,-117.647058823529,4,1,3,60,0,0
112303,289.855072463768,4,1,3,60,1,0
113172,289.855072463768,4,1,3,60,1,0
116071,289.855072463768,4,1,3,60,1,0
120128,-100,6,1,1,60,0,0
120418,289.855072463768,4,1,1,60,1,0
141867,289.855072463768,4,2,0,60,1,0
141867,-285.714285714286,6,2,0,60,0,0
148823,-200,6,1,1,50,0,0
151142,-133.333333333333,6,1,1,60,0,0
151577,-100,6,1,1,70,0,0
153461,-100,6,1,1,80,0,0
158098,-100,6,1,1,80,0,1
172011,-100,6,1,1,70,0,0
181287,289.855072463768,4,1,3,60,1,0
181287,-133.333333333333,6,1,3,60,0,0

[Colours]
Combo1 : 255,110,110
Combo2 : 20,76,125
Combo3 : 0,28,220
Combo4 : 0,192,254
Combo5 : 254,130,170

[HitObjects]
262,74,712,6,0,L|346:68,1,60.0000022888184,2|0,0:0|0:0,0:0:0:0:
207,143,1001,1,0,0:0:0:0:
207,143,1146,2,0,L|147:147,1,60.0000022888184,2|0,0:0|0:0,0:0:0:0:
281,195,1436,1,0,0:0:0:0:
281,195,1581,2,0,L|340:190,1,60.0000022888184,2|0,0:0|0:0,0:0:0:0:
225,271,1871,5,0,0:0:0:0:
225,271,2016,2,0,P|194:253|105:288,1,120.000004577637,2|0,0:0|0:0,0:0:0:0:
116,272,2451,1,2,0:0:0:0:
171,331,2740,1,2,0:0:0:0:
300,286,2885,1,0,0:0:0:0:
423,325,3030,1,2,0:0:0:0:
379,254,3320,5,0,0:0:0:0:
379,254,3465,2,0,P|359:215|377:133,1,120.000004577637,2|0,0:0|0:0,0:0:0:0:
341,337,4045,2,0,L|202:336,1,120.000004577637,2|0,0:0|0:0,0:0:0:0:
137,295,4480,2,0,P|129:331|135:368,1,60.0000022888184,2|0,0:0|0:0,0:0:0:0:
223,263,4769,2,0,L|213:227,3,30.0000011444092,2|0|2|0,0:0|0:0|0:0|0:0,0:0:0:0:
211,202,5059,2,0,L|221:166,3,30.0000011444092,8|0|2|0,0:0|0:0|0:0|0:0,0:0:0:0:
207,142,5349,6,0,L|97:135,1,80,2|0,0:0|0:0,0:0:0:0:
322,184,5639,2,0,L|401:178,1,80,8|0,0:0|0:0,0:0:0:0:
283,259,5929,1,2,0:0:0:0:
282,116,6074,1,0,0:0:0:0:
364,258,6219,1,8,0:0:0:0:
240,189,6364,6,0,B|209:178|193:177|167:192|167:192|161:183|161:183|133:198|112:201|86:186,1,160
37,129,6798,2,0,P|82:110|144:127,1,80,8|0,0:0|0:0,0:0:0:0:
208,262,7088,1,2,0:0:0:0:
264,131,7233,1,0,0:0:0:0:
264,131,7306,1,0,0:0:0:0:
264,131,7378,1,8,0:0:0:0:
171,166,7523,1,0,0:0:0:0:
299,227,7668,6,0,B|339:233|339:233|387:225,1,80,2|0,0:0|0:0,0:0:0:0:
208,262,7958,2,0,B|168:256|168:256|120:264,1,80,8|0,0:0|0:0,0:0:0:0:
257,326,8248,1,2,0:0:0:0:
226,187,8393,2,0,L|223:87,1,80,0|8,0:0|0:0,0:0:0:0:
443,254,8683,6,0,B|420:245|402:240|370:251|370:251|359:246|359:246|330:264|308:264|279:248,1,160
289,253,9045,1,0,0:0:0:0:
289,253,9117,1,8,0:0:0:0:
405,328,9262,1,0,0:0:0:0:
446,173,9407,2,0,L|454:131,3,40,0|0|0|0,3:0|3:0|3:0|3:0,0:0:0:0:
455,104,9697,2,0,L|447:62,3,40,0|0|0|0,3:0|3:0|3:0|3:0,0:0:0:0:
415,56,9987,6,0,L|318:71,1,80,2|0,0:0|0:0,0:0:0:0:
214,127,10277,2,0,P|200:80|224:21,1,80,8|0,0:2|0:0,0:0:0:0:
288,159,10567,1,2,0:0:0:0:
183,207,10711,1,0,0:0:0:0:
260,237,10856,1,8,0:0:0:0:
214,127,11001,6,0,B|185:118|155:121|130:139|130:139|124:129|124:129|92:147|65:144|43:122,1,160
66,137,11364,1,0,0:0:0:0:
66,137,11436,1,8,0:0:0:0:
36,220,11581,1,0,0:0:0:0:
105,346,11726,2,0,P|119:296|101:249,1,80,2|0,0:0|0:0,0:0:0:0:
113,269,11943,1,0,0:0:0:0:
113,269,12016,1,8,0:0:0:0:
29,300,12161,1,0,0:0:0:0:
196,311,12306,6,0,L|284:301,1,80,2|0,0:0|0:0,0:0:0:0:
339,200,12596,2,0,L|251:210,1,80,8|0,0:0|0:0,0:0:0:0:
383,268,12885,1,2,0:0:0:0:
494,183,13030,1,0,0:0:0:0:
466,261,13175,1,8,0:0:0:0:
339,200,13320,6,0,B|318:190|290:185|261:191|261:191|255:177|255:177|230:180|207:174|194:153,1,160
107,245,13755,2,0,P|155:252|195:232,1,80,8|0,0:0|0:0,0:0:0:0:
82,169,14045,1,2,0:0:0:0:
42,302,14190,1,0,0:0:0:0:
19,222,14335,2,0,P|0:164|20:117,1,80,8|0,0:0|0:0,0:0:0:0:
47,87,14625,6,0,B|128:97|128:97|225:75,1,160,2|8,0:0|0:0,0:0:0:0:
385,236,15204,2,0,B|304:226|304:226|207:248,1,160,2|8,0:0|0:0,0:0:0:0:
183,320,15639,6,0,P|148:281|173:173,1,160
228,118,16074,1,8,0:0:0:0:
312,142,16219,1,2,0:0:0:0:
210,38,16364,1,2,0:0:0:0:
66,201,16654,2,0,P|56:255|76:296,1,80,8|0,0:0|0:0,0:0:0:0:
145,324,16943,6,0,B|225:342|225:342|336:317,1,160,2|8,0:0|0:0,0:0:0:0:
449,116,17523,2,0,B|369:98|369:98|258:123,1,160,2|8,0:0|0:0,0:0:0:0:
211,146,17958,1,0,0:0:0:0:
211,146,18103,6,0,P|194:98|205:57,1,80,2|0,0:0|0:0,0:0:0:0:
288,198,18393,1,8,0:0:0:0:
205,231,18538,2,0,L|124:219,1,80,2|2,0:0|0:0,0:0:0:0:
42,202,18827,1,0,0:0:0:0:
75,310,18972,2,0,P|120:319|167:293,1,80,8|0,0:0|0:0,0:0:0:0:
205,231,19262,6,0,B|235:157|235:157|201:69,1,160,2|8,0:0|0:0,0:0:0:0:
419,52,19842,2,0,B|389:126|389:126|423:214,1,160,2|8,0:0|0:0,0:0:0:0:
478,244,20277,6,0,P|415:202|336:259,1,160
297,309,20711,2,0,L|194:305,1,80,8|2,0:0|0:0,0:0:0:0:
180,220,21001,2,0,L|259:223,1,80,2|2,0:0|0:0,0:0:0:0:
319,137,21291,2,0,L|240:134,1,80,8|0,0:0|0:0,0:0:0:0:
382,66,21581,6,0,B|414:142|414:142|364:236,1,160,2|8,0:0|0:0,0:0:0:0:
306,262,22016,1,2,0:0:0:0:
306,262,22161,2,0,B|237:225|237:225|161:257,1,160,2|8,0:0|0:0,0:0:0:0:
103,328,22596,6,0,B|75:363|75:363|38:326|41:273|62:221,1,160
76,171,23030,1,8,0:0:0:0:
379,319,23320,1,0,0:0:0:0:
379,319,23610,1,0,0:0:0:0:
392,292,23683,1,0,0:0:0:0:
395,262,23755,1,0,0:0:0:0:
390,233,23827,1,0,0:0:0:0:
375,207,23900,6,0,B|325:177|325:177|210:184,1,160,8|8,0:2|0:0,0:0:0:0:
147,140,24335,1,0,0:0:0:0:
147,140,24480,2,0,P|135:188|155:237,1,80,2|0,0:0|0:0,0:0:0:0:
215,265,24769,1,8,0:0:0:0:
302,293,24914,6,0,P|331:248|455:263,1,160
489,302,25349,1,8,0:0:0:0:
472,166,25494,1,0,0:0:0:0:
386,322,25639,2,0,B|339:338|339:338|218:331,1,160,2|8,0:0|0:0,0:0:0:0:
166,270,26074,5,0,0:0:0:0:
166,270,26219,2,0,L|156:173,1,80,2|0,0:0|0:0,0:0:0:0:
242,218,26509,2,0,L|265:123,1,80,8|0,0:0|0:0,0:0:0:0:
325,196,26798,2,0,L|379:115,1,80,2|0,0:0|0:0,0:0:0:0:
415,203,27088,1,8,0:0:0:0:
415,203,27233,6,0,B|432:186|459:177|487:177|487:177|499:152|491:118|457:86,1,160
371,52,27668,2,0,L|282:63,1,80,8|0,0:0|0:0,0:0:0:0:
201,86,27958,2,0,P|153:52|59:96,1,160,2|8,0:0|0:0,0:0:0:0:
17,162,28393,1,0,0:0:0:0:
17,162,28538,6,0,L|28:269,1,80,2|0,0:0|0:0,0:0:0:0:
103,290,28827,2,0,P|149:270|206:282,1,80,8|0,0:0|0:0,0:0:0:0:
235,341,29117,1,2,0:0:0:0:
261,256,29262,1,0,0:0:0:0:
320,322,29407,1,8,0:0:0:0:
345,240,29552,6,0,P|362:181|296:97,1,160
228,75,29987,2,0,B|190:89|190:89|132:77,1,80,8|0,0:0|0:0,0:0:0:0:
80,169,30277,2,0,B|118:155|118:155|176:167,1,80,2|0,0:0|0:0,0:0:0:0:
241,196,30567,1,8,0:0:0:0:
241,196,30711,1,0,0:0:0:0:
306,250,30856,6,0,P|325:187|263:113,1,160,2|8,0:0|0:0,0:0:0:0:
177,141,31291,2,0,P|158:204|220:278,1,160
280,324,31726,1,8,0:0:0:0:
280,324,31871,6,0,B|351:288|351:288|443:317,1,160
479,233,32306,1,4,0:3:0:0:
419,51,32596,1,0,0:0:0:0:
393,126,32740,1,0,0:0:0:0:
353,195,32885,1,8,0:0:0:0:
288,242,33030,1,0,0:0:0:0:
210,255,33175,6,0,L|70:243,1,120.000004577637,8|0,0:2|0:0,0:0:0:0:
22,180,33610,1,0,0:0:0:0:
47,323,33755,1,8,0:0:0:0:
47,323,34045,1,0,0:0:0:0:
47,323,34190,6,0,P|87:292|161:311,1,120.000004577637
228,346,34625,2,0,P|262:341|290:331,1,60.0000022888184
225,236,34914,1,8,0:0:0:0:
362,306,35204,1,0,0:0:0:0:
423,248,35349,1,0,0:0:0:0:
423,248,35422,1,0,0:0:0:0:
423,248,35494,6,0,P|441:193|423:109,1,120.000004577637,2|0,0:0|0:0,0:0:0:0:
396,54,35929,1,0,0:0:0:0:
271,137,36074,1,8,0:0:0:0:
271,137,36364,1,0,0:0:0:0:
271,137,36509,2,0,L|356:126,1,60.0000022888184,0|2,0:0|0:0,0:0:0:0:
259,227,36798,5,0,0:0:0:0:
259,227,36943,2,0,L|199:219,1,60.0000022888184
126,279,37233,1,8,0:0:0:0:
130,150,37378,1,0,0:0:0:0:
48,253,37523,1,0,0:0:0:0:
52,124,37668,1,0,0:0:0:0:
179,217,37813,6,0,P|222:232|312:215,1,120.000004577637,2|0,0:0|0:0,0:0:0:0:
367,168,38248,1,0,0:0:0:0:
399,72,38393,2,0,L|393:2,1,60.0000022888184,8|0,0:0|0:0,0:0:0:0:
310,100,38683,1,0,0:0:0:0:
450,152,38827,6,0,P|486:110|483:31,1,120.000004577637
310,100,39262,2,0,B|255:110|255:110|182:104,1,120.000004577637,0|8,0:0|0:0,0:0:0:0:
52,78,39697,1,0,0:0:0:0:
141,45,39842,1,0,0:0:0:0:
122,137,39987,1,0,0:0:0:0:
42,226,40132,6,0,B|101:217|101:217|158:264,1,120.000004577637,2|0,0:0|0:0,0:0:0:0:
212,319,40567,1,0,0:0:0:0:
214,197,40711,1,8,0:0:0:0:
214,197,41001,1,0,0:0:0:0:
214,197,41146,6,0,P|265:216|332:191,1,120.000004577637
323,73,41581,2,0,P|272:54|205:79,1,120.000004577637,0|8,0:0|0:0,0:0:0:0:
268,136,42016,1,0,0:0:0:0:
366,135,42161,1,0,0:0:0:0:
464,132,42306,1,0,0:0:0:0:
435,50,42451,6,0,L|376:58,1,60.0000022888184,8|0,0:0|0:0,0:0:0:0:
380,212,42740,2,0,L|440:220,1,60.0000022888184,8|0,0:0|0:0,0:0:0:0:
311,105,43030,2,0,P|305:137|317:178,1,60.0000022888184,8|0,0:0|0:0,0:0:0:0:
365,291,43320,1,8,0:0:0:0:
365,291,43465,6,0,L|222:271,1,120.000004577637
104,250,43900,1,4,0:3:0:0:
331,327,44190,2,0,L|340:285,3,30.0000011444092,0|0|0|0,3:0|3:0|3:0|3:0,0:0:0:0:
344,263,44480,2,0,L|335:221,3,30.0000011444092,0|0|0|0,3:0|3:0|3:0|3:0,0:0:0:0:
325,203,44769,6,0,L|219:188,1,80,8|0,0:2|0:0,0:0:0:0:
195,66,45059,1,8,0:0:0:0:
195,66,45204,2,0,L|274:77,1,80,0|2,0:0|0:0,0:0:0:0:
162,179,45494,1,0,0:0:0:0:
162,179,45639,2,0,L|82:167,1,80,8|0,0:0|0:0,0:0:0:0:
70,35,45929,5,2,0:0:0:0:
70,35,46074,2,0,P|118:88|199:60,1,160
194,65,46436,1,0,0:0:0:0:
194,65,46509,1,2,0:0:0:0:
226,248,46798,5,8,0:0:0:0:
283,180,46943,1,0,0:0:0:0:
298,96,47088,2,0,L|289:11,1,80,2|0,0:0|0:0,0:0:0:0:
372,198,47378,1,8,0:0:0:0:
387,114,47523,2,0,L|378:29,1,80,0|2,0:0|0:0,0:0:0:0:
475,133,47813,2,0,L|466:48,1,80,0|8,0:0|0:0,0:0:0:0:
461,218,48103,6,0,P|420:194|320:233,1,160
274,307,48538,2,0,L|167:310,1,80,8|0,0:0|0:0,0:0:0:0:
109,280,48827,1,2,0:0:0:0:
135,46,49117,5,8,0:0:0:0:
221,72,49262,1,0,0:0:0:0:
156,130,49407,2,0,L|59:130,1,80,2|0,0:0|0:0,0:0:0:0:
239,157,49697,1,8,0:0:0:0:
174,215,49842,2,0,L|77:215,1,80,0|2,0:0|0:0,0:0:0:0:
204,299,50132,2,0,L|107:299,1,80,0|8,0:0|0:0,0:0:0:0:
279,344,50422,6,0,P|292:289|396:261,1,160
455,304,50856,1,8,0:0:0:0:
346,171,51001,1,0,0:0:0:0:
365,337,51146,1,2,0:0:0:0:
426,54,51436,1,8,0:0:0:0:
348,89,51581,1,0,0:0:0:0:
269,125,51726,6,0,B|229:115|229:115|189:126,1,80,2|0,0:0|0:0,0:0:0:0:
346,171,52016,1,8,0:0:0:0:
267,207,52161,2,0,B|227:197|227:197|187:208,1,80,0|2,0:0|0:0,0:0:0:0:
270,292,52451,2,0,B|230:282|230:282|190:293,1,80,0|8,0:0|0:0,0:0:0:0:
329,367,52740,6,0,P|365:301|340:223,1,160
255,201,53175,1,8,0:0:0:0:
359,141,53320,1,0,0:0:0:0:
272,113,53465,2,0,L|228:105,3,40
199,101,53755,2,0,B|207:141|207:141|191:202,1,80,8|0,0:2|0:0,0:0:0:0:
50,163,54045,6,0,P|88:142|141:152,1,80,2|0,0:0|0:0,0:0:0:0:
202,256,54335,1,8,0:0:0:0:
117,286,54480,2,0,L|23:275,1,80,0|2,0:0|0:0,0:0:0:0:
182,341,54769,1,0,0:0:0:0:
294,260,54914,2,0,P|306:215|298:182,1,80,8|0,0:0|0:0,0:0:0:0:
379,283,55204,5,2,0:0:0:0:
223,220,55349,2,0,B|148:246|148:246|88:302,1,160
39,228,55784,2,0,B|32:179|32:179|44:139,1,80,2|0,0:0|0:0,0:0:0:0:
94,78,56074,1,8,0:0:0:0:
182,115,56219,1,0,0:0:0:0:
261,67,56364,6,0,L|359:74,1,80,2|0,0:0|0:0,0:0:0:0:
182,206,56654,1,8,0:0:0:0:
261,158,56798,2,0,L|359:165,1,80,0|2,0:0|0:0,0:0:0:0:
266,250,57088,2,0,L|364:257,1,80,0|8,0:0|0:0,0:0:0:0:
454,329,57378,6,0,P|483:289|449:179,1,160
390,120,57813,2,0,L|393:28,1,80,8|0,0:0|0:0,0:0:0:0:
323,177,58103,2,0,P|274:181|210:80,1,160,2|8,0:0|0:0,0:0:0:0:
212,13,58538,1,0,0:0:0:0:
298,93,58683,5,8,0:0:0:0:
298,93,58827,1,0,0:0:0:0:
145,55,58972,1,8,0:0:0:0:
145,55,59117,1,0,0:0:0:0:
246,164,59262,1,8,0:0:0:0:
246,164,59407,1,0,0:0:0:0:
93,126,59552,1,8,0:0:0:0:
93,126,59697,6,0,P|60:83|66:33,1,80,0|8,0:0|0:0,0:0:0:0:
176,130,59987,2,0,L|144:239,1,80
120,353,60277,1,0,0:0:0:0:
202,335,60422,2,0,B|220:297|220:297|214:246,1,80,8|0,0:0|0:0,0:0:0:0:
259,186,60711,1,8,0:0:0:0:
195,112,60856,1,0,0:0:0:0:
270,60,61001,6,0,L|372:58,1,80,2|0,0:0|0:0,0:0:0:0:
463,144,61291,2,0,L|361:142,1,80,8|0,0:0|0:0,0:0:0:0:
274,217,61581,2,0,B|316:208|316:208|356:216,1,80,2|0,0:0|0:0,0:0:0:0:
427,310,61871,2,0,B|385:319|385:319|345:311,1,80,8|0,0:0|0:0,0:0:0:0:
199,249,62161,6,0,P|191:207|207:161,1,80,2|0,0:0|0:0,0:0:0:0:
329,77,62451,2,0,P|269:86|236:124,1,80,8|0,0:0|0:0,0:0:0:0:
114,191,62740,2,0,P|106:150|119:108,1,80,2|0,0:0|0:0,0:0:0:0:
186,49,63030,1,8,0:0:0:0:
186,49,63103,1,0,0:0:0:0:
186,49,63175,1,0,0:0:0:0:
186,49,63248,1,0,0:0:0:0:
186,49,63320,6,0,P|142:21|33:64,2,160,0|8|0,0:0|0:2|0:0,0:0:0:0:
251,152,64045,1,0,0:0:0:0:
268,24,64190,1,8,0:0:0:0:
333,173,64335,6,0,B|340:201|340:218|332:237|332:237|341:250|341:250|331:273|333:309|354:333,1,160
348,325,64697,1,0,0:0:0:0:
348,325,64769,1,8,0:0:0:0:
428,275,64914,1,0,0:0:0:0:
252,209,65059,1,2,0:0:0:0:
333,173,65204,1,0,0:0:0:0:
333,173,65277,1,0,0:0:0:0:
333,173,65349,1,8,0:0:0:0:
256,294,65494,1,0,0:0:0:0:
189,152,65639,6,0,P|220:127|259:121,1,80,2|0,0:0|0:0,0:0:0:0:
175,311,65929,2,0,L|179:212,1,80,8|0,0:0|0:0,0:0:0:0:
256,294,66219,1,2,0:0:0:0:
94,323,66364,1,0,0:0:0:0:
125,182,66509,1,8,0:0:0:0:
254,224,66654,6,0,B|288:242|321:225|321:225|332:229|332:229|368:217|423:237,1,160
409,232,67016,1,0,0:0:0:0:
409,232,67088,1,8,0:0:0:0:
329,311,67233,1,0,0:0:0:0:
188,326,67378,2,0,L|170:274,3,40,0|0|0|0,3:0|3:0|3:0|3:0,0:0:0:0:
164,255,67668,2,0,L|182:203,3,40,0|0|0|0,3:0|3:0|3:0|3:0,0:0:0:0:
188,187,67958,6,0,L|192:92,1,80,2|0,0:0|0:0,0:0:0:0:
262,54,68248,2,0,B|302:64|302:64|351:57,1,80,8|0,0:0|0:0,0:0:0:0:
427,27,68538,1,2,0:0:0:0:
365,128,68683,1,0,0:0:0:0:
492,161,68827,1,8,0:0:0:0:
412,246,68972,6,0,B|383:264|362:265|334:255|334:255|333:264|333:264|304:249|273:252|255:260,1,160
265,256,69335,1,0,0:0:0:0:
265,256,69407,1,8,0:0:0:0:
156,302,69552,1,0,0:0:0:0:
239,341,69697,1,2,0:0:0:0:
186,219,69842,1,0,0:0:0:0:
186,219,69914,1,0,0:0:0:0:
186,219,69987,2,0,L|195:124,1,80,8|0,0:0|0:0,0:0:0:0:
265,82,70277,6,0,B|308:93|308:93|357:77,1,80,2|0,0:0|0:0,0:0:0:0:
182,57,70567,2,0,B|139:46|139:46|90:62,1,80,8|0,0:0|0:0,0:0:0:0:
193,139,70856,1,2,0:0:0:0:
243,4,71001,1,0,0:0:0:0:
270,170,71146,1,8,0:0:0:0:
265,82,71291,6,0,B|283:68|307:63|331:72|331:72|340:58|340:58|366:66|394:54|413:30,1,160
470,160,71726,2,0,P|426:160|385:138,1,80,8|0,0:0|0:0,0:0:0:0:
356,259,72016,1,8,0:2:0:0:
441,240,72161,1,0,0:0:0:0:
418,322,72306,1,8,0:0:0:0:
339,337,72451,1,0,0:0:0:0:
339,337,72596,6,0,L|212:319,1,120.000004577637
135,303,73030,1,0,0:0:0:0:
135,303,73175,1,8,0:0:0:0:
62,163,73465,6,0,L|66:236,1,60.0000022888184
132,112,73755,1,0,0:0:0:0:
20,85,73900,1,0,0:0:0:0:
90,36,74045,1,8,0:0:0:0:
188,281,74335,6,0,P|225:287|299:236,1,120.000004577637
332,168,74769,1,0,0:0:0:0:
350,309,74914,1,8,0:0:0:0:
374,72,75204,5,0,0:0:0:0:
456,51,75349,1,0,0:0:0:0:
479,133,75494,1,0,0:0:0:0:
397,152,75639,1,0,0:0:0:0:
374,72,75784,2,0,L|378:4,1,60.0000022888184,8|0,0:0|0:0,0:0:0:0:
397,152,76074,6,0,P|345:149|296:100,1,120.000004577637
285,21,76509,1,0,0:0:0:0:
221,131,76653,1,8,0:0:0:0:
372,318,76943,5,0,0:0:0:0:
297,293,77088,1,0,0:0:0:0:
297,215,77233,1,0,0:0:0:0:
372,191,77378,1,0,0:0:0:0:
417,254,77523,1,8,0:0:0:0:
176,303,77813,6,0,L|110:308,1,60.0000022888184
71,227,78103,2,0,L|130:222,1,60.0000022888184
216,216,78393,1,8,0:0:0:0:
374,277,78682,5,0,0:0:0:0:
374,277,78827,2,0,P|387:226|381:198,1,60.0000022888184,0|8,0:0|0:0,0:0:0:0:
306,205,79117,2,0,P|293:154|299:126,1,60.0000022888184,0|8,0:0|0:0,0:0:0:0:
343,90,79407,1,0,0:0:0:0:
227,109,79552,6,0,L|148:99,1,60.0000022888184,4|0,0:2|0:0,0:0:0:0:
121,195,79842,2,0,L|200:185,1,60.0000022888184
276,267,80132,6,0,P|216:261|163:313,1,120.000004577637,8|0,0:0|0:0,0:0:0:0:
240,342,80567,1,0,0:0:0:0:
421,213,80856,1,0,0:0:0:0:
337,173,81001,2,0,L|314:186,3,20.0000007629395
375,90,81291,6,0,L|370:24,1,60.0000022888184
469,69,81581,2,0,L|464:128,1,60.0000022888184
421,213,81871,1,8,0:0:0:0:
287,325,82161,5,0,0:0:0:0:
287,325,82306,2,0,P|279:278|288:246,1,60.0000022888184,0|8,0:0|0:0,0:0:0:0:
345,215,82596,1,0,0:0:0:0:
233,194,82740,1,8,0:0:0:0:
299,140,82885,2,0,L|294:112,3,20.0000007629395
98,89,83320,5,0,0:0:0:0:
143,170,83465,1,0,0:0:0:0:
64,216,83610,1,8,0:0:0:0:
284,323,83900,5,0,0:0:0:0:
231,254,84045,2,0,L|238:188,1,60.0000022888184
306,135,84335,1,0,0:0:0:0:
378,201,84480,1,8,0:0:0:0:
449,137,84624,2,0,L|438:108,3,20.0000007629395
461,231,84914,6,0,L|459:318,1,60.0000022888184
376,276,85204,2,0,L|348:344,1,60.0000022888184,0|8,0:0|0:0,0:0:0:0:
282,281,85494,2,0,L|211:317,1,60.0000022888184
279,175,85784,6,0,L|332:202,1,60.0000022888184
185,170,86074,2,0,L|191:203,3,20.0000007629395
100,124,86364,2,0,L|91:186,1,60.0000022888184,0|8,0:0|0:0,0:0:0:0:
136,47,86653,2,0,P|103:40|51:55,1,60.0000022888184,0|8,0:0|0:0,0:0:0:0:
187,118,86943,1,0,0:0:0:0:
267,93,87088,6,0,B|295:87|311:91|330:106|330:106|342:96|342:96|364:118|389:123|419:112,1,160,8|8,0:2|0:0,0:0:0:0:
486,71,87522,1,0,0:0:0:0:
481,156,87667,2,0,L|468:252,1,80
407,300,87957,1,8,0:0:0:0:
407,300,88102,2,0,P|367:288|323:304,1,80
254,346,88392,5,0,0:0:0:0:
195,276,88537,2,0,L|199:186,1,80,8|0,0:0|0:0,0:0:0:0:
278,100,88827,1,0,0:0:0:0:
278,100,88972,2,0,B|295:137|295:137|279:193,1,80,0|8,0:0|0:0,0:0:0:0:
366,208,89261,6,0,B|382:131|382:131|348:45,1,160
445,41,89696,2,0,L|478:129,1,80,8|0,0:0|0:0,0:0:0:0:
459,202,89986,1,0,0:0:0:0:
459,202,90131,1,0,0:0:0:0:
416,328,90276,1,8,0:0:0:0:
302,285,90421,2,0,L|206:286,1,80
142,284,90711,5,0,0:0:0:0:
185,158,90856,1,8,0:0:0:0:
299,201,91001,2,0,L|395:200,1,80
449,251,91290,2,0,P|467:207|456:167,1,80,0|8,0:0|0:0,0:0:0:0:
372,278,91580,6,0,B|334:303|334:303|208:300,1,160
147,255,92015,2,0,P|136:215|150:176,1,80,8|0,0:0|0:0,0:0:0:0:
231,141,92305,1,0,0:0:0:0:
152,85,92450,1,0,0:0:0:0:
236,51,92595,1,8,0:0:0:0:
311,109,92740,2,0,P|316:163|299:193,1,80
236,245,93030,5,0,0:0:0:0:
308,306,93174,2,0,L|397:294,1,80,8|0,0:0|0:0,0:0:0:0:
434,204,93464,1,0,0:0:0:0:
487,285,93609,1,0,0:0:0:0:
340,217,93754,1,8,0:0:0:0:
256,192,93899,12,0,95203,0:0:0:0:
191,226,95493,6,0,L|180:188,4,26.6666666666667
255,293,95783,2,0,L|254:317,8,13.3333333333333
276,202,96073,1,0,0:0:0:0:
371,268,96218,1,0,0:0:0:0:
440,195,96363,6,0,P|451:147|414:83,1,120.000004577637,4|0,0:3|0:0,0:0:0:0:
353,154,96798,1,0,0:0:0:0:
332,28,96943,1,8,0:0:0:0:
235,205,97232,5,0,0:0:0:0:
235,205,97377,2,0,L|225:285,1,60.0000022888184
302,318,97667,1,0,0:0:0:0:
171,335,97812,1,8,0:0:0:0:
171,335,97957,6,0,L|101:328,2,60.0000022888184
313,326,98392,2,0,L|378:315,1,60.0000022888184
225,199,98682,1,8,0:0:0:0:
385,324,98972,5,0,0:0:0:0:
451,270,99116,2,0,P|457:231|447:198,1,60.0000022888184
361,171,99406,2,0,P|355:210|365:243,1,60.0000022888184,0|8,0:0|0:0,0:0:0:0:
440,124,99696,1,0,0:0:0:0:
440,124,99769,1,0,0:0:0:0:
440,124,99841,5,0,0:0:0:0:
368,73,100131,1,0,0:0:0:0:
279,79,100421,1,8,0:0:0:0:
205,132,100711,5,0,0:0:0:0:
205,132,100856,2,0,L|131:119,1,60.0000022888184
171,227,101145,2,0,L|245:214,1,60.0000022888184,0|8,0:0|0:0,0:0:0:0:
100,185,101435,1,0,0:0:0:0:
123,292,101580,5,0,0:0:0:0:
205,132,101725,2,0,P|213:90|193:35,2,90.0000034332277,8|8|8,0:0|0:0|0:0,0:0:0:0:
109,194,102305,1,0,0:0:0:0:
109,194,102377,1,0,0:0:0:0:
109,194,102450,6,0,L|189:211,1,60.0000022888184,8|0,0:0|0:0,0:0:0:0:
243,317,102740,1,0,0:0:0:0:
243,317,102885,2,0,L|235:240,1,60.0000022888184,8|0,0:0|0:0,0:0:0:0:
276,183,103174,2,0,P|245:173|161:221,1,120.000004577637
137,292,103609,1,0,0:0:0:0:
91,153,103754,1,0,0:0:0:0:
236,257,103899,6,0,L|312:265,1,68.0000012969971
137,292,104188,2,0,L|61:300,1,68.0000012969971
209,344,104478,1,0,0:0:0:0:
162,217,104623,2,0,L|165:132,1,68.0000012969971
112,76,104913,1,0,0:0:0:0:
197,38,105058,2,0,L|288:48,1,68.0000012969971
295,121,105348,6,0,L|204:131,1,68.0000012969971
364,85,105638,1,0,0:0:0:0:
328,195,105783,1,0,0:0:0:0:
407,159,105927,1,0,0:0:0:0:
367,272,106072,1,0,0:0:0:0:
367,272,106145,1,0,0:0:0:0:
367,272,106217,6,0,L|339:352,1,68.0000012969971
198,277,106507,1,0,0:0:0:0:
270,241,106652,2,0,P|279:283|263:321,1,68.0000012969971
203,198,106942,6,0,L|208:99,1,68.0000012969971
283,97,107232,2,0,L|279:164,1,68.0000012969971
363,140,107522,2,0,L|366:72,1,68.0000012969971
441,180,107812,1,0,0:0:0:0:
379,248,107956,2,0,B|320:280|320:280|256:248,1,136.000002593994,2|0,0:0|0:0,0:0:0:0:
194,172,108390,5,0,0:0:0:0:
166,261,108535,2,0,L|157:335,1,68.0000012969971
102,197,108825,1,0,0:0:0:0:
194,172,108970,2,0,B|261:152|261:152|332:178,1,136.000002593994,2|0,0:0|0:0,0:0:0:0:
398,228,109405,6,0,P|413:185|406:149,1,68.0000012969971
316,251,109695,1,0,0:0:0:0:
403,308,109840,1,0,0:0:0:0:
323,333,109984,2,0,L|244:324,1,68.0000012969971
174,282,110274,6,0,B|170:249|170:249|177:209,1,68.0000012969971
252,174,110564,1,0,0:0:0:0:
252,174,110709,2,0,B|256:207|256:207|249:247,1,68.0000012969971
179,135,110999,6,0,L|191:48,1,68.0000012969971
91,154,111289,2,0,L|103:67,1,68.0000012969971,2|0,0:0|0:0,0:0:0:0:
148,210,111579,1,2,0:0:0:0:
52,264,111724,5,0,0:0:0:0:
125,308,111869,1,0,0:0:0:0:
156,295,111941,1,0,0:0:0:0:
187,282,112013,1,0,0:0:0:0:
265,297,112158,1,0,0:0:0:0:
296,284,112231,1,0,0:0:0:0:
325,270,112303,6,0,L|321:171,2,80
396,318,112737,2,0,L|483:314,1,80,0|8,0:0|0:0,0:0:0:0:
486,230,113027,2,0,L|399:234,1,80
443,127,113317,1,0,0:0:0:0:
443,127,113462,6,0,P|452:79|423:40,1,80
290,152,113752,2,0,P|281:200|310:239,1,80
360,104,114042,1,0,0:0:0:0:
281,68,114187,1,0,0:0:0:0:
203,37,114331,6,0,L|108:49,1,80,8|0,0:0|0:0,0:0:0:0:
48,138,114621,1,0,0:0:0:0:
48,138,114766,2,0,P|106:150|146:128,1,80,0|8,0:0|0:0,0:0:0:0:
214,113,115056,6,0,L|200:209,1,80
307,245,115346,2,0,L|295:165,1,80
393,101,115636,2,0,L|379:197,1,80
461,330,115926,1,0,0:0:0:0:
398,278,116071,6,0,B|381:271|381:271|299:284,1,80,8|0,0:0|0:0,0:0:0:0:
177,343,116360,2,0,B|194:350|194:350|276:337,1,80,8|0,0:0|0:0,0:0:0:0:
234,183,116650,2,0,B|227:200|227:200|240:282,1,80,8|0,0:0|0:0,0:0:0:0:
317,150,116940,2,0,B|324:133|324:133|314:72,1,80,8|0,0:0|0:0,0:0:0:0:
303,231,117230,6,0,B|345:231|345:231|386:218,1,80,8|0,0:0|0:0,0:0:0:0:
469,287,117520,2,0,B|427:287|427:287|386:300,1,80,8|0,0:0|0:0,0:0:0:0:
290,333,117810,2,0,B|251:319|251:319|208:333,1,80,8|0,0:0|0:0,0:0:0:0:
121,248,118099,2,0,B|160:262|160:262|203:248,1,80,8|0,0:0|0:0,0:0:0:0:
269,217,118389,5,8,0:0:0:0:
197,163,118534,1,0,0:0:0:0:
284,130,118679,1,8,0:0:0:0:
209,79,118824,2,0,B|170:68|170:68|126:81,1,80,2|8,0:0|0:0,0:0:0:0:
66,186,119114,6,0,L|75:287,1,80,2|8,0:0|0:0,0:0:0:0:
171,325,119404,2,0,L|178:245,1,80,2|8,0:0|0:0,0:0:0:0:
264,173,119694,1,2,0:0:0:0:
289,286,119839,5,0,0:0:0:0:
372,186,119984,1,0,0:0:0:0:
380,160,120056,1,0,0:0:0:0:
389,135,120128,1,0,0:0:0:0:
398,110,120201,1,0,0:0:0:0:
406,85,120273,1,0,0:0:0:0:
415,59,120346,1,0,0:0:0:0:
424,34,120418,1,4,0:3:0:0:
163,198,141867,6,0,B|214:198|263:233|263:233|257:205|262:185|295:149|295:149,1,195.999994018555,4|0,0:0|0:0,0:0:0:0:
358,103,143171,2,0,B|394:108|416:100|435:72|435:72|451:91|457:110|449:127,1,139.999995727539
431,304,144475,6,0,B|448:280|424:221|424:221|399:236,1,111.999996582031
345,291,145200,2,0,P|322:302|285:307,1,55.9999982910157
221,272,145635,1,0,0:0:0:0:
135,149,145924,2,0,L|127:81,1,55.9999982910157
56,273,146504,6,0,B|46:222|62:182|62:182|76:207,1,111.999996582031,4|0,0:0|0:0,0:0:0:0:
170,322,147519,2,0,L|261:320,1,83.9999974365235
368,289,148388,5,0,0:0:0:0:
368,289,148533,1,0,0:0:0:0:
368,289,148678,1,0,0:0:0:0:
368,289,148823,2,0,B|446:281|446:281|508:229|474:127|401:128,1,280,0|2,0:0|0:0,0:0:0:0:
223,170,150127,5,2,0:0:0:0:
157,122,150272,2,0,L|159:35,1,80,8|0,0:0|0:0,0:0:0:0:
235,75,150707,1,2,0:0:0:0:
310,105,150852,2,0,L|366:101,1,40,8|0,0:0|0:0,0:0:0:0:
428,142,151142,6,0,L|419:285,1,120.000004577637
331,268,151577,2,0,L|338:182,1,80,8|0,0:0|0:0,0:0:0:0:
248,205,151867,2,0,L|242:293,1,80
157,305,152156,2,0,L|171:116,1,160,2|2,0:0|0:0,0:0:0:0:
98,115,152591,1,8,0:0:0:0:
43,177,152736,2,0,P|95:196|157:59,1,240,0|8,0:0|0:2,0:0:0:0:
270,151,153461,6,0,L|386:139,2,80,0|0|8,0:0|0:0|0:0,0:0:0:0:
141,239,153895,2,0,B|99:242|99:242|56:222,1,80
182,161,154185,1,8,0:0:0:0:
242,219,154330,2,0,B|254:259|254:259|235:298,1,80
185,350,154620,1,8,0:0:0:0:
330,271,154765,6,0,L|493:284,1,160,0|8,0:0|0:0,0:0:0:0:
495,189,155200,2,0,B|454:187|454:187|412:204,1,80
357,135,155490,1,8,0:0:0:0:
357,135,155635,1,0,0:0:0:0:
229,70,155780,6,0,B|269:58|269:58|314:76,1,80
286,220,156069,1,8,0:0:0:0:
286,220,156214,2,0,B|267:182|267:182|268:144,1,80
347,277,156504,2,0,L|346:362,1,80,8|0,0:0|0:0,0:0:0:0:
232,284,156794,6,0,P|189:265|98:332,1,160,8|0,0:0|0:0,0:0:0:0:
85,182,157229,2,0,P|136:163|173:163,1,80,8|8,0:0|0:0,0:0:0:0:
251,95,157519,2,0,B|321:133|321:133|254:201,1,160
202,265,157953,1,0,0:0:0:0:
297,312,158098,6,0,P|345:270|455:315,1,160,8|8,0:2|0:0,0:0:0:0:
485,216,158533,2,0,B|493:174|493:174|479:122,1,80,0|2,0:0|0:0,0:0:0:0:
400,77,158823,2,0,B|392:119|392:119|406:171,1,80,0|8,0:0|0:0,0:0:0:0:
326,241,159113,6,0,B|334:199|334:199|320:147,1,80,0|2,0:0|0:0,0:0:0:0:
204,138,159403,2,0,B|196:180|196:180|210:232,1,80,0|8,0:0|0:0,0:0:0:0:
244,288,159693,1,0,0:0:0:0:
135,261,159838,2,0,B|112:190|112:190|133:97,1,160,2|8,0:0|0:0,0:0:0:0:
164,30,160272,1,0,0:0:0:0:
222,93,160417,6,0,L|318:88,1,80,2|0,0:0|0:0,0:0:0:0:
381,167,160707,1,8,0:0:0:0:
381,167,160852,2,0,L|285:162,1,80,0|2,0:0|0:0,0:0:0:0:
245,251,161142,2,0,L|341:246,1,80,0|8,0:0|0:0,0:0:0:0:
375,326,161432,6,0,P|414:279|394:181,1,160
319,164,161867,1,8,0:0:0:0:
426,111,162011,1,0,0:0:0:0:
345,79,162156,2,0,B|367:46|367:46|411:29,1,80,2|0,0:0|0:0,0:0:0:0:
264,100,162446,6,0,L|159:91,1,80,8|0,0:0|0:0,0:0:0:0:
322,235,162736,2,0,B|338:197|338:197|315:157,1,80,2|0,0:0|0:0,0:0:0:0:
313,157,163026,1,8,0:0:0:0:
156,219,163171,2,0,L|239:212,1,80,0|2,0:0|0:0,0:0:0:0:
243,211,163461,1,0,0:0:0:0:
403,291,163606,6,0,B|365:304|365:304|317:287,1,80,8|0,0:0|0:0,0:0:0:0:
320,287,163895,1,2,0:0:0:0:
447,205,164040,2,0,B|368:220|368:220|262:193,1,160
283,197,164475,1,2,0:0:0:0:
453,117,164765,5,8,0:0:0:0:
369,142,164910,1,0,0:0:0:0:
290,108,165055,2,0,B|210:89|210:89|124:119,1,160,2|8,0:0|0:0,0:0:0:0:
78,188,165490,2,0,P|50:156|53:95,1,80,0|2,0:0|0:0,0:0:0:0:
170,194,165780,2,0,L|161:291,1,80,0|8,0:0|0:0,0:0:0:0:
97,342,166069,6,0,P|149:298|243:338,1,160
317,341,166504,1,8,0:0:0:0:
317,341,166649,1,0,0:0:0:0:
317,341,166794,2,0,P|297:291|199:224,1,160,2|8,0:0|0:0,0:0:0:0:
128,226,167229,1,0,0:0:0:0:
169,151,167374,6,0,L|259:151,1,80,2|0,0:0|0:0,0:0:0:0:
257,147,167664,1,8,0:0:0:0:
328,60,167809,2,0,L|338:150,1,80,0|2,0:0|0:0,0:0:0:0:
420,179,168098,2,0,B|434:144|434:144|420:104,1,80,0|8,0:0|0:0,0:0:0:0:
351,230,168388,6,0,L|361:320,1,80,0|2,0:0|0:0,0:0:0:0:
264,196,168678,2,0,B|250:156|250:156|264:121,1,80,0|8,0:0|0:0,0:0:0:0:
272,276,168968,1,0,0:0:0:0:
272,276,169113,2,0,B|195:257|195:257|106:278,1,160,2|8,0:0|0:0,0:0:0:0:
65,204,169548,1,0,0:0:0:0:
125,138,169693,6,0,P|141:96|130:48,1,80,2|0,0:0|0:0,0:0:0:0:
204,164,169982,2,0,P|200:203|215:239,1,80,8|0,0:0|0:0,0:0:0:0:
280,134,170272,2,0,P|296:92|285:44,1,80,2|0,0:0|0:0,0:0:0:0:
343,193,170562,1,8,0:0:0:0:
343,193,170707,1,0,0:0:0:0:
343,193,170852,6,0,P|353:244|336:277,1,80,8|0,0:0|0:0,0:0:0:0:
262,162,171142,2,0,P|250:124|261:86,1,80,8|0,0:0|0:0,0:0:0:0:
190,202,171432,2,0,P|200:253|183:286,1,80,8|0,0:0|0:0,0:0:0:0:
109,171,171722,2,0,P|97:133|108:95,1,80,8|0,0:0|0:0,0:0:0:0:
195,84,172011,6,0,P|254:116|328:51,2,160,2|8|0,0:0|0:2|0:0,0:0:0:0:
134,21,172736,1,0,0:0:0:0:
117,128,172881,1,8,0:0:0:0:
52,73,173026,6,0,P|108:51|201:123,1,160
190,96,173388,1,0,0:0:0:0:
190,96,173461,1,8,0:0:0:0:
263,40,173606,1,0,0:0:0:0:
348,126,173751,2,0,B|362:85|362:85|346:53,1,80
345,52,173968,1,0,0:0:0:0:
345,52,174040,1,8,0:0:0:0:
265,134,174185,1,0,0:0:0:0:
324,203,174330,6,0,P|370:209|411:185,1,80
475,274,174620,2,0,P|429:268|388:292,1,80,8|0,0:0|0:0,0:0:0:0:
344,345,174910,1,0,0:0:0:0:
287,278,175055,1,0,0:0:0:0:
228,345,175200,1,8,0:0:0:0:
214,221,175345,6,0,P|277:188|361:228,1,160
354,219,175707,1,0,0:0:0:0:
354,219,175780,1,8,0:0:0:0:
430,173,175924,1,0,0:0:0:0:
446,314,176069,6,0,L|385:294,3,40,0|0|0|0,3:0|3:0|3:0|3:0,3:0:0:0:
358,297,176359,2,0,L|319:309,3,40,0|0|0|0,3:0|3:0|3:0|3:0,3:0:0:0:
282,282,176649,6,0,B|252:208|252:208|286:135,2,160,0|8|0,0:0|0:0|0:0,0:0:0:0:
343,208,177374,1,0,0:0:0:0:
343,208,177519,1,8,0:0:0:0:
410,284,177664,6,0,B|440:210|440:210|406:137,1,160
406,137,178026,1,0,0:0:0:0:
406,137,178098,1,8,0:0:0:0:
326,99,178243,1,0,0:0:0:0:
255,183,178388,2,0,P|310:192|341:165,1,80
328,180,178606,1,0,0:0:0:0:
328,180,178678,1,8,0:0:0:0:
247,103,178823,1,0,0:0:0:0:
177,155,178968,6,0,P|172:199|193:240,1,80
254,292,179258,2,0,P|292:311|354:294,1,80,8|0,0:0|0:0,0:0:0:0:
421,284,179548,2,0,P|459:249|472:208,1,80
472,133,179838,1,8,0:0:0:0:
285,104,179982,6,0,P|326:178|414:169,1,160
388,36,180417,2,0,B|364:68|364:68|370:120,1,80,8|0,0:0|0:0,0:0:0:0:
482,146,180707,2,0,L|475:60,1,80,8|0,0:2|0:0,0:0:0:0:
405,191,180997,1,8,0:0:0:0:
486,231,181142,1,0,0:0:0:0:
414,277,181287,6,0,L|328:279,1,60.0000022888184
291,327,181576,2,0,L|205:329,1,60.0000022888184
106,169,181866,1,2,0:2:0:0:
106,169,182156,6,0,L|192:171,1,60.0000022888184
229,219,182446,2,0,L|315:221,1,60.0000022888184
414,61,182736,1,2,0:2:0:0:
414,61,183026,6,0,L|414:133,1,60.0000022888184
479,168,183315,2,0,L|479:240,1,60.0000022888184
312,126,183605,1,2,0:2:0:0:
312,126,183895,6,0,L|312:198,1,60.0000022888184
247,233,184185,2,0,L|247:305,1,60.0000022888184
414,191,184475,1,6,0:2:0:0:
414,191,184620,1,0,0:0:0:0:
414,191,184765,6,0,L|483:191,1,60.0000022888184
336,254,185055,2,0,L|267:254,1,60.0000022888184
373,109,185344,1,2,0:2:0:0:
373,109,185634,6,0,L|442:109,1,60.0000022888184
295,172,185924,2,0,L|226:172,1,60.0000022888184
332,27,186214,1,2,0:2:0:0:
332,27,186504,6,0,L|323:105,1,60.0000022888184
203,137,186794,2,0,L|209:77,1,60.0000022888184
312,182,187084,1,2,0:2:0:0:
312,182,187373,6,0,L|303:260,1,60.0000022888184
186,313,187663,1,6,0:2:0:0:
186,313,187808,1,0,0:0:0:0:
335,342,187953,1,6,0:2:0:0:
335,342,188098,1,0,0:0:0:0:
457,273,188243,6,0,L|467:202,1,60.0000022888184,0|2,0:0|0:0,0:0:0:0:
335,90,188533,2,0,L|343:149,1,60.0000022888184
356,229,188823,1,2,0:2:0:0:
356,229,189113,6,0,L|278:214,1,60.0000022888184,0|2,0:0|0:0,0:0:0:0:
257,331,189402,2,0,L|315:319,1,60.0000022888184
206,196,189692,1,2,0:2:0:0:
206,196,189982,6,0,L|212:271,1,60.0000022888184,0|2,0:0|0:0,0:0:0:0:
253,123,190272,2,0,L|248:63,1,60.0000022888184
119,203,190562,1,2,0:2:0:0:
119,203,190852,6,0,L|40:199,1,60.0000022888184,0|2,0:0|0:0,0:0:0:0:
176,272,191142,2,0,L|235:275,1,60.0000022888184
324,188,191431,2,0,L|245:184,1,60.0000022888184,6|0,0:2|0:0,0:0:0:0:
264,184,191649,1,0,0:0:0:0:
264,184,191721,6,0,L|205:137,1,60.0000022888184,0|2,0:0|0:0,0:0:0:0:
260,58,192011,2,0,L|306:95,1,60.0000022888184
174,82,192301,2,0,P|125:77|60:135,1,120.000004577637,2|0,0:2|0:0,0:0:0:0:
50,200,192736,5,2,0:0:0:0:
151,226,192881,2,0,L|143:166,1,60.0000022888184
80,284,193171,2,0,P|126:320|185:317,1,120.000004577637,2|0,0:2|0:0,0:0:0:0:
249,261,193605,5,2,0:0:0:0:
249,261,193750,2,0,L|330:262,1,60.0000022888184
354,345,194040,2,0,L|294:344,1,60.0000022888184,2|0,0:2|0:0,0:0:0:0:
394,265,194330,5,0,0:0:0:0:
394,265,194475,2,0,L|475:266,1,60.0000022888184,2|0,0:0|0:0,0:0:0:0:
475,132,194765,1,0,0:0:0:0:
369,184,194910,1,6,0:2:0:0:
363,76,195055,1,0,0:0:0:0:
