osu file format v14

[General]
AudioFilename: Rou-selfish.mp3
AudioLeadIn: 0
PreviewTime: 44625
Countdown: 0
SampleSet: Normal
StackLeniency: 0.7
Mode: 0
LetterboxInBreaks: 0
WidescreenStoryboard: 0

[Editor]
Bookmarks: 5349,14625,23900,33175,44769,63320,72596,103900,120422
DistanceSpacing: 1.4
BeatDivisor: 4
GridSize: 4
TimelineZoom: 2.4

[Metadata]
Title:SELFISH
TitleUnicode:SELFISH
Artist:muzzle-lab
ArtistUnicode:まずらぼ
Creator:Sauziteoi
Version:Hard
Source:
Tags:獣音ロウ kemonone rou ユウマ Yuuma 吟p ぎんP Gin-P clavinord 緑のたぬP Midori no Tanu ロクサメル TRICHROMATIK UTAU獣人 utau juujin furry
BeatmapID:859323
BeatmapSetID:352375

[Difficulty]
HPDrainRate:5
CircleSize:3.6
OverallDifficulty:6
ApproachRate:8
SliderMultiplier:1.2
SliderTickRate:1

[Events]
//Background and Video events
0,0,"BG.jpg",0,0
//Break Periods
2,5548,13585
2,120617,141117
//Storyboard Layer 0 (Background)
//Storyboard Layer 1 (Fail)
//Storyboard Layer 2 (Pass)
//Storyboard Layer 3 (Foreground)
//Storyboard Sound Samples

[TimingPoints]
712,289.855072463768,4,2,1,60,1,0
5349,-100,4,1,1,70,0,0
14625,-100,4,1,2,60,0,0
23320,-100,4,1,1,60,0,0
23900,-100,4,1,1,70,0,0
44769,-100,4,1,1,80,0,1
63320,-100,4,1,1,65,0,0
72596,289.855072463768,6,1,1,70,1,0
87088,289.855072463768,4,1,1,70,1,0
87088,-100,6,1,1,70,0,0
95493,-200,6,1,1,60,0,0
96363,289.855072463768,6,1,1,60,1,0
96363,-100,6,1,1,60,0,0
103899,289.855072463768,4,1,3,60,1,0
103899,-100,6,1,3,60,0,0
107956,289.855072463768,4,1,3,60,1,0
112303,289.855072463768,4,1,3,60,1,0
113172,289.855072463768,4,1,3,60,1,0
116071,289.855072463768,4,1,3,60,1,0
120128,-100,6,1,1,60,0,0
120418,289.855072463768,4,1,1,60,1,0
141867,289.855072463768,4,2,0,60,1,0
141867,-200,6,2,0,60,0,0
148388,-133.333333333333,6,1,1,50,0,0
151142,-100,6,1,1,60,0,0
151867,-100,6,1,1,70,0,0
153461,-100,6,1,1,80,0,0
158098,-100,6,1,1,80,0,1
172011,-100,6,1,1,70,0,0
181287,289.855072463768,6,1,3,60,1,0
181287,-100,6,1,3,60,0,0

[Colours]
Combo1 : 255,110,110
Combo2 : 20,76,125
Combo3 : 0,28,220
Combo4 : 0,192,254
Combo5 : 254,130,170

[HitObjects]
186,93,712,6,0,L|317:102,1,120,2|0,0:0|0:0,0:0:0:0:
370,48,1146,2,0,P|390:99|355:171,1,120,2|0,0:0|0:0,0:0:0:0:
300,207,1581,2,0,P|264:182|175:216,1,120,2|0,0:0|0:0,0:0:0:0:
135,257,2016,6,0,P|109:202|138:134,1,120,2|0,0:0|0:0,0:0:0:0:
191,95,2451,1,2,0:0:0:0:
353,54,2740,2,0,L|342:129,1,60,2|0,0:0|0:0,0:0:0:0:
385,187,3030,6,0,P|346:151|266:171,1,120,2|0,0:0|0:0,0:0:0:0:
230,223,3465,2,0,L|239:352,2,120,2|0|2,0:0|0:0|0:0,0:0:0:0:
204,56,4335,5,0,0:0:0:0:
135,105,4480,2,0,L|51:101,1,60,2|0,0:0|0:0,0:0:0:0:
52,189,4769,2,0,P|97:178|40:257,1,240,2|2,0:0|0:0,0:0:0:0:
262,158,14335,5,8,0:0:0:0:
185,240,14625,2,0,P|226:268|308:260,1,120,2|8,0:0|0:0,0:0:0:0:
346,108,15204,1,2,0:0:0:0:
186,162,15494,1,8,0:0:0:0:
124,109,15639,6,0,P|159:85|245:107,1,120
280,159,16074,1,8,0:0:0:0:
261,240,16219,2,0,L|248:313,1,60,2|2,0:0|0:0,0:0:0:0:
415,332,16654,5,8,0:0:0:0:
415,332,16798,1,0,0:0:0:0:
415,332,16943,2,0,P|392:290|441:220,1,120,2|8,0:0|0:0,0:0:0:0:
325,89,17523,2,0,P|348:131|299:201,1,120,2|8,0:0|0:0,0:0:0:0:
237,171,17958,1,0,0:0:0:0:
158,139,18103,6,0,L|86:153,2,60,2|0|8,0:0|0:0|0:0,0:0:0:0:
180,57,18538,2,0,L|108:71,2,60,2|2|0,0:0|0:0|0:0,0:0:0:0:
271,61,18972,1,8,0:0:0:0:
271,61,19117,1,0,0:0:0:0:
271,61,19262,6,0,P|316:85|387:34,1,120,2|8,0:0|0:0,0:0:0:0:
472,190,19842,2,0,P|427:166|356:217,1,120,2|8,0:0|0:0,0:0:0:0:
334,270,20277,6,0,L|150:266,1,180,0|8,0:0|0:0,0:0:0:0:
302,344,21001,1,2,0:0:0:0:
223,193,21291,1,8,0:0:0:0:
370,270,21581,6,0,P|410:265|468:204,1,120,2|8,0:0|0:0,0:0:0:0:
320,124,22161,1,2,0:0:0:0:
215,255,22451,2,0,B|267:332|267:332|330:251,1,180,8|0,0:0|0:0,0:0:0:0:
377,201,23030,1,8,0:0:0:0:
475,337,23320,5,0,0:0:0:0:
453,170,23610,2,0,L|472:125,4,30,0|0|0|0|8,0:0|0:0|0:0|0:0|0:2,0:0:0:0:
320,323,24190,1,8,0:0:0:0:
208,189,24480,2,0,P|184:158|110:102,1,120,2|8,0:0|0:0,0:0:0:0:
67,53,24914,6,0,L|61:196,1,120
54,257,25349,2,0,P|26:271|-1:293,2,60,8|0|2,0:0|0:0|0:0,0:0:0:0:
213,312,25929,1,8,0:0:0:0:
213,312,26074,1,0,0:0:0:0:
213,312,26219,6,0,P|241:268|215:196,1,120,2|8,0:0|0:0,0:0:0:0:
347,91,26798,2,0,P|319:135|345:207,1,120,2|8,0:0|0:0,0:0:0:0:
406,242,27233,2,0,L|265:258,1,120
339,329,27668,2,0,L|458:315,1,120,8|2,0:0|0:0,0:0:0:0:
294,263,28248,1,8,0:0:0:0:
294,263,28393,1,0,0:0:0:0:
294,263,28538,6,0,P|237:297|184:279,1,120,2|8,0:0|0:0,0:0:0:0:
96,129,29117,2,0,P|153:95|206:113,1,120,2|8,0:0|0:0,0:0:0:0:
255,173,29552,2,0,P|281:127|206:26,1,180,0|8,0:0|0:0,0:0:0:0:
367,112,30277,1,2,0:0:0:0:
272,250,30567,1,8,0:0:0:0:
435,212,30856,6,0,P|458:255|420:338,1,120,2|8,0:0|0:0,0:0:0:0:
381,266,31291,2,0,P|345:242|252:266,1,120
214,311,31726,1,8,0:0:0:0:
214,311,31871,2,0,L|223:181,1,120,0|0,0:0|0:0,0:0:0:0:
228,108,32306,1,4,0:3:0:0:
372,21,32596,6,0,L|448:35,1,60
419,110,32885,2,0,L|355:97,1,60
497,82,33175,2,0,B|508:135|488:173|436:193|436:193|322:170,1,240,8|8,0:2|0:0,0:0:0:0:
169,172,34045,1,0,0:0:0:0:
169,172,34190,6,0,B|188:333|188:333|239:366|280:354|321:318,1,300,0|8,0:0|0:0,0:0:0:0:
315,155,35204,1,0,0:0:0:0:
314,323,35494,6,0,B|348:353|389:365|440:332|440:332|453:217,1,240,2|8,0:0|0:0,0:0:0:0:
401,69,36364,1,0,0:0:0:0:
401,69,36509,6,0,P|367:63|285:110,1,120,0|0,0:0|0:0,0:0:0:0:
258,175,36943,1,0,0:0:0:0:
149,282,37233,2,0,L|79:281,1,60,8|0,0:0|0:0,0:0:0:0:
56,202,37523,2,0,L|115:202,1,60,0|0,0:0|0:0,0:0:0:0:
198,222,37813,6,0,P|235:248|320:222,1,120,2|0,0:0|0:0,0:0:0:0:
399,88,38393,2,0,L|386:227,1,120,8|0,0:0|0:0,0:0:0:0:
366,288,38827,6,0,P|295:264|242:344,1,180
409,355,39552,1,8,0:0:0:0:
341,187,39842,1,8,0:3:0:0:
414,103,40132,6,0,P|449:209|365:288,1,240,2|8,0:0|0:0,0:0:0:0:
256,370,41001,1,0,0:0:0:0:
256,370,41146,6,0,P|241:340|294:263,1,120,0|0,0:0|0:0,0:0:0:0:
328,201,41581,2,0,P|306:174|203:178,1,120,0|8,0:0|0:0,0:0:0:0:
156,212,42016,2,0,L|165:286,2,60
144,128,42451,6,0,P|104:119|36:169,1,120,8|8,0:0|0:0,0:0:0:0:
67,325,43030,2,0,P|107:334|175:286,1,120,8|8,0:0|0:0,0:0:0:0:
202,215,43465,2,0,B|214:282|243:318|243:318|267:293|301:276,1,180,0|4,0:0|0:3,0:0:0:0:
378,152,44190,2,0,P|344:173|363:93,1,180,0|0,3:0|3:0,0:0:0:0:
425,91,44769,6,0,P|449:124|427:211,1,120,8|8,0:2|0:0,0:0:0:0:
371,251,45204,2,0,L|243:262,1,120
205,332,45639,2,0,P|145:301|88:345,1,120,8|2,0:0|0:0,0:0:0:0:
33,271,46074,2,0,B|17:210|17:210|48:142,1,120
57,136,46436,1,0,0:0:0:0:
72,114,46509,2,0,P|104:131|148:138,1,60
205,117,46798,5,8,0:0:0:0:
249,45,46943,1,0,0:0:0:0:
291,117,47088,2,0,P|339:149|395:134,1,120,2|8,0:0|0:0,0:0:0:0:
463,84,47523,2,0,L|445:218,1,120
268,209,48103,2,0,P|314:194|377:257,1,120
412,304,48538,2,0,P|451:260|439:190,1,120,8|2,0:0|0:0,0:0:0:0:
327,83,49117,5,8,0:0:0:0:
243,77,49262,1,0,0:0:0:0:
158,75,49407,2,0,B|139:134|139:134|154:199,1,120,2|8,0:0|0:0,0:0:0:0:
232,217,49842,2,0,P|297:206|359:188,1,120
411,334,50422,2,0,P|357:314|284:305,2,120
467,277,51146,2,0,B|481:221|481:221|461:158,1,120,2|8,0:0|0:0,0:0:0:0:
408,96,51581,1,0,0:0:0:0:
356,162,51726,6,0,B|312:209|312:209|236:218,1,120,2|8,0:0|0:0,0:0:0:0:
185,260,52161,2,0,B|223:301|223:301|293:294,1,120
174,169,52740,2,0,L|32:156,1,120
86,86,53175,2,0,L|161:94,1,60,8|0,0:0|0:0,0:0:0:0:
193,23,53465,1,0,0:0:0:0:
224,98,53610,1,0,0:0:0:0:
230,105,53683,1,0,0:0:0:0:
236,112,53755,2,0,P|266:114|305:101,1,60,8|0,0:2|0:0,0:0:0:0:
311,26,54045,6,0,P|363:60|370:127,1,120,2|8,0:0|0:0,0:0:0:0:
416,186,54480,2,0,B|390:244|390:244|419:303,1,120
346,341,54914,2,0,L|205:322,1,120,8|2,0:0|0:0,0:0:0:0:
143,309,55349,2,0,B|87:300|87:300|49:237,1,120
16,170,55784,1,2,0:0:0:0:
161,86,56074,2,0,L|172:165,1,60,8|0,0:0|0:0,0:0:0:0:
189,219,56364,6,0,P|232:231|297:177,1,120,2|8,0:0|0:0,0:0:0:0:
291,114,56798,1,0,0:0:0:0:
410,232,57088,1,0,0:0:0:0:
408,63,57378,6,0,P|343:43|288:84,1,120
233,117,57813,2,0,B|226:164|226:164|232:191|232:191|219:258,1,120,8|2,0:0|0:0,0:0:0:0:
376,306,58393,1,8,0:0:0:0:
376,306,58538,1,0,0:0:0:0:
376,306,58683,6,0,L|236:301,1,120,8|8,0:0|0:0,0:0:0:0:
98,243,59262,2,0,L|238:238,1,120,8|8,0:0|0:0,0:0:0:0:
346,129,59842,2,0,P|296:137|215:186,1,120,8|8,0:0|0:0,0:0:0:0:
115,49,60422,2,0,P|165:57|246:106,1,120,8|8,0:0|0:0,0:0:0:0:
299,60,60856,1,0,0:0:0:0:
374,43,61001,6,0,P|406:40|441:44,1,60,2|0,0:0|0:0,0:0:0:0:
488,127,61291,2,0,P|454:122|414:121,1,60,8|0,0:0|0:0,0:0:0:0:
353,133,61581,2,0,P|321:153|298:173,1,60,2|0,0:0|0:0,0:0:0:0:
264,240,61871,1,8,0:0:0:0:
311,320,62016,5,0,0:0:0:0:
311,320,62088,1,0,0:0:0:0:
311,320,62161,2,0,P|352:321|382:311,1,60,8|0,0:3|0:0,0:0:0:0:
449,206,62451,2,0,P|423:224|389:238,1,60,8|0,0:3|0:0,0:0:0:0:
320,238,62740,2,0,P|289:233|255:218,1,60,8|0,0:3|0:0,0:0:0:0:
186,182,63030,1,8,0:3:0:0:
186,182,63175,1,0,0:0:0:0:
186,182,63320,6,0,P|170:124|193:64,1,120,0|8,0:0|0:2,0:0:0:0:
355,56,63900,1,2,0:0:0:0:
282,193,64190,5,8,0:0:0:0:
282,193,64335,2,0,B|225:197|225:197|167:148,1,120,0|0,0:0|0:0,0:0:0:0:
199,75,64769,2,0,L|333:59,1,120,8|2,0:0|0:0,0:0:0:0:
381,117,65204,1,0,0:0:0:0:
381,117,65349,2,0,L|403:200,1,60,8|0,0:0|0:0,0:0:0:0:
457,228,65639,6,0,B|476:173|476:173|458:109,1,120,2|8,0:0|0:0,0:0:0:0:
388,266,66219,2,0,L|255:250,1,120,2|8,0:0|0:0,0:0:0:0:
239,88,66654,2,0,B|287:119|287:119|313:181,1,120
214,172,67088,1,8,0:0:0:0:
77,165,67378,1,0,3:0:0:0:
77,165,67523,1,0,3:0:0:0:
122,236,67668,1,0,3:0:0:0:
122,236,67813,1,0,3:0:0:0:
204,251,67958,6,0,B|254:240|254:240|331:247,1,120,2|8,0:0|0:0,0:0:0:0:
165,183,68538,2,0,P|142:154|163:71,1,120,2|8,0:0|0:0,0:0:0:0:
229,13,68972,2,0,B|245:58|245:58|211:137,1,120
165,183,69407,2,0,B|108:165|108:165|30:179,1,120,8|2,0:0|0:0,0:0:0:0:
52,260,69842,1,0,0:0:0:0:
59,343,69987,1,8,0:0:0:0:
226,355,70277,6,0,L|214:235,1,120,2|8,0:0|0:0,0:0:0:0:
177,85,70856,2,0,P|229:105|304:75,1,120,2|8,0:0|0:0,0:0:0:0:
430,38,71291,2,0,B|380:4|380:4|315:20,1,120
370,99,71726,2,0,B|419:132|419:132|484:116,1,120,8|8,0:0|0:2,0:0:0:0:
476,307,72306,1,8,0:0:0:0:
476,307,72451,1,0,0:0:0:0:
396,278,72596,6,0,B|335:267|335:267|260:285,1,120
134,320,73175,1,8,0:0:0:0:
71,163,73465,1,0,0:0:0:0:
134,211,73610,2,0,B|230:201|230:201|291:122,1,180,0|8,0:0|0:0,0:0:0:0:
427,50,74335,6,0,L|438:184,1,120
490,329,74914,2,0,B|445:281|445:281|318:265,2,180,8|0|8,0:0|0:0|0:0,0:0:0:0:
321,331,76074,6,0,B|330:274|330:274|309:200,1,120
311,74,76653,1,8,0:0:0:0:
395,219,76943,1,0,0:0:0:0:
330,267,77088,2,0,L|140:251,1,180,0|8,0:0|0:0,0:0:0:0:
175,85,77813,5,0,0:0:0:0:
175,85,77958,2,0,P|217:121|340:79,1,180,0|8,0:0|0:0,0:0:0:0:
492,65,78682,1,0,0:0:0:0:
483,150,78827,2,0,L|423:159,1,60,0|8,0:0|0:0,0:0:0:0:
381,229,79117,2,0,L|440:238,1,60,0|8,0:0|0:0,0:0:0:0:
475,326,79407,1,0,0:0:0:0:
475,326,79552,6,0,P|437:311|354:348,1,120,4|0,0:2|0:0,0:0:0:0:
197,357,80132,2,0,B|224:302|224:302|206:236,1,120,8|0,0:0|0:0,0:0:0:0:
260,178,80567,2,0,B|315:151|315:151|379:170,1,120
323,236,81001,1,8,0:0:0:0:
205,119,81291,6,0,L|200:51,1,60
126,100,81581,2,0,L|121:168,1,60,0|0,0:0|0:0,0:0:0:0:
65,222,81871,2,0,P|101:206|190:230,1,120,8|0,0:0|0:0,0:0:0:0:
201,301,82306,2,0,B|242:344|242:344|313:347,1,120
390,349,82740,1,8,0:0:0:0:
390,349,82885,1,0,0:0:0:0:
390,349,83030,6,0,B|376:290|376:290|406:222,1,120,0|0,0:0|0:0,0:0:0:0:
353,73,83610,2,0,L|289:197,1,120,8|0,0:0|0:0,0:0:0:0:
304,264,84045,2,0,P|253:255|216:186,1,120
209,116,84480,1,8,0:0:0:0:
209,116,84624,6,0,L|337:123,1,120
481,192,85204,2,0,L|353:199,1,120
207,268,85784,2,0,B|231:259|231:259|268:257|333:269,1,120
480,332,86364,2,0,B|456:323|456:323|419:321|354:333,1,120
194,345,86943,1,0,0:0:0:0:
194,345,87088,6,0,P|219:319|199:218,1,120,8|8,0:2|0:0,0:0:0:0:
68,160,87667,1,0,0:0:0:0:
195,50,87957,1,8,0:0:0:0:
247,105,88102,2,0,L|395:101,1,120,0|0,0:0|0:0,0:0:0:0:
448,123,88537,2,0,P|389:133|350:202,1,120,8|0,0:0|0:0,0:0:0:0:
433,203,88972,1,0,0:0:0:0:
455,43,89261,6,0,P|401:43|295:127,1,180,0|8,0:0|0:0,0:0:0:0:
137,162,89986,2,0,P|115:136|114:49,1,120,0|8,0:0|0:0,0:0:0:0:
193,91,90421,2,0,B|221:126|221:126|209:221,1,120
158,268,90856,1,8,0:0:0:0:
158,268,91001,2,0,B|193:291|193:291|277:288,1,120,0|0,0:0|0:0,0:0:0:0:
417,203,91580,6,0,P|382:188|308:220,1,120
225,212,92015,2,0,B|198:154|198:154|213:82,1,120,8|2,0:0|0:0,0:0:0:0:
156,33,92450,1,0,0:0:0:0:
156,33,92595,1,8,0:0:0:0:
156,33,92740,2,0,P|127:73|40:73,1,120,0|0,0:0|0:0,0:0:0:0:
40,165,93174,2,0,L|102:159,1,60,8|0,0:0|0:0,0:0:0:0:
167,210,93464,2,0,L|229:204,1,60,2|0,0:0|0:0,0:0:0:0:
281,139,93754,1,8,0:0:0:0:
342,196,93899,1,0,0:0:0:0:
256,192,93972,12,0,96073,0:0:0:0:
289,103,96363,6,0,P|356:125|425:119,1,120,4|0,0:3|0:0,0:0:0:0:
475,78,96798,1,0,0:0:0:0:
475,78,96943,1,8,0:0:0:0:
468,245,97232,1,0,0:0:0:0:
468,245,97377,2,0,P|410:240|355:286,1,120,0|0,0:0|0:0,0:0:0:0:
211,350,97957,6,0,B|224:308|224:308|215:228,1,120,0|0,0:0|0:0,0:0:0:0:
202,158,98392,1,0,0:0:0:0:
322,40,98682,2,0,B|333:85|333:85|316:167,1,120,8|0,0:0|0:0,0:0:0:0:
291,228,99116,1,0,0:0:0:0:
418,118,99406,1,0,0:0:0:0:
252,89,99696,1,0,0:0:0:0:
252,89,99841,6,0,P|180:94|133:103,1,120
124,271,100421,2,0,P|153:255|253:231,1,120,8|0,0:0|0:0,0:0:0:0:
297,289,100856,2,0,P|317:256|282:166,1,120
226,145,101290,2,0,P|189:143|145:159,1,60,8|0,0:0|0:0,0:0:0:0:
89,180,101580,5,0,0:0:0:0:
25,123,101725,2,0,B|16:76|16:76|17:53|26:34|43:21,2,90,8|8|8,0:0|0:0|0:0,0:0:0:0:
105,87,102305,1,0,0:0:0:0:
105,87,102450,1,8,0:0:0:0:
105,87,102595,2,0,P|152:75|228:122,1,120,0|8,0:0|0:0,0:0:0:0:
376,145,103174,6,0,P|329:133|253:180,1,120,8|0,0:0|0:0,0:0:0:0:
337,221,103609,1,0,0:0:0:0:
337,221,103754,1,0,0:0:0:0:
337,221,103899,6,0,L|348:347,1,120,0|0,0:0|0:0,0:0:0:0:
167,322,104478,2,0,L|156:202,1,120
321,172,105058,2,0,L|332:298,1,120
275,107,105638,2,0,B|320:96|320:96|418:113,1,120
244,188,106217,6,0,B|199:199|199:199|101:182,1,120
122,101,106652,1,0,0:0:0:0:
288,120,106942,2,0,P|321:172|296:250,2,120
175,246,107812,1,0,0:0:0:0:
175,246,107956,1,2,0:0:0:0:
342,260,108245,6,0,L|467:255,1,120
430,176,108680,2,0,B|389:177|389:177|354:164|332:144|333:109,2,120,0|2|0,0:0|0:0|0:0,0:0:0:0:
408,94,109405,2,0,P|406:62|414:36,1,60
494,61,109695,2,0,P|496:93|488:119,1,60
430,176,109984,2,0,L|301:184,1,120
232,151,110419,5,0,0:0:0:0:
232,151,110564,2,0,P|228:116|231:85,1,60,0|0,0:0|0:0,0:0:0:0:
269,254,110999,2,0,L|148:250,2,120,0|2|2,0:0|0:0|0:0,0:0:0:0:
336,297,111724,1,0,0:0:0:0:
387,235,111869,1,0,0:0:0:0:
460,279,112013,2,0,L|468:324,4,30,0|0|0|0|8,0:0|0:0|0:0|0:0|0:0,0:0:0:0:
508,206,112447,5,0,0:0:0:0:
462,137,112592,1,0,0:0:0:0:
385,161,112737,2,0,P|328:173|268:128,2,120
406,79,113462,2,0,P|371:76|327:91,1,60
267,63,113752,2,0,P|240:48|219:27,1,60
154,87,114042,1,0,0:0:0:0:
330,158,114331,5,8,0:0:0:0:
330,158,114476,1,0,0:0:0:0:
330,158,114621,2,0,L|404:151,1,60,0|0,0:0|0:0,0:0:0:0:
475,296,115056,2,0,P|440:278|357:313,1,120
204,347,115636,2,0,P|155:348|92:291,1,120
112,223,116071,6,0,B|137:161|137:161|133:92,1,120,8|8,0:0|0:0,0:0:0:0:
294,56,116650,2,0,B|269:118|269:118|273:187,1,120,8|8,0:0|0:0,0:0:0:0:
422,246,117230,2,0,B|353:228|353:228|281:248,1,120,8|8,0:0|0:0,0:0:0:0:
156,166,117810,2,0,B|225:184|225:184|297:164,1,120,8|8,0:0|0:0,0:0:0:0:
435,210,118389,2,0,L|377:192,1,60,8|0,0:0|0:0,0:0:0:0:
331,263,118679,1,8,0:0:0:0:
331,263,118824,2,0,L|388:280,1,60,2|8,0:0|0:0,0:0:0:0:
377,192,119114,6,0,L|319:174,1,60,2|0,0:0|0:0,0:0:0:0:
252,229,119404,2,0,L|190:232,1,60,2|0,0:0|0:0,0:0:0:0:
172,316,119694,2,0,L|110:352,1,60,2|0,0:0|0:0,0:0:0:0:
46,304,119984,1,0,0:0:0:0:
76,226,120128,2,0,L|94:176,4,30,0|0|0|0|4,0:3|0:3|0:3|0:3|0:3,0:3:0:0:
192,269,141867,6,0,P|212:224|194:152,1,120,4|0,0:0|0:0,0:0:0:0:
149,87,142736,1,0,0:0:0:0:
149,87,142881,1,0,0:0:0:0:
232,91,143171,2,0,P|258:91|381:49,1,150
489,176,144475,6,0,P|463:176|361:205,1,120
343,229,145200,2,0,P|325:246|291:265,1,60
254,276,145635,1,0,0:0:0:0:
67,120,145924,6,0,L|59:89,1,30,0|0,0:0|0:0,0:0:0:0:
100,99,146214,2,0,L|100:66,1,30
140,82,146504,2,0,P|168:73|258:110,1,120,4|0,0:0|0:0,0:0:0:0:
361,160,147519,2,0,P|377:112|368:70,1,90
398,261,148388,6,0,L|409:320,2,45.0000017166138
328,216,148823,2,0,B|292:212|263:234|251:272|251:272|220:303|167:308|133:269,1,225.000008583069
192,222,149693,1,0,0:0:0:0:
192,222,149838,1,2,0:0:0:0:
328,294,150127,1,2,0:0:0:0:
328,294,150272,2,0,P|378:302|461:254,1,135.000005149841,8|2,0:0|0:0,0:0:0:0:
484,188,150852,2,0,L|491:136,1,45.0000017166138,8|0,0:0|0:0,0:0:0:0:
414,153,151142,6,0,P|378:137|294:178,1,120
264,236,151577,1,8,0:0:0:0:
246,68,151867,1,0,0:0:0:0:
115,174,152156,2,0,B|160:152|160:152|234:144,1,120,2|2,0:0|0:0,0:0:0:0:
295,197,152591,1,8,0:0:0:0:
295,197,152736,2,0,P|242:197|291:268,1,180,0|8,0:0|0:2,0:0:0:0:
236,109,153461,6,0,L|171:104,1,60
116,164,153751,1,8,0:0:0:0:
116,164,153895,2,0,P|163:182|190:180,1,60,0|0,0:0|0:0,0:0:0:0:
256,184,154185,1,8,0:0:0:0:
256,184,154330,2,0,L|255:268,1,60,0|0,0:0|0:0,0:0:0:0:
312,306,154620,5,8,0:0:0:0:
312,306,154765,2,0,B|259:277|259:277|190:311,1,120,0|8,0:0|0:0,0:0:0:0:
136,253,155200,2,0,B|179:231|179:231|197:207|197:179|181:149,1,120,0|8,0:0|0:0,0:0:0:0:
107,136,155635,1,0,0:0:0:0:
107,136,155780,6,0,L|97:66,1,60,0|0,0:0|0:0,0:0:0:0:
172,35,156069,1,8,0:0:0:0:
172,35,156214,2,0,P|210:42|239:64,1,60
233,137,156504,2,0,P|194:129|165:107,1,60,8|0,0:0|0:0,0:0:0:0:
123,183,156794,6,0,P|173:210|250:215,1,120,8|0,0:0|0:0,0:0:0:0:
310,177,157229,1,8,0:0:0:0:
458,255,157519,1,0,0:0:0:0:
366,113,157809,1,0,0:0:0:0:
310,177,157953,1,0,0:0:0:0:
235,137,158098,6,0,L|158:147,1,60,8|0,0:2|0:0,0:0:0:0:
97,111,158388,1,8,0:0:0:0:
97,111,158533,2,0,P|90:147|101:184,1,60,0|2,0:0|0:0,0:0:0:0:
172,203,158823,2,0,P|179:167|168:130,1,60,0|8,0:0|0:0,0:0:0:0:
261,202,159113,6,0,P|296:214|368:167,2,120
193,278,159838,2,0,P|232:304|320:311,1,120,2|8,0:0|0:0,0:0:0:0:
359,257,160272,1,0,0:0:0:0:
359,257,160417,6,0,L|442:256,1,60,2|0,0:0|0:0,0:0:0:0:
491,214,160707,1,8,0:0:0:0:
491,214,160852,2,0,P|506:263|499:297,1,60,0|2,0:0|0:0,0:0:0:0:
409,176,161142,2,0,P|443:138|476:127,1,60,0|8,0:0|0:0,0:0:0:0:
418,256,161432,6,0,B|405:262|380:254|366:243|366:243|342:245|318:255|305:274,1,120
337,382,161867,2,0,P|360:351|372:311,1,60,8|0,0:0|0:0,0:0:0:0:
259,338,162156,1,2,0:0:0:0:
418,189,162446,1,8,0:0:0:0:
461,257,162591,5,0,0:0:0:0:
465,262,162663,1,0,0:0:0:0:
469,265,162736,2,0,P|434:276|402:270,1,60,2|0,0:0|0:0,0:0:0:0:
335,218,163026,1,8,0:0:0:0:
345,139,163171,2,0,P|380:128|412:134,1,60,0|2,0:0|0:0,0:0:0:0:
471,178,163461,1,0,0:0:0:0:
461,257,163606,2,0,L|448:344,1,60,8|0,0:0|0:0,0:0:0:0:
385,358,163895,5,2,0:0:0:0:
349,281,164040,2,0,P|314:260|236:308,1,120
209,354,164475,2,0,P|177:323|194:234,1,120,2|8,0:0|0:0,0:0:0:0:
239,193,164910,1,0,0:0:0:0:
293,129,165055,6,0,P|301:100|299:67,1,60,2|0,0:0|0:0,0:0:0:0:
218,93,165345,1,8,0:0:0:0:
158,152,165490,2,0,P|127:161|97:155,1,60,0|2,0:0|0:0,0:0:0:0:
68,234,165780,2,0,L|134:232,1,60,0|8,0:0|0:0,0:0:0:0:
166,307,166069,6,0,P|191:275|269:280,1,120
335,323,166504,2,0,L|319:205,2,120,8|2|8,0:0|0:0|0:0,0:0:0:0:
422,344,167229,5,0,0:0:0:0:
422,344,167301,1,0,0:0:0:0:
422,344,167374,2,0,L|427:274,1,60,2|0,0:0|0:0,0:0:0:0:
427,200,167664,1,8,0:0:0:0:
356,245,167809,2,0,P|315:250|292:245,1,60,0|2,0:0|0:0,0:0:0:0:
285,162,168098,2,0,P|326:157|349:162,1,60,0|8,0:0|0:0,0:0:0:0:
427,200,168388,6,0,L|424:138,1,60,0|2,0:0|0:0,0:0:0:0:
346,100,168678,2,0,L|343:162,1,60,0|8,0:0|0:0,0:0:0:0:
319,240,168968,1,0,0:0:0:0:
319,240,169113,2,0,P|354:233|388:236,1,60,2|0,0:0|0:0,0:0:0:0:
462,242,169403,1,8,0:0:0:0:
425,166,169548,1,0,0:0:0:0:
378,234,169693,6,0,P|379:273|384:299,1,60,2|0,0:0|0:0,0:0:0:0:
285,263,169982,2,0,P|298:299|310:322,1,60,8|0,0:0|0:0,0:0:0:0:
201,320,170272,2,0,P|226:349|246:366,1,60,2|0,0:0|0:0,0:0:0:0:
211,243,170562,1,8,0:0:0:0:
162,168,170707,5,0,0:0:0:0:
162,168,170780,1,0,0:0:0:0:
162,168,170852,2,0,P|205:158|237:164,1,60,8|0,0:0|0:0,0:0:0:0:
232,80,171142,2,0,P|271:100|291:125,1,60,8|0,0:0|0:0,0:0:0:0:
350,69,171432,2,0,P|366:110|366:143,1,60,8|0,0:0|0:0,0:0:0:0:
350,223,171722,1,0,0:0:0:0:
350,223,171867,1,8,0:0:0:0:
288,284,172011,6,0,P|335:307|401:293,1,120,2|8,0:0|0:2,0:0:0:0:
331,145,172591,2,0,P|284:122|218:136,1,120,0|8,0:0|0:0,0:0:0:0:
167,202,173026,2,0,B|176:267|176:267|203:321,1,120
277,349,173461,2,0,B|340:337|340:337|414:353,1,120,8|0,0:0|0:0,0:0:0:0:
459,300,173895,1,0,0:0:0:0:
459,300,174040,1,8,0:0:0:0:
440,122,174330,6,0,P|409:158|423:239,1,120,0|8,0:0|0:0,0:0:0:0:
307,153,174910,2,0,P|337:116|323:35,1,120,0|8,0:0|0:0,0:0:0:0:
231,186,175345,2,0,B|165:196|165:196|99:172,1,120
59,113,175780,2,0,P|50:80|62:50,1,60,8|0,0:0|0:0,0:0:0:0:
137,85,176069,2,0,L|202:97,1,60,0|0,3:0|3:0,0:0:0:0:
172,11,176359,1,0,0:0:0:0:
325,164,176649,6,0,P|353:121|324:49,1,120,0|8,0:0|0:0,0:0:0:0:
222,183,177229,2,0,P|203:238|232:288,1,120,0|8,0:0|0:0,0:0:0:0:
394,234,177664,2,0,B|339:213|339:213|276:231,1,120
359,315,178098,2,0,B|414:336|414:336|477:318,1,120,8|0,0:0|0:0,0:0:0:0:
483,238,178533,1,0,0:0:0:0:
483,238,178678,1,8,0:0:0:0:
419,101,178968,5,0,0:0:0:0:
402,279,179258,1,8,0:0:0:0:
341,131,179548,2,0,P|303:110|216:124,1,120,0|8,0:0|0:0,0:0:0:0:
172,220,179982,2,0,B|228:243|228:243|284:191,1,120
106,177,180417,2,0,P|67:195|49:216,1,60,8|0,0:0|0:0,0:0:0:0:
161,123,180707,2,0,L|154:50,1,60,8|0,0:2|3:0,0:0:0:0:
68,50,180997,1,0,0:0:0:0:
98,225,181287,6,0,P|146:254|255:198,1,180
289,132,181866,1,2,0:2:0:0:
99,95,182156,1,0,0:0:0:0:
99,95,182301,2,0,B|144:113|144:113|231:113,1,120,0|0,0:0|0:0,0:0:0:0:
280,54,182736,1,2,0:2:0:0:
371,194,183026,6,0,B|389:134|389:134|362:13,1,180
280,54,183605,1,2,0:2:0:0:
146,156,183895,1,0,0:0:0:0:
146,156,184040,2,0,B|197:178|197:178|277:154,1,120
334,133,184475,1,6,0:2:0:0:
268,80,184620,1,0,0:0:0:0:
268,80,184765,6,0,B|340:52|340:52|388:59|388:59|464:31,1,180,0|0,0:0|0:0,0:0:0:0:
494,103,185344,2,0,P|504:156|474:222,1,120,2|0,0:2|0:0,0:0:0:0:
408,260,185779,2,0,L|288:241,1,120
206,227,186214,1,2,0:2:0:0:
109,95,186504,5,0,0:0:0:0:
178,151,186649,2,0,B|227:145|227:145|257:153|257:153|315:146,1,120
379,159,187084,2,0,P|400:124|366:42,1,120,2|0,0:2|0:0,0:0:0:0:
298,25,187518,1,0,0:0:0:0:
298,25,187663,2,0,L|237:31,1,60,6|0,0:2|0:0,0:0:0:0:
175,79,187953,2,0,L|114:85,1,60,6|0,0:2|0:0,0:0:0:0:
59,148,188243,5,0,0:0:0:0:
59,148,188388,2,0,L|50:222,1,60,2|0,0:0|0:0,0:0:0:0:
32,290,188678,1,0,0:0:0:0:
32,290,188823,2,0,B|82:280|82:280|115:290|115:290|163:282,1,120,2|0,0:2|0:0,0:0:0:0:
232,268,189258,1,2,0:0:0:0:
232,268,189402,2,0,L|214:199,1,60,0|0,0:0|0:0,0:0:0:0:
196,127,189692,2,0,B|237:135|237:135|274:123|274:123|313:132,1,120,2|0,0:2|0:0,0:0:0:0:
396,142,190127,5,2,0:0:0:0:
396,142,190272,2,0,L|417:71,1,60
497,86,190562,2,0,B|485:125|485:125|496:162|496:162|481:217,1,120,2|0,0:2|0:0,0:0:0:0:
436,269,190997,2,0,B|397:261|397:261|363:272|363:272|308:261,1,120,2|0,0:0|0:0,0:0:0:0:
249,216,191431,1,6,0:2:0:0:
189,275,191576,1,0,0:0:0:0:
189,275,191721,6,0,L|122:267,1,60,0|2,0:0|0:0,0:0:0:0:
117,184,192011,2,0,L|176:191,1,60
152,109,192301,2,0,B|103:103|103:103|73:110|73:110|10:103,1,120,2|0,0:2|0:0,0:0:0:0:
13,23,192736,2,0,B|52:27|52:27|82:20|82:20|131:26,1,120,2|0,0:0|0:0,0:0:0:0:
210,55,193171,1,2,0:2:0:0:
229,221,193460,6,0,P|218:193|220:163,1,60,0|2,0:0|0:0,0:0:0:0:
304,167,193750,2,0,P|314:139|312:109,1,60
270,35,194040,2,0,B|309:34|309:34|342:18|342:18|397:20,1,120,2|0,0:2|0:0,0:0:0:0:
459,61,194475,1,2,0:0:0:0:
293,111,194765,6,0,L|361:111,1,60,0|6,0:0|0:2,0:0:0:0:
453,157,195055,1,0,0:0:0:0:
