osu file format v14

[General]
AudioFilename: Rou-selfish.mp3
AudioLeadIn: 0
PreviewTime: 44625
Countdown: 0
SampleSet: Soft
StackLeniency: 0.7
Mode: 0
LetterboxInBreaks: 0
WidescreenStoryboard: 0

[Editor]
Bookmarks: 5349,14625,23900,33175,44769,63320,72596,103900,120422
DistanceSpacing: 1.4
BeatDivisor: 6
GridSize: 4
TimelineZoom: 3.199998

[Metadata]
Title:SELFISH
TitleUnicode:SELFISH
Artist:muzzle-lab
ArtistUnicode:まずらぼ
Creator:Sauziteoi
Version:Extra
Source:
Tags:獣音ロウ kemonone rou ユウマ Yuuma 吟p ぎんP Gin-P clavinord 緑のたぬP Midori no Tanu ロクサメル TRICHROMATIK UTAU獣人 utau juujin furry
BeatmapID:776522
BeatmapSetID:352375

[Difficulty]
HPDrainRate:6
CircleSize:4
OverallDifficulty:9
ApproachRate:9.5
SliderMultiplier:1.8
SliderTickRate:1

[Events]
//Background and Video events
0,0,"BG.jpg",0,0
//Break Periods
2,120618,141289
//Storyboard Layer 0 (Background)
//Storyboard Layer 1 (Fail)
//Storyboard Layer 2 (Pass)
//Storyboard Layer 3 (Foreground)
//Storyboard Sound Samples

[TimingPoints]
712,289.855072463768,4,2,1,60,1,0
712,-133.333333333333,4,2,1,60,0,0
5349,-100,4,1,1,70,0,0
14625,-100,4,1,2,60,0,0
23320,-100,4,1,1,60,0,0
23900,-100,4,1,1,70,0,0
33175,-133.333333333333,4,1,1,70,0,0
44769,-83.3333333333333,4,1,1,80,0,1
63320,-100,4,1,1,65,0,0
72596,289.855072463768,6,1,1,60,1,0
72596,-133.333333333333,6,1,1,60,0,0
87088,289.855072463768,4,1,1,70,1,0
87088,-100,6,1,1,70,0,0
95493,-100,6,1,1,60,0,0
96073,-200,6,1,1,60,0,0
96363,289.855072463768,6,1,1,60,1,0
96363,-133.333333333333,6,1,1,60,0,0
103899,289.855072463768,4,1,3,60,1,0
103899,-117.647058823529,6,1,3,60,0,0
107956,289.855072463768,4,1,3,60,1,0
107956,-117.647058823529,4,1,3,60,0,0
112013,-117.647058823529,4,1,1,60,0,0
112303,289.855072463768,4,1,1,60,1,0
112303,-117.647058823529,4,1,1,60,0,0
112447,-117.647058823529,4,1,3,60,0,0
113172,289.855072463768,4,1,3,60,1,0
113172,-117.647058823529,4,1,3,60,0,0
116071,289.855072463768,4,1,3,60,1,0
116071,-100,6,1,3,60,0,0
120128,-100,6,1,1,60,0,0
120418,289.855072463768,4,1,1,60,1,0
141867,289.855072463768,4,2,0,60,1,0
141867,-200,4,2,0,60,0,0
143461,-200,6,2,0,30,0,0
143533,-200,6,2,0,60,0,0
148388,-200,6,1,1,50,0,0
151142,-133.333333333333,6,1,1,60,0,0
151867,-100,6,1,1,70,0,0
153461,-76.9230769230769,6,1,1,80,0,0
158098,-76.9230769230769,6,1,1,80,0,1
172011,-100,6,1,1,70,0,0
181287,289.855072463768,6,1,3,60,1,0
181287,-133.333333333333,6,1,3,60,0,0

[Colours]
Combo1 : 255,110,110
Combo2 : 20,76,125
Combo3 : 0,28,220
Combo4 : 0,192,254
Combo5 : 254,130,170

[HitObjects]
157,153,712,6,0,P|165:113|165:77,1,67.5000025749208,2|0,0:0|0:0,0:0:0:0:
145,177,1001,1,0,0:0:0:0:
258,133,1146,2,0,P|299:126|337:127,1,67.5000025749208,2|0,0:0|0:0,0:0:0:0:
324,125,1436,1,0,0:0:0:0:
195,258,1581,2,0,P|128:267|115:267,1,67.5000025749208,2|0,0:0|0:0,0:0:0:0:
212,240,1871,1,0,0:0:0:0:
279,320,2016,2,0,P|315:293|428:309,1,135.000005149842,2|0,0:0|0:0,0:0:0:0:
471,149,2451,1,2,0:0:0:0:
481,133,2740,6,0,P|492:97|492:57,1,67.5000025749208,2|0,0:0|0:0,0:0:0:0:
413,211,3030,1,2,0:0:0:0:
413,211,3320,1,0,0:0:0:0:
334,163,3465,2,0,P|296:155|248:168,1,67.5000025749208,2|0,0:0|0:0,0:0:0:0:
103,262,3755,1,0,0:0:0:0:
103,262,4045,2,0,P|123:204|100:137,1,135.000005149842,2|0,0:0|0:0,0:0:0:0:
108,276,4480,2,0,L|190:264,1,67.5000025749208,2|0,0:0|0:0,0:0:0:0:
399,319,4769,6,0,L|358:325,1,33.7500012874604,2|0,0:0|0:0,0:0:0:0:
259,278,4914,2,0,L|300:284,1,33.7500012874604,2|0,0:0|0:0,0:0:0:0:
449,205,5059,2,0,L|413:234,1,33.7500012874604,8|0,0:0|0:0,0:0:0:0:
257,146,5204,2,0,L|293:175,1,33.7500012874604,2|0,0:0|0:0,0:0:0:0:
400,117,5349,6,0,P|412:66|404:22,1,90,2|0,0:0|0:0,0:0:0:0:
332,229,5639,2,0,L|352:332,1,90,8|0,0:0|0:0,0:0:0:0:
347,199,5929,1,2,0:0:0:0:
121,164,6074,1,0,0:0:0:0:
321,71,6219,1,8,0:0:0:0:
195,213,6364,6,0,B|162:209|131:215|131:215|107:212|107:212|89:217|89:217|46:229|5:209,1,180
17,214,6726,1,0,0:0:0:0:
17,214,6798,1,8,0:0:0:0:
88,89,6943,1,0,0:0:0:0:
183,324,7088,1,2,0:0:0:0:
357,187,7233,1,0,0:0:0:0:
312,180,7306,1,0,0:0:0:0:
267,183,7378,1,8,0:0:0:0:
442,320,7523,1,0,0:0:0:0:
328,89,7668,6,0,P|272:83|230:83,1,90,2|0,0:0|0:0,0:0:0:0:
391,197,7958,2,0,P|447:203|489:203,1,90,8|0,0:0|0:0,0:0:0:0:
358,186,8248,1,2,0:0:0:0:
176,273,8393,1,0,0:0:0:0:
346,354,8538,1,8,0:0:0:0:
238,203,8683,6,0,B|226:168|235:128|235:128|231:115|231:115|236:104|236:104|245:71|229:24,1,180
230,27,9045,1,0,0:0:0:0:
230,27,9117,1,8,0:0:0:0:
112,216,9262,1,0,0:0:0:0:
279,337,9407,5,0,3:0:0:0:
329,336,9480,1,0,3:0:0:0:
377,320,9552,1,0,3:0:0:0:
418,291,9625,1,0,3:0:0:0:
450,252,9697,1,0,3:0:0:0:
468,205,9769,1,0,3:0:0:0:
472,155,9842,1,0,3:0:0:0:
461,105,9914,1,0,3:0:0:0:
437,61,9987,6,0,P|379:55|337:57,1,90,2|0,0:0|0:0,0:0:0:0:
260,245,10277,2,0,B|274:202|274:202|253:147,1,90,8|0,0:2|0:0,0:0:0:0:
207,317,10567,1,2,0:0:0:0:
84,180,10711,1,0,0:0:0:0:
246,134,10856,1,8,0:0:0:0:
29,297,11001,6,0,B|50:253|31:220|31:220|36:206|36:206|33:191|33:191|25:165|37:112,1,180
34,122,11364,1,0,0:0:0:0:
34,122,11436,1,8,0:0:0:0:
103,343,11581,1,0,0:0:0:0:
148,171,11726,1,2,0:0:0:0:
287,278,11871,1,0,0:0:0:0:
329,290,11943,1,0,0:0:0:0:
372,303,12016,2,0,L|467:294,1,90,8|0,0:0|0:0,0:0:0:0:
183,234,12306,6,0,P|129:231|81:249,1,90,2|0,0:0|0:0,0:0:0:0:
220,249,12596,1,8,0:0:0:0:
401,167,12740,1,0,0:0:0:0:
228,114,12885,2,0,P|192:87|159:51,1,90,2|0,0:0|0:0,0:0:0:0:
454,102,13175,1,8,0:0:0:0:
191,191,13320,6,0,B|152:198|122:190|122:190|104:180|104:180|86:191|86:191|53:177|1:183,1,180
247,256,13755,1,8,0:0:0:0:
310,47,13900,1,0,0:0:0:0:
328,282,14045,2,0,L|338:230,1,45,2|0,0:0|0:0,0:0:0:0:
375,96,14190,2,0,L|378:153,1,45
473,313,14335,2,0,L|462:218,1,90,8|0,0:0|0:0,0:0:0:0:
172,320,14625,5,2,0:0:0:0:
257,282,14769,1,0,0:0:0:0:
126,245,14914,2,0,P|61:244|17:246,1,90,8|2,0:0|0:0,0:0:0:0:
321,201,15204,2,0,P|386:202|430:200,1,90,2|0,0:0|0:0,0:0:0:0:
293,175,15494,1,8,0:0:0:0:
54,295,15639,6,0,P|98:328|213:269,1,180
223,118,16074,1,8,0:0:0:0:
32,266,16219,1,2,0:0:0:0:
39,86,16364,2,0,L|147:95,1,90,2|0,0:0|0:0,0:0:0:0:
381,204,16654,1,8,0:0:0:0:
129,202,16798,1,0,0:0:0:0:
300,158,16943,6,0,B|345:146|374:159|374:159|390:150|390:150|404:158|404:158|430:164|477:146,1,180,2|8,0:0|0:0,0:0:0:0:
493,136,17378,1,2,0:0:0:0:
314,256,17523,2,0,L|210:247,1,90,2|0,0:0|0:0,0:0:0:0:
409,308,17813,1,8,0:0:0:0:
353,141,17958,6,0,B|346:95|346:95|353:45,1,90,0|2,0:0|0:0,0:0:0:0:
431,341,18248,1,0,0:0:0:0:
370,173,18393,1,8,0:0:0:0:
241,88,18538,1,2,0:0:0:0:
230,342,18683,1,2,0:0:0:0:
202,254,18827,1,0,0:0:0:0:
119,206,18972,2,0,L|21:215,1,90,8|0,0:0|0:0,0:0:0:0:
148,74,19262,5,2,0:0:0:0:
148,74,19407,1,0,0:0:0:0:
269,218,19552,1,8,0:0:0:0:
269,218,19697,1,2,0:0:0:0:
373,107,19842,2,0,L|262:103,1,90,2|0,0:0|0:0,0:0:0:0:
378,314,20132,1,8,0:0:0:0:
452,206,20277,6,0,B|466:163|449:125|449:125|457:112|457:112|439:76|454:32,1,180
303,144,20711,1,8,0:0:0:0:
472,237,20856,1,2,0:0:0:0:
299,292,21001,2,0,B|251:298|251:298|187:292,1,90,2|2,0:0|0:0,0:0:0:0:
371,237,21291,1,8,0:0:0:0:
156,185,21436,1,0,0:0:0:0:
351,64,21581,6,0,L|478:71,1,90,2|0,0:0|0:0,0:0:0:0:
213,111,21871,2,0,B|166:99|166:99|110:107,1,90,8|2,0:0|0:0,0:0:0:0:
284,188,22161,1,2,0:0:0:0:
259,29,22306,1,2,0:0:0:0:
72,251,22451,1,8,0:0:0:0:
239,293,22596,6,0,B|210:264|154:274|154:274|139:262|139:262|106:272|72:251,1,180
32,140,23030,1,8,0:0:0:0:
387,320,23320,1,0,0:0:0:0:
364,314,23610,5,0,0:0:0:0:
314,269,23683,1,0,0:0:0:0:
297,204,23755,1,0,0:0:0:0:
318,141,23827,1,0,0:0:0:0:
369,99,23900,2,0,L|471:95,1,90,8|0,0:2|0:0,0:0:0:0:
193,196,24190,6,0,L|91:191,1,90,8|0,0:0|0:0,0:0:0:0:
216,92,24480,1,2,0:0:0:0:
252,340,24625,1,0,0:0:0:0:
318,141,24769,1,8,0:0:0:0:
176,292,24914,6,0,P|128:328|8:268,1,180
60,140,25349,1,8,0:0:0:0:
184,257,25494,1,0,0:0:0:0:
205,80,25639,2,0,L|110:74,1,90,2|0,0:0|0:0,0:0:0:0:
187,227,25929,1,8,0:0:0:0:
323,105,26074,1,0,0:0:0:0:
292,264,26219,6,0,B|276:224|276:224|287:168,1,90,2|0,0:0|0:0,0:0:0:0:
324,340,26509,1,8,0:0:0:0:
323,105,26654,1,0,0:0:0:0:
242,327,26798,1,2,0:0:0:0:
469,249,26943,1,0,0:0:0:0:
226,203,27088,1,8,0:0:0:0:
226,203,27233,6,0,B|173:196|149:203|149:203|122:197|122:197|70:225|27:194,1,180
149,121,27668,1,8,0:0:0:0:
215,295,27813,1,0,0:0:0:0:
315,156,27958,2,0,B|317:95|317:95|306:44,1,90,2|0,0:0|0:0,0:0:0:0:
307,192,28248,1,8,0:0:0:0:
452,157,28393,1,0,0:0:0:0:
304,305,28538,6,0,L|196:292,1,90,2|0,0:0|0:0,0:0:0:0:
332,328,28827,1,8,0:0:0:0:
212,204,28972,1,0,0:0:0:0:
71,293,29117,2,0,L|176:282,1,90,2|0,0:0|0:0,0:0:0:0:
50,319,29407,1,8,0:0:0:0:
43,122,29552,6,0,P|116:66|198:100,1,180
372,229,29987,2,0,L|262:217,1,90,8|0,0:0|0:0,0:0:0:0:
450,182,30277,1,2,0:0:0:0:
271,299,30422,1,0,0:0:0:0:
365,141,30567,1,8,0:0:0:0:
453,272,30711,1,0,0:0:0:0:
221,226,30856,6,0,L|112:219,1,90,2|0,0:0|0:0,0:0:0:0:
252,209,31146,1,8,0:0:0:0:
188,57,31291,2,0,L|192:161,1,90,0|2,0:0|0:0,0:0:0:0:
164,320,31581,1,0,0:0:0:0:
321,128,31726,1,8,0:0:0:0:
246,295,31871,6,0,B|201:286|164:293|164:293|137:284|137:284|95:306|33:286,1,180
325,244,32306,1,4,0:3:0:0:
339,248,32596,2,0,L|390:235,1,45
504,286,32740,2,0,L|453:273,1,45
262,186,32885,2,0,L|314:158,1,45
449,144,33030,2,0,L|409:122,1,45
250,64,33175,6,0,P|194:45|116:71,1,135.000005149842,8|0,0:2|0:0,0:0:0:0:
117,80,33610,1,0,0:0:0:0:
347,151,33755,1,8,0:0:0:0:
347,151,34045,1,0,0:0:0:0:
347,151,34190,2,0,P|351:98|349:62,1,67.5000025749208,0|2,0:0|0:0,0:0:0:0:
283,213,34480,5,0,0:0:0:0:
424,189,34625,1,0,0:0:0:0:
261,127,34769,1,0,0:0:0:0:
388,294,34914,2,0,L|463:281,1,67.5000025749208,8|0,0:0|0:0,0:0:0:0:
261,315,35204,2,0,L|174:304,1,67.5000025749208
32,215,35494,6,0,P|61:189|157:204,1,135.000005149842,2|0,0:0|0:0,0:0:0:0:
157,214,35929,1,0,0:0:0:0:
72,33,36074,1,8,0:0:0:0:
72,33,36364,1,0,0:0:0:0:
72,33,36509,6,0,L|74:107,1,67.5000025749208,0|2,0:0|0:0,0:0:0:0:
84,300,36798,1,0,0:0:0:0:
192,127,36943,1,0,0:0:0:0:
177,284,37088,1,0,0:0:0:0:
39,219,37233,2,0,P|34:164|34:140,1,67.5000025749208,8|0,0:0|0:0,0:0:0:0:
273,208,37523,2,0,L|187:211,1,67.5000025749208
299,88,37813,6,0,P|330:63|439:80,1,135.000005149842,2|0,0:0|0:0,0:0:0:0:
429,82,38248,1,0,0:0:0:0:
324,279,38393,1,8,0:0:0:0:
324,279,38683,1,0,0:0:0:0:
324,279,38827,6,0,B|254:296|254:296|171:281,1,135.000005149842
352,257,39262,2,0,B|392:249|415:255|415:255|432:244|432:244|455:258|497:242,1,135.000005149842,0|8,0:0|0:0,0:0:0:0:
396,337,39697,1,0,0:0:0:0:
356,176,39842,1,8,0:0:0:0:
200,253,39987,1,0,0:0:0:0:
155,110,40132,6,0,B|209:99|209:99|319:111,1,135.000005149842,2|0,0:0|0:0,0:0:0:0:
299,120,40567,1,0,0:0:0:0:
90,45,40711,1,8,0:0:0:0:
90,45,41001,1,0,0:0:0:0:
90,45,41146,6,0,B|61:98|61:98|72:180,1,135.000005149842
162,336,41581,2,0,B|191:283|191:283|180:201,1,135.000005149842,0|8,0:0|0:0,0:0:0:0:
168,195,42016,1,0,0:0:0:0:
307,212,42161,1,0,0:0:0:0:
167,103,42306,1,0,0:0:0:0:
266,303,42451,6,0,P|305:295|346:304,1,67.5000025749208,8|0,0:0|0:0,0:0:0:0:
478,170,42740,2,0,B|443:184|443:184|389:182,1,67.5000025749208,8|0,0:0|0:0,0:0:0:0:
317,57,43030,2,0,L|326:138,1,67.5000025749208,8|0,0:0|0:0,0:0:0:0:
299,29,43320,1,8,0:0:0:0:
384,200,43465,6,0,B|396:240|386:265|386:265|394:282|394:282|386:309|400:352,1,135.000005149842
190,228,43900,1,4,0:3:0:0:
322,349,44190,5,0,3:0:0:0:
367,340,44262,1,0,3:0:0:0:
407,317,44335,1,0,3:0:0:0:
440,284,44407,1,0,3:0:0:0:
460,243,44480,1,0,3:0:0:0:
468,197,44552,1,0,3:0:0:0:
461,152,44625,1,0,3:0:0:0:
441,110,44697,1,0,3:0:0:0:
410,76,44769,6,0,B|356:65|356:65|303:72,1,107.999996704102,8|0,0:2|0:0,0:0:0:0:
340,267,45059,1,8,0:0:0:0:
214,137,45204,2,0,L|223:22,1,107.999996704102,0|2,0:0|0:0,0:0:0:0:
298,189,45494,1,0,0:0:0:0:
125,282,45639,2,0,P|72:271|3:282,1,107.999996704102,8|0,0:0|0:0,0:0:0:0:
283,350,45929,1,2,0:0:0:0:
156,202,46074,6,0,B|116:163|130:111|130:111|116:104|116:104|139:53|109:9,1,215.999993408203
125,282,46509,1,2,0:0:0:0:
351,297,46654,1,0,0:0:0:0:
221,112,46798,1,8,0:0:0:0:
283,350,46943,1,0,0:0:0:0:
303,158,47088,6,0,B|308:92|308:92|292:40,1,107.999996704102,2|0,0:0|0:0,0:0:0:0:
68,164,47378,1,8,0:0:0:0:
328,181,47523,2,0,L|445:188,1,107.999996704102,0|2,0:0|0:0,0:0:0:0:
262,248,47813,1,0,0:0:0:0:
212,42,47958,1,8,0:0:0:0:
176,289,48103,6,0,B|226:311|257:288|257:288|279:299|279:299|317:273|393:302,1,215.999993408203
166,130,48538,1,8,0:0:0:0:
92,315,48683,1,0,0:0:0:0:
79,139,48827,2,0,B|66:81|66:81|78:26,1,107.999996704102,2|0,0:0|0:0,0:0:0:0:
262,141,49117,1,8,0:0:0:0:
41,213,49262,1,0,0:0:0:0:
305,319,49407,6,0,P|312:256|311:209,1,107.999996704102,2|0,0:0|0:0,0:0:0:0:
192,56,49697,1,8,0:0:0:0:
133,272,49842,2,0,P|187:257|245:271,1,107.999996704102,0|2,0:0|0:0,0:0:0:0:
96,76,50132,1,0,0:0:0:0:
189,360,50277,1,8,0:0:0:0:
60,164,50422,6,0,B|111:173|146:156|146:156|166:170|166:170|212:138|294:172,1,215.999993408203
24,248,50856,1,8,0:0:0:0:
288,182,51001,1,0,0:0:0:0:
176,52,51146,2,0,L|48:36,1,107.999996704102,2|0,0:0|0:0,0:0:0:0:
144,256,51436,1,8,0:0:0:0:
209,60,51581,1,0,0:0:0:0:
240,260,51726,6,0,B|248:300|248:300|236:368,1,107.999996704102,2|0,0:0|0:0,0:0:0:0:
160,168,52016,1,8,0:0:0:0:
373,71,52161,2,0,P|437:63|489:91,1,107.999996704102,0|2,0:0|0:0,0:0:0:0:
240,260,52451,1,0,0:0:0:0:
420,148,52596,1,8,0:0:0:0:
197,92,52740,6,0,B|153:68|109:76|109:76|93:56|93:56|29:72|-3:36,1,215.999993408203
132,272,53175,1,8,0:0:0:0:
267,16,53320,2,0,P|272:37|267:80,1,53.9999983520508
268,144,53465,1,0,0:0:0:0:
328,115,53538,1,0,0:0:0:0:
395,120,53610,1,0,0:0:0:0:
450,157,53683,1,0,0:0:0:0:
481,217,53755,2,0,P|484:278|468:326,1,107.999996704102,8|0,0:2|0:0,0:0:0:0:
248,284,54045,5,2,0:0:0:0:
395,120,54190,1,0,0:0:0:0:
132,176,54335,1,8,0:0:0:0:
375,227,54480,2,0,B|435:231|435:231|499:211,1,107.999996704102,0|2,0:0|0:0,0:0:0:0:
328,44,54769,1,0,0:0:0:0:
328,312,54914,1,8,0:0:0:0:
224,136,55059,1,0,0:0:0:0:
248,284,55204,1,2,0:0:0:0:
132,176,55349,6,0,B|92:152|100:100|100:100|80:88|80:88|92:36|32:0,1,215.999993408203
88,256,55784,2,0,B|85:309|85:309|53:361,1,107.999996704102,2|0,0:0|0:0,0:0:0:0:
351,301,56074,1,8,0:0:0:0:
71,223,56219,1,0,0:0:0:0:
280,140,56364,6,0,B|331:129|331:129|392:144,1,107.999996704102,2|0,0:0|0:0,0:0:0:0:
240,328,56654,1,8,0:0:0:0:
247,152,56798,2,0,L|263:40,1,107.999996704102,0|2,0:0|0:0,0:0:0:0:
168,268,57088,1,0,0:0:0:0:
120,108,57233,1,8,0:0:0:0:
292,260,57378,6,0,B|324:264|360:248|360:248|396:268|396:268|448:240|504:264,1,215.999993408203
344,340,57813,1,8,0:0:0:0:
224,196,57958,1,0,0:0:0:0:
424,76,58103,2,0,B|428:120|428:120|408:192,1,107.999996704102,2|0,0:0|0:0,0:0:0:0:
204,116,58393,1,8,0:0:0:0:
412,42,58538,1,0,0:0:0:0:
132,68,58683,6,0,B|80:76|80:76|16:52,1,107.999996704102,8|0,0:0|0:0,0:0:0:0:
316,136,58972,2,0,B|368:144|368:144|432:120,1,107.999996704102,8|0,0:0|0:0,0:0:0:0:
123,169,59262,2,0,B|71:177|71:177|7:153,1,107.999996704102,8|0,0:0|0:0,0:0:0:0:
324,237,59552,2,0,B|376:245|376:245|440:221,1,107.999996704102,8|0,0:0|0:0,0:0:0:0:
132,68,59842,6,0,B|112:100|112:100|124:172,1,107.999996704102,8|0,0:0|0:0,0:0:0:0:
316,136,60132,2,0,B|336:168|336:168|324:240,1,107.999996704102,8|0,0:0|0:0,0:0:0:0:
52,216,60422,2,8,B|32:248|32:248|44:320,1,107.999996704102,8|0,0:0|0:0,0:0:0:0:
232,184,60711,1,8,0:0:0:0:
208,308,60856,1,0,0:0:0:0:
256,60,61001,6,0,B|312:40|312:40|384:56,1,107.999996704102,10|0,0:0|0:0,0:0:0:0:
359,50,61219,1,0,0:0:0:0:
359,50,61291,1,8,0:0:0:0:
256,278,61436,1,0,0:0:0:0:
160,141,61581,2,0,L|174:27,1,107.999996704102,10|0,0:0|0:0,0:0:0:0:
105,232,61871,2,0,L|119:346,1,107.999996704102,8|0,0:0|0:0,0:0:0:0:
314,207,62161,5,8,0:3:0:0:
98,194,62306,1,0,0:0:0:0:
256,278,62451,2,0,B|312:293|312:293|381:278,1,107.999996704102,8|0,0:3|0:0,0:0:0:0:
149,124,62740,2,0,B|93:109|93:109|24:124,1,107.999996704102,8|0,0:3|0:0,0:0:0:0:
180,303,63030,1,8,0:3:0:0:
216,57,63175,1,0,0:0:0:0:
95,255,63320,5,2,0:3:0:0:
127,38,63465,1,0,0:0:0:0:
250,216,63610,2,0,L|256:330,1,90,8|0,0:2|0:0,0:0:0:0:
448,209,63900,1,2,0:0:0:0:
245,183,64045,1,0,0:0:0:0:
413,122,64190,1,8,0:0:0:0:
218,103,64335,6,0,B|178:83|144:95|144:95|117:77|117:77|68:90|20:40,1,180
49,64,64697,1,0,0:0:0:0:
49,64,64769,1,8,0:0:0:0:
140,230,64914,1,0,0:0:0:0:
276,38,65059,1,2,0:0:0:0:
238,217,65204,1,0,0:0:0:0:
238,217,65277,1,0,0:0:0:0:
238,217,65349,2,0,L|245:326,1,90,8|0,0:0|0:0,0:0:0:0:
416,240,65639,5,2,0:0:0:0:
197,133,65784,1,0,0:0:0:0:
367,84,65929,2,0,B|414:69|414:69|470:90,1,90,8|0,0:0|0:0,0:0:0:0:
370,316,66219,1,2,0:0:0:0:
345,101,66364,1,0,0:0:0:0:
278,347,66509,1,8,0:0:0:0:
197,133,66654,6,0,B|174:104|137:110|137:110|108:84|108:84|66:91|27:55,1,180
39,65,67016,1,0,0:0:0:0:
39,65,67088,1,8,0:0:0:0:
45,318,67233,1,0,0:0:0:0:
278,347,67378,5,0,3:0:0:0:
327,339,67451,1,0,3:0:0:0:
372,315,67523,1,0,3:0:0:0:
405,277,67596,1,0,3:0:0:0:
423,230,67668,1,0,3:0:0:0:
423,180,67740,1,0,3:0:0:0:
407,132,67813,1,0,3:0:0:0:
375,93,67885,1,0,3:0:0:0:
331,68,67958,6,0,P|264:60|221:62,1,90,2|0,0:0|0:0,0:0:0:0:
200,281,68248,1,8,0:0:0:0:
170,107,68393,1,0,0:0:0:0:
71,240,68538,2,0,B|60:290|60:290|67:363,1,90,2|0,0:0|0:0,0:0:0:0:
372,315,68827,1,8,0:0:0:0:
195,145,68972,6,0,B|142:133|117:144|117:144|96:135|96:135|65:153|21:142,1,180
20,141,69335,1,0,0:0:0:0:
20,141,69407,1,8,0:0:0:0:
239,68,69552,1,0,0:0:0:0:
362,238,69697,2,0,P|371:184|368:131,1,90,2|0,0:0|0:0,0:0:0:0:
370,148,69914,1,0,0:0:0:0:
370,148,69987,1,8,0:0:0:0:
134,276,70132,1,0,0:0:0:0:
346,270,70277,6,0,L|446:261,1,90,2|0,0:0|0:0,0:0:0:0:
142,193,70567,2,0,L|52:201,1,90,8|0,0:0|0:0,0:0:0:0:
289,337,70856,1,2,0:0:0:0:
177,120,71001,1,0,0:0:0:0:
201,333,71146,1,8,0:0:0:0:
314,69,71291,6,0,B|368:50|407:60|407:60|417:45|417:45|454:58|491:39,1,180
432,299,71726,1,8,0:0:0:0:
283,85,71871,1,0,0:0:0:0:
341,251,72016,1,8,0:2:0:0:
341,251,72088,1,0,0:0:0:0:
341,251,72161,2,0,L|316:358,1,90,0|8,0:0|0:0,0:0:0:0:
320,338,72451,1,0,0:0:0:0:
240,158,72596,5,0,0:0:0:0:
240,158,72885,2,0,P|196:148|150:148,1,67.5000025749208
159,316,73175,2,0,L|144:249,1,67.5000025749208,8|0,0:0|0:0,0:0:0:0:
144,250,73465,1,0,0:0:0:0:
320,338,73610,1,0,0:0:0:0:
320,338,73900,6,0,P|374:337|403:331,1,67.5000025749208,0|8,0:0|0:0,0:0:0:0:
368,164,74190,1,0,0:0:0:0:
298,325,74335,2,0,P|232:340|153:338,1,135.000005149842
164,339,74769,1,0,0:0:0:0:
70,214,74914,5,8,0:0:0:0:
70,214,75204,2,0,P|119:202|150:202,1,67.5000025749208
142,74,75494,2,0,P|170:102|187:144,1,67.5000025749208
49,131,75784,1,8,0:0:0:0:
234,34,75929,1,0,0:0:0:0:
70,214,76074,5,0,0:0:0:0:
70,214,76364,2,0,P|81:265|96:294,1,67.5000025749208
263,325,76653,1,8,0:0:0:0:
263,325,76943,2,0,L|284:231,1,67.5000025749208
416,248,77233,5,0,0:0:0:0:
416,248,77378,2,0,P|379:223|339:223,1,67.5000025749208,0|8,0:0|0:0,0:0:0:0:
188,248,77668,1,0,0:0:0:0:
307,161,77813,1,0,0:0:0:0:
117,204,77958,2,0,P|81:205|46:196,1,67.5000025749208
196,142,78248,1,0,0:0:0:0:
63,95,78393,5,8,0:0:0:0:
240,60,78538,2,0,L|327:78,1,67.5000025749208
83,287,78827,1,0,0:0:0:0:
83,287,78900,1,0,0:0:0:0:
83,287,78972,1,8,0:0:0:0:
145,71,79117,1,0,0:0:0:0:
145,71,79190,1,0,0:0:0:0:
145,71,79262,1,8,0:0:0:0:
168,270,79407,1,0,0:0:0:0:
285,135,79552,6,0,P|335:100|419:118,1,135.000005149842,4|0,0:2|0:0,0:0:0:0:
405,108,79987,1,0,0:0:0:0:
340,277,80132,1,8,0:0:0:0:
340,277,80422,2,0,L|266:249,1,67.5000025749208
190,355,80711,6,0,P|187:308|202:266,1,67.5000025749208
107,239,81001,2,0,L|75:247,6,22.5000008583069,8|0|0|0|0|0|0,0:0|0:0|0:0|0:0|0:0|0:0|0:0,0:0:0:0:
201,69,81436,1,0,0:0:0:0:
189,197,81581,1,0,0:0:0:0:
105,47,81726,1,0,0:0:0:0:
274,180,81871,6,0,B|284:218|278:267,1,67.5000025749208,8|0,0:0|0:0,0:0:0:0:
416,321,82161,1,0,0:0:0:0:
416,321,82306,2,0,L|428:231,1,67.5000025749208,0|8,0:0|0:0,0:0:0:0:
276,82,82596,1,0,0:0:0:0:
442,235,82740,2,0,L|475:228,6,22.5000008583069,8|0|0|0|0|0|0,0:0|0:0|0:0|0:0|0:0|0:0|0:0,0:0:0:0:
332,176,83175,5,0,0:0:0:0:
256,264,83320,1,0,0:0:0:0:
256,264,83465,1,0,0:0:0:0:
199,48,83610,1,8,0:0:0:0:
199,48,83900,1,0,0:0:0:0:
199,48,84045,2,0,P|257:55|279:63,1,67.5000025749208
267,234,84335,5,0,0:0:0:0:
291,80,84480,1,0,0:0:0:0:
353,271,84624,2,0,L|363:310,3,22.5000008583069,8|0|0|0,0:0|0:0|0:0|0:0,0:0:0:0:
417,206,84914,1,0,0:0:0:0:
179,189,85059,1,0,0:0:0:0:
337,157,85204,1,0,0:0:0:0:
106,126,85349,6,0,L|18:134,1,67.5000025749208,8|0,0:0|0:0,0:0:0:0:
136,110,85639,1,0,0:0:0:0:
289,44,85784,2,0,L|358:51,1,67.5000025749208
179,189,86074,2,0,L|155:204,3,22.5000008583069
374,226,86364,2,0,L|466:215,1,67.5000025749208
181,318,86653,6,0,P|127:312|94:303,1,67.5000025749208
126,57,86943,1,0,0:0:0:0:
346,155,87088,6,0,B|358:191|345:231|345:231|355:253|355:253|337:295|359:346,1,180,8|8,0:2|0:0,0:0:0:0:
249,122,87522,1,0,0:0:0:0:
471,78,87667,1,0,0:0:0:0:
327,36,87812,1,0,0:0:0:0:
475,198,87957,1,8,0:0:0:0:
177,218,88102,6,0,B|130:215|110:194|110:194|83:198|83:198|43:171|-6:186,1,180
137,55,88537,1,8,0:0:0:0:
214,224,88682,1,0,0:0:0:0:
212,25,88827,1,0,0:0:0:0:
158,296,88972,1,0,0:0:0:0:
292,160,89116,1,8,0:0:0:0:
292,160,89261,6,0,B|319:144|343:144|368:151|368:151|385:137|385:137|417:148|445:144|466:118,1,180
339,322,89696,1,8,0:0:0:0:
220,109,89841,1,0,0:0:0:0:
85,212,89986,2,0,B|70:259|70:259|83:307,1,90
322,240,90276,1,8,0:0:0:0:
220,109,90421,6,0,P|177:77|61:137,1,180
206,301,90856,1,8,0:0:0:0:
249,132,91001,2,0,B|285:111|330:122|330:122|350:106|350:106|390:118|425:96,1,180
252,217,91435,1,8,0:0:0:0:
141,105,91580,6,0,L|30:96,1,90,0|2,0:0|0:0,0:0:0:0:
221,214,91870,1,0,0:0:0:0:
21,97,92015,1,8,0:0:0:0:
118,313,92160,1,0,0:0:0:0:
311,144,92305,2,0,B|322:103|322:103|303:43,1,90,2|0,0:0|0:0,0:0:0:0:
133,151,92595,1,8,0:0:0:0:
375,227,92740,6,0,B|422:237|422:237|479:218,1,90,0|2,0:0|0:0,0:0:0:0:
379,67,93030,1,0,0:0:0:0:
328,298,93174,1,8,0:0:0:0:
232,175,93319,1,0,0:0:0:0:
51,295,93464,2,0,L|174:317,1,90,2|0,0:0|0:0,0:0:0:0:
15,302,93754,1,8,0:0:0:0:
254,291,93899,1,0,0:0:0:0:
256,192,93972,12,0,95203,0:0:0:0:
443,264,95493,6,0,L|484:254,4,30
360,200,95783,2,0,L|337:195,8,15
456,174,96073,2,0,L|468:120,1,45
328,64,96363,6,0,P|256:52|192:80,1,135.000005149842,4|0,0:3|0:0,0:0:0:0:
192,88,96798,1,0,0:0:0:0:
288,272,96943,1,8,0:0:0:0:
288,272,97232,1,0,0:0:0:0:
288,272,97377,2,0,L|360:268,1,67.5000025749208
192,202,97667,5,0,0:0:0:0:
234,348,97812,1,8,0:0:0:0:
274,175,97957,2,0,L|279:91,1,67.5000025749208
272,90,98247,1,0,0:0:0:0:
444,179,98392,1,0,0:0:0:0:
444,179,98682,6,0,P|406:170|372:166,1,67.5000025749208,8|0,0:0|0:0,0:0:0:0:
368,176,98972,1,0,0:0:0:0:
210,308,99116,2,0,B|185:248|185:248|198:167,1,135.000005149842
249,63,99551,1,8,0:0:0:0:
288,251,99696,1,0,0:0:0:0:
288,251,99769,1,0,0:0:0:0:
288,251,99841,6,0,L|288:342,1,67.5000025749208
402,224,100131,2,0,L|429:298,1,67.5000025749208
200,186,100421,2,0,L|120:226,1,67.5000025749208,8|0,0:0|0:0,0:0:0:0:
135,233,100711,1,0,0:0:0:0:
174,31,100856,1,0,0:0:0:0:
174,31,101145,2,0,L|261:32,1,67.5000025749208,0|8,0:0|0:0,0:0:0:0:
142,133,101435,5,0,0:0:0:0:
86,56,101580,1,0,0:0:0:0:
68,184,101725,1,8,0:0:0:0:
234,192,101870,2,0,L|223:107,1,67.5000025749208,8|0,0:0|0:0,0:0:0:0:
175,255,102160,1,8,0:0:0:0:
308,256,102305,1,0,0:0:0:0:
240,324,102450,1,8,0:0:0:0:
319,167,102595,6,0,L|341:84,1,67.5000025749208
162,62,102885,2,0,L|173:131,1,67.5000025749208,8|0,0:0|0:0,0:0:0:0:
26,293,103174,2,0,P|46:265|160:269,1,135.000005149842,8|0,0:0|0:0,0:0:0:0:
152,264,103609,1,0,0:0:0:0:
376,258,103754,1,0,0:0:0:0:
296,191,103899,5,0,0:0:0:0:
401,108,104043,1,0,0:0:0:0:
213,157,104188,2,0,B|174:158|174:158|111:147,1,76.5000014591217
288,284,104478,1,0,0:0:0:0:
303,104,104623,2,0,L|308:20,1,76.5000014591217
393,202,104913,1,0,0:0:0:0:
393,202,105058,5,0,0:0:0:0:
259,282,105203,1,0,0:0:0:0:
380,315,105348,2,0,L|477:307,1,76.5000014591217
225,266,105638,2,0,P|159:265|114:268,1,76.5000014591217
185,121,105927,2,0,P|251:122|296:119,1,76.5000014591217
261,121,106145,1,0,0:0:0:0:
261,121,106217,1,0,0:0:0:0:
162,21,106362,5,0,0:0:0:0:
361,96,106507,2,0,B|401:101|401:101|447:97,1,76.5000014591217
292,38,106797,1,0,0:0:0:0:
226,197,106942,6,0,L|236:278,1,76.5000014591217
257,122,107232,2,0,B|220:117|220:117|180:130,1,76.5000014591217
301,233,107522,2,0,L|405:227,1,76.5000014591217
226,197,107812,1,0,0:0:0:0:
311,315,107956,1,2,0:0:0:0:
293,149,108100,1,0,0:0:0:0:
293,149,108245,6,0,B|299:108|299:108|286:59,1,76.5000014591217
229,281,108535,1,0,0:0:0:0:
367,184,108680,2,0,L|445:173,1,76.5000014591217
229,281,108970,2,0,L|151:292,1,76.5000014591217,2|0,0:0|0:0,0:0:0:0:
201,73,109260,1,0,0:0:0:0:
201,73,109405,6,0,B|217:111|217:111|208:171,1,76.5000014591217
116,49,109695,1,0,0:0:0:0:
303,99,109840,1,0,0:0:0:0:
136,199,109984,2,0,L|130:293,1,76.5000014591217
303,217,110274,5,0,0:0:0:0:
54,186,110419,1,0,0:0:0:0:
239,147,110564,1,0,0:0:0:0:
239,147,110709,2,0,L|231:55,1,76.5000014591217
214,232,110999,6,0,L|220:308,1,76.5000014591217
314,150,111289,2,0,B|273:142|273:142|237:146,1,76.5000014591217,2|0,0:0|0:0,0:0:0:0:
376,201,111579,1,2,0:0:0:0:
195,293,111724,1,0,0:0:0:0:
166,297,111796,1,0,0:0:0:0:
138,301,111869,1,0,0:0:0:0:
109,306,111941,1,0,0:0:0:0:
81,310,112013,5,0,0:0:0:0:
38,272,112086,1,0,0:0:0:0:
17,219,112158,1,0,0:0:0:0:
22,163,112231,1,0,0:0:0:0:
53,115,112303,6,0,L|148:122,1,76.5000014591217,4|0,0:3|0:0,0:0:0:0:
224,287,112592,1,0,0:0:0:0:
280,97,112737,2,0,L|275:17,1,76.5000014591217,0|8,0:0|0:0,0:0:0:0:
112,202,113027,1,0,0:0:0:0:
318,268,113172,5,0,0:0:0:0:
197,158,113317,1,0,0:0:0:0:
367,113,113462,2,0,B|406:107|406:107|455:115,1,76.5000014591217
401,318,113752,1,0,0:0:0:0:
300,173,113897,1,0,0:0:0:0:
217,323,114042,2,0,B|181:335|181:335|119:333,1,76.5000014591217
188,68,114331,6,0,L|196:155,1,76.5000014591217,8|0,0:0|0:0,0:0:0:0:
126,254,114621,1,0,0:0:0:0:
296,300,114766,2,0,L|394:289,1,76.5000014591217,0|8,0:0|0:0,0:0:0:0:
365,88,115056,6,0,B|326:100|326:100|270:89,1,76.5000014591217
93,175,115346,2,0,B|132:162|132:162|186:177,1,76.5000014591217
296,300,115636,2,0,B|255:313|255:313|207:298,1,76.5000014591217
434,150,115926,5,0,0:0:0:0:
434,150,115998,1,0,0:0:0:0:
434,150,116071,2,0,L|428:261,1,90,8|0,0:0|0:0,0:0:0:0:
278,90,116360,2,0,B|320:102|320:102|365:88,1,90,8|0,0:0|0:0,0:0:0:0:
132,142,116650,2,0,L|26:137,1,90,8|0,0:0|0:0,0:0:0:0:
226,253,116940,2,0,B|245:206|245:206|230:166,1,90,8|0,0:0|0:0,0:0:0:0:
308,327,117230,6,0,L|397:331,1,90,8|0,0:0|0:0,0:0:0:0:
314,239,117520,1,8,0:0:0:0:
208,340,117665,1,0,0:0:0:0:
120,152,117810,1,8,0:0:0:0:
226,253,117955,1,0,0:0:0:0:
318,59,118099,1,8,0:0:0:0:
212,160,118244,1,0,0:0:0:0:
367,124,118389,6,0,L|468:118,1,90,8|0,0:0|0:0,0:0:0:0:
314,239,118679,1,8,0:0:0:0:
212,160,118824,2,0,B|204:116|204:116|211:72,1,90,2|8,0:0|0:0,0:0:0:0:
382,284,119114,6,0,L|477:280,1,90,2|0,0:0|0:0,0:0:0:0:
237,251,119404,2,0,L|142:247,1,90,2|0,0:0|0:0,0:0:0:0:
342,125,119694,2,0,P|355:168|334:215,1,90,2|0,0:0|0:0,0:0:0:0:
175,351,119984,1,0,0:0:0:0:
144,357,120056,1,0,0:0:0:0:
113,366,120128,5,0,0:0:0:0:
58,326,120201,1,0,0:0:0:0:
38,263,120273,1,0,0:0:0:0:
57,199,120346,1,0,0:0:0:0:
110,158,120418,1,4,0:3:0:0:
278,147,141867,6,0,P|321:136|376:155,1,90,4|0,0:0|0:0,0:0:0:0:
203,233,142446,2,0,L|110:233,1,90
44,182,142881,1,0,0:0:0:0:
44,182,143171,2,0,P|52:209|39:286,1,90
91,108,143895,6,0,L|181:103,1,90
374,75,144475,2,0,L|284:70,1,90
389,235,145055,1,0,0:0:0:0:
389,235,145200,2,0,P|403:206|411:142,1,90
321,278,145635,1,0,0:0:0:0:
127,247,145924,5,0,0:0:0:0:
207,281,146069,1,0,0:0:0:0:
121,156,146214,1,0,0:0:0:0:
131,335,146359,1,0,0:0:0:0:
208,187,146504,6,0,P|214:136|210:82,1,90,4|0,0:0|0:0,0:0:0:0:
321,278,147084,1,0,0:0:0:0:
399,324,147229,1,0,0:0:0:0:
464,258,147374,1,0,0:0:0:0:
464,258,147519,2,0,P|476:219|485:158,1,90
425,108,147953,6,0,P|392:103|320:106,1,90
260,153,148388,1,0,0:0:0:0:
260,153,148533,1,0,0:0:0:0:
260,153,148678,1,0,0:0:0:0:
259,153,148823,6,0,P|163:104|263:63,1,270
353,169,149838,2,0,L|348:267,1,90,2|2,0:0|0:0,0:0:0:0:
233,303,150272,2,0,P|199:287|137:296,1,90,8|0,0:0|0:0,0:0:0:0:
82,338,150707,1,2,0:0:0:0:
191,211,150852,1,8,0:0:0:0:
56,198,150997,1,0,0:0:0:0:
248,149,151142,6,0,L|326:155,1,67.5000025749208
153,47,151432,1,0,0:0:0:0:
118,251,151577,6,0,L|134:333,1,67.5000025749208,8|0,0:0|0:0,0:0:0:0:
265,201,151867,6,0,L|287:309,1,90
406,110,152156,6,0,L|450:297,1,180,2|2,0:0|0:0,0:0:0:0:
447,285,152591,1,8,0:0:0:0:
256,192,152609,12,8,153171,0:2:0:0:
302,99,153461,6,0,L|320:217,1,116.999994644165,0|0,0:0|0:0,0:0:0:0:
380,43,153751,1,8,0:0:0:0:
222,152,153895,2,0,B|162:148|162:148|89:109,1,116.999994644165
336,303,154185,1,8,0:0:0:0:
459,155,154330,6,0,L|469:32,1,116.999994644165
176,56,154620,1,8,0:0:0:0:
255,288,154765,2,0,B|293:303|346:285|346:285|380:303|380:303|439:275|494:303,1,233.999989288331,0|8,0:0|0:0,0:0:0:0:
177,242,155200,2,0,B|115:239|115:239|56:253,1,116.999994644165
176,56,155490,5,8,0:0:0:0:
255,288,155635,1,0,0:0:0:0:
330,105,155780,2,0,L|450:100,1,116.999994644165
392,304,156069,1,8,0:0:0:0:
243,148,156214,2,0,L|254:27,1,116.999994644165
239,187,156504,1,8,0:0:0:0:
137,57,156649,1,0,0:0:0:0:
80,275,156794,6,0,B|136:306|187:275|187:275|211:288|211:288|258:265|312:293,1,233.999989288331,8|0,0:0|0:0,0:0:0:0:
416,104,157229,2,0,L|270:124,1,116.999994644165,8|8,0:0|0:0,0:0:0:0:
91,48,157519,5,0,0:0:0:0:
67,84,157591,1,0,0:0:0:0:
66,127,157664,1,0,0:0:0:0:
88,165,157736,1,0,0:0:0:0:
125,186,157809,2,0,L|195:173,1,58.4999973220826
233,49,157953,2,0,L|175:60,1,58.4999973220826
313,220,158098,6,0,B|334:162|334:162|302:89,1,116.999994644165,8|0,0:2|0:0,0:0:0:0:
133,273,158388,1,8,0:0:0:0:
365,284,158533,2,0,L|499:274,1,116.999994644165,0|2,0:0|0:0,0:0:0:0:
424,78,158823,1,0,0:0:0:0:
299,351,158968,1,8,0:0:0:0:
99,224,159113,6,0,B|69:177|82:140|82:140|70:126|70:126|92:64|32:11,1,233.999989288331
233,49,159548,1,8,0:0:0:0:
118,250,159693,1,0,0:0:0:0:
288,120,159838,2,0,B|351:105|351:105|409:122,1,116.999994644165,2|0,0:0|0:0,0:0:0:0:
285,321,160127,1,8,0:0:0:0:
251,132,160272,1,0,0:0:0:0:
164,319,160417,6,0,L|32:340,1,116.999994644165,2|0,0:0|0:0,0:0:0:0:
122,140,160707,1,8,0:0:0:0:
299,204,160852,2,0,L|283:328,1,116.999994644165,0|2,0:0|0:0,0:0:0:0:
330,179,161142,1,0,0:0:0:0:
90,253,161287,1,8,0:0:0:0:
268,84,161432,6,0,B|298:68|346:86|346:86|366:69|366:69|426:97|491:71,1,233.999989288331
378,305,161867,1,8,0:0:0:0:
197,43,162011,1,0,0:0:0:0:
117,251,162156,2,0,L|256:257,1,116.999994644165,2|0,0:0|0:0,0:0:0:0:
456,209,162446,1,8,0:0:0:0:
200,169,162591,1,0,0:0:0:0:
385,45,162736,6,0,B|394:102|394:102|384:165,1,116.999994644165,2|0,0:0|0:0,0:0:0:0:
292,336,163026,1,8,0:0:0:0:
226,132,163171,2,0,P|170:104|91:142,1,116.999994644165,0|2,0:0|0:0,0:0:0:0:
207,335,163461,1,0,0:0:0:0:
307,142,163606,2,0,L|299:8,1,116.999994644165,8|0,0:0|0:0,0:0:0:0:
52,176,163895,1,2,0:0:0:0:
271,280,164040,6,0,B|307:291|346:277|346:277|368:287|368:287|447:256|509:293,1,233.999989288331
211,225,164475,2,0,B|145:225|145:225|90:266,1,116.999994644165,2|0,0:0|0:0,0:0:0:0:
435,193,164765,1,8,0:0:0:0:
107,121,164910,1,0,0:0:0:0:
331,63,165055,6,0,P|418:56|483:74,1,116.999994644165,2|0,0:0|0:0,0:0:0:0:
302,82,165345,1,8,0:0:0:0:
172,195,165490,2,0,P|85:202|20:184,1,116.999994644165,0|2,0:0|0:0,0:0:0:0:
219,60,165780,1,0,0:0:0:0:
251,335,165924,1,8,0:0:0:0:
427,228,166069,6,0,B|449:182|426:144|426:144|445:113|445:113|420:64|458:4,1,233.999989288331
487,305,166504,1,8,0:0:0:0:
332,115,166649,1,0,0:0:0:0:
250,284,166794,2,0,B|305:305|305:305|361:284,1,116.999994644165,2|0,0:0|0:0,0:0:0:0:
230,60,167084,1,8,0:0:0:0:
164,345,167229,1,0,0:0:0:0:
58,148,167374,6,0,L|42:28,1,116.999994644165,2|0,0:0|0:0,0:0:0:0:
64,184,167664,1,8,0:0:0:0:
276,126,167809,2,0,P|347:101|405:99,1,116.999994644165,0|2,0:0|0:0,0:0:0:0:
348,303,168098,1,0,0:0:0:0:
230,60,168243,1,8,0:0:0:0:
143,218,168388,6,0,B|126:279|126:279|141:340,1,116.999994644165,0|2,0:0|0:0,0:0:0:0:
350,186,168678,2,0,B|367:125|367:125|352:64,1,116.999994644165,0|8,0:0|0:0,0:0:0:0:
56,180,168968,1,0,0:0:0:0:
299,280,169113,2,0,B|356:262|356:262|432:284,1,116.999994644165,2|0,0:0|0:0,0:0:0:0:
237,348,169403,1,8,0:0:0:0:
179,175,169548,1,0,0:0:0:0:
386,84,169693,6,0,B|398:145|398:145|380:208,1,116.999994644165,2|0,0:0|0:0,0:0:0:0:
237,348,169982,2,0,B|225:287|225:287|240:234,1,116.999994644165,8|0,0:0|0:0,0:0:0:0:
102,26,170272,2,0,B|114:87|114:87|96:150,1,116.999994644165,2|0,0:0|0:0,0:0:0:0:
26,265,170562,1,8,0:0:0:0:
255,86,170707,1,0,0:0:0:0:
158,234,170852,6,0,B|144:293|144:293|169:382,1,116.999994644165,8|0,0:0|0:0,0:0:0:0:
324,142,171142,2,0,B|338:83|338:83|313:-6,1,116.999994644165,8|0,0:0|0:0,0:0:0:0:
423,234,171432,2,0,B|409:293|409:293|434:382,1,116.999994644165,8|0,0:0|0:0,0:0:0:0:
475,133,171722,1,0,0:0:0:0:
280,277,171867,2,0,L|151:286,1,116.999994644165,8|2,0:0|0:0,0:0:0:0:
313,253,172156,5,0,0:0:0:0:
394,99,172301,2,0,B|404:53|404:53|392:4,1,90,8|0,0:2|0:0,0:0:0:0:
214,89,172591,1,0,0:0:0:0:
431,181,172736,1,0,0:0:0:0:
154,159,172881,1,8,0:0:0:0:
294,279,173026,6,0,B|325:300|364:294|364:294|376:309|376:309|426:309|464:336,1,180
458,332,173388,1,0,0:0:0:0:
458,332,173461,1,8,0:0:0:0:
308,131,173606,1,0,0:0:0:0:
197,313,173751,1,0,0:0:0:0:
57,203,173895,1,0,0:0:0:0:
57,203,173968,1,0,0:0:0:0:
57,203,174040,2,0,B|103:191|103:191|156:209,1,90,8|0,0:0|0:0,0:0:0:0:
294,279,174330,5,0,0:0:0:0:
183,115,174475,1,0,0:0:0:0:
376,237,174620,2,0,L|484:242,1,90,8|0,0:0|0:0,0:0:0:0:
332,89,174910,1,0,0:0:0:0:
294,279,175055,1,0,0:0:0:0:
220,40,175200,1,8,0:0:0:0:
157,263,175345,6,0,B|117:236|125:196|125:196|101:178|101:178|114:146|74:107,1,180
81,114,175707,1,0,0:0:0:0:
81,114,175780,1,8,0:0:0:0:
107,338,175924,1,0,0:0:0:0:
341,339,176069,5,0,3:0:0:0:
381,320,176142,1,0,3:0:0:0:
415,290,176214,1,0,3:0:0:0:
438,252,176287,1,0,3:0:0:0:
448,208,176359,1,0,3:0:0:0:
445,163,176432,1,0,3:0:0:0:
429,122,176504,1,0,3:0:0:0:
401,87,176577,1,0,3:0:0:0:
364,62,176649,6,0,B|317:52|317:52|261:60,1,90
212,229,176939,2,0,B|259:239|259:239|315:231,1,90,8|0,0:0|0:0,0:0:0:0:
188,57,177229,1,0,0:0:0:0:
127,318,177374,1,0,0:0:0:0:
48,148,177519,1,8,0:0:0:0:
48,148,177664,6,0,B|93:130|135:149|135:149|157:132|157:132|199:150|232:135,1,180
218,139,178026,1,0,0:0:0:0:
218,139,178098,1,8,0:0:0:0:
410,227,178243,1,0,0:0:0:0:
410,227,178388,2,0,L|305:220,1,90
320,221,178606,1,0,0:0:0:0:
320,221,178678,1,8,0:0:0:0:
148,267,178823,1,0,0:0:0:0:
313,137,178968,6,0,B|325:94|325:94|310:41,1,90
238,241,179258,2,0,B|226:284|226:284|241:337,1,90,8|0,0:0|0:0,0:0:0:0:
423,253,179548,1,0,0:0:0:0:
192,131,179693,1,0,0:0:0:0:
434,168,179838,1,8,0:0:0:0:
170,208,179982,6,0,B|136:212|109:188|109:188|84:194|84:194|58:162|-2:160,1,180
170,312,180417,1,8,0:0:0:0:
252,51,180562,1,0,0:0:0:0:
292,266,180707,1,8,0:2:0:0:
292,266,180780,1,0,0:0:0:0:
292,266,180852,2,0,L|412:297,1,90
363,177,181142,1,0,0:0:0:0:
231,194,181287,5,0,0:0:0:0:
212,300,181431,1,0,0:0:0:0:
149,164,181576,1,0,0:0:0:0:
94,257,181721,1,0,0:0:0:0:
87,113,181866,2,0,L|98:23,1,67.5000025749208,2|0,0:2|0:0,0:0:0:0:
266,95,182156,5,0,0:0:0:0:
405,104,182301,1,0,0:0:0:0:
473,166,182591,5,0,0:0:0:0:
302,179,182736,2,0,L|216:184,1,67.5000025749208,2|0,0:2|0:0,0:0:0:0:
66,201,183026,5,0,0:0:0:0:
179,124,183171,1,0,0:0:0:0:
86,284,183315,1,0,0:0:0:0:
153,222,183460,1,0,0:0:0:0:
171,308,183605,2,0,L|179:384,1,67.5000025749208,2|0,0:2|0:0,0:0:0:0:
241,246,183895,5,0,0:0:0:0:
272,78,184040,1,0,0:0:0:0:
332,139,184330,5,0,0:0:0:0:
350,257,184475,2,0,L|366:332,1,67.5000025749208,6|0,0:2|0:0,0:0:0:0:
364,323,184692,1,0,0:0:0:0:
364,323,184765,5,0,0:0:0:0:
413,208,184910,1,0,0:0:0:0:
284,320,185055,1,0,0:0:0:0:
275,175,185200,1,0,0:0:0:0:
205,293,185344,2,0,L|117:312,1,67.5000025749208,2|0,0:2|0:0,0:0:0:0:
90,218,185634,5,0,0:0:0:0:
245,203,185779,1,0,0:0:0:0:
280,136,186069,5,0,0:0:0:0:
113,104,186214,2,0,L|38:94,1,67.5000025749208,2|0,0:2|0:0,0:0:0:0:
185,44,186504,5,0,0:0:0:0:
193,158,186649,1,0,0:0:0:0:
299,54,186794,1,0,0:0:0:0:
265,216,186939,1,0,0:0:0:0:
391,123,187084,2,0,L|450:80,1,67.5000025749208,2|0,0:2|0:0,0:0:0:0:
450,224,187373,5,0,0:0:0:0:
280,136,187518,2,0,L|205:145,1,67.5000025749208,0|6,0:0|0:2,0:0:0:0:
199,266,187808,1,0,0:0:0:0:
362,210,187953,1,6,0:2:0:0:
451,317,188098,1,0,0:0:0:0:
288,268,188243,5,0,0:0:0:0:
277,156,188388,1,2,0:0:0:0:
203,308,188533,1,0,0:0:0:0:
165,190,188678,1,0,0:0:0:0:
82,291,188823,2,0,L|96:367,1,67.5000025749208,2|0,0:2|0:0,0:0:0:0:
32,152,189113,5,0,0:0:0:0:
165,190,189258,1,2,0:0:0:0:
234,121,189547,5,0,0:0:0:0:
119,51,189692,2,0,L|47:69,1,67.5000025749208,2|0,0:2|0:0,0:0:0:0:
165,190,189982,5,0,0:0:0:0:
206,42,190127,1,2,0:0:0:0:
262,210,190272,1,0,0:0:0:0:
317,64,190417,1,0,0:0:0:0:
360,224,190562,2,0,L|356:295,1,67.5000025749208,2|0,0:2|0:0,0:0:0:0:
452,190,190852,5,0,0:0:0:0:
318,146,190997,1,2,0:0:0:0:
296,71,191287,5,0,0:0:0:0:
436,108,191431,2,0,L|510:98,1,67.5000025749208,6|0,0:2|0:0,0:0:0:0:
502,98,191649,1,0,0:0:0:0:
502,98,191721,5,0,0:0:0:0:
377,175,191866,1,2,0:0:0:0:
373,47,192011,1,0,0:0:0:0:
291,185,192156,1,0,0:0:0:0:
219,98,192301,2,0,L|210:25,1,67.5000025749208,2|0,0:2|0:0,0:0:0:0:
308,106,192591,5,0,0:0:0:0:
147,165,192736,1,2,0:0:0:0:
192,237,193026,5,0,0:0:0:0:
306,264,193171,2,0,L|373:253,1,67.5000025749208,2|0,0:2|0:0,0:0:0:0:
270,189,193460,5,0,0:0:0:0:
236,319,193605,1,2,0:0:0:0:
189,151,193750,1,0,0:0:0:0:
121,280,193895,1,0,0:0:0:0:
103,136,194040,2,0,L|115:54,1,67.5000025749208,2|0,0:2|0:0,0:0:0:0:
192,237,194330,5,0,0:0:0:0:
37,197,194475,1,2,0:0:0:0:
58,278,194765,5,0,0:0:0:0:
192,104,194910,1,6,0:2:0:0:
328,276,195055,1,0,0:0:0:0:
