osu file format v14

[General]
AudioFilename: Rou-selfish.mp3
AudioLeadIn: 0
PreviewTime: 44625
Countdown: 0
SampleSet: Normal
StackLeniency: 0.7
Mode: 0
LetterboxInBreaks: 0
WidescreenStoryboard: 0

[Editor]
Bookmarks: 5349,14625,23900,33175,44769,63320,72596,103900,120422
DistanceSpacing: 0.5
BeatDivisor: 4
GridSize: 4
TimelineZoom: 2

[Metadata]
Title:SELFISH
TitleUnicode:SELFISH
Artist:muzzle-lab
ArtistUnicode:まずらぼ
Creator:Sauziteoi
Version:Easy
Source:
Tags:獣音ロウ kemonone rou ユウマ Yuuma 吟p ぎんP Gin-P clavinord 緑のたぬP Midori no Tanu ロクサメル TRICHROMATIK UTAU獣人 utau juujin furry
BeatmapID:887386
BeatmapSetID:352375

[Difficulty]
HPDrainRate:2
CircleSize:3
OverallDifficulty:2
ApproachRate:3
SliderMultiplier:0.799999999999999
SliderTickRate:1

[Events]
//Background and Video events
0,0,"BG.jpg",0,0
//Break Periods
2,5548,12895
2,120618,140427
//Storyboard Layer 0 (Background)
//Storyboard Layer 1 (Fail)
//Storyboard Layer 2 (Pass)
//Storyboard Layer 3 (Foreground)
//Storyboard Sound Samples

[TimingPoints]
712,289.855072463768,4,2,1,60,1,0
5349,-100,4,1,1,70,0,0
14625,-100,4,1,2,60,0,0
23320,-100,4,1,1,60,0,0
23900,-100,4,1,1,70,0,0
44769,-100,4,1,1,80,0,1
63320,-100,4,1,1,65,0,0
72596,289.855072463768,6,1,1,60,1,0
87088,289.855072463768,4,1,1,70,1,0
95493,-100,6,1,1,60,0,0
96363,289.855072463768,6,1,1,60,1,0
96363,-100,6,1,1,60,0,0
103899,289.855072463768,4,1,3,60,1,0
107956,289.855072463768,4,1,3,60,1,0
112303,289.855072463768,4,1,3,60,1,0
113172,289.855072463768,4,1,3,60,1,0
116071,289.855072463768,4,1,3,60,1,0
120128,-100,6,1,1,60,0,0
120418,289.855072463768,4,1,1,60,1,0
141867,289.855072463768,4,2,0,60,1,0
148823,-100,6,1,1,50,0,0
151142,-100,6,1,1,60,0,0
151867,-100,6,1,1,70,0,0
153461,-100,6,1,1,80,0,0
158098,-100,6,1,1,80,0,1
172011,-100,6,1,1,70,0,0
181287,289.855072463768,6,1,3,60,1,0
181287,-100,6,1,3,60,0,0

[Colours]
Combo1 : 255,110,110
Combo2 : 20,76,125
Combo3 : 0,28,220
Combo4 : 0,192,254
Combo5 : 254,130,170

[HitObjects]
170,174,712,6,0,P|190:134|162:60,2,120,2|2|2,0:0|0:0|0:0,0:0:0:0:
75,243,2016,2,0,P|128:283|186:288,1,120,2|2,0:0|0:0,0:0:0:0:
255,256,2740,1,2,0:0:0:0:
328,223,3030,6,0,L|455:238,1,120,2|2,0:0|0:0,0:0:0:0:
504,181,3755,1,0,0:0:0:0:
471,107,4045,2,0,P|434:114|368:64,1,120,2|2,0:0|0:0,0:0:0:0:
294,42,4769,6,0,B|228:90|228:90|133:75,1,160,2|2,0:0|0:0,0:0:0:0:
48,90,14335,5,8,0:0:0:0:
115,132,14625,2,0,P|143:129|198:109,1,79.9999999999999,2|8,0:0|0:0,0:0:0:0:
235,44,15204,2,0,P|264:77|254:166,1,120,2|0,0:0|0:0,0:0:0:0:
205,205,15929,2,0,L|215:341,1,120,0|2,0:0|0:0,0:0:0:0:
291,345,16654,1,8,0:0:0:0:
364,314,16943,6,0,P|395:275|423:218,1,79.9999999999999,2|8,0:0|0:0,0:0:0:0:
488,231,17523,2,0,P|466:191|406:173,1,79.9999999999999,2|8,0:0|0:0,0:0:0:0:
356,171,18103,2,0,B|304:228|304:228|223:261,1,160,0|2,0:0|0:0,0:0:0:0:
154,290,18972,1,8,0:0:0:0:
83,252,19262,6,0,P|59:206|67:161,1,79.9999999999999,2|8,0:0|0:0,0:0:0:0:
132,144,19842,2,0,P|183:155|255:101,2,120,2|0|8,0:0|0:0|0:0,0:0:0:0:
118,65,21001,2,0,P|97:37|50:21,1,79.9999999999999,2|8,0:0|0:0,0:0:0:0:
46,102,21581,6,0,P|28:152|37:206,1,79.9999999999999,2|8,0:0|0:0,0:0:0:0:
61,251,22161,1,2,0:0:0:0:
131,288,22451,2,0,B|197:244|197:244|272:298,1,160,8|8,0:0|0:0,0:0:0:0:
341,300,23320,1,0,0:0:0:0:
410,339,23610,2,0,P|422:301|393:243,1,79.9999999999999,8|8,0:0|0:2,0:0:0:0:
362,200,24190,5,8,0:0:0:0:
284,219,24480,2,0,P|230:246|156:206,2,120,2|0|8,0:0|0:0|0:0,0:0:0:0:
224,165,25639,2,0,L|246:64,1,79.9999999999999,2|8,0:0|0:0,0:0:0:0:
319,69,26219,6,0,P|363:67|401:85,1,79.9999999999999,2|8,0:0|0:0,0:0:0:0:
450,140,26798,2,0,P|454:187|376:248,2,120,2|0|8,0:0|0:0|0:0,0:0:0:0:
375,169,27958,2,0,P|339:186|277:200,1,79.9999999999999,2|8,0:0|0:0,0:0:0:0:
222,177,28538,6,0,P|184:167|135:161,1,79.9999999999999,2|8,0:0|0:0,0:0:0:0:
67,131,29117,2,0,P|54:80|52:11,2,120,2|0|8,0:0|0:0|0:0,0:0:0:0:
68,211,30277,2,0,L|51:308,1,79.9999999999999,2|8,0:0|0:0,0:0:0:0:
130,313,30856,6,0,P|181:285|265:314,1,120,2|2,0:0|0:0,0:0:0:0:
308,336,31581,1,2,0:0:0:0:
384,313,31871,2,0,P|408:273|372:188,1,120,2|4,0:0|0:3,0:0:0:0:
318,172,32596,2,0,L|317:68,1,79.9999999999999
384,48,33175,6,0,P|319:11|242:56,1,160,8|8,0:2|0:0,0:0:0:0:
232,162,34190,2,0,B|325:203|325:203|425:157,1,200,0|8,0:0|0:0,0:0:0:0:
408,321,35494,6,0,P|324:343|247:321,1,160,2|8,0:0|0:0,0:0:0:0:
158,253,36509,2,0,P|154:194|50:70,1,200,0|8,0:0|0:0,0:0:0:0:
234,92,37813,6,0,L|424:102,1,160,2|8,0:0|0:0,0:0:0:0:
470,193,38827,2,0,P|416:203|300:288,1,200,0|8,0:0|0:0,0:0:0:0:
261,356,39842,1,8,0:3:0:0:
186,326,40132,6,0,P|134:269|132:166,1,160,2|8,0:0|0:0,0:0:0:0:
48,96,41146,2,0,P|122:68|228:131,1,200,0|8,0:0|0:0,0:0:0:0:
249,270,42451,2,0,P|292:271|347:269,1,79.9999999999999,8|8,0:0|0:0,0:0:0:0:
401,235,43030,2,0,P|421:175|417:88,2,120,8|2|4,0:0|0:0|0:3,0:0:0:0:
220,322,44769,6,0,P|181:277|97:266,2,120,8|0|8,0:2|0:0|0:0,0:0:0:0:
293,355,45929,2,0,P|317:320|333:198,1,160,2|2,0:0|0:0,0:0:0:0:
278,148,46798,1,8,0:0:0:0:
200,128,47088,6,0,P|155:128|70:166,1,120,2|0,0:0|0:0,0:0:0:0:
63,231,47813,1,0,0:0:0:0:
120,286,48103,2,0,P|165:286|250:248,1,120,0|8,0:0|0:0,0:0:0:0:
266,186,48827,2,0,L|367:165,1,79.9999999999999,2|8,0:0|0:0,0:0:0:0:
395,107,49407,6,0,P|426:163|400:227,1,120,2|0,0:0|0:0,0:0:0:0:
342,255,50132,2,0,L|230:279,1,79.9999999999999
210,331,50711,2,0,P|173:297|79:319,1,120,0|2,0:0|0:0,0:0:0:0:
37,255,51436,1,8,0:0:0:0:
76,184,51726,6,0,P|121:193|186:136,1,120,2|0,0:0|0:0,0:0:0:0:
220,84,52451,1,0,0:0:0:0:
290,47,52740,2,0,L|436:62,1,120,0|8,0:0|0:0,0:0:0:0:
430,136,53465,2,0,L|443:246,1,79.9999999999999,0|8,0:0|0:2,0:0:0:0:
411,290,54045,6,0,P|377:324|287:306,2,120,2|0|8,0:0|0:0|0:0,0:0:0:0:
341,249,55204,2,0,P|313:191|349:96,1,160,2|2,0:0|0:0,0:0:0:0:
414,75,56074,1,8,0:0:0:0:
357,17,56364,6,0,P|275:14|214:28,1,120,2|0,0:0|0:0,0:0:0:0:
171,66,57088,1,0,0:0:0:0:
125,131,57378,2,0,P|117:211|131:279,1,120,0|8,0:0|0:0,0:0:0:0:
186,298,58103,2,0,P|141:327|87:321,1,79.9999999999999,2|8,0:0|0:0,0:0:0:0:
46,286,58683,6,0,L|30:179,1,79.9999999999999,8|8,0:0|0:0,0:0:0:0:
85,141,59262,2,0,L|192:125,1,79.9999999999999,8|8,0:0|0:0,0:0:0:0:
234,176,59842,2,0,L|250:283,1,79.9999999999999,8|8,0:0|0:0,0:0:0:0:
194,316,60422,2,0,L|87:332,1,79.9999999999999,8|8,0:0|0:0,0:0:0:0:
42,292,61001,6,0,P|10:221|60:128,2,160,10|10|8,0:0|0:0|0:3,0:0:0:0:
100,347,62451,1,8,0:3:0:0:
156,290,62740,2,0,P|212:249|329:248,1,160,8|2,0:3|0:3,0:0:0:0:
373,271,63610,5,8,0:2:0:0:
405,344,63900,2,0,P|443:307|434:222,2,120,2|0|8,0:0|0:0|0:0,0:0:0:0:
324,342,65059,2,0,L|216:330,1,79.9999999999999,2|8,0:0|0:0,0:0:0:0:
165,318,65639,6,0,B|124:316|124:316|57:329,1,79.9999999999999,2|8,0:0|0:0,0:0:0:0:
28,267,66219,2,0,P|20:214|67:158,2,120,2|0|8,0:0|0:0|0:0,0:0:0:0:
99,231,67378,2,0,L|279:246,1,160,0|2,3:0|0:0,0:0:0:0:
338,240,68248,5,8,0:0:0:0:
403,194,68538,2,0,P|415:156|356:75,2,120,2|0|8,0:0|0:0|0:0,0:0:0:0:
334,152,69697,2,0,P|286:140|233:146,1,79.9999999999999,2|8,0:0|0:0,0:0:0:0:
185,178,70277,6,0,P|155:215|145:263,1,79.9999999999999,2|8,0:0|0:0,0:0:0:0:
178,318,70856,2,0,B|259:317|259:317|300:343,2,120,2|0|8,0:0|0:0|0:0,0:0:0:0:
98,310,72016,2,0,P|73:274|68:234,1,79.9999999999999,8|8,0:2|0:0,0:0:0:0:
103,167,72596,6,0,L|301:174,1,160,0|8,0:0|0:0,0:0:0:0:
340,152,73465,2,0,P|377:117|333:4,1,160,0|8,0:0|0:0,0:0:0:0:
304,78,74335,6,0,P|255:86|150:51,1,160,0|8,0:0|0:0,0:0:0:0:
96,110,75204,2,0,P|173:152|268:164,1,160,0|8,0:0|0:0,0:0:0:0:
314,201,76074,6,0,L|330:305,2,79.9999999999999,0|0|8,0:0|0:0|0:0,0:0:0:0:
311,120,76943,2,0,P|366:129|433:52,1,160,0|8,0:0|0:0,0:0:0:0:
506,89,77813,6,0,B|490:143|457:168|457:168|439:195|460:260,2,160,0|8|8,0:0|0:0|0:0,0:0:0:0:
443,39,79262,1,8,0:0:0:0:
371,74,79552,6,0,B|291:88|291:88|217:34,1,160,4|8,0:2|0:0,0:0:0:0:
148,54,80422,2,0,P|93:122|133:208,1,160,0|8,0:0|0:0,0:0:0:0:
179,224,81291,6,0,P|227:197|356:235,1,160,0|8,0:0|0:0,0:0:0:0:
364,281,82161,2,0,P|404:233|365:142,1,160,0|8,0:0|0:0,0:0:0:0:
313,96,83030,6,0,P|268:124|240:156,1,79.9999999999999
203,212,83610,2,0,L|67:190,1,120,8|0,0:0|0:0,0:0:0:0:
54,118,84335,1,0,0:0:0:0:
116,67,84624,6,0,P|163:67|228:91,1,79.9999999999999,8|0,0:0|0:0,0:0:0:0:
250,132,85204,2,0,P|300:134|338:115,1,79.9999999999999,0|0,0:0|0:0,0:0:0:0:
341,43,85784,2,0,B|411:51|444:157|359:201|359:201|338:211|308:211,1,240
253,215,86943,6,0,P|204:205|142:261,1,120,0|8,0:0|0:0,0:0:0:0:
111,313,87667,2,0,P|79:281|89:189,2,120,0|0|8,0:0|0:0|0:0,0:0:0:0:
193,333,88827,2,0,L|326:328,2,120,0|0|8,0:0|0:0|0:0,0:0:0:0:
165,257,89986,5,0,0:0:0:0:
153,177,90276,2,0,P|153:121|159:72,1,79.9999999999999,8|0,0:0|0:0,0:0:0:0:
186,23,90856,2,0,P|246:42|308:8,1,120
377,27,91580,6,0,P|397:71|353:147,1,120,0|8,0:0|0:0,0:0:0:0:
305,180,92305,2,0,L|323:278,1,79.9999999999999,2|8,0:0|0:0,0:0:0:0:
243,284,92885,2,0,L|228:205,2,79.9999999999999,2|8|2,0:0|0:0|0:0,0:0:0:0:
256,192,93899,12,0,95203,0:0:0:0:
265,69,96363,6,0,L|360:64,1,79.9999999999999,4|0,0:3|0:0,0:0:0:0:
415,102,96943,2,0,P|428:162|394:310,1,200,8|0,0:0|0:0,0:0:0:0:
331,255,97957,6,0,P|292:240|128:275,1,200,0|8,0:0|0:0,0:0:0:0:
62,186,99116,2,0,P|30:135|41:78,1,120,0|8,0:0|0:0,0:0:0:0:
111,121,99841,6,0,P|194:119|278:91,1,160,0|8,0:0|0:0,0:0:0:0:
385,48,100856,2,0,P|440:27|501:56,1,120,0|8,0:0|0:0,0:0:0:0:
440,108,101580,2,0,P|422:174|437:277,1,160,0|8,0:0|0:0,0:0:0:0:
480,332,102450,2,0,P|417:318|345:328,1,120,8|8,0:0|0:0,0:0:0:0:
284,341,103174,2,0,P|245:306|252:225,1,120,8|0,0:0|0:0,0:0:0:0:
312,201,103899,6,0,P|362:212|443:98,1,200,0|0,0:0|0:0,0:0:0:0:
410,37,104913,2,0,L|258:37,1,120
209,33,105638,2,0,P|139:43|59:87,1,160
54,164,106507,2,0,P|54:230|79:319,1,120
143,301,107232,2,0,L|235:294,1,79.9999999999999,0|0,0:0|0:0,0:0:0:0:
264,226,107812,2,0,P|311:197|389:230,1,120,0|0,0:0|0:0,0:0:0:0:
446,184,108535,6,0,P|458:138|432:34,2,120,0|2|0,0:0|0:0|0:0,0:0:0:0:
433,263,109695,2,0,P|422:308|418:362,1,79.9999999999999,0|0,0:0|0:0,0:0:0:0:
340,320,110274,1,0,0:0:0:0:
261,305,110564,6,0,P|188:275|143:246,1,120,0|0,0:0|0:0,0:0:0:0:
117,181,111289,2,0,P|111:124|143:58,1,120,2|0,0:0|0:0,0:0:0:0:
210,41,112013,1,0,0:0:0:0:
288,58,112303,6,0,P|366:66|423:37,1,120,8|0,0:0|0:0,0:0:0:0:
460,107,113027,2,0,P|475:173|472:258,1,120,0|0,0:0|0:0,0:0:0:0:
399,249,113752,1,0,0:0:0:0:
319,258,114042,2,0,P|276:245|222:236,1,79.9999999999999,0|8,0:0|0:0,0:0:0:0:
167,269,114621,6,0,P|140:228|170:134,1,120,0|0,0:0|0:0,0:0:0:0:
204,103,115346,1,0,0:0:0:0:
282,120,115636,2,0,P|341:122|419:104,1,120,0|8,0:0|0:0,0:0:0:0:
452,49,116360,6,0,P|478:87|474:141,2,79.9999999999999,8|8|8,0:0|0:0|0:0,0:0:0:0:
373,35,117230,1,8,0:0:0:0:
307,81,117520,2,0,L|195:69,2,79.9999999999999,8|8|8,0:0|0:0|0:0,0:0:0:0:
380,125,118389,5,8,0:0:0:0:
335,196,118679,2,0,P|289:226|219:211,1,120,8|2,0:0|0:0,0:0:0:0:
174,153,119404,1,2,0:0:0:0:
196,73,119694,6,0,B|203:50|225:34|248:24|248:24|284:61|285:109|262:156,1,200,2|4,0:0|0:3,0:0:0:0:
212,193,141867,6,0,P|255:214|204:94,1,360,4|0,0:0|0:0,0:0:0:0:
68,231,143895,2,0,B|102:310|168:355|257:358|257:358|379:331,1,360,0|0,0:0|0:0,0:0:0:0:
426,224,145635,1,0,0:0:0:0:
461,152,145924,2,0,P|476:111|467:68,1,79.9999999999999
393,103,146504,6,0,P|320:142|230:99,1,160,4|0,0:0|0:0,0:0:0:0:
153,48,147519,2,0,L|146:202,2,120
52,112,148823,6,0,P|28:171|47:315,1,200
108,259,149838,2,0,P|157:230|228:224,1,120,2|8,0:0|0:0,0:0:0:0:
282,271,150562,2,0,P|301:225|281:175,1,79.9999999999999,0|8,0:0|0:0,0:0:0:0:
255,127,151142,6,0,P|186:138|126:104,1,120,0|8,0:0|0:0,0:0:0:0:
82,64,151867,1,0,0:0:0:0:
54,139,152156,2,0,P|95:182|326:176,1,280,2|8,0:0|0:2,0:0:0:0:
351,255,153461,6,0,P|380:215|356:130,2,120,8|8|8,0:0|0:0|0:0,0:0:0:0:
299,320,154620,2,0,P|353:335|438:272,1,160,0|8,0:0|0:0,0:0:0:0:
470,209,155490,1,8,0:0:0:0:
423,144,155780,6,0,P|365:147|292:117,1,120
267,57,156504,1,8,0:0:0:0:
187,55,156794,2,0,P|126:92|113:156,1,120,8|8,0:0|0:0,0:0:0:0:
168,194,157519,2,0,L|273:185,1,79.9999999999999,0|0,0:0|0:0,0:0:0:0:
282,114,158098,6,0,P|324:153|304:238,1,120,8|0,0:2|0:0,0:0:0:0:
263,265,158823,2,0,P|251:310|266:349,1,79.9999999999999
333,306,159403,2,0,P|384:284|471:298,1,120,0|2,0:0|0:0,0:0:0:0:
472,212,160127,1,8,0:0:0:0:
396,186,160417,6,0,P|372:150|368:59,1,120,2|0,0:0|0:0,0:0:0:0:
284,61,161142,1,0,0:0:0:0:
236,125,161432,2,0,P|183:138|120:92,1,120,0|8,0:0|0:0,0:0:0:0:
73,165,162156,2,0,P|104:193|159:215,1,79.9999999999999,2|8,0:0|0:0,0:0:0:0:
213,236,162736,6,0,P|270:258|332:302,2,120,8|8|8,0:0|0:0|0:0,0:0:0:0:
251,165,163895,2,0,P|312:173|419:168,1,160,2|2,0:0|0:0,0:0:0:0:
468,114,164765,1,8,0:0:0:0:
398,76,165055,6,0,P|331:79|249:68,1,120,2|0,0:0|0:0,0:0:0:0:
200,55,165780,1,0,0:0:0:0:
133,99,166069,2,0,P|111:169|114:230,1,120,0|8,0:0|0:0,0:0:0:0:
170,268,166794,2,0,P|185:244|188:190,1,79.9999999999999,2|8,0:0|0:0,0:0:0:0:
251,142,167374,6,0,P|314:119|385:160,1,120,2|0,0:0|0:0,0:0:0:0:
428,180,168098,2,0,L|421:259,1,79.9999999999999,0|0,0:0|0:0,0:0:0:0:
376,326,168678,2,0,P|328:297|265:297,1,120,0|2,0:0|0:0,0:0:0:0:
188,318,169403,1,8,0:0:0:0:
109,301,169693,6,0,P|89:264|90:211,1,79.9999999999999,2|8,0:0|0:0,0:0:0:0:
126,157,170272,2,0,P|170:166|218:153,1,79.9999999999999,2|8,0:0|0:0,0:0:0:0:
253,96,170852,2,0,P|248:57|270:16,1,79.9999999999999,8|8,0:0|0:0,0:0:0:0:
327,70,171432,1,8,0:0:0:0:
386,122,171722,6,0,L|391:228,1,79.9999999999999,0|2,0:0|0:0,0:0:0:0:
370,279,172301,1,8,0:2:0:0:
290,282,172591,2,0,P|253:300|199:362,2,120,0|0|8,0:0|0:0|0:0,0:0:0:0:
313,205,173751,2,0,P|256:162|217:152,1,79.9999999999999,0|8,0:0|0:0,0:0:0:0:
169,172,174330,6,0,L|146:278,1,79.9999999999999,0|8,0:0|0:0,0:0:0:0:
81,288,174910,2,0,P|59:237|61:155,2,120,0|0|8,0:0|0:0|0:0,0:0:0:0:
150,328,176069,2,0,B|230:346|230:346|307:317,1,160,0|0,3:0|0:0,0:0:0:0:
373,280,176939,5,8,0:0:0:0:
441,238,177229,2,0,P|466:192|478:112,2,120,0|0|8,0:0|0:0|0:0,0:0:0:0:
370,199,178388,2,0,P|368:152|345:107,1,79.9999999999999,0|8,0:0|0:0,0:0:0:0:
280,148,178968,6,0,L|197:144,1,79.9999999999999,0|8,0:0|0:0,0:0:0:0:
119,140,179548,2,0,P|92:108|64:28,2,120,0|0|8,0:0|0:0|0:0,0:0:0:0:
166,75,180707,2,0,P|263:49|351:49,1,160,8|0,0:2|0:0,0:0:0:0:
398,72,181576,5,0,0:0:0:0:
465,114,181866,2,0,P|491:179|456:240,2,120,2|0|2,0:2|0:0|0:2,0:0:0:0:
410,172,183026,5,0,0:0:0:0:
353,229,183315,2,0,L|249:225,1,79.9999999999999,0|2,0:0|0:2,0:0:0:0:
241,299,183895,2,0,P|201:260|228:161,1,160,0|6,0:0|0:2,0:0:0:0:
298,144,184765,6,0,L|401:144,2,79.9999999999999,0|0|2,0:0|0:0|0:2,0:0:0:0:
260,72,185634,2,0,L|157:72,2,79.9999999999999,0|0|2,0:0|0:0|0:2,0:0:0:0:
339,58,186504,6,0,P|394:47|438:26,2,79.9999999999999,0|0|2,0:0|0:0|0:2,0:0:0:0:
310,132,187373,1,0,0:0:0:0:
319,211,187663,2,0,L|327:317,1,79.9999999999999,6|6,0:2|0:2,0:0:0:0:
263,341,188243,6,0,P|225:300|104:319,1,160,0|2,0:0|0:2,0:0:0:0:
54,266,189113,2,0,P|33:214|90:117,1,160,0|2,0:0|0:2,0:0:0:0:
150,154,189982,6,0,B|229:171|229:171|301:121,1,160,0|2,0:0|0:2,0:0:0:0:
301,46,190852,2,0,P|360:75|355:176,1,160,0|6,0:0|0:2,0:0:0:0:
317,225,191721,6,0,P|358:241|406:229,2,79.9999999999999,0|0|2,0:0|0:0|0:2,0:0:0:0:
244,260,192591,2,0,P|231:300|240:349,2,79.9999999999999,0|0|2,0:0|0:0|0:2,0:0:0:0:
194,196,193460,6,0,L|95:196,2,79.9999999999999,0|0|2,0:0|0:0|0:2,0:0:0:0:
270,162,194330,2,0,P|327:126|447:192,1,200
