osu file format v14

[General]
AudioFilename: Rou-selfish.mp3
AudioLeadIn: 0
PreviewTime: 44625
Countdown: 0
SampleSet: Normal
StackLeniency: 0.7
Mode: 0
LetterboxInBreaks: 0
WidescreenStoryboard: 0

[Editor]
Bookmarks: 5349,14625,23900,33175,44769,63320,72596,103900,120422
DistanceSpacing: 1.4
BeatDivisor: 4
GridSize: 4
TimelineZoom: 2.599999

[Metadata]
Title:SELFISH
TitleUnicode:SELFISH
Artist:muzzle-lab
ArtistUnicode:まずらぼ
Creator:Sauziteoi
Version:Expert
Source:
Tags:獣音ロウ kemonone rou ユウマ Yuuma 吟p ぎんP Gin-P clavinord 緑のたぬP Midori no Tanu ロクサメル TRICHROMATIK UTAU獣人 utau juujin furry
BeatmapID:776600
BeatmapSetID:352375

[Difficulty]
HPDrainRate:6
CircleSize:4
OverallDifficulty:8
ApproachRate:9.3
SliderMultiplier:1.9
SliderTickRate:1

[Events]
//Background and Video events
0,0,"BG.jpg",0,0
//Break Periods
2,120618,141289
//Storyboard Layer 0 (Background)
//Storyboard Layer 1 (Fail)
//Storyboard Layer 2 (Pass)
//Storyboard Layer 3 (Foreground)
//Storyboard Sound Samples

[TimingPoints]
712,289.855072463768,4,2,1,60,1,0
712,-133.333333333333,4,2,1,60,0,0
5349,-100,4,1,1,70,0,0
14625,-100,4,1,2,60,0,0
23320,-100,4,1,1,60,0,0
23900,-100,4,1,1,70,0,0
33175,-133.333333333333,4,1,1,70,0,0
44769,-90.9090909090909,4,1,1,80,0,1
63320,-100,4,1,1,65,0,0
72596,289.855072463768,6,1,1,60,1,0
72596,-133.333333333333,3,1,1,60,0,0
87088,289.855072463768,4,1,1,60,1,0
87088,-100,4,1,1,60,0,0
93899,-200,4,1,1,60,0,0
94334,-100,4,1,1,60,0,0
96073,-200,4,1,1,60,0,0
96363,289.855072463768,6,1,1,60,1,0
96363,-133.333333333333,6,1,1,60,0,0
103899,289.855072463768,4,1,3,60,1,0
103899,-117.647058823529,4,1,3,60,0,0
107956,289.855072463768,4,1,3,60,1,0
107956,-117.647058823529,4,1,3,60,0,0
112013,-117.647058823529,4,1,1,60,0,0
112303,289.855072463768,4,1,1,60,1,0
112447,-100,4,1,3,60,0,0
113172,289.855072463768,4,1,3,60,1,0
116071,289.855072463768,4,1,3,60,1,0
116071,-100,4,1,3,60,0,0
120128,-100,4,1,1,60,0,0
120418,289.855072463768,4,1,1,60,1,0
141867,289.855072463768,4,2,0,60,1,0
141867,-200,4,2,0,60,0,0
148388,-200,4,1,1,50,0,0
151142,-133.333333333333,4,1,1,60,0,0
153461,-90.9090909090909,4,1,1,80,0,0
158098,-90.9090909090909,4,1,1,80,0,1
172011,-100,4,1,1,65,0,0
181287,289.855072463768,4,1,3,60,1,0
181287,-133.333333333333,3,1,3,60,0,0

[Colours]
Combo1 : 255,110,110
Combo2 : 20,76,125
Combo3 : 0,28,220
Combo4 : 0,192,254
Combo5 : 254,130,170

[HitObjects]
305,117,712,6,0,L|398:111,1,71.2500027179719,2|0,0:0|0:0,0:0:0:0:
239,184,1001,1,0,0:0:0:0:
172,118,1146,2,0,L|166:25,1,71.2500027179719,2|0,0:0|0:0,0:0:0:0:
239,184,1436,1,0,0:0:0:0:
173,251,1581,2,0,L|80:257,1,71.2500027179719,2|0,0:0|0:0,0:0:0:0:
239,184,1871,1,0,0:0:0:0:
439,213,2016,2,0,B|402:246|402:246|295:251,1,142.500005435944,2|0,0:0|0:0,0:0:0:0:
239,184,2451,1,2,0:0:0:0:
239,184,2740,6,0,P|226:131|234:95,1,71.2500027179719,2|0,0:0|0:0,0:0:0:0:
252,42,3030,1,2,0:0:0:0:
252,42,3320,1,0,0:0:0:0:
325,100,3465,2,0,L|479:109,1,142.500005435944,2|0,0:0|0:0,0:0:0:0:
305,244,4045,2,0,P|260:212|165:245,1,142.500005435944,2|0,0:0|0:0,0:0:0:0:
373,295,4480,2,0,L|458:283,1,71.2500027179719,2|0,0:0|0:0,0:0:0:0:
473,119,4769,6,0,L|417:129,1,35.625001358986,2|0,0:0|0:0,0:0:0:0:
328,79,4914,2,0,L|384:89,1,35.625001358986,2|0,0:0|0:0,0:0:0:0:
428,206,5059,2,0,L|372:216,1,35.625001358986,8|0,0:0|0:0,0:0:0:0:
283,166,5204,2,0,L|339:176,1,35.625001358986,2|0,0:0|0:0,0:0:0:0:
302,339,5349,6,0,P|326:290|308:226,1,95,2|0,0:0|0:0,0:0:0:0:
115,292,5639,2,0,B|161:309|161:309|208:293,1,95,8|0,0:0|0:0,0:0:0:0:
76,211,5929,1,2,0:0:0:0:
37,337,6074,1,0,0:0:0:0:
42,137,6219,1,8,0:0:0:0:
42,137,6364,6,0,B|103:121|143:161|143:161|183:147|245:161,1,190
222,156,6726,1,0,0:0:0:0:
222,156,6798,1,8,0:0:0:0:
284,230,6943,1,0,0:0:0:0:
249,59,7088,1,2,0:0:0:0:
367,212,7233,1,0,0:0:0:0:
367,212,7306,1,0,0:0:0:0:
367,212,7378,1,8,0:0:0:0:
328,37,7523,1,0,0:0:0:0:
222,156,7668,6,0,L|119:147,1,95,2|0,0:0|0:0,0:0:0:0:
35,235,7958,2,0,L|138:225,1,95,8|0,0:0|0:0,0:0:0:0:
346,293,8248,1,2,0:0:0:0:
244,240,8393,1,0,0:0:0:0:
250,348,8538,1,8,0:0:0:0:
396,214,8683,6,0,B|413:121|413:121|389:17,1,190
391,27,9045,1,0,0:0:0:0:
391,27,9117,1,8,0:0:0:0:
493,174,9262,1,0,0:0:0:0:
229,53,9407,5,0,3:0:0:0:
181,48,9480,1,0,3:0:0:0:
136,59,9552,1,0,3:0:0:0:
96,85,9625,1,0,3:0:0:0:
68,124,9697,1,0,3:0:0:0:
55,169,9769,1,0,3:0:0:0:
57,216,9842,1,0,3:0:0:0:
76,259,9914,1,0,3:0:0:0:
108,294,9987,6,0,P|163:299|209:302,1,95,2|0,0:0|0:0,0:0:0:0:
401,195,10277,2,0,P|353:197|306:202,1,95,8|0,0:2|0:0,0:0:0:0:
458,266,10567,1,2,0:0:0:0:
470,126,10711,2,0,L|476:25,1,95,0|8,0:0|0:0,0:0:0:0:
470,126,11001,6,0,P|427:91|301:133,1,190
307,123,11364,1,0,0:0:0:0:
307,123,11436,1,8,0:0:0:0:
268,209,11581,1,0,0:0:0:0:
259,34,11726,1,2,0:0:0:0:
215,137,11871,1,0,0:0:0:0:
215,137,11943,1,0,0:0:0:0:
215,137,12016,1,8,0:0:0:0:
168,244,12161,1,0,0:0:0:0:
133,120,12306,6,0,L|128:17,1,95,2|0,0:0|0:0,0:0:0:0:
66,247,12596,2,0,L|70:341,1,95,8|0,0:0|0:0,0:0:0:0:
133,120,12885,1,2,0:0:0:0:
66,247,13030,1,0,0:0:0:0:
133,120,13175,1,8,0:0:0:0:
162,338,13320,6,0,P|194:290|322:324,1,190
388,95,13755,2,0,L|274:109,1,95,8|0,0:0|0:0,0:0:0:0:
449,254,14045,2,0,L|453:201,1,47.5,2|0,0:0|0:0,0:0:0:0:
470,37,14190,2,0,L|466:84,1,47.5
379,177,14335,1,8,0:0:0:0:
388,95,14480,1,0,0:0:0:0:
365,257,14625,6,0,B|316:275|316:275|149:276,1,190,2|8,0:0|0:0,0:0:0:0:
46,79,15204,2,0,L|259:79,1,190,2|8,0:0|0:0,0:0:0:0:
417,182,15639,6,0,P|366:138|257:175,1,190
226,252,16074,1,8,0:0:0:0:
175,111,16219,1,2,0:0:0:0:
116,302,16364,1,2,0:0:0:0:
116,302,16654,1,8,0:0:0:0:
116,302,16798,1,0,0:0:0:0:
116,302,16943,6,0,B|164:271|164:271|333:271,1,190,2|8,0:0|0:0,0:0:0:0:
455,77,17523,2,0,L|227:75,1,190,2|8,0:0|0:0,0:0:0:0:
89,154,17958,2,0,P|165:154|189:135,1,95,0|2,0:0|0:0,0:0:0:0:
363,179,18248,6,0,P|287:179|263:198,1,95,0|8,0:0|0:0,0:0:0:0:
194,344,18538,1,2,0:0:0:0:
354,328,18683,1,2,0:0:0:0:
354,328,18972,1,8,0:0:0:0:
354,328,19117,1,0,0:0:0:0:
354,328,19262,6,0,B|389:269|389:269|390:120,1,190,2|8,0:0|0:0,0:0:0:0:
129,51,19842,2,0,L|129:260,1,190,2|8,0:0|0:0,0:0:0:0:
293,269,20277,6,0,P|346:248|444:351,1,190
244,338,20711,1,8,0:0:0:0:
237,206,20856,1,2,0:0:0:0:
182,280,21001,1,2,0:0:0:0:
175,148,21146,1,2,0:0:0:0:
127,218,21291,1,8,0:0:0:0:
120,86,21436,1,0,0:0:0:0:
63,161,21581,6,0,P|43:218|65:277,1,95,2|0,0:0|0:0,0:0:0:0:
130,346,21871,1,8,0:0:0:0:
272,270,22016,1,2,0:0:0:0:
298,347,22161,1,2,0:0:0:0:
156,271,22306,1,2,0:0:0:0:
301,193,22451,1,8,0:0:0:0:
301,193,22596,6,0,L|500:215,1,190
489,213,23030,1,8,0:0:0:0:
59,161,23320,1,0,0:0:0:0:
286,271,23610,1,0,0:0:0:0:
320,238,23683,1,0,0:0:0:0:
338,195,23755,1,0,0:0:0:0:
336,148,23827,1,0,0:0:0:0:
315,105,23900,6,0,L|108:59,1,190,8|8,0:2|0:0,0:0:0:0:
76,265,24335,1,0,0:0:0:0:
76,265,24480,2,0,L|196:246,1,95,2|0,0:0|0:0,0:0:0:0:
347,220,24769,1,8,0:0:0:0:
399,296,24914,6,0,P|434:254|369:132,1,190
312,300,25349,1,8,0:0:0:0:
505,289,25494,1,0,0:0:0:0:
261,227,25639,1,2,0:0:0:0:
261,227,25929,5,8,0:0:0:0:
312,300,26074,1,0,0:0:0:0:
261,227,26219,2,0,L|206:148,1,95,2|0,0:0|0:0,0:0:0:0:
40,190,26509,2,0,L|135:181,1,95,8|0,0:0|0:0,0:0:0:0:
182,18,26798,2,0,L|141:105,1,95,2|0,0:0|0:0,0:0:0:0:
62,304,27088,1,8,0:0:0:0:
62,304,27233,6,0,P|103:265|230:312,1,190
363,188,27668,2,0,L|247:202,1,95,8|0,0:0|0:0,0:0:0:0:
397,40,27958,2,0,P|420:94|403:142,1,95,2|0,0:0|0:0,0:0:0:0:
314,277,28248,5,8,0:0:0:0:
280,110,28393,1,0,0:0:0:0:
232,309,28538,1,2,0:0:0:0:
232,309,28827,2,0,L|428:322,1,190,8|2,0:0|0:0,0:0:0:0:
186,234,29262,1,0,0:0:0:0:
148,346,29407,1,8,0:0:0:0:
55,130,29552,6,0,P|84:79|206:62,1,190
423,130,29987,2,0,P|362:120|319:161,1,95,8|0,0:0|0:0,0:0:0:0:
172,211,30277,2,0,P|233:201|276:242,1,95,2|0,0:0|0:0,0:0:0:0:
411,315,30567,2,0,P|350:305|307:346,1,95,8|0,0:0|0:0,0:0:0:0:
96,312,30856,6,0,P|53:282|104:143,1,190,2|8,0:0|0:0,0:0:0:0:
318,251,31291,2,0,B|256:330|256:330|143:336,1,190
219,83,31726,1,8,0:0:0:0:
219,83,31871,2,0,P|270:73|332:208,1,190
58,111,32306,1,4,0:3:0:0:
58,111,32596,6,0,L|112:122,1,47.5
238,109,32740,2,0,L|184:120,1,47.5
85,200,32885,2,0,L|139:211,1,47.5
265,198,33030,2,0,L|211:209,1,47.5
103,322,33175,6,0,P|161:284|249:322,1,142.500005435944,8|0,0:2|0:0,0:0:0:0:
416,295,33610,1,0,0:0:0:0:
416,295,33755,2,0,P|452:245|432:146,1,142.500005435944,8|0,0:0|0:0,0:0:0:0:
325,119,34190,2,0,B|256:144|256:144|192:118,1,142.500005435944
345,38,34625,5,0,0:0:0:0:
390,182,34769,1,0,0:0:0:0:
270,236,34914,2,0,L|204:209,1,71.2500027179719,8|0,0:0|0:0,0:0:0:0:
69,313,35204,2,0,L|134:286,1,71.2500027179719
330,315,35494,6,0,P|366:273|336:175,1,142.500005435944
278,56,35929,1,0,0:0:0:0:
278,56,36074,2,0,P|242:98|272:196,1,142.500005435944,8|0,0:0|0:0,0:0:0:0:
159,69,36509,2,0,B|87:46|87:46|14:73,1,142.500005435944
160,161,36943,5,0,0:0:0:0:
34,228,37088,1,0,0:0:0:0:
222,224,37233,2,0,L|301:219,1,71.2500027179719,8|0,0:0|0:0,0:0:0:0:
128,302,37523,2,0,L|56:306,1,71.2500027179719
285,338,37813,6,0,P|338:295|402:318,1,142.500005435944
304,186,38248,1,0,0:0:0:0:
304,186,38393,2,0,L|206:207,1,71.2500027179719,8|0,0:0|0:0,0:0:0:0:
380,219,38683,1,0,0:0:0:0:
165,159,38827,2,0,P|153:201|217:279,1,142.500005435944
236,111,39262,6,0,L|221:27,1,71.2500027179719
223,40,39480,1,0,0:0:0:0:
223,40,39552,1,8,0:0:0:0:
165,159,39697,1,0,0:0:0:0:
316,137,39842,1,8,0:0:0:0:
203,240,39987,1,0,0:0:0:0:
370,212,40132,6,0,P|401:171|370:62,1,142.500005435944,2|0,0:0|0:0,0:0:0:0:
288,227,40567,1,0,0:0:0:0:
288,227,40711,2,0,L|311:377,1,142.500005435944,8|0,0:0|0:0,0:0:0:0:
214,181,41146,2,0,P|201:139|260:50,1,142.500005435944
213,262,41581,6,0,L|56:290,1,142.500005435944,0|8,0:0|0:0,0:0:0:0:
96,109,42016,1,0,0:0:0:0:
127,191,42161,1,0,0:0:0:0:
43,178,42306,1,0,0:0:0:0:
180,120,42451,6,0,L|282:126,1,71.2500027179719,8|0,0:0|0:0,0:0:0:0:
462,142,42740,2,0,L|360:148,1,71.2500027179719,8|0,0:0|0:0,0:0:0:0:
202,242,43030,2,0,L|304:248,1,71.2500027179719,8|0,0:0|0:0,0:0:0:0:
484,264,43320,1,8,0:0:0:0:
484,264,43465,6,0,P|426:271|379:363,1,142.500005435944,0|8,0:0|0:0,0:0:0:0:
380,111,43900,1,4,0:3:0:0:
272,325,44190,5,0,3:0:0:0:
232,345,44262,1,0,3:0:0:0:
189,354,44335,1,0,3:0:0:0:
145,348,44407,1,0,3:0:0:0:
104,331,44480,1,0,3:0:0:0:
71,301,44552,1,0,3:0:0:0:
47,264,44625,1,0,3:0:0:0:
36,221,44697,1,0,3:0:0:0:
38,177,44769,6,0,P|46:124|71:62,1,104.500003189087,8|0,0:2|0:0,0:0:0:0:
253,39,45059,1,8,0:0:0:0:
298,131,45204,2,0,P|290:184|265:246,1,104.500003189087,0|2,0:0|0:0,0:0:0:0:
171,84,45494,1,0,0:0:0:0:
385,63,45639,2,0,L|503:57,1,104.500003189087,8|0,0:0|0:0,0:0:0:0:
383,251,45929,1,2,0:0:0:0:
240,108,46074,6,0,B|188:80|188:80|24:72,1,209.000006378174
318,166,46509,2,0,L|436:160,1,104.500003189087,2|0,0:0|0:0,0:0:0:0:
254,246,46798,1,8,0:0:0:0:
428,268,46943,1,0,0:0:0:0:
219,329,47088,6,0,P|175:288|248:156,1,209.000006378174,2|8,0:0|0:0,0:0:0:0:
350,257,47523,2,0,L|337:362,1,104.500003189087,0|2,0:0|0:0,0:0:0:0:
318,166,47813,2,0,L|330:62,1,104.500003189087,0|8,0:0|0:0,0:0:0:0:
350,257,48103,6,0,P|295:324|169:266,1,209.000006378174
125,206,48538,1,8,0:0:0:0:
166,114,48683,1,0,0:0:0:0:
125,206,48827,2,0,L|80:318,1,104.500003189087,2|0,0:0|0:0,0:0:0:0:
17,56,49117,2,0,P|70:37|122:64,1,104.500003189087,8|0,0:0|0:0,0:0:0:0:
260,230,49407,6,0,P|218:192|293:68,1,209.000006378174,2|8,0:0|0:0,0:0:0:0:
414,166,49842,2,0,L|528:149,1,104.500003189087,0|2,0:0|0:0,0:0:0:0:
240,323,50132,2,0,L|126:306,1,104.500003189087,0|8,0:0|0:0,0:0:0:0:
343,228,50422,6,0,P|356:280|321:332,1,104.500003189087,0|2,0:0|0:0,0:0:0:0:
257,193,50711,1,0,0:0:0:0:
328,45,50856,1,8,0:0:0:0:
424,188,51001,1,0,0:0:0:0:
205,86,51146,2,0,B|157:66|157:66|77:74,1,104.500003189087,2|0,0:0|0:0,0:0:0:0:
35,253,51436,2,0,P|87:240|155:261,1,104.500003189087,8|0,0:0|0:0,0:0:0:0:
300,341,51726,6,0,P|337:289|267:154,1,209.000006378174,2|8,0:0|0:0,0:0:0:0:
418,249,52161,2,0,L|559:262,1,104.500003189087,0|2,0:0|0:0,0:0:0:0:
249,254,52451,2,0,L|108:267,1,104.500003189087,0|8,0:0|0:0,0:0:0:0:
327,97,52740,2,0,P|343:164|326:215,1,104.500003189087,0|2,0:0|0:0,0:0:0:0:
243,52,53030,1,0,0:0:0:0:
427,129,53175,1,8,0:0:0:0:
264,253,53320,5,0,3:0:0:0:
160,192,53465,1,0,3:0:0:0:
127,183,53538,1,0,3:0:0:0:
89,184,53610,1,0,3:0:0:0:
53,194,53683,1,0,3:0:0:0:
21,212,53755,2,0,P|3:159|31:96,1,104.500003189087,8|0,0:2|0:0,0:0:0:0:
305,115,54045,6,0,P|334:181|230:293,1,209.000006378174,2|8,0:0|0:0,0:0:0:0:
140,65,54480,2,0,B|192:47|192:47|251:72,1,104.500003189087,0|2,0:0|0:0,0:0:0:0:
412,239,54769,1,0,0:0:0:0:
170,165,54914,2,0,B|118:147|118:147|59:172,1,104.500003189087,8|0,0:0|0:0,0:0:0:0:
237,338,55204,1,2,0:0:0:0:
373,173,55349,6,0,P|394:111|286:27,1,209.000006378174
307,263,55784,1,2,0:0:0:0:
426,275,55929,1,0,0:0:0:0:
307,263,56074,2,0,L|159:248,1,104.500003189087,8|0,0:0|0:0,0:0:0:0:
137,324,56364,6,0,P|106:271|200:158,1,209.000006378174,2|8,0:0|0:0,0:0:0:0:
356,173,56798,2,0,L|489:190,1,104.500003189087,0|2,0:0|0:0,0:0:0:0:
217,67,57088,2,0,L|113:53,1,104.500003189087,0|8,0:0|0:0,0:0:0:0:
364,260,57378,5,0,0:0:0:0:
279,133,57523,1,2,0:0:0:0:
434,122,57668,1,0,0:0:0:0:
280,217,57813,2,0,L|170:224,1,104.500003189087,8|0,0:0|0:0,0:0:0:0:
39,326,58103,2,0,P|106:336|154:303,1,104.500003189087,2|0,0:0|0:0,0:0:0:0:
111,61,58393,1,8,0:0:0:0:
43,208,58538,1,0,0:0:0:0:
139,149,58683,6,0,L|266:131,1,104.500003189087,8|0,0:0|0:0,0:0:0:0:
435,194,58972,2,0,L|308:176,1,104.500003189087,8|0,0:0|0:0,0:0:0:0:
139,266,59262,2,0,L|266:248,1,104.500003189087,8|0,0:0|0:0,0:0:0:0:
435,311,59552,2,0,L|308:293,1,104.500003189087,8|0,0:0|0:0,0:0:0:0:
383,84,59842,6,0,B|401:137|401:137|383:182,1,104.500003189087,8|0,0:0|0:0,0:0:0:0:
177,152,60132,2,0,B|159:99|159:99|176:53,1,104.500003189087,8|0,0:0|0:0,0:0:0:0:
319,255,60422,2,0,B|337:308|337:308|319:353,1,104.500003189087,8|0,0:0|0:0,0:0:0:0:
232,231,60711,1,8,0:0:0:0:
398,197,60856,1,0,0:0:0:0:
177,152,61001,6,0,L|26:140,1,104.500003189087,10|0,0:0|0:0,0:0:0:0:
72,143,61219,1,0,0:0:0:0:
72,143,61291,1,8,0:0:0:0:
198,311,61436,1,0,0:0:0:0:
263,149,61581,2,0,L|258:29,1,104.500003189087,10|0,0:0|0:0,0:0:0:0:
232,231,61871,1,8,0:0:0:0:
344,181,62016,1,0,0:0:0:0:
198,311,62161,6,0,L|58:324,1,104.500003189087,8|0,0:3|0:0,0:0:0:0:
358,268,62451,2,0,L|498:281,1,104.500003189087,8|0,0:3|0:0,0:0:0:0:
176,175,62740,2,0,L|36:188,1,104.500003189087,8|0,0:3|0:0,0:0:0:0:
322,115,63030,1,8,0:3:0:0:
322,115,63175,1,0,0:0:0:0:
270,203,63320,6,0,L|277:321,1,95,2|0,0:0|0:0,0:0:0:0:
403,155,63610,2,0,P|415:98|385:50,1,95,8|0,0:2|0:0,0:0:0:0:
235,124,63900,1,2,0:0:0:0:
365,230,64045,1,0,0:0:0:0:
256,47,64190,1,8,0:0:0:0:
156,139,64335,6,0,L|179:364,1,190
175,328,64697,1,0,0:0:0:0:
175,328,64769,1,8,0:0:0:0:
355,305,64914,1,0,0:0:0:0:
271,253,65059,5,2,0:0:0:0:
457,229,65204,1,0,0:0:0:0:
457,229,65277,1,0,0:0:0:0:
457,229,65349,1,8,0:0:0:0:
328,178,65494,1,0,0:0:0:0:
463,60,65639,6,0,P|485:121|469:166,1,95,2|0,0:0|0:0,0:0:0:0:
243,46,65929,2,0,L|362:55,1,95,8|0,0:0|0:0,0:0:0:0:
175,140,66219,1,2,0:0:0:0:
141,31,66364,1,0,0:0:0:0:
90,214,66509,1,8,0:0:0:0:
287,142,66654,6,0,L|483:130,1,190
476,130,67016,1,0,0:0:0:0:
476,130,67088,1,8,0:0:0:0:
243,46,67233,1,0,0:0:0:0:
88,136,67378,5,0,3:0:0:0:
72,168,67451,1,0,3:0:0:0:
66,203,67523,1,0,3:0:0:0:
68,238,67596,1,0,3:0:0:0:
79,272,67668,1,0,3:0:0:0:
98,302,67740,1,0,3:0:0:0:
125,326,67813,1,0,3:0:0:0:
156,342,67885,1,0,3:0:0:0:
190,351,67958,6,0,L|292:345,1,95,2|0,0:0|0:0,0:0:0:0:
508,251,68248,2,0,P|459:246|403:215,1,95,8|0,0:0|0:0,0:0:0:0:
222,169,68538,2,0,P|267:152|314:153,1,95,2|0,0:0|0:0,0:0:0:0:
156,242,68827,1,8,0:0:0:0:
173,90,68972,6,0,P|265:64|359:72,1,190
359,72,69335,1,0,0:0:0:0:
359,72,69407,1,8,0:0:0:0:
461,158,69552,1,0,0:0:0:0:
351,277,69697,2,0,L|247:268,1,95,2|0,0:0|0:0,0:0:0:0:
256,268,69914,1,0,0:0:0:0:
256,268,69987,1,8,0:0:0:0:
430,244,70132,1,0,0:0:0:0:
281,349,70277,6,0,P|223:345|170:322,1,95,2|0,0:0|0:0,0:0:0:0:
131,132,70567,2,0,P|189:136|242:159,1,95,8|0,0:0|0:0,0:0:0:0:
107,343,70856,1,2,0:0:0:0:
30,181,71001,1,0,0:0:0:0:
19,275,71146,1,8,0:0:0:0:
46,83,71291,6,0,P|108:38|226:100,1,190
178,266,71726,2,0,P|162:217|187:169,1,95,8|0,0:0|0:0,0:0:0:0:
379,249,72016,1,8,0:2:0:0:
243,331,72161,1,0,0:0:0:0:
341,164,72306,1,8,0:0:0:0:
427,328,72451,1,0,0:0:0:0:
256,162,72596,6,0,L|264:80,1,71.2500027179719
273,11,72885,1,0,0:0:0:0:
273,11,73030,1,0,0:0:0:0:
172,195,73175,1,8,0:0:0:0:
172,195,73465,5,0,0:0:0:0:
25,224,73610,1,0,0:0:0:0:
39,148,73900,5,0,0:0:0:0:
176,282,74045,1,8,0:0:0:0:
176,282,74335,6,0,L|100:262,1,71.2500027179719
252,236,74624,1,0,0:0:0:0:
252,236,74769,1,0,0:0:0:0:
33,304,74914,1,8,0:0:0:0:
33,304,75204,5,0,0:0:0:0:
181,196,75349,1,0,0:0:0:0:
140,265,75639,5,0,0:0:0:0:
52,128,75784,1,8,0:0:0:0:
217,126,75929,1,0,0:0:0:0:
217,126,76074,6,0,L|318:138,1,71.2500027179719
367,145,76364,1,0,0:0:0:0:
331,66,76509,1,0,0:0:0:0:
181,196,76653,1,8,0:0:0:0:
181,196,76943,5,0,0:0:0:0:
52,128,77088,1,0,0:0:0:0:
19,202,77378,5,0,0:0:0:0:
217,126,77523,2,0,L|304:120,1,71.2500027179719,8|0,0:0|0:0,0:0:0:0:
411,180,77813,6,0,L|416:272,1,71.2500027179719
304,208,78103,1,0,0:0:0:0:
304,208,78248,1,0,0:0:0:0:
288,344,78393,1,8,0:0:0:0:
207,239,78538,6,0,L|130:231,1,71.2500027179719
278,268,78827,2,0,P|282:221|264:186,1,71.2500027179719,0|8,0:0|0:0,0:0:0:0:
78,298,79117,1,0,0:0:0:0:
100,155,79262,1,8,0:0:0:0:
166,311,79407,1,0,0:0:0:0:
180,163,79552,6,0,L|176:87,1,71.2500027179719,4|0,0:2|0:0,0:0:0:0:
128,22,79842,1,0,0:0:0:0:
128,22,79987,1,0,0:0:0:0:
248,220,80132,1,8,0:0:0:0:
416,48,80422,5,0,0:0:0:0:
416,48,80567,2,0,P|368:36|324:52,1,71.2500027179719
388,200,80856,2,0,P|436:212|480:196,1,71.2500027179719,0|8,0:0|0:0,0:0:0:0:
311,317,81146,1,0,0:0:0:0:
311,317,81219,1,0,0:0:0:0:
311,317,81291,6,0,P|263:305|219:321,1,71.2500027179719
54,270,81581,1,0,0:0:0:0:
169,348,81726,1,0,0:0:0:0:
198,161,81871,2,0,L|202:78,1,71.2500027179719,8|0,0:0|0:0,0:0:0:0:
144,35,82161,5,0,0:0:0:0:
275,178,82306,1,0,0:0:0:0:
275,178,82451,1,8,0:0:0:0:
432,152,82596,1,0,0:0:0:0:
274,257,82740,2,0,L|319:263,1,35.625001358986,8|0,0:0|0:0,0:0:0:0:
437,228,82885,2,0,L|392:234,1,35.625001358986
361,312,83030,6,0,L|355:146,1,142.500005435944
293,68,83465,1,0,0:0:0:0:
293,68,83610,2,0,P|249:78|196:62,1,71.2500027179719,8|0,0:0|0:0,0:0:0:0:
63,169,83900,5,0,0:0:0:0:
63,169,84045,2,0,L|96:93,1,71.2500027179719
146,258,84335,2,0,P|166:217|205:197,1,71.2500027179719,0|8,0:0|0:0,0:0:0:0:
197,346,84624,1,0,0:0:0:0:
197,346,84697,1,0,0:0:0:0:
197,346,84769,6,0,L|282:357,1,71.2500027179719
406,257,85059,1,0,0:0:0:0:
406,257,85204,2,0,P|358:266|335:282,1,71.2500027179719,0|8,0:0|0:0,0:0:0:0:
473,191,85494,2,0,L|470:97,1,71.2500027179719
354,62,85784,6,0,P|313:80|270:71,1,71.2500027179719
78,252,86074,2,0,L|82:205,1,35.625001358986
130,111,86219,2,0,L|137:145,1,35.625001358986
225,243,86364,2,0,L|233:149,1,71.2500027179719
300,281,86653,1,0,0:0:0:0:
137,320,86798,1,0,0:0:0:0:
380,319,86943,1,0,0:0:0:0:
380,319,87088,6,0,P|412:282|366:146,1,190,8|8,0:2|0:0,0:0:0:0:
240,56,87522,1,0,0:0:0:0:
240,56,87667,2,0,L|248:164,1,95,2|0,0:0|0:0,0:0:0:0:
280,332,87957,1,8,0:0:0:0:
280,332,88102,6,0,P|224:296|120:360,1,190
88,208,88537,2,0,P|96:152|88:92,1,95,8|0,0:0|0:0,0:0:0:0:
48,276,88827,1,2,0:0:0:0:
183,192,88972,1,0,0:0:0:0:
351,276,89116,1,8,0:0:0:0:
269,171,89261,6,0,B|237:140|240:56|281:26|281:26|313:78,1,190
273,285,89696,2,0,L|164:273,1,95,8|0,0:0|0:0,0:0:0:0:
348,193,89986,1,2,0:0:0:0:
328,351,90131,1,0,0:0:0:0:
183,192,90276,1,8,0:0:0:0:
336,109,90421,6,0,L|450:107,1,95,0|2,0:0|0:0,0:0:0:0:
269,204,90711,1,0,0:0:0:0:
189,42,90856,1,8,0:0:0:0:
99,185,91001,2,0,L|111:293,1,95,0|2,0:0|0:0,0:0:0:0:
182,134,91290,1,0,0:0:0:0:
56,109,91435,1,8,0:0:0:0:
297,157,91580,6,0,B|354:168|399:164|432:120|432:120|379:106,1,190
229,194,92015,2,0,B|182:193|182:193|124:161,1,95,8|0,0:0|0:0,0:0:0:0:
266,272,92305,1,2,0:0:0:0:
283,79,92450,1,0,0:0:0:0:
377,233,92595,1,8,0:0:0:0:
161,138,92740,6,0,L|66:150,1,95,0|2,0:0|0:0,0:0:0:0:
150,300,93030,1,0,0:0:0:0:
285,167,93174,2,0,B|301:121|301:121|280:73,1,95,8|0,0:0|0:0,0:0:0:0:
223,247,93464,1,2,0:0:0:0:
352,299,93609,2,0,L|471:289,1,95,0|8,0:0|0:0,0:0:0:0:
186,325,93899,6,0,B|149:296|149:296|105:322|41:305,1,142.5
256,192,94479,12,0,95203,0:0:0:0:
146,106,95493,6,0,L|136:75,4,31.6666666666667
259,64,95783,2,0,L|266:38,8,15.8333333333333
252,158,96073,1,0,0:0:0:0:
397,122,96218,1,0,0:0:0:0:
280,255,96363,6,0,B|207:245,1,71.2500027179719,4|0,0:3|0:0,0:0:0:0:
346,325,96653,1,0,0:0:0:0:
346,325,96943,6,0,P|367:290|366:245,1,71.2500027179719,8|0,0:0|0:0,0:0:0:0:
334,181,97232,1,0,0:0:0:0:
289,113,97377,2,0,L|295:22,1,71.2500027179719
262,247,97667,1,0,0:0:0:0:
218,326,97812,1,8,0:0:0:0:
262,247,97957,6,0,P|212:234|131:295,1,142.500005435944
346,325,98392,1,0,0:0:0:0:
346,325,98682,6,0,L|352:240,1,71.2500027179719,8|0,0:0|0:0,0:0:0:0:
356,157,98972,1,0,0:0:0:0:
499,198,99116,2,0,L|423:211,1,71.2500027179719
206,124,99406,2,0,L|282:111,1,71.2500027179719,0|8,0:0|0:0,0:0:0:0:
77,266,99696,1,0,0:0:0:0:
77,266,99769,1,0,0:0:0:0:
77,266,99841,1,0,0:0:0:0:
77,266,100131,6,0,P|59:224|64:184,1,71.2500027179719
256,193,100421,2,0,L|238:360,1,142.500005435944,8|0,0:0|0:0,0:0:0:0:
206,124,100856,1,0,0:0:0:0:
206,124,101145,6,0,P|254:110|282:114,1,71.2500027179719,0|8,0:0|0:0,0:0:0:0:
166,207,101435,1,0,0:0:0:0:
132,70,101580,1,0,0:0:0:0:
251,221,101725,6,0,P|254:284|224:344,2,106.875004076958,8|8|8,0:0|0:0|0:0,0:0:0:0:
166,207,102305,1,0,0:0:0:0:
308,158,102450,1,8,0:0:0:0:
110,146,102595,2,0,L|23:152,1,71.2500027179719
223,129,102885,2,0,P|246:84|241:54,1,71.2500027179719,8|0,0:0|0:0,0:0:0:0:
86,223,103174,1,0,0:0:0:0:
161,327,103319,5,0,3:0:0:0:
175,316,103392,1,0,3:0:0:0:
191,309,103464,1,0,3:0:0:0:
208,303,103537,1,0,3:0:0:0:
226,301,103609,1,0,3:0:0:0:
243,301,103682,1,0,3:0:0:0:
261,304,103754,1,0,3:0:0:0:
278,310,103827,1,0,3:0:0:0:
294,318,103899,6,0,P|341:329|396:314,1,80.750001540184
260,143,104188,2,0,B|248:186|248:186|262:227,1,80.750001540184
331,105,104478,1,0,0:0:0:0:
218,71,104623,2,0,L|124:79,1,80.750001540184
331,105,104913,2,0,L|411:98,1,80.750001540184
306,213,105203,5,0,0:0:0:0:
178,160,105348,1,0,0:0:0:0:
195,283,105493,1,0,0:0:0:0:
323,242,105638,2,0,L|320:322,1,80.750001540184
256,148,105927,1,0,0:0:0:0:
256,148,106000,1,0,0:0:0:0:
256,148,106072,1,0,0:0:0:0:
256,148,106145,1,0,0:0:0:0:
256,148,106217,6,0,L|259:60,1,80.750001540184
416,129,106507,1,0,0:0:0:0:
382,210,106652,2,0,P|346:181|330:136,1,80.750001540184
467,214,106942,6,0,L|455:298,1,80.750001540184
269,286,107232,2,0,P|318:271|361:289,1,80.750001540184
156,309,107522,2,0,L|144:229,1,80.750001540184
77,102,107812,1,0,0:0:0:0:
214,157,107956,2,0,L|294:160,1,80.750001540184,2|0,0:0|0:0,0:0:0:0:
363,218,108245,5,0,0:0:0:0:
392,125,108390,1,0,0:0:0:0:
377,227,108535,1,0,0:0:0:0:
406,134,108680,2,0,L|403:50,1,80.750001540184
392,237,108970,2,0,P|439:249|479:228,1,80.750001540184,2|0,0:0|0:0,0:0:0:0:
485,158,109260,1,0,0:0:0:0:
319,83,109405,6,0,L|235:91,1,80.750001540184
129,100,109695,1,0,0:0:0:0:
129,100,109840,1,0,0:0:0:0:
102,247,109984,2,0,B|84:210|84:210|97:169,1,80.750001540184
162,303,110274,5,0,0:0:0:0:
254,204,110419,1,0,0:0:0:0:
142,292,110564,1,0,0:0:0:0:
234,193,110709,2,0,L|331:182,1,80.750001540184
350,331,110999,6,0,P|329:287|353:238,1,80.750001540184
381,109,111289,2,0,P|402:153|378:202,1,80.750001540184,2|0,0:0|0:0,0:0:0:0:
300,76,111579,1,2,0:0:0:0:
275,245,111724,5,0,0:0:0:0:
153,196,111869,2,0,L|147:144,1,40.375000770092
64,86,112013,1,0,0:0:0:0:
62,133,112086,1,0,0:0:0:0:
61,180,112158,1,0,0:0:0:0:
60,227,112231,1,0,0:0:0:0:
60,275,112303,6,0,L|66:374,1,95,4|0,0:3|0:0,0:0:0:0:
275,245,112592,1,0,0:0:0:0:
336,191,112737,2,0,P|283:164|224:179,1,95,0|8,0:0|0:0,0:0:0:0:
217,299,113027,2,0,P|257:323|303:323,1,95
422,214,113317,5,0,0:0:0:0:
291,79,113462,2,0,B|237:89|237:89|178:77,1,95
60,203,113752,1,0,0:0:0:0:
176,103,113897,1,0,0:0:0:0:
281,240,114042,2,0,L|274:349,1,95
208,196,114331,5,8,0:0:0:0:
348,152,114476,1,0,0:0:0:0:
176,103,114621,1,0,0:0:0:0:
147,262,114766,2,0,L|163:366,1,95,0|8,0:0|0:0,0:0:0:0:
370,245,115056,6,0,P|309:229|256:263,1,95
437,91,115346,2,0,P|425:136|442:180,1,95
271,64,115636,2,0,P|316:75|360:58,1,95
112,194,115926,1,0,0:0:0:0:
112,194,115998,1,0,0:0:0:0:
112,194,116071,6,0,L|120:323,1,95,8|0,0:0|0:0,0:0:0:0:
265,144,116360,2,0,B|220:127|220:127|176:147,1,95,8|0,0:0|0:0,0:0:0:0:
344,195,116650,2,0,L|349:89,1,95,8|0,0:0|0:0,0:0:0:0:
415,258,116940,2,0,B|433:304|433:304|409:345,1,95,8|0,0:0|0:0,0:0:0:0:
175,237,117230,6,0,L|282:223,1,95,8|0,0:0|0:0,0:0:0:0:
86,203,117520,2,0,B|63:152|63:152|78:104,1,95,8|0,0:0|0:0,0:0:0:0:
229,325,117810,2,0,L|117:309,1,95,8|0,0:0|0:0,0:0:0:0:
329,171,118099,2,0,B|337:219|337:219|316:262,1,95,8|0,0:0|0:0,0:0:0:0:
259,113,118389,5,8,0:0:0:0:
406,82,118534,1,0,0:0:0:0:
251,200,118679,1,8,0:0:0:0:
423,261,118824,2,0,L|412:367,1,95,2|8,0:0|0:0,0:0:0:0:
173,250,119114,6,0,P|157:185|184:145,1,95,2|8,0:0|0:0,0:0:0:0:
359,133,119404,2,0,P|371:177|353:220,1,95,2|8,0:0|0:0,0:0:0:0:
276,308,119694,1,2,0:0:0:0:
67,151,119839,6,0,L|126:158,1,47.5
286,173,119984,2,0,L|227:180,1,47.5
55,237,120128,1,0,0:0:0:0:
115,237,120201,1,0,0:0:0:0:
173,250,120273,1,0,0:0:0:0:
227,273,120346,1,0,0:0:0:0:
276,308,120418,1,4,0:3:0:0:
324,170,141867,6,0,P|339:214|328:260,1,95,4|0,0:0|0:0,0:0:0:0:
160,219,142446,2,0,L|254:223,1,95
241,142,142881,1,0,0:0:0:0:
241,142,143171,2,0,L|146:137,2,95
309,189,143895,6,0,P|327:144|308:92,1,95
230,222,144475,2,0,L|237:331,1,95
387,215,145055,1,0,0:0:0:0:
387,215,145200,1,0,0:0:0:0:
214,137,145490,5,0,0:0:0:0:
214,137,145635,2,0,L|149:149,1,47.5
84,246,145924,2,0,L|106:183,1,47.5
56,78,146214,2,0,L|98:128,1,47.5
180,224,146504,6,0,P|218:224|290:215,1,95,4|0,0:0|0:0,0:0:0:0:
404,113,147084,2,0,L|414:59,2,47.5
386,219,147519,2,0,P|385:269|409:318,1,95
311,275,147953,2,0,P|268:271|218:298,1,95
160,355,148388,5,0,0:0:0:0:
132,226,148533,1,0,0:0:0:0:
111,113,148678,1,0,0:0:0:0:
111,113,148823,2,0,P|152:131|51:159,1,285
49,38,149838,2,0,B|97:23|97:23|161:31,1,95,2|2,0:0|0:0,0:0:0:0:
318,82,150272,2,0,B|270:97|270:97|206:89,1,95,8|0,0:0|0:0,0:0:0:0:
383,19,150707,5,2,0:0:0:0:
404,110,150852,1,8,0:0:0:0:
466,43,150997,1,0,0:0:0:0:
427,195,151142,2,0,L|441:282,1,71.2500027179719
512,216,151432,1,0,0:0:0:0:
355,262,151577,2,0,L|270:252,1,71.2500027179719,8|0,0:0|0:0,0:0:0:0:
337,182,151867,2,0,L|252:172,1,71.2500027179719
319,101,152156,6,0,B|235:91|235:91|210:100|190:119|185:141,1,142.500005435944,2|2,0:0|0:0,0:0:0:0:
160,204,152591,1,8,0:0:0:0:
160,204,152736,1,0,0:0:0:0:
160,204,152881,2,0,L|168:301,1,71.2500027179719
146,42,153171,1,8,0:2:0:0:
146,42,153461,6,0,B|65:43|65:43|90:76,1,104.500003189087
191,232,153751,1,8,0:0:0:0:
297,106,153895,2,0,B|378:107|378:107|353:140,1,104.500003189087
252,296,154185,1,8,0:0:0:0:
137,156,154330,2,0,B|56:157|56:157|81:190,1,104.500003189087
182,346,154620,1,8,0:0:0:0:
304,189,154765,6,0,B|468:151|468:151|445:195,1,209.000006378174,0|8,0:0|0:0,0:0:0:0:
225,161,155200,2,0,B|202:110|202:110|226:44,1,104.500003189087
280,277,155490,1,8,0:0:0:0:
122,190,155635,1,0,0:0:0:0:
299,291,155780,6,0,L|414:280,1,104.500003189087
278,100,156069,1,8,0:0:0:0:
198,242,156214,2,0,L|211:352,1,104.500003189087
246,121,156504,2,0,L|233:17,1,104.500003189087,8|0,0:0|0:0,0:0:0:0:
97,215,156794,6,0,B|198:242|198:242|290:190,1,209.000006378174,8|0,0:0|0:0,0:0:0:0:
132,36,157229,2,0,L|128:145,1,104.500003189087,8|8,0:0|0:0,0:0:0:0:
392,226,157519,2,0,L|388:117,1,104.500003189087
235,267,157809,2,0,L|304:254,1,52.2500015945435
252,160,157953,2,0,L|183:147,1,52.2500015945435
137,306,158098,6,0,B|159:257|159:257|143:208,1,104.500003189087,8|0,0:2|0:0,0:0:0:0:
41,340,158388,1,8,0:0:0:0:
235,267,158533,2,0,L|363:238,1,104.500003189087,0|2,0:0|0:0,0:0:0:0:
147,62,158823,2,0,B|136:111|136:111|151:169,1,104.500003189087,0|8,0:0|0:0,0:0:0:0:
419,80,159113,6,0,L|294:63,1,104.500003189087,0|2,0:0|0:0,0:0:0:0:
124,250,159403,2,0,L|249:233,1,104.500003189087,0|8,0:0|0:0,0:0:0:0:
38,190,159693,1,0,0:0:0:0:
251,321,159838,2,0,B|304:336|304:336|360:315,1,104.500003189087,2|0,0:0|0:0,0:0:0:0:
379,173,160127,1,8,0:0:0:0:
219,147,160272,1,0,0:0:0:0:
397,194,160417,6,0,L|507:186,1,104.500003189087,2|0,0:0|0:0,0:0:0:0:
306,260,160707,1,8,0:0:0:0:
139,148,160852,2,0,B|117:97|117:97|148:35,1,104.500003189087,0|2,0:0|0:0,0:0:0:0:
300,54,161142,2,0,B|321:97|321:97|299:148,1,104.500003189087,0|8,0:0|0:0,0:0:0:0:
218,307,161432,6,0,B|213:230|213:230|224:170|224:170|216:77,1,209.000006378174
306,236,161867,1,8,0:0:0:0:
147,344,162011,1,0,0:0:0:0:
45,157,162156,2,0,L|160:167,1,104.500003189087,2|0,0:0|0:0,0:0:0:0:
321,327,162446,2,0,P|293:283|333:215,1,104.500003189087,8|0,0:0|0:0,0:0:0:0:
414,114,162736,6,0,L|402:244,1,104.500003189087,2|0,0:0|0:0,0:0:0:0:
366,47,163026,1,8,0:0:0:0:
202,158,163171,2,0,L|214:288,1,104.500003189087,0|2,0:0|0:0,0:0:0:0:
263,98,163461,1,0,0:0:0:0:
150,62,163606,2,0,L|30:51,1,104.500003189087,8|0,0:0|0:0,0:0:0:0:
223,18,163895,5,2,0:0:0:0:
228,288,164040,2,0,P|260:226|399:227,1,209.000006378174
486,96,164475,2,0,P|490:153|462:199,1,104.500003189087,2|0,0:0|0:0,0:0:0:0:
334,312,164765,1,8,0:0:0:0:
129,238,164910,1,0,0:0:0:0:
359,326,165055,6,0,L|465:311,1,104.500003189087,2|0,0:0|0:0,0:0:0:0:
339,131,165345,1,8,0:0:0:0:
192,252,165490,2,0,B|187:304|187:304|199:363,1,104.500003189087,0|2,0:0|0:0,0:0:0:0:
360,116,165780,2,0,B|365:64|365:64|353:5,1,104.500003189087,0|8,0:0|0:0,0:0:0:0:
307,210,166069,6,0,B|347:232|375:226|398:210|398:210|422:219|422:219|455:204|495:209|535:232,1,209.000006378174
268,326,166504,1,8,0:0:0:0:
268,326,166649,1,0,0:0:0:0:
201,150,166794,2,0,B|192:98|192:98|214:36,1,104.500003189087,2|0,0:0|0:0,0:0:0:0:
352,320,167084,1,8,0:0:0:0:
163,226,167229,1,0,0:0:0:0:
410,117,167374,6,0,B|428:171|428:171|416:226,1,104.500003189087,2|0,0:0|0:0,0:0:0:0:
233,301,167664,1,8,0:0:0:0:
380,111,167809,2,0,L|503:124,1,104.500003189087,0|2,0:0|0:0,0:0:0:0:
339,191,168098,1,0,0:0:0:0:
303,47,168243,1,8,0:0:0:0:
310,211,168388,6,0,L|306:335,1,104.500003189087,0|2,0:0|0:0,0:0:0:0:
479,142,168678,2,0,P|421:114|370:136,1,104.500003189087,0|8,0:0|0:0,0:0:0:0:
198,284,168968,1,0,0:0:0:0:
87,187,169113,2,0,P|61:134|85:78,1,104.500003189087,2|0,0:0|0:0,0:0:0:0:
305,59,169403,1,8,0:0:0:0:
149,125,169548,1,0,0:0:0:0:
328,45,169693,6,0,L|436:60,1,104.500003189087,2|0,0:0|0:0,0:0:0:0:
170,138,169982,2,0,L|62:153,1,104.500003189087,8|0,0:0|0:0,0:0:0:0:
302,216,170272,2,0,B|319:166|319:166|308:110,1,104.500003189087,2|0,0:0|0:0,0:0:0:0:
153,34,170562,2,0,B|136:84|136:84|147:140,1,104.500003189087,8|0,0:0|0:0,0:0:0:0:
245,312,170852,6,0,L|124:299,1,104.500003189087,8|0,0:0|0:0,0:0:0:0:
334,209,171142,2,0,L|455:196,1,104.500003189087,8|0,0:0|0:0,0:0:0:0:
171,228,171432,2,0,P|154:174|185:127,1,104.500003189087,8|0,0:0|0:0,0:0:0:0:
352,110,171722,2,0,L|297:119,1,52.2500015945435
199,42,171867,2,0,L|285:53,1,52.2500015945435,8|0,0:0|0:0,0:0:0:0:
420,152,172011,6,0,P|438:101|408:51,1,95,2|0,0:0|0:0,0:0:0:0:
325,238,172301,2,0,L|343:358,1,95,8|0,0:2|0:0,0:0:0:0:
341,157,172591,1,2,0:0:0:0:
341,157,172736,1,0,0:0:0:0:
170,79,172881,1,8,0:0:0:0:
138,260,173026,6,0,P|224:287|289:224,1,190
290,225,173388,1,0,0:0:0:0:
290,225,173461,1,8,0:0:0:0:
317,60,173606,1,0,0:0:0:0:
465,177,173751,2,0,P|421:163|376:174,1,95,2|0,0:0|0:0,0:0:0:0:
376,175,173968,1,0,0:0:0:0:
376,175,174040,1,8,0:0:0:0:
301,345,174185,1,0,0:0:0:0:
253,174,174330,6,0,L|246:79,1,95,2|0,0:0|0:0,0:0:0:0:
309,241,174620,2,0,L|315:335,1,95,8|0,0:0|0:0,0:0:0:0:
185,216,174910,1,2,0:0:0:0:
361,173,175055,1,0,0:0:0:0:
169,199,175200,1,8,0:0:0:0:
345,155,175345,6,0,P|399:85|351:10,1,190
352,11,175707,1,0,0:0:0:0:
352,11,175780,1,8,0:0:0:0:
460,184,175924,1,0,0:0:0:0:
269,59,176069,5,0,3:0:0:0:
235,47,176142,1,0,3:0:0:0:
200,45,176214,1,0,3:0:0:0:
165,54,176287,1,0,3:0:0:0:
135,72,176359,1,0,3:0:0:0:
111,99,176432,1,0,3:0:0:0:
97,131,176504,1,0,3:0:0:0:
92,166,176577,1,0,3:0:0:0:
98,201,176649,6,0,P|109:249|135:320,1,95,2|0,0:0|0:0,0:0:0:0:
281,264,176939,1,8,0:0:0:0:
279,262,177084,1,0,0:0:0:0:
230,195,177229,1,2,0:0:0:0:
246,335,177374,1,0,0:0:0:0:
360,258,177519,1,8,0:0:0:0:
310,88,177664,6,0,B|269:140|269:140|280:263,1,190
281,263,178026,1,0,0:0:0:0:
281,263,178098,1,8,0:0:0:0:
157,149,178243,1,0,0:0:0:0:
188,333,178388,2,0,B|209:297|209:297|198:229,1,95,2|0,0:0|0:0,0:0:0:0:
200,244,178606,1,0,0:0:0:0:
200,244,178678,1,8,0:0:0:0:
359,294,178823,1,0,0:0:0:0:
176,232,178968,6,0,L|70:237,1,95,2|0,0:0|0:0,0:0:0:0:
272,291,179258,2,0,P|289:238|259:191,1,95,8|0,0:0|0:0,0:0:0:0:
138,62,179548,1,2,0:0:0:0:
198,136,179693,1,0,0:0:0:0:
238,51,179838,1,8,0:0:0:0:
342,263,179982,6,0,P|373:201|300:118,1,190
332,276,180417,2,0,L|443:266,1,95,8|0,0:0|0:0,0:0:0:0:
280,358,180707,2,0,L|257:296,1,47.5,8|0,0:2|0:0,0:0:0:0:
238,203,180852,2,0,L|221:247,1,47.5
187,321,180997,2,0,L|92:329,1,95
128,147,181287,6,0,P|141:194|130:229,1,71.2500027179719
52,108,181576,1,0,0:0:0:0:
52,108,181721,1,0,0:0:0:0:
223,237,181866,2,0,B|258:251|258:251|391:243,1,142.500005435944,2|0,0:2|0:0,0:0:0:0:
428,186,182301,5,0,0:0:0:0:
428,186,182591,1,0,0:0:0:0:
362,244,182736,2,0,B|327:258|327:258|222:251,1,142.500005435944,2|0,0:2|0:0,0:0:0:0:
153,187,183171,5,0,0:0:0:0:
208,119,183315,2,0,L|277:145,1,71.2500027179719
91,248,183605,2,0,B|67:206|67:206|87:90,1,142.500005435944,2|0,0:2|0:0,0:0:0:0:
54,39,184040,5,0,0:0:0:0:
54,39,184330,1,0,0:0:0:0:
138,53,184475,2,0,L|209:47,1,71.2500027179719,6|0,0:2|0:0,0:0:0:0:
209,47,184692,1,0,0:0:0:0:
209,47,184765,5,0,0:0:0:0:
317,103,184910,1,0,0:0:0:0:
232,129,185055,1,0,0:0:0:0:
292,16,185200,1,0,0:0:0:0:
404,78,185344,2,0,B|421:120|421:120|397:240,1,142.500005435944,2|0,0:2|0:0,0:0:0:0:
428,293,185779,5,0,0:0:0:0:
428,293,186069,1,0,0:0:0:0:
401,215,186214,2,0,B|384:173|384:173|408:53,1,142.500005435944,2|0,0:2|0:0,0:0:0:0:
480,29,186649,5,0,0:0:0:0:
309,121,186794,1,0,0:0:0:0:
309,121,186939,1,0,0:0:0:0:
198,46,187084,2,0,B|235:29|235:29|341:50,1,142.500005435944,2|0,0:2|0:0,0:0:0:0:
413,125,187518,5,0,0:0:0:0:
340,198,187663,1,6,0:2:0:0:
257,124,187808,1,0,0:0:0:0:
428,123,187953,1,6,0:2:0:0:
245,124,188098,1,0,0:0:0:0:
443,123,188243,6,0,P|463:166|464:207,1,71.2500027179719,0|2,0:0|0:0,0:0:0:0:
440,323,188533,1,0,0:0:0:0:
440,323,188678,1,0,0:0:0:0:
289,308,188823,2,0,B|194:299|194:299|133:320,1,142.500005435944,2|0,0:2|0:0,0:0:0:0:
50,181,189258,6,0,P|35:142|41:108,1,71.2500027179719,2|0,0:0|0:0,0:0:0:0:
129,207,189547,1,0,0:0:0:0:
229,106,189692,2,0,B|271:82|271:82|388:101,1,142.500005435944,2|0,0:2|0:0,0:0:0:0:
429,148,190127,5,2,0:0:0:0:
392,220,190272,1,0,0:0:0:0:
392,220,190344,1,0,0:0:0:0:
392,220,190417,1,0,0:0:0:0:
363,97,190562,2,0,B|321:73|321:73|204:92,1,142.500005435944,2|0,0:2|0:0,0:0:0:0:
151,40,190997,5,2,0:0:0:0:
151,40,191287,1,0,0:0:0:0:
90,125,191431,2,0,L|174:139,1,71.2500027179719,6|0,0:2|0:0,0:0:0:0:
160,136,191649,1,0,0:0:0:0:
160,136,191721,5,0,0:0:0:0:
223,199,191866,1,2,0:0:0:0:
303,160,192011,1,0,0:0:0:0:
363,226,192156,1,0,0:0:0:0:
377,114,192301,2,0,B|318:75|318:75|223:89,1,142.500005435944,2|0,0:2|0:0,0:0:0:0:
433,177,192736,5,2,0:0:0:0:
440,167,193026,1,0,0:0:0:0:
384,104,193171,2,0,B|325:65|325:65|230:79,1,142.500005435944,2|0,0:2|0:0,0:0:0:0:
168,107,193605,5,2,0:0:0:0:
243,159,193750,1,0,0:0:0:0:
243,159,193823,1,0,0:0:0:0:
243,159,193895,1,0,0:0:0:0:
317,212,194040,2,0,B|259:239|259:239|152:231,1,142.500005435944,2|0,0:2|0:0,0:0:0:0:
272,349,194475,1,2,0:0:0:0:
272,349,194765,5,0,0:0:0:0:
152,310,194910,1,6,0:2:0:0:
372,276,195055,1,0,0:0:0:0:
