osu file format v14

[General]
AudioFilename: audio.mp3
AudioLeadIn: 0
PreviewTime: 46904
Countdown: 0
SampleSet: Soft
StackLeniency: 0.7
Mode: 3
LetterboxInBreaks: 0
SpecialStyle: 0
WidescreenStoryboard: 0

[Editor]
DistanceSpacing: 0.7
BeatDivisor: 6
GridSize: 32
TimelineZoom: 2.3

[Metadata]
Title:Merry Snowy Fantasy feat. Hanon
TitleUnicode:Merry Snowy Fantasy feat. Hanon
Artist:mustie=DC
ArtistUnicode:mustie=DC
Creator:Murumoo
Version:qodtjr's Happy Christmas
Source:
Tags:remuring qodtjr electronic japanese xmas christmas マスティ はのん A FUTURE MEOWS
BeatmapID:2205806
BeatmapSetID:1055617

[Difficulty]
HPDrainRate:9
CircleSize:7
OverallDifficulty:9
ApproachRate:5
SliderMultiplier:1.4
SliderTickRate:1

[Events]
//Background and Video events
0,0,"bg2.jpg",0,0
//Break Periods
//Storyboard Layer 0 (Background)
//Storyboard Layer 1 (Fail)
//Storyboard Layer 2 (Pass)
//Storyboard Layer 3 (Foreground)
//Storyboard Layer 4 (Overlay)
//Storyboard Sound Samples

[TimingPoints]
1547,357.142857142857,4,2,1,20,1,0
72975,-100,4,2,1,20,0,1
98689,-100,4,2,1,20,0,0
158689,-100,4,2,1,20,0,1
170118,-100,4,2,1,20,0,0

[HitObjects]
36,192,1547,5,0,0:0:0:70:finish.wav
109,192,1547,1,0,0:0:0:0:
182,192,1547,1,0,0:0:0:0:
329,192,1725,1,0,0:0:0:0:
402,192,1725,1,0,0:0:0:0:
36,192,1904,1,0,0:0:0:0:
182,192,1904,1,0,0:0:0:0:
402,192,2082,1,0,0:0:0:0:
475,192,2082,1,0,0:0:0:0:
109,192,2261,1,0,0:0:0:0:
182,192,2261,1,0,0:0:0:0:
329,192,2439,1,0,0:0:0:0:
475,192,2439,1,0,0:0:0:0:
36,192,2618,1,0,0:0:0:0:
109,192,2618,1,0,0:0:0:0:
329,192,2796,1,0,0:0:0:0:
402,192,2796,1,0,0:0:0:0:
109,192,2975,1,0,0:0:0:0:
256,192,2975,1,0,0:0:0:0:
402,192,3154,1,0,0:0:0:0:
475,192,3154,1,0,0:0:0:0:
36,192,3332,1,0,0:0:0:0:
182,192,3332,1,0,0:0:0:0:
329,192,3511,1,0,0:0:0:0:
402,192,3511,1,0,0:0:0:0:
109,192,3689,1,0,0:0:0:0:
182,192,3689,1,0,0:0:0:0:
329,192,3868,1,0,0:0:0:0:
475,192,3868,1,0,0:0:0:0:
36,192,4046,1,0,0:0:0:0:
109,192,4046,1,0,0:0:0:0:
329,192,4225,1,0,0:0:0:0:
402,192,4225,1,0,0:0:0:0:
36,192,4404,1,0,0:0:0:0:
182,192,4404,1,0,0:0:0:0:
329,192,4582,1,0,0:0:0:0:
402,192,4582,1,0,0:0:0:0:
36,192,4761,1,0,0:0:0:0:
109,192,4761,1,0,0:0:0:0:
329,192,4939,1,0,0:0:0:0:
475,192,4939,1,0,0:0:0:0:
109,192,5118,1,0,0:0:0:0:
182,192,5118,1,0,0:0:0:0:
329,192,5296,1,0,0:0:0:0:
402,192,5296,1,0,0:0:0:0:
36,192,5475,1,0,0:0:0:0:
182,192,5475,1,0,0:0:0:0:
182,192,5654,1,0,0:0:0:0:
329,192,5654,1,0,0:0:0:0:
256,192,5832,1,0,0:0:0:0:
402,192,5832,1,0,0:0:0:0:
36,192,6011,1,0,0:0:0:0:
182,192,6011,1,0,0:0:0:0:
329,192,6189,1,0,0:0:0:0:
475,192,6189,1,0,0:0:0:0:
109,192,6368,1,0,0:0:0:0:
256,192,6368,1,0,0:0:0:0:
329,192,6546,1,0,0:0:0:0:
402,192,6546,1,0,0:0:0:0:
36,192,6725,1,0,0:0:0:0:
182,192,6725,1,0,0:0:0:0:
329,192,6904,1,0,0:0:0:0:
475,192,6904,1,0,0:0:0:0:
109,192,7082,1,0,0:0:0:0:
256,192,7082,1,0,0:0:0:0:
36,192,7261,1,0,0:0:0:70:drum.wav
182,192,7261,1,0,0:0:0:0:
475,192,7261,1,0,0:0:0:0:
256,192,7439,1,0,0:0:0:0:
36,192,7618,1,0,0:0:0:70:drum.wav
109,192,7618,1,0,0:0:0:0:
475,192,7618,1,0,0:0:0:0:
256,192,7796,1,0,0:0:0:0:
36,192,7975,1,0,0:0:0:70:drum.wav
182,192,7975,1,0,0:0:0:0:
475,192,7975,1,0,0:0:0:0:
109,192,8154,1,0,0:0:0:0:
36,192,8332,1,0,0:0:0:70:drum.wav
329,192,8332,1,0,0:0:0:0:
475,192,8332,1,0,0:0:0:0:
256,192,8511,1,0,0:0:0:0:
109,192,8689,1,0,0:0:0:70:drum.wav
182,192,8689,1,0,0:0:0:0:
475,192,8689,1,0,0:0:0:0:
182,192,8868,1,0,0:0:0:0:
329,192,8868,1,0,0:0:0:0:
36,192,9046,1,0,0:0:0:70:drum.wav
109,192,9046,1,0,0:0:0:0:
475,192,9046,1,0,0:0:0:0:
109,192,9225,1,0,0:0:0:0:
256,192,9225,1,0,0:0:0:0:
36,192,9404,1,0,0:0:0:70:drum.wav
329,192,9404,1,0,0:0:0:0:
475,192,9404,1,0,0:0:0:0:
256,192,9582,1,0,0:0:0:0:
36,192,9761,1,0,0:0:0:70:drum.wav
182,192,9761,1,0,0:0:0:0:
475,192,9761,1,0,0:0:0:0:
329,192,9939,1,0,0:0:0:0:
402,192,9939,1,0,0:0:0:0:
36,192,10118,1,0,0:0:0:70:drum.wav
256,192,10118,1,0,0:0:0:0:
475,192,10118,1,0,0:0:0:0:
109,192,10296,1,0,0:0:0:0:
256,192,10296,1,0,0:0:0:0:
182,192,10475,1,0,0:0:0:70:drum.wav
329,192,10475,1,0,0:0:0:0:
475,192,10475,1,0,0:0:0:0:
36,192,10654,1,0,0:0:0:0:
329,192,10654,1,0,0:0:0:0:
109,192,10832,1,0,0:0:0:70:drum.wav
256,192,10832,1,0,0:0:0:0:
402,192,10832,1,0,0:0:0:0:
475,192,11011,1,0,0:0:0:0:
36,192,11189,1,0,0:0:0:70:drum.wav
182,192,11189,1,0,0:0:0:0:
256,192,11189,1,0,0:0:0:0:
182,192,11368,1,0,0:0:0:0:
475,192,11368,1,0,0:0:0:0:
36,192,11546,1,0,0:0:0:70:drum.wav
256,192,11546,1,0,0:0:0:0:
402,192,11546,1,0,0:0:0:0:
182,192,11725,1,0,0:0:0:0:
36,192,11904,1,0,0:0:0:0:
475,192,11904,1,0,0:0:0:0:
256,192,12082,1,0,0:0:0:0:
36,192,12261,1,0,0:0:0:0:
475,192,12261,1,0,0:0:0:0:
182,192,12439,1,0,0:0:0:0:
36,192,12618,1,0,0:0:0:50:Clap.wav
329,192,12618,1,0,0:0:0:0:
475,192,12618,1,0,0:0:0:0:
109,192,12796,1,0,0:0:0:0:
36,192,12975,1,0,0:0:0:70:drum.wav
182,192,12975,1,0,0:0:0:70:finish.wav
402,192,12975,1,0,0:0:0:0:
475,192,12975,1,0,0:0:0:0:
256,192,13154,1,0,0:0:0:0:
402,192,13154,1,0,0:0:0:0:
36,192,13332,1,0,0:0:0:70:drum.wav
109,192,13332,1,0,0:0:0:0:
329,192,13332,1,0,0:0:0:0:
182,192,13511,1,0,0:0:0:0:
475,192,13511,1,0,0:0:0:0:
36,192,13689,1,0,0:0:0:70:drum.wav
182,192,13689,1,0,0:0:0:0:
402,192,13689,1,0,0:0:0:0:
182,192,13868,1,0,0:0:0:0:
329,192,13868,1,0,0:0:0:0:
182,192,13957,1,0,0:0:0:0:
402,192,13957,1,0,0:0:0:0:
36,192,14046,1,0,0:0:0:70:drum.wav
109,192,14046,1,0,0:0:0:0:
329,192,14046,1,0,0:0:0:0:
182,192,14225,1,0,0:0:0:0:
475,192,14225,1,0,0:0:0:0:
36,192,14404,1,0,0:0:0:70:drum.wav
256,192,14404,1,0,0:0:0:0:
402,192,14404,1,0,0:0:0:0:
109,192,14582,1,0,0:0:0:0:
329,192,14582,1,0,0:0:0:0:
182,192,14761,1,0,0:0:0:70:drum.wav
256,192,14761,1,0,0:0:0:0:
402,192,14761,1,0,0:0:0:0:
36,192,14939,1,0,0:0:0:0:
329,192,14939,1,0,0:0:0:0:
109,192,15118,1,0,0:0:0:70:drum.wav
256,192,15118,1,0,0:0:0:0:
475,192,15118,1,0,0:0:0:0:
182,192,15296,1,0,0:0:0:0:
402,192,15296,1,0,0:0:0:0:
256,192,15386,1,0,0:0:0:0:
402,192,15386,1,0,0:0:0:0:
36,192,15475,1,0,0:0:0:70:drum.wav
109,192,15475,1,0,0:0:0:0:
329,192,15475,1,0,0:0:0:0:
182,192,15654,1,0,0:0:0:0:
475,192,15654,1,0,0:0:0:0:
36,192,15832,1,0,0:0:0:70:drum.wav
256,192,15832,1,0,0:0:0:0:
402,192,15832,1,0,0:0:0:0:
109,192,16011,1,0,0:0:0:0:
329,192,16011,1,0,0:0:0:0:
109,192,16189,1,0,0:0:0:70:drum.wav
182,192,16189,1,0,0:0:0:0:
475,192,16189,1,0,0:0:0:0:
256,192,16368,1,0,0:0:0:0:
402,192,16368,1,0,0:0:0:0:
36,192,16546,1,0,0:0:0:70:drum.wav
109,192,16546,1,0,0:0:0:0:
329,192,16546,1,0,0:0:0:0:
182,192,16725,1,0,0:0:0:0:
475,192,16725,1,0,0:0:0:0:
182,192,16814,1,0,0:0:0:0:
329,192,16814,1,0,0:0:0:0:
36,192,16904,1,0,0:0:0:70:drum.wav
256,192,16904,1,0,0:0:0:0:
402,192,16904,1,0,0:0:0:0:
109,192,17082,1,0,0:0:0:0:
402,192,17082,1,0,0:0:0:0:
182,192,17261,1,0,0:0:0:70:drum.wav
329,192,17261,1,0,0:0:0:0:
475,192,17261,1,0,0:0:0:0:
36,192,17439,1,0,0:0:0:0:
256,192,17439,1,0,0:0:0:0:
109,192,17618,1,0,0:0:0:70:drum.wav
329,192,17618,1,0,0:0:0:0:
475,192,17618,1,0,0:0:0:0:
182,192,17796,1,0,0:0:0:0:
256,192,17796,1,0,0:0:0:0:
36,192,17975,1,0,0:0:0:70:drum.wav
329,192,17975,1,0,0:0:0:0:
475,192,17975,1,0,0:0:0:0:
109,192,18154,1,0,0:0:0:0:
182,192,18154,1,0,0:0:0:0:
182,192,18243,1,0,0:0:0:0:
329,192,18243,1,0,0:0:0:0:
36,192,18332,1,0,0:0:0:70:drum.wav
256,192,18332,1,0,0:0:0:0:
402,192,18332,1,0,0:0:0:0:
109,192,18421,1,0,0:0:0:0:
329,192,18511,1,0,0:0:0:0:
475,192,18511,1,0,0:0:0:0:
182,192,18600,1,0,0:0:0:0:
36,192,18689,1,0,0:0:0:70:drum.wav
256,192,18689,1,0,0:0:0:0:
402,192,18689,1,0,0:0:0:0:
475,192,18689,1,0,0:0:0:0:
109,192,18868,1,0,0:0:0:0:
329,192,18868,1,0,0:0:0:0:
36,192,19046,1,0,0:0:0:70:drum.wav
256,192,19046,1,0,0:0:0:0:
475,192,19046,1,0,0:0:0:0:
182,192,19225,1,0,0:0:0:0:
402,192,19225,1,0,0:0:0:0:
256,192,19404,1,0,0:0:0:70:drum.wav
329,192,19404,1,0,0:0:0:0:
475,192,19404,1,0,0:0:0:0:
36,192,19582,1,0,0:0:0:0:
182,192,19582,1,0,0:0:0:0:
36,192,19671,1,0,0:0:0:0:
329,192,19671,1,0,0:0:0:0:
182,192,19761,1,0,0:0:0:70:drum.wav
402,192,19761,1,0,0:0:0:0:
475,192,19761,1,0,0:0:0:0:
256,192,19939,1,0,0:0:0:0:
475,192,19939,1,0,0:0:0:0:
36,192,20118,1,0,0:0:0:70:drum.wav
182,192,20118,1,0,0:0:0:0:
329,192,20118,1,0,0:0:0:0:
256,192,20296,1,0,0:0:0:0:
402,192,20296,1,0,0:0:0:0:
36,192,20475,1,0,0:0:0:70:drum.wav
256,192,20475,1,0,0:0:0:0:
402,192,20475,1,0,0:0:0:0:
109,192,20654,1,0,0:0:0:0:
329,192,20654,1,0,0:0:0:0:
182,192,20832,1,0,0:0:0:70:drum.wav
402,192,20832,1,0,0:0:0:0:
475,192,20832,1,0,0:0:0:0:
36,192,21011,1,0,0:0:0:0:
256,192,21011,1,0,0:0:0:0:
109,192,21100,1,0,0:0:0:0:
256,192,21100,1,0,0:0:0:0:
182,192,21189,1,0,0:0:0:70:drum.wav
402,192,21189,1,0,0:0:0:0:
475,192,21189,1,0,0:0:0:0:
109,192,21368,1,0,0:0:0:0:
329,192,21368,1,0,0:0:0:0:
109,192,21546,1,0,0:0:0:70:drum.wav
256,192,21546,1,0,0:0:0:0:
475,192,21546,1,0,0:0:0:0:
182,192,21725,1,0,0:0:0:0:
402,192,21725,1,0,0:0:0:0:
36,192,21904,1,0,0:0:0:70:drum.wav
256,192,21904,1,0,0:0:0:0:
329,192,21904,1,0,0:0:0:0:
109,192,22082,1,0,0:0:0:0:
475,192,22082,1,0,0:0:0:0:
182,192,22261,1,0,0:0:0:70:drum.wav
256,192,22261,1,0,0:0:0:0:
402,192,22261,1,0,0:0:0:0:
36,192,22439,1,0,0:0:0:0:
402,192,22439,1,0,0:0:0:0:
256,192,22529,1,0,0:0:0:0:
402,192,22529,1,0,0:0:0:0:
36,192,22618,1,0,0:0:0:70:drum.wav
109,192,22618,1,0,0:0:0:0:
182,192,22618,1,0,0:0:0:0:
329,192,22796,1,0,0:0:0:0:
402,192,22796,1,0,0:0:0:0:
36,192,22975,1,0,0:0:0:70:drum.wav
109,192,22975,1,0,0:0:0:70:finish.wav
329,192,22975,1,0,0:0:0:0:
475,192,22975,1,0,0:0:0:0:
182,192,23154,1,0,0:0:0:0:
256,192,23154,1,0,0:0:0:0:
109,192,23332,1,0,0:0:0:70:drum.wav
402,192,23332,1,0,0:0:0:0:
475,192,23332,1,0,0:0:0:0:
182,192,23511,1,0,0:0:0:0:
256,192,23511,1,0,0:0:0:0:
36,192,23689,1,0,0:0:0:70:drum.wav
329,192,23689,1,0,0:0:0:0:
402,192,23689,1,0,0:0:0:0:
109,192,23868,1,0,0:0:0:0:
182,192,23868,1,0,0:0:0:0:
256,192,24046,1,0,0:0:0:70:drum.wav
402,192,24046,1,0,0:0:0:0:
475,192,24046,1,0,0:0:0:0:
36,192,24225,1,0,0:0:0:0:
182,192,24225,1,0,0:0:0:0:
329,192,24225,1,0,0:0:0:0:
109,192,24404,1,0,0:0:0:70:drum.wav
256,192,24404,1,0,0:0:0:70:finish.wav
329,192,24404,1,0,0:0:0:0:
402,192,24404,1,0,0:0:0:0:
475,192,24404,1,0,0:0:0:0:
182,192,24582,1,0,0:0:0:0:
402,192,24582,1,0,0:0:0:0:
36,192,24761,1,0,0:0:0:70:snare.wav
182,192,24761,1,0,0:0:0:0:
256,192,24761,1,0,0:0:0:0:
329,192,24761,1,0,0:0:0:0:
109,192,24939,1,0,0:0:0:0:
475,192,24939,1,0,0:0:0:0:
36,192,25118,1,0,0:0:0:70:drum.wav
109,192,25118,1,0,0:0:0:0:
182,192,25118,1,0,0:0:0:0:
256,192,25118,1,0,0:0:0:0:
402,192,25118,1,0,0:0:0:0:
109,192,25296,1,0,0:0:0:0:
329,192,25296,1,0,0:0:0:0:
36,192,25475,1,0,0:0:0:70:snare.wav
182,192,25475,1,0,0:0:0:0:
256,192,25475,1,0,0:0:0:0:
475,192,25475,1,0,0:0:0:0:
256,192,25654,1,0,0:0:0:0:
402,192,25654,1,0,0:0:0:0:
36,192,25832,1,0,0:0:0:70:drum.wav
109,192,25832,1,0,0:0:0:0:
182,192,25832,1,0,0:0:0:0:
329,192,25832,1,0,0:0:0:0:
402,192,25832,1,0,0:0:0:0:
109,192,26011,1,0,0:0:0:0:
329,192,26011,1,0,0:0:0:0:
36,192,26189,1,0,0:0:0:70:snare.wav
182,192,26189,1,0,0:0:0:0:
256,192,26189,1,0,0:0:0:0:
402,192,26189,1,0,0:0:0:0:
475,192,26189,1,0,0:0:0:0:
109,192,26368,1,0,0:0:0:0:
402,192,26368,1,0,0:0:0:0:
109,192,26546,1,0,0:0:0:70:drum.wav
182,192,26546,1,0,0:0:0:0:
256,192,26546,1,0,0:0:0:0:
402,192,26546,1,0,0:0:0:0:
475,192,26546,1,0,0:0:0:0:
36,192,26725,1,0,0:0:0:70:snare.wav
329,192,26725,1,0,0:0:0:0:
329,192,26814,1,0,0:0:0:0:
475,192,26814,1,0,0:0:0:0:
36,192,26904,1,0,0:0:0:70:drum.wav
109,192,26904,1,0,0:0:0:0:
256,192,26904,1,0,0:0:0:0:
182,192,26993,1,0,0:0:0:0:
329,192,26993,1,0,0:0:0:0:
256,192,27082,1,0,0:0:0:70:snare.wav
402,192,27082,1,0,0:0:0:0:
329,192,27171,1,0,0:0:0:0:
475,192,27171,1,0,0:0:0:0:
36,192,27261,1,0,0:0:0:70:drum.wav
109,192,27261,1,0,0:0:0:70:finish.wav
182,192,27261,1,0,0:0:0:0:
256,192,27261,1,0,0:0:0:0:
402,192,27261,1,0,0:0:0:0:
109,192,27439,1,0,0:0:0:0:
329,192,27439,1,0,0:0:0:0:
36,192,27618,1,0,0:0:0:70:snare.wav
182,192,27618,1,0,0:0:0:0:
402,192,27618,1,0,0:0:0:0:
475,192,27618,1,0,0:0:0:0:
256,192,27796,1,0,0:0:0:0:
329,192,27796,1,0,0:0:0:0:
36,192,27975,1,0,0:0:0:70:drum.wav
182,192,27975,1,0,0:0:0:0:
256,192,27975,1,0,0:0:0:0:
402,192,27975,1,0,0:0:0:0:
475,192,27975,1,0,0:0:0:0:
182,192,28154,1,0,0:0:0:0:
402,192,28154,1,0,0:0:0:0:
36,192,28332,1,0,0:0:0:70:snare.wav
109,192,28332,1,0,0:0:0:0:
329,192,28332,1,0,0:0:0:0:
475,192,28332,1,0,0:0:0:0:
109,192,28511,1,0,0:0:0:0:
402,192,28511,1,0,0:0:0:0:
36,192,28689,1,0,0:0:0:70:drum.wav
182,192,28689,1,0,0:0:0:0:
256,192,28689,1,0,0:0:0:0:
329,192,28689,1,0,0:0:0:0:
475,192,28689,1,0,0:0:0:0:
256,192,28868,1,0,0:0:0:0:
329,192,28868,1,0,0:0:0:0:
36,192,29046,1,0,0:0:0:70:snare.wav
182,192,29046,1,0,0:0:0:0:
329,192,29046,1,0,0:0:0:0:
402,192,29046,1,0,0:0:0:0:
475,192,29046,1,0,0:0:0:0:
182,192,29225,1,0,0:0:0:0:
402,192,29225,1,0,0:0:0:0:
36,192,29404,1,0,0:0:0:70:drum.wav
182,192,29404,1,0,0:0:0:0:
256,192,29404,1,0,0:0:0:0:
329,192,29404,1,0,0:0:0:0:
475,192,29404,1,0,0:0:0:0:
109,192,29582,1,0,0:0:0:70:snare.wav
256,192,29582,1,0,0:0:0:0:
256,192,29671,1,0,0:0:0:0:
329,192,29671,1,0,0:0:0:0:
182,192,29761,1,0,0:0:0:70:drum.wav
402,192,29761,1,0,0:0:0:0:
475,192,29761,1,0,0:0:0:0:
109,192,29850,1,0,0:0:0:0:
329,192,29850,1,0,0:0:0:0:
36,192,29939,1,0,0:0:0:70:snare.wav
256,192,29939,1,0,0:0:0:0:
182,192,30029,1,0,0:0:0:0:
402,192,30029,1,0,0:0:0:0:
36,192,30118,1,0,0:0:0:70:drum.wav
109,192,30118,1,0,0:0:0:70:finish.wav
256,192,30118,1,0,0:0:0:0:
329,192,30118,1,0,0:0:0:0:
475,192,30118,1,0,0:0:0:0:
182,192,30296,1,0,0:0:0:0:
329,192,30296,1,0,0:0:0:0:
36,192,30475,1,0,0:0:0:70:snare.wav
182,192,30475,1,0,0:0:0:0:
329,192,30475,1,0,0:0:0:0:
402,192,30475,1,0,0:0:0:0:
109,192,30654,1,0,0:0:0:0:
256,192,30654,1,0,0:0:0:0:
36,192,30832,1,0,0:0:0:70:drum.wav
182,192,30832,1,0,0:0:0:0:
256,192,30832,1,0,0:0:0:0:
402,192,30832,1,0,0:0:0:0:
475,192,30832,1,0,0:0:0:0:
109,192,31011,1,0,0:0:0:0:
329,192,31011,1,0,0:0:0:0:
109,192,31189,1,0,0:0:0:70:snare.wav
182,192,31189,1,0,0:0:0:0:
402,192,31189,1,0,0:0:0:0:
475,192,31189,1,0,0:0:0:0:
256,192,31368,1,0,0:0:0:0:
475,192,31368,1,0,0:0:0:0:
36,192,31546,1,0,0:0:0:70:drum.wav
109,192,31546,1,0,0:0:0:0:
182,192,31546,1,0,0:0:0:0:
329,192,31546,1,0,0:0:0:0:
402,192,31546,1,0,0:0:0:0:
109,192,31725,1,0,0:0:0:0:
329,192,31725,1,0,0:0:0:0:
475,192,31725,1,0,0:0:0:0:
109,192,31904,1,0,0:0:0:70:snare.wav
256,192,31904,1,0,0:0:0:0:
329,192,31904,1,0,0:0:0:0:
402,192,31904,1,0,0:0:0:0:
36,192,32082,1,0,0:0:0:0:
182,192,32082,1,0,0:0:0:0:
329,192,32082,1,0,0:0:0:0:
36,192,32261,1,0,0:0:0:70:drum.wav
109,192,32261,1,0,0:0:0:0:
182,192,32261,1,0,0:0:0:0:
402,192,32261,1,0,0:0:0:0:
256,192,32439,1,0,0:0:0:0:
329,192,32439,1,0,0:0:0:0:
475,192,32439,1,0,0:0:0:0:
36,192,32618,1,0,0:0:0:70:snare.wav
109,192,32618,1,0,0:0:0:0:
329,192,32618,1,0,0:0:0:0:
402,192,32618,1,0,0:0:0:0:
36,192,32796,1,0,0:0:0:0:
182,192,32796,1,0,0:0:0:0:
475,192,32796,1,0,0:0:0:0:
109,192,32975,1,0,0:0:0:70:drum.wav
256,192,32975,1,0,0:0:0:70:finish.wav
329,192,32975,1,0,0:0:0:0:
402,192,32975,1,0,0:0:0:0:
475,192,32975,1,0,0:0:0:0:
109,192,33154,1,0,0:0:0:0:
256,192,33154,1,0,0:0:0:0:
36,192,33332,1,0,0:0:0:70:snare.wav
329,192,33332,1,0,0:0:0:0:
402,192,33332,1,0,0:0:0:0:
475,192,33332,1,0,0:0:0:0:
182,192,33511,1,0,0:0:0:0:
329,192,33511,1,0,0:0:0:0:
36,192,33689,1,0,0:0:0:70:drum.wav
109,192,33689,1,0,0:0:0:0:
256,192,33689,1,0,0:0:0:0:
475,192,33689,1,0,0:0:0:0:
256,192,33868,1,0,0:0:0:0:
402,192,33868,1,0,0:0:0:0:
109,192,34046,1,0,0:0:0:70:snare.wav
182,192,34046,1,0,0:0:0:0:
329,192,34046,1,0,0:0:0:0:
475,192,34046,1,0,0:0:0:0:
182,192,34225,1,0,0:0:0:0:
329,192,34225,1,0,0:0:0:0:
36,192,34404,1,0,0:0:0:70:drum.wav
109,192,34404,1,0,0:0:0:0:
256,192,34404,1,0,0:0:0:0:
402,192,34404,1,0,0:0:0:0:
182,192,34582,1,0,0:0:0:0:
475,192,34582,1,0,0:0:0:0:
36,192,34761,1,0,0:0:0:70:snare.wav
109,192,34761,1,0,0:0:0:0:
256,192,34761,1,0,0:0:0:0:
402,192,34761,1,0,0:0:0:0:
109,192,34939,1,0,0:0:0:0:
329,192,34939,1,0,0:0:0:0:
36,192,35118,1,0,0:0:0:70:drum.wav
182,192,35118,1,0,0:0:0:0:
402,192,35118,1,0,0:0:0:0:
475,192,35118,1,0,0:0:0:0:
256,192,35296,1,0,0:0:0:0:
402,192,35296,1,0,0:0:0:0:
36,192,35475,1,0,0:0:0:70:snare.wav
182,192,35475,1,0,0:0:0:0:
256,192,35475,1,0,0:0:0:0:
329,192,35475,1,0,0:0:0:0:
109,192,35654,1,0,0:0:0:0:
402,192,35654,1,0,0:0:0:0:
36,192,35832,1,0,0:0:0:70:drum.wav
182,192,35832,1,0,0:0:0:0:
256,192,35832,1,0,0:0:0:0:
475,192,35832,1,0,0:0:0:0:
256,192,36011,1,0,0:0:0:0:
475,192,36011,1,0,0:0:0:0:
36,192,36189,1,0,0:0:0:70:snare.wav
109,192,36189,1,0,0:0:0:0:
329,192,36189,1,0,0:0:0:0:
402,192,36189,1,0,0:0:0:0:
182,192,36368,1,0,0:0:0:0:
329,192,36368,1,0,0:0:0:0:
36,192,36546,1,0,0:0:0:70:drum.wav
109,192,36546,1,0,0:0:0:0:
256,192,36546,1,0,0:0:0:0:
475,192,36546,1,0,0:0:0:0:
329,192,36725,1,0,0:0:0:0:
402,192,36725,1,0,0:0:0:0:
36,192,36904,1,0,0:0:0:70:snare.wav
256,192,36904,1,0,0:0:0:0:
329,192,36904,1,0,0:0:0:0:
475,192,36904,1,0,0:0:0:0:
109,192,37082,1,0,0:0:0:0:
256,192,37082,1,0,0:0:0:0:
36,192,37261,1,0,0:0:0:70:drum.wav
109,192,37261,1,0,0:0:0:0:
182,192,37261,1,0,0:0:0:0:
329,192,37261,1,0,0:0:0:0:
475,192,37261,128,0,37439:0:0:0:0:
182,192,37439,1,0,0:0:0:0:
329,192,37439,1,0,0:0:0:0:
36,192,37618,1,0,0:0:0:70:snare.wav
109,192,37618,1,0,0:0:0:0:
256,192,37618,1,0,0:0:0:0:
402,192,37618,128,0,37796:0:0:0:0:
109,192,37796,1,0,0:0:0:0:
256,192,37796,1,0,0:0:0:0:
36,192,37975,1,0,0:0:0:70:drum.wav
182,192,37975,1,0,0:0:0:0:
329,192,37975,128,0,38154:0:0:0:0:
475,192,37975,1,0,0:0:0:0:
36,192,38154,1,0,0:0:0:0:
182,192,38154,1,0,0:0:0:0:
109,192,38332,128,0,38511:0:0:0:70:snare.wav
256,192,38332,1,0,0:0:0:0:
329,192,38332,1,0,0:0:0:0:
475,192,38332,1,0,0:0:0:0:
329,192,38511,1,0,0:0:0:0:
475,192,38511,1,0,0:0:0:0:
36,192,38689,1,0,0:0:0:70:drum.wav
182,192,38689,1,0,0:0:0:70:finish.wav
256,192,38689,1,0,0:0:0:0:
402,192,38689,1,0,0:0:0:0:
475,192,38689,1,0,0:0:0:0:
182,192,38868,1,0,0:0:0:0:
182,192,39046,1,0,0:0:0:70:bell.wav
182,192,39225,1,0,0:0:0:0:
182,192,39404,1,0,0:0:0:70:bell.wav
329,192,39404,1,0,0:0:0:0:
329,192,39582,1,0,0:0:0:0:
329,192,39761,1,0,0:0:0:70:bell.wav
329,192,39939,1,0,0:0:0:0:
109,192,40118,1,0,0:0:0:70:bell.wav
329,192,40118,1,0,0:0:0:0:
109,192,40296,1,0,0:0:0:0:
109,192,40475,1,0,0:0:0:70:bell.wav
109,192,40654,1,0,0:0:0:0:
109,192,40832,1,0,0:0:0:70:bell.wav
475,192,40832,1,0,0:0:0:0:
475,192,41011,1,0,0:0:0:0:
475,192,41189,1,0,0:0:0:70:bell.wav
475,192,41368,1,0,0:0:0:0:
182,192,41546,1,0,0:0:0:70:bell.wav
475,192,41546,1,0,0:0:0:0:
182,192,41725,1,0,0:0:0:0:
182,192,41904,1,0,0:0:0:70:bell.wav
182,192,42082,1,0,0:0:0:0:
182,192,42261,1,0,0:0:0:70:bell.wav
402,192,42261,1,0,0:0:0:0:
402,192,42439,1,0,0:0:0:0:
402,192,42618,1,0,0:0:0:70:bell.wav
402,192,42796,1,0,0:0:0:0:
36,192,42975,1,0,0:0:0:70:bell.wav
402,192,42975,1,0,0:0:0:0:
36,192,43154,1,0,0:0:0:0:
36,192,43332,1,0,0:0:0:70:bell.wav
36,192,43511,1,0,0:0:0:0:
36,192,43689,1,0,0:0:0:70:bell.wav
329,192,43689,1,0,0:0:0:0:
329,192,43868,1,0,0:0:0:0:
329,192,44046,1,0,0:0:0:70:bell.wav
329,192,44225,1,0,0:0:0:0:
182,192,44404,1,0,0:0:0:70:bell.wav
329,192,44404,1,0,0:0:0:0:
182,192,44582,1,0,0:0:0:0:
182,192,44761,1,0,0:0:0:70:bell.wav
182,192,44939,1,0,0:0:0:0:
182,192,45118,1,0,0:0:0:70:bell.wav
402,192,45118,1,0,0:0:0:0:
402,192,45296,1,0,0:0:0:0:
402,192,45475,1,0,0:0:0:70:bell.wav
402,192,45654,1,0,0:0:0:0:
109,192,45832,1,0,0:0:0:70:bell.wav
402,192,45832,1,0,0:0:0:0:
109,192,46011,1,0,0:0:0:0:
109,192,46189,1,0,0:0:0:70:bell.wav
109,192,46368,1,0,0:0:0:0:
109,192,46546,1,0,0:0:0:70:bell.wav
475,192,46546,1,0,0:0:0:0:
475,192,46725,1,0,0:0:0:0:
475,192,46904,1,0,0:0:0:70:bell.wav
475,192,47082,1,0,0:0:0:0:
182,192,47261,1,0,0:0:0:70:bell.wav
475,192,47261,1,0,0:0:0:0:
182,192,47439,1,0,0:0:0:0:
182,192,47618,1,0,0:0:0:70:bell.wav
182,192,47796,1,0,0:0:0:0:
182,192,47975,1,0,0:0:0:70:bell.wav
402,192,47975,1,0,0:0:0:0:
402,192,48154,1,0,0:0:0:0:
402,192,48332,1,0,0:0:0:70:bell.wav
402,192,48511,1,0,0:0:0:0:
36,192,48689,1,0,0:0:0:70:bell.wav
402,192,48689,1,0,0:0:0:0:
36,192,48868,1,0,0:0:0:0:
36,192,49046,1,0,0:0:0:70:bell.wav
36,192,49225,1,0,0:0:0:0:
36,192,49404,1,0,0:0:0:70:bell.wav
329,192,49404,1,0,0:0:0:0:
329,192,49582,1,0,0:0:0:0:
256,192,49761,1,0,0:0:0:70:bell.wav
329,192,49761,1,0,0:0:0:0:
182,192,49850,1,0,0:0:0:0:
109,192,49939,1,0,0:0:0:0:
329,192,49939,1,0,0:0:0:0:
402,192,50029,1,0,0:0:0:0:
36,192,50118,1,0,0:0:0:70:finish.wav
256,192,50118,1,0,0:0:0:70:snare.wav
329,192,50118,1,0,0:0:0:0:
475,192,50118,1,0,0:0:0:0:
109,192,50296,1,0,0:0:0:0:
256,192,50296,1,0,0:0:0:0:
402,192,50296,1,0,0:0:0:0:
182,192,50475,1,0,0:0:0:70:snare.wav
329,192,50475,1,0,0:0:0:0:
402,192,50475,1,0,0:0:0:0:
475,192,50475,1,0,0:0:0:0:
36,192,50654,1,0,0:0:0:0:
182,192,50654,1,0,0:0:0:0:
402,192,50654,1,0,0:0:0:0:
109,192,50832,1,0,0:0:0:70:snare.wav
256,192,50832,1,0,0:0:0:0:
329,192,50832,1,0,0:0:0:0:
402,192,50832,1,0,0:0:0:0:
182,192,51011,1,0,0:0:0:0:
402,192,51011,1,0,0:0:0:0:
256,192,51100,1,0,0:0:0:0:
329,192,51100,1,0,0:0:0:0:
36,192,51189,1,0,0:0:0:70:snare.wav
182,192,51189,1,0,0:0:0:0:
402,192,51189,1,0,0:0:0:0:
475,192,51189,1,0,0:0:0:0:
182,192,51368,1,0,0:0:0:0:
329,192,51368,1,0,0:0:0:0:
402,192,51368,1,0,0:0:0:0:
36,192,51546,1,0,0:0:0:70:snare.wav
182,192,51546,1,0,0:0:0:0:
256,192,51546,1,0,0:0:0:0:
402,192,51546,1,0,0:0:0:0:
109,192,51725,1,0,0:0:0:0:
475,192,51725,1,0,0:0:0:0:
182,192,51814,1,0,0:0:0:0:
329,192,51814,1,0,0:0:0:0:
36,192,51904,1,0,0:0:0:70:snare.wav
256,192,51904,1,0,0:0:0:0:
402,192,51904,1,0,0:0:0:0:
475,192,51904,1,0,0:0:0:0:
109,192,52082,1,0,0:0:0:0:
182,192,52082,1,0,0:0:0:0:
402,192,52082,1,0,0:0:0:0:
36,192,52261,1,0,0:0:0:70:snare.wav
256,192,52261,1,0,0:0:0:0:
329,192,52261,1,0,0:0:0:0:
475,192,52261,1,0,0:0:0:0:
109,192,52439,1,0,0:0:0:0:
329,192,52439,1,0,0:0:0:0:
182,192,52529,1,0,0:0:0:0:
256,192,52529,1,0,0:0:0:0:
36,192,52618,1,0,0:0:0:70:snare.wav
329,192,52618,1,0,0:0:0:0:
402,192,52618,1,0,0:0:0:0:
475,192,52618,1,0,0:0:0:0:
36,192,52796,1,0,0:0:0:70:drum.wav
182,192,52796,1,0,0:0:0:0:
329,192,52796,1,0,0:0:0:0:
402,192,52796,1,0,0:0:0:0:
109,192,52975,1,0,0:0:0:70:snare.wav
256,192,52975,1,0,0:0:0:0:
402,192,52975,1,0,0:0:0:0:
475,192,52975,1,0,0:0:0:0:
182,192,53154,1,0,0:0:0:0:
475,192,53154,1,0,0:0:0:0:
109,192,53243,1,0,0:0:0:0:
329,192,53243,1,0,0:0:0:0:
36,192,53332,1,0,0:0:0:70:snare.wav
182,192,53332,1,0,0:0:0:0:
256,192,53332,1,0,0:0:0:0:
402,192,53332,1,0,0:0:0:0:
109,192,53511,1,0,0:0:0:0:
182,192,53511,1,0,0:0:0:0:
402,192,53511,1,0,0:0:0:0:
182,192,53689,1,0,0:0:0:70:snare.wav
256,192,53689,1,0,0:0:0:0:
329,192,53689,1,0,0:0:0:0:
475,192,53689,1,0,0:0:0:0:
36,192,53868,1,0,0:0:0:0:
182,192,53868,1,0,0:0:0:0:
475,192,53868,1,0,0:0:0:0:
109,192,54046,1,0,0:0:0:70:snare.wav
256,192,54046,1,0,0:0:0:0:
329,192,54046,1,0,0:0:0:0:
402,192,54046,1,0,0:0:0:0:
36,192,54225,1,0,0:0:0:0:
182,192,54225,1,0,0:0:0:0:
329,192,54225,1,0,0:0:0:0:
109,192,54404,1,0,0:0:0:70:snare.wav
182,192,54404,1,0,0:0:0:0:
256,192,54404,1,0,0:0:0:0:
402,192,54404,1,0,0:0:0:0:
36,192,54582,1,0,0:0:0:0:
402,192,54582,1,0,0:0:0:0:
256,192,54671,1,0,0:0:0:0:
329,192,54671,1,0,0:0:0:0:
109,192,54761,1,0,0:0:0:70:snare.wav
182,192,54761,1,0,0:0:0:0:
402,192,54761,1,0,0:0:0:0:
475,192,54761,1,0,0:0:0:0:
109,192,54939,1,0,0:0:0:0:
256,192,54939,1,0,0:0:0:0:
402,192,54939,1,0,0:0:0:0:
36,192,55118,1,0,0:0:0:70:snare.wav
182,192,55118,1,0,0:0:0:0:
402,192,55118,1,0,0:0:0:0:
475,192,55118,1,0,0:0:0:0:
109,192,55296,1,0,0:0:0:0:
256,192,55296,1,0,0:0:0:0:
475,192,55296,1,0,0:0:0:0:
36,192,55475,1,0,0:0:0:70:drum.wav
182,192,55475,1,0,0:0:0:0:
329,192,55475,1,0,0:0:0:0:
402,192,55475,1,0,0:0:0:0:
109,192,55654,1,0,0:0:0:70:snare.wav
256,192,55654,1,0,0:0:0:0:
329,192,55654,1,0,0:0:0:0:
36,192,55832,1,0,0:0:0:70:drum.wav
182,192,55832,1,0,0:0:0:0:
256,192,55832,1,0,0:0:0:0:
402,192,55832,1,0,0:0:0:0:
475,192,55832,1,0,0:0:0:0:
109,192,56011,1,0,0:0:0:70:snare.wav
256,192,56011,1,0,0:0:0:0:
475,192,56011,1,0,0:0:0:0:
36,192,56189,1,0,0:0:0:70:drum.wav
182,192,56189,1,0,0:0:0:0:
256,192,56189,1,0,0:0:0:0:
475,192,56189,1,0,0:0:0:0:
109,192,56368,1,0,0:0:0:70:snare.wav
329,192,56368,1,0,0:0:0:0:
475,192,56368,1,0,0:0:0:0:
36,192,56546,1,0,0:0:0:70:drum.wav
256,192,56546,1,0,0:0:0:0:
329,192,56546,1,0,0:0:0:0:
475,192,56546,1,0,0:0:0:0:
109,192,56725,1,0,0:0:0:70:snare.wav
256,192,56725,1,0,0:0:0:0:
475,192,56725,1,0,0:0:0:0:
182,192,56814,1,0,0:0:0:0:
36,192,56904,1,0,0:0:0:70:drum.wav
256,192,56904,1,0,0:0:0:0:
329,192,56904,1,0,0:0:0:0:
475,192,56904,1,0,0:0:0:0:
36,192,57082,1,0,0:0:0:70:snare.wav
182,192,57082,1,0,0:0:0:0:
475,192,57082,1,0,0:0:0:0:
36,192,57261,1,0,0:0:0:70:drum.wav
109,192,57261,1,0,0:0:0:0:
329,192,57261,1,0,0:0:0:0:
182,192,57350,1,0,0:0:0:70:drum.wav
402,192,57350,1,0,0:0:0:0:
256,192,57439,1,0,0:0:0:70:drum.wav
475,192,57439,1,0,0:0:0:0:
36,192,57529,1,0,0:0:0:70:drum.wav
329,192,57529,1,0,0:0:0:0:
182,192,57618,1,0,0:0:0:70:drum.wav
402,192,57618,1,0,0:0:0:0:
109,192,57707,1,0,0:0:0:70:drum.wav
329,192,57707,1,0,0:0:0:0:
36,192,57796,1,0,0:0:0:70:drum.wav
256,192,57796,1,0,0:0:0:0:
182,192,57886,1,0,0:0:0:70:drum.wav
475,192,57886,1,0,0:0:0:0:
109,192,57975,1,0,0:0:0:70:drum.wav
329,192,57975,1,0,0:0:0:0:
182,192,58064,1,0,0:0:0:70:drum.wav
402,192,58064,1,0,0:0:0:0:
256,192,58154,1,0,0:0:0:70:drum.wav
475,192,58154,1,0,0:0:0:0:
36,192,58243,1,0,0:0:0:70:drum.wav
329,192,58243,1,0,0:0:0:0:
109,192,58332,1,0,0:0:0:70:drum.wav
475,192,58332,1,0,0:0:0:0:
182,192,58421,1,0,0:0:0:70:drum.wav
402,192,58421,1,0,0:0:0:0:
36,192,58511,1,0,0:0:0:70:drum.wav
256,192,58511,1,0,0:0:0:0:
109,192,58600,1,0,0:0:0:70:drum.wav
329,192,58600,1,0,0:0:0:0:
36,192,58689,1,0,0:0:0:70:bell.wav
182,192,58689,1,0,0:0:0:0:
256,192,58689,1,0,0:0:0:0:
402,192,58689,1,0,0:0:0:0:
475,192,58689,1,0,0:0:0:0:
182,192,59046,1,0,0:0:0:70:bell.wav
329,192,59046,1,0,0:0:0:0:
109,192,59404,1,0,0:0:0:70:bell.wav
182,192,59404,1,0,0:0:0:0:
182,192,59582,1,0,0:0:0:0:
256,192,59582,1,0,0:0:0:0:
256,192,59761,1,0,0:0:0:70:bell.wav
329,192,59761,1,0,0:0:0:0:
329,192,59939,1,0,0:0:0:0:
402,192,59939,1,0,0:0:0:0:
109,192,60118,1,0,0:0:0:0:
256,192,60118,1,0,0:0:0:0:
475,192,60118,128,0,61189:0:0:0:0:
182,192,60654,1,0,0:0:0:0:
256,192,60654,1,0,0:0:0:0:
36,192,60832,128,0,61189:0:0:0:0:
182,192,60832,128,0,61189:0:0:0:0:
256,192,61189,1,0,0:0:0:0:
402,192,61189,1,0,0:0:0:0:
109,192,61279,1,0,0:0:0:0:
329,192,61279,1,0,0:0:0:0:
182,192,61368,1,0,0:0:0:0:
402,192,61368,1,0,0:0:0:0:
256,192,61457,1,0,0:0:0:0:
475,192,61457,1,0,0:0:0:0:
36,192,61546,1,0,0:0:0:70:drum.wav
109,192,61546,1,0,0:0:0:70:finish.wav
329,192,61546,1,0,0:0:0:0:
402,192,61546,1,0,0:0:0:0:
109,192,61725,128,0,61814:0:0:0:0:
182,192,61725,128,0,61814:0:0:0:0:
475,192,61725,1,0,0:0:0:0:
109,192,61904,128,0,61993:0:0:0:0:
182,192,61904,128,0,61993:0:0:0:0:
402,192,61904,1,0,0:0:0:0:
109,192,62082,128,0,62171:0:0:0:0:
182,192,62082,128,0,62171:0:0:0:0:
329,192,62082,1,0,0:0:0:0:
109,192,62261,1,0,0:0:0:70:snare.wav
182,192,62261,1,0,0:0:0:0:
402,192,62261,1,0,0:0:0:0:
475,192,62261,1,0,0:0:0:0:
36,192,62439,1,0,0:0:0:0:
182,192,62439,1,0,0:0:0:0:
402,192,62439,1,0,0:0:0:0:
256,192,62529,1,0,0:0:0:0:
329,192,62529,1,0,0:0:0:0:
36,192,62618,1,0,0:0:0:0:
109,192,62618,1,0,0:0:0:0:
475,192,62618,1,0,0:0:0:0:
182,192,62796,1,0,0:0:0:0:
329,192,62796,1,0,0:0:0:0:
475,192,62796,1,0,0:0:0:0:
36,192,62975,1,0,0:0:0:70:drum.wav
109,192,62975,1,0,0:0:0:0:
256,192,62975,1,0,0:0:0:0:
475,192,62975,1,0,0:0:0:0:
182,192,63154,1,0,0:0:0:0:
329,192,63154,128,0,63243:0:0:0:0:
402,192,63154,128,0,63243:0:0:0:0:
36,192,63243,1,0,0:0:0:0:
109,192,63332,1,0,0:0:0:0:
329,192,63332,128,0,63421:0:0:0:0:
402,192,63332,128,0,63421:0:0:0:0:
256,192,63511,1,0,0:0:0:0:
329,192,63511,128,0,63600:0:0:0:0:
402,192,63511,128,0,63600:0:0:0:0:
36,192,63689,1,0,0:0:0:70:snare.wav
182,192,63689,1,0,0:0:0:0:
329,192,63689,1,0,0:0:0:0:
402,192,63689,1,0,0:0:0:0:
109,192,63868,1,0,0:0:0:0:
256,192,63868,1,0,0:0:0:0:
329,192,63868,1,0,0:0:0:0:
402,192,63957,1,0,0:0:0:0:
475,192,63957,1,0,0:0:0:0:
36,192,64046,1,0,0:0:0:0:
182,192,64046,1,0,0:0:0:0:
329,192,64046,1,0,0:0:0:0:
109,192,64225,1,0,0:0:0:0:
256,192,64225,1,0,0:0:0:0:
475,192,64225,1,0,0:0:0:0:
36,192,64404,1,0,0:0:0:70:drum.wav
182,192,64404,1,0,0:0:0:0:
329,192,64404,1,0,0:0:0:0:
402,192,64404,1,0,0:0:0:0:
36,192,64582,128,0,64671:0:0:0:0:
182,192,64582,128,0,64671:0:0:0:0:
475,192,64582,1,0,0:0:0:0:
329,192,64671,1,0,0:0:0:0:
36,192,64761,128,0,64850:0:0:0:0:
182,192,64761,128,0,64850:0:0:0:0:
402,192,64761,1,0,0:0:0:0:
36,192,64939,128,0,65029:0:0:0:0:
182,192,64939,128,0,65029:0:0:0:0:
475,192,64939,1,0,0:0:0:0:
36,192,65118,1,0,0:0:0:70:snare.wav
182,192,65118,1,0,0:0:0:0:
256,192,65118,1,0,0:0:0:0:
402,192,65118,1,0,0:0:0:0:
109,192,65296,1,0,0:0:0:0:
329,192,65296,1,0,0:0:0:0:
475,192,65296,1,0,0:0:0:0:
36,192,65475,1,0,0:0:0:0:
182,192,65475,1,0,0:0:0:0:
329,192,65475,1,0,0:0:0:0:
109,192,65654,1,0,0:0:0:0:
256,192,65654,1,0,0:0:0:0:
402,192,65654,1,0,0:0:0:0:
36,192,65832,1,0,0:0:0:70:drum.wav
109,192,65832,1,0,0:0:0:0:
182,192,65832,1,0,0:0:0:0:
329,192,65832,1,0,0:0:0:0:
182,192,66011,1,0,0:0:0:0:
329,192,66011,1,0,0:0:0:0:
475,192,66011,1,0,0:0:0:0:
109,192,66100,1,0,0:0:0:0:
329,192,66100,1,0,0:0:0:0:
475,192,66100,1,0,0:0:0:0:
36,192,66189,1,0,0:0:0:0:
329,192,66189,1,0,0:0:0:0:
475,192,66189,1,0,0:0:0:0:
329,192,66323,1,0,0:0:0:0:
475,192,66323,1,0,0:0:0:0:
109,192,66368,1,0,0:0:0:0:
329,192,66457,1,0,0:0:0:0:
475,192,66457,1,0,0:0:0:0:
36,192,66546,1,0,0:0:0:70:snare.wav
182,192,66546,1,0,0:0:0:0:
256,192,66546,1,0,0:0:0:0:
402,192,66546,1,0,0:0:0:0:
109,192,66725,1,0,0:0:0:0:
256,192,66725,1,0,0:0:0:0:
402,192,66725,1,0,0:0:0:0:
182,192,66904,1,0,0:0:0:0:
402,192,66904,1,0,0:0:0:0:
475,192,66904,1,0,0:0:0:0:
36,192,67082,1,0,0:0:0:0:
109,192,67082,1,0,0:0:0:0:
329,192,67082,1,0,0:0:0:0:
109,192,67261,1,0,0:0:0:70:drum.wav
256,192,67261,1,0,0:0:0:0:
329,192,67261,1,0,0:0:0:0:
475,192,67261,1,0,0:0:0:0:
36,192,67439,128,0,67975:0:0:0:0:
182,192,67439,1,0,0:0:0:0:
256,192,67618,1,0,0:0:0:0:
329,192,67796,1,0,0:0:0:0:
109,192,67975,1,0,0:0:0:70:snare.wav
182,192,67975,1,0,0:0:0:0:
402,192,67975,1,0,0:0:0:0:
475,192,67975,1,0,0:0:0:0:
256,192,68154,1,0,0:0:0:0:
329,192,68154,1,0,0:0:0:0:
402,192,68154,1,0,0:0:0:0:
36,192,68332,1,0,0:0:0:70:drum.wav
109,192,68332,1,0,0:0:0:70:finish.wav
182,192,68332,1,0,0:0:0:0:
475,192,68332,1,0,0:0:0:0:
402,192,68377,1,0,0:0:0:0:
329,192,68421,1,0,0:0:0:0:
256,192,68466,1,0,0:0:0:0:
109,192,68511,1,0,0:0:0:0:
182,192,68555,1,0,0:0:0:0:
329,192,68600,1,0,0:0:0:0:
402,192,68645,1,0,0:0:0:0:
109,192,68689,1,0,0:0:0:0:
256,192,68734,1,0,0:0:0:0:
329,192,68779,1,0,0:0:0:0:
402,192,68823,1,0,0:0:0:0:
475,192,68868,1,0,0:0:0:0:
182,192,68913,1,0,0:0:0:0:
109,192,68957,1,0,0:0:0:0:
36,192,69002,1,0,0:0:0:0:
402,192,69046,1,0,0:0:0:70:drum.wav
329,192,69091,1,0,0:0:0:0:
256,192,69136,1,0,0:0:0:0:
182,192,69180,1,0,0:0:0:0:
109,192,69225,1,0,0:0:0:0:
475,192,69270,1,0,0:0:0:0:
329,192,69314,1,0,0:0:0:0:
182,192,69359,1,0,0:0:0:0:
36,192,69404,128,0,69761:0:0:0:70:snare.wav
109,192,69404,1,0,0:0:0:0:
402,192,69404,1,0,0:0:0:0:
475,192,69404,128,0,69761:0:0:0:0:
109,192,69761,128,0,69850:0:0:0:70:snare.wav
182,192,69761,128,0,69850:0:0:0:0:
329,192,69761,128,0,69850:0:0:0:0:
402,192,69761,128,0,69850:0:0:0:0:
109,192,69939,128,0,70029:0:0:0:0:
182,192,69939,128,0,70029:0:0:0:0:
329,192,69939,128,0,70029:0:0:0:0:
402,192,69939,128,0,70029:0:0:0:0:
36,192,70118,1,0,0:0:0:70:drum.wav
182,192,70118,1,0,0:0:0:70:finish.wav
329,192,70118,1,0,0:0:0:0:
402,192,70118,1,0,0:0:0:0:
475,192,70118,1,0,0:0:0:0:
36,192,70296,128,0,70386:0:0:0:0:
109,192,70296,128,0,70386:0:0:0:0:
475,192,70296,1,0,0:0:0:0:
329,192,70386,1,0,0:0:0:0:
36,192,70475,128,0,70564:0:0:0:0:
109,192,70475,128,0,70564:0:0:0:0:
402,192,70475,1,0,0:0:0:0:
36,192,70654,128,0,70743:0:0:0:0:
109,192,70654,128,0,70743:0:0:0:0:
329,192,70654,1,0,0:0:0:0:
36,192,70832,1,0,0:0:0:70:snare.wav
109,192,70832,1,0,0:0:0:0:
256,192,70832,1,0,0:0:0:0:
402,192,70832,1,0,0:0:0:0:
182,192,71011,1,0,0:0:0:0:
329,192,71011,1,0,0:0:0:0:
475,192,71011,1,0,0:0:0:0:
36,192,71189,1,0,0:0:0:0:
256,192,71189,1,0,0:0:0:0:
402,192,71189,1,0,0:0:0:0:
109,192,71368,1,0,0:0:0:0:
182,192,71368,1,0,0:0:0:0:
402,192,71368,1,0,0:0:0:0:
36,192,71546,1,0,0:0:0:70:drum.wav
182,192,71546,1,0,0:0:0:0:
256,192,71546,1,0,0:0:0:0:
475,192,71546,1,0,0:0:0:0:
36,192,71725,1,0,0:0:0:0:
329,192,71725,1,0,0:0:0:0:
402,192,71725,1,0,0:0:0:0:
109,192,71814,1,0,0:0:0:0:
182,192,71814,1,0,0:0:0:0:
475,192,71814,1,0,0:0:0:0:
36,192,71904,1,0,0:0:0:70:drum.wav
329,192,71904,1,0,0:0:0:0:
402,192,71904,1,0,0:0:0:0:
182,192,71993,1,0,0:0:0:0:
256,192,71993,1,0,0:0:0:0:
329,192,72082,1,0,0:0:0:0:
402,192,72082,1,0,0:0:0:0:
475,192,72082,1,0,0:0:0:0:
109,192,72171,1,0,0:0:0:0:
182,192,72171,1,0,0:0:0:0:
36,192,72261,1,0,0:0:0:70:snare.wav
256,192,72261,1,0,0:0:0:0:
402,192,72261,1,0,0:0:0:0:
475,192,72261,1,0,0:0:0:0:
109,192,72439,1,0,0:0:0:0:
182,192,72439,1,0,0:0:0:0:
329,192,72439,1,0,0:0:0:0:
36,192,72618,1,0,0:0:0:70:finish.wav
182,192,72618,1,0,0:0:0:70:snare.wav
256,192,72618,1,0,0:0:0:0:
402,192,72618,1,0,0:0:0:0:
109,192,72707,1,0,0:0:0:0:
329,192,72707,1,0,0:0:0:0:
182,192,72796,1,0,0:0:0:70:drum.wav
402,192,72796,1,0,0:0:0:0:
256,192,72886,1,0,0:0:0:0:
475,192,72886,1,0,0:0:0:0:
36,192,72975,1,0,0:0:0:70:drum.wav
109,192,72975,1,0,0:0:0:70:finish.wav
329,192,72975,1,0,0:0:0:0:
402,192,72975,1,0,0:0:0:0:
182,192,73064,1,0,0:0:0:0:
256,192,73154,1,0,0:0:0:0:
402,192,73154,1,0,0:0:0:0:
36,192,73243,1,0,0:0:0:0:
109,192,73332,1,0,0:0:0:70:drum.wav
402,192,73332,1,0,0:0:0:0:
475,192,73332,1,0,0:0:0:0:
329,192,73421,1,0,0:0:0:0:
36,192,73511,1,0,0:0:0:0:
256,192,73511,1,0,0:0:0:0:
182,192,73600,1,0,0:0:0:0:
109,192,73689,1,0,0:0:0:70:snare.wav
256,192,73689,1,0,0:0:0:0:
402,192,73689,1,0,0:0:0:0:
475,192,73689,1,0,0:0:0:0:
329,192,73779,1,0,0:0:0:0:
475,192,73868,1,0,0:0:0:0:
256,192,73868,1,0,0:0:0:0:
182,192,73957,1,0,0:0:0:0:
36,192,74046,1,0,0:0:0:70:drum.wav
109,192,74046,1,0,0:0:0:0:
402,192,74046,1,0,0:0:0:0:
256,192,74046,1,0,0:0:0:0:
329,192,74136,1,0,0:0:0:0:
109,192,74225,1,0,0:0:0:0:
402,192,74225,1,0,0:0:0:0:
182,192,74314,1,0,0:0:0:0:
36,192,74404,1,0,0:0:0:70:drum.wav
256,192,74404,1,0,0:0:0:0:
329,192,74404,1,0,0:0:0:0:
402,192,74404,1,0,0:0:0:0:
109,192,74493,1,0,0:0:0:0:
182,192,74582,1,0,0:0:0:0:
402,192,74582,1,0,0:0:0:0:
475,192,74582,1,0,0:0:0:0:
256,192,74671,1,0,0:0:0:0:
36,192,74761,1,0,0:0:0:70:drum.wav
182,192,74761,1,0,0:0:0:0:
329,192,74761,1,0,0:0:0:0:
475,192,74761,1,0,0:0:0:0:
256,192,74850,1,0,0:0:0:0:
109,192,74939,1,0,0:0:0:0:
402,192,74939,1,0,0:0:0:0:
475,192,74939,1,0,0:0:0:0:
329,192,75029,1,0,0:0:0:0:
36,192,75118,1,0,0:0:0:70:snare.wav
109,192,75118,1,0,0:0:0:0:
256,192,75118,1,0,0:0:0:0:
475,192,75118,1,0,0:0:0:0:
402,192,75207,1,0,0:0:0:0:
182,192,75296,1,0,0:0:0:0:
329,192,75296,1,0,0:0:0:0:
256,192,75386,1,0,0:0:0:0:
36,192,75475,1,0,0:0:0:70:drum.wav
182,192,75475,1,0,0:0:0:0:
475,192,75475,1,0,0:0:0:0:
329,192,75564,1,0,0:0:0:0:
109,192,75654,1,0,0:0:0:0:
256,192,75654,1,0,0:0:0:0:
402,192,75654,1,0,0:0:0:0:
182,192,75743,1,0,0:0:0:0:
36,192,75832,1,0,0:0:0:70:drum.wav
256,192,75832,1,0,0:0:0:0:
329,192,75832,1,0,0:0:0:0:
402,192,75832,1,0,0:0:0:0:
109,192,75921,1,0,0:0:0:0:
182,192,76011,1,0,0:0:0:0:
402,192,76011,1,0,0:0:0:0:
475,192,76011,1,0,0:0:0:0:
256,192,76100,1,0,0:0:0:0:
36,192,76189,1,0,0:0:0:70:drum.wav
182,192,76189,1,0,0:0:0:0:
329,192,76189,1,0,0:0:0:0:
402,192,76189,1,0,0:0:0:0:
109,192,76279,1,0,0:0:0:0:
36,192,76368,1,0,0:0:0:0:
329,192,76368,1,0,0:0:0:0:
475,192,76368,1,0,0:0:0:0:
256,192,76457,1,0,0:0:0:0:
109,192,76546,1,0,0:0:0:70:snare.wav
182,192,76546,1,0,0:0:0:0:
402,192,76546,1,0,0:0:0:0:
475,192,76546,1,0,0:0:0:0:
329,192,76636,1,0,0:0:0:0:
109,192,76725,1,0,0:0:0:0:
256,192,76725,1,0,0:0:0:0:
182,192,76814,1,0,0:0:0:0:
36,192,76904,1,0,0:0:0:70:drum.wav
256,192,76904,1,0,0:0:0:0:
329,192,76904,1,0,0:0:0:0:
402,192,76904,1,0,0:0:0:0:
109,192,76993,1,0,0:0:0:0:
182,192,77082,1,0,0:0:0:0:
475,192,77082,1,0,0:0:0:0:
402,192,77171,1,0,0:0:0:0:
36,192,77261,1,0,0:0:0:70:drum.wav
109,192,77261,1,0,0:0:0:0:
256,192,77261,1,0,0:0:0:0:
329,192,77261,1,0,0:0:0:0:
182,192,77350,1,0,0:0:0:0:
36,192,77439,1,0,0:0:0:0:
256,192,77439,1,0,0:0:0:0:
402,192,77439,1,0,0:0:0:0:
182,192,77529,1,0,0:0:0:0:
109,192,77618,1,0,0:0:0:70:drum.wav
256,192,77618,1,0,0:0:0:0:
402,192,77618,1,0,0:0:0:0:
475,192,77618,1,0,0:0:0:0:
182,192,77707,1,0,0:0:0:0:
329,192,77707,1,0,0:0:0:0:
36,192,77796,1,0,0:0:0:0:
256,192,77796,1,0,0:0:0:0:
402,192,77796,1,0,0:0:0:0:
109,192,77886,1,0,0:0:0:0:
329,192,77886,1,0,0:0:0:0:
36,192,77975,1,0,0:0:0:70:snare.wav
182,192,77975,1,0,0:0:0:0:
402,192,77975,1,0,0:0:0:0:
475,192,77975,1,0,0:0:0:0:
329,192,78064,1,0,0:0:0:0:
109,192,78154,1,0,0:0:0:0:
256,192,78154,1,0,0:0:0:0:
182,192,78243,1,0,0:0:0:0:
36,192,78332,1,0,0:0:0:70:drum.wav
109,192,78332,1,0,0:0:0:0:
256,192,78332,1,0,0:0:0:0:
475,192,78332,1,0,0:0:0:0:
402,192,78421,1,0,0:0:0:0:
109,192,78511,1,0,0:0:0:0:
329,192,78511,1,0,0:0:0:0:
182,192,78600,1,0,0:0:0:0:
36,192,78689,1,0,0:0:0:70:drum.wav
256,192,78689,1,0,0:0:0:70:finish.wav
402,192,78689,1,0,0:0:0:0:
475,192,78689,1,0,0:0:0:0:
109,192,78779,1,0,0:0:0:0:
182,192,78868,1,0,0:0:0:0:
402,192,78868,1,0,0:0:0:0:
256,192,78957,1,0,0:0:0:0:
109,192,79046,1,0,0:0:0:70:drum.wav
329,192,79046,1,0,0:0:0:0:
475,192,79046,1,0,0:0:0:0:
256,192,79136,1,0,0:0:0:0:
36,192,79225,1,0,0:0:0:0:
182,192,79225,1,0,0:0:0:0:
475,192,79314,1,0,0:0:0:0:
109,192,79404,1,0,0:0:0:70:snare.wav
256,192,79404,1,0,0:0:0:0:
329,192,79404,1,0,0:0:0:0:
402,192,79404,1,0,0:0:0:0:
182,192,79493,1,0,0:0:0:0:
36,192,79582,1,0,0:0:0:0:
329,192,79582,1,0,0:0:0:0:
109,192,79671,1,0,0:0:0:0:
182,192,79761,1,0,0:0:0:70:drum.wav
329,192,79761,1,0,0:0:0:0:
402,192,79761,1,0,0:0:0:0:
475,192,79761,1,0,0:0:0:0:
256,192,79850,1,0,0:0:0:0:
36,192,79939,1,0,0:0:0:0:
329,192,79939,1,0,0:0:0:0:
182,192,80029,1,0,0:0:0:0:
109,192,80118,1,0,0:0:0:70:drum.wav
329,192,80118,1,0,0:0:0:0:
402,192,80118,1,0,0:0:0:0:
475,192,80118,1,0,0:0:0:0:
256,192,80207,1,0,0:0:0:0:
36,192,80296,1,0,0:0:0:0:
182,192,80296,1,0,0:0:0:0:
475,192,80296,1,0,0:0:0:0:
402,192,80386,1,0,0:0:0:0:
36,192,80475,1,0,0:0:0:70:drum.wav
109,192,80475,1,0,0:0:0:0:
256,192,80475,1,0,0:0:0:0:
329,192,80475,1,0,0:0:0:0:
182,192,80564,1,0,0:0:0:0:
256,192,80654,1,0,0:0:0:0:
402,192,80654,1,0,0:0:0:0:
475,192,80654,1,0,0:0:0:0:
36,192,80743,1,0,0:0:0:0:
109,192,80832,1,0,0:0:0:70:snare.wav
256,192,80832,1,0,0:0:0:0:
329,192,80832,1,0,0:0:0:0:
475,192,80832,1,0,0:0:0:0:
182,192,80921,1,0,0:0:0:0:
256,192,81011,1,0,0:0:0:0:
402,192,81011,1,0,0:0:0:0:
36,192,81100,1,0,0:0:0:0:
182,192,81189,1,0,0:0:0:70:drum.wav
329,192,81189,1,0,0:0:0:0:
475,192,81189,1,0,0:0:0:0:
109,192,81279,1,0,0:0:0:0:
256,192,81279,1,0,0:0:0:0:
36,192,81368,1,0,0:0:0:0:
182,192,81368,1,0,0:0:0:0:
402,192,81368,1,0,0:0:0:0:
329,192,81457,1,0,0:0:0:0:
475,192,81457,1,0,0:0:0:0:
36,192,81546,1,0,0:0:0:70:drum.wav
109,192,81546,1,0,0:0:0:70:finish.wav
182,192,81546,1,0,0:0:0:0:
256,192,81546,1,0,0:0:0:0:
402,192,81546,1,0,0:0:0:0:
182,192,81725,1,0,0:0:0:0:
329,192,81725,1,0,0:0:0:0:
36,192,81904,1,0,0:0:0:70:drum.wav
109,192,81904,1,0,0:0:0:0:
256,192,81904,1,0,0:0:0:0:
402,192,81904,1,0,0:0:0:0:
475,192,81904,1,0,0:0:0:0:
109,192,82082,1,0,0:0:0:0:
329,192,82082,1,0,0:0:0:0:
36,192,82261,1,0,0:0:0:70:finish.wav
182,192,82261,1,0,0:0:0:70:snare.wav
329,192,82261,1,0,0:0:0:0:
402,192,82261,1,0,0:0:0:0:
475,192,82261,1,0,0:0:0:0:
109,192,82439,1,0,0:0:0:0:
256,192,82439,1,0,0:0:0:0:
475,192,82439,1,0,0:0:0:0:
36,192,82618,1,0,0:0:0:70:drum.wav
182,192,82618,1,0,0:0:0:0:
329,192,82618,1,0,0:0:0:0:
256,192,82796,1,0,0:0:0:0:
402,192,82796,1,0,0:0:0:0:
475,192,82796,1,0,0:0:0:0:
36,192,82975,1,0,0:0:0:70:drum.wav
109,192,82975,1,0,0:0:0:70:finish.wav
182,192,82975,1,0,0:0:0:0:
329,192,82975,1,0,0:0:0:0:
475,192,82975,1,0,0:0:0:0:
109,192,83154,1,0,0:0:0:70:snare.wav
256,192,83154,1,0,0:0:0:0:
402,192,83154,1,0,0:0:0:0:
475,192,83154,1,0,0:0:0:0:
36,192,83332,1,0,0:0:0:70:drum.wav
109,192,83332,1,0,0:0:0:70:finish.wav
182,192,83332,1,0,0:0:0:0:
256,192,83332,1,0,0:0:0:0:
475,192,83332,1,0,0:0:0:0:
109,192,83511,1,0,0:0:0:0:
402,192,83511,1,0,0:0:0:0:
36,192,83689,1,0,0:0:0:70:finish.wav
182,192,83689,1,0,0:0:0:70:snare.wav
256,192,83689,1,0,0:0:0:0:
329,192,83689,1,0,0:0:0:0:
402,192,83689,1,0,0:0:0:0:
402,192,83868,1,0,0:0:0:0:
182,192,83957,1,0,0:0:0:70:drum.wav
329,192,83957,1,0,0:0:0:0:
36,192,84046,1,0,0:0:0:70:finish.wav
109,192,84046,1,0,0:0:0:70:snare.wav
256,192,84046,1,0,0:0:0:0:
475,192,84046,1,0,0:0:0:0:
182,192,84225,1,0,0:0:0:70:drum.wav
402,192,84225,1,0,0:0:0:0:
36,192,84404,1,0,0:0:0:70:drum.wav
109,192,84404,1,0,0:0:0:70:finish.wav
256,192,84404,1,0,0:0:0:0:
329,192,84404,1,0,0:0:0:0:
475,192,84404,1,0,0:0:0:0:
182,192,84493,1,0,0:0:0:0:
36,192,84582,1,0,0:0:0:0:
256,192,84582,1,0,0:0:0:0:
329,192,84582,1,0,0:0:0:0:
109,192,84671,1,0,0:0:0:0:
36,192,84761,1,0,0:0:0:70:snare.wav
182,192,84761,1,0,0:0:0:0:
402,192,84761,1,0,0:0:0:0:
475,192,84761,1,0,0:0:0:0:
329,192,84850,1,0,0:0:0:0:
36,192,84939,1,0,0:0:0:0:
109,192,84939,1,0,0:0:0:0:
256,192,84939,1,0,0:0:0:0:
475,192,85029,1,0,0:0:0:0:
36,192,85118,1,0,0:0:0:70:drum.wav
109,192,85118,1,0,0:0:0:0:
329,192,85118,1,0,0:0:0:0:
402,192,85118,1,0,0:0:0:0:
182,192,85207,1,0,0:0:0:0:
256,192,85296,1,0,0:0:0:0:
329,192,85296,1,0,0:0:0:0:
402,192,85296,1,0,0:0:0:0:
36,192,85386,1,0,0:0:0:0:
109,192,85386,1,0,0:0:0:0:
182,192,85475,1,0,0:0:0:70:snare.wav
329,192,85475,1,0,0:0:0:0:
475,192,85475,1,0,0:0:0:0:
36,192,85564,1,0,0:0:0:0:
256,192,85564,1,0,0:0:0:0:
109,192,85654,1,0,0:0:0:0:
475,192,85654,1,0,0:0:0:0:
182,192,85743,1,0,0:0:0:0:
402,192,85743,1,0,0:0:0:0:
36,192,85832,1,0,0:0:0:70:drum.wav
256,192,85832,1,0,0:0:0:0:
329,192,85832,1,0,0:0:0:0:
109,192,85921,1,0,0:0:0:0:
182,192,86011,1,0,0:0:0:0:
329,192,86011,1,0,0:0:0:0:
475,192,86011,1,0,0:0:0:0:
256,192,86100,1,0,0:0:0:0:
36,192,86189,1,0,0:0:0:70:snare.wav
109,192,86189,1,0,0:0:0:0:
329,192,86189,1,0,0:0:0:0:
402,192,86189,1,0,0:0:0:0:
182,192,86279,1,0,0:0:0:0:
36,192,86368,1,0,0:0:0:0:
329,192,86368,1,0,0:0:0:0:
475,192,86368,1,0,0:0:0:0:
402,192,86457,1,0,0:0:0:0:
36,192,86546,1,0,0:0:0:70:drum.wav
109,192,86546,1,0,0:0:0:0:
329,192,86546,1,0,0:0:0:0:
475,192,86546,1,0,0:0:0:0:
256,192,86636,1,0,0:0:0:0:
182,192,86725,1,0,0:0:0:0:
402,192,86725,1,0,0:0:0:0:
109,192,86814,1,0,0:0:0:0:
329,192,86814,1,0,0:0:0:0:
36,192,86904,1,0,0:0:0:70:snare.wav
256,192,86904,1,0,0:0:0:0:
475,192,86904,1,0,0:0:0:0:
109,192,86993,1,0,0:0:0:0:
329,192,86993,1,0,0:0:0:0:
182,192,87082,1,0,0:0:0:0:
402,192,87082,1,0,0:0:0:0:
256,192,87171,1,0,0:0:0:0:
475,192,87171,1,0,0:0:0:0:
36,192,87261,1,0,0:0:0:70:drum.wav
109,192,87261,1,0,0:0:0:0:
329,192,87261,1,0,0:0:0:0:
402,192,87261,1,0,0:0:0:0:
182,192,87350,1,0,0:0:0:0:
256,192,87439,1,0,0:0:0:0:
402,192,87439,1,0,0:0:0:0:
475,192,87439,1,0,0:0:0:0:
36,192,87529,1,0,0:0:0:0:
109,192,87618,1,0,0:0:0:70:snare.wav
182,192,87618,1,0,0:0:0:0:
329,192,87618,1,0,0:0:0:0:
475,192,87618,1,0,0:0:0:0:
256,192,87707,1,0,0:0:0:0:
182,192,87796,1,0,0:0:0:0:
475,192,87796,1,0,0:0:0:0:
36,192,87886,1,0,0:0:0:0:
402,192,87886,1,0,0:0:0:0:
109,192,87975,1,0,0:0:0:70:drum.wav
256,192,87975,1,0,0:0:0:0:
329,192,87975,1,0,0:0:0:0:
182,192,88064,1,0,0:0:0:0:
475,192,88064,1,0,0:0:0:0:
256,192,88154,1,0,0:0:0:0:
402,192,88154,1,0,0:0:0:0:
36,192,88243,1,0,0:0:0:0:
109,192,88243,1,0,0:0:0:0:
182,192,88332,1,0,0:0:0:70:snare.wav
329,192,88332,1,0,0:0:0:0:
475,192,88332,1,0,0:0:0:0:
402,192,88421,1,0,0:0:0:0:
36,192,88511,1,0,0:0:0:0:
109,192,88511,1,0,0:0:0:0:
329,192,88511,1,0,0:0:0:0:
256,192,88600,1,0,0:0:0:0:
36,192,88689,1,0,0:0:0:70:drum.wav
182,192,88689,1,0,0:0:0:0:
402,192,88689,1,0,0:0:0:0:
475,192,88689,1,0,0:0:0:0:
329,192,88779,1,0,0:0:0:0:
109,192,88868,1,0,0:0:0:0:
256,192,88868,1,0,0:0:0:0:
182,192,88957,1,0,0:0:0:0:
329,192,88957,1,0,0:0:0:0:
256,192,89046,1,0,0:0:0:70:snare.wav
402,192,89046,1,0,0:0:0:0:
475,192,89046,1,0,0:0:0:0:
36,192,89136,1,0,0:0:0:0:
109,192,89225,1,0,0:0:0:0:
402,192,89225,1,0,0:0:0:0:
182,192,89314,1,0,0:0:0:0:
329,192,89314,1,0,0:0:0:0:
36,192,89404,1,0,0:0:0:70:drum.wav
109,192,89404,1,0,0:0:0:0:
256,192,89404,1,0,0:0:0:0:
475,192,89493,1,0,0:0:0:0:
109,192,89582,1,0,0:0:0:0:
402,192,89582,1,0,0:0:0:0:
182,192,89671,1,0,0:0:0:0:
329,192,89671,1,0,0:0:0:0:
36,192,89761,1,0,0:0:0:70:snare.wav
256,192,89761,1,0,0:0:0:0:
402,192,89761,1,0,0:0:0:0:
109,192,89850,1,0,0:0:0:0:
182,192,89939,1,0,0:0:0:0:
329,192,89939,1,0,0:0:0:0:
475,192,89939,1,0,0:0:0:0:
256,192,90029,1,0,0:0:0:0:
36,192,90118,1,0,0:0:0:70:drum.wav
329,192,90118,1,0,0:0:0:0:
402,192,90118,1,0,0:0:0:0:
109,192,90207,1,0,0:0:0:0:
256,192,90207,1,0,0:0:0:0:
182,192,90296,1,0,0:0:0:0:
475,192,90296,1,0,0:0:0:0:
256,192,90386,1,0,0:0:0:0:
402,192,90386,1,0,0:0:0:0:
36,192,90475,1,0,0:0:0:70:snare.wav
109,192,90475,1,0,0:0:0:0:
329,192,90475,1,0,0:0:0:0:
256,192,90564,1,0,0:0:0:0:
182,192,90654,1,0,0:0:0:0:
402,192,90654,1,0,0:0:0:0:
475,192,90654,1,0,0:0:0:0:
329,192,90743,1,0,0:0:0:0:
36,192,90832,1,0,0:0:0:70:drum.wav
109,192,90832,1,0,0:0:0:0:
256,192,90832,1,0,0:0:0:0:
475,192,90832,1,0,0:0:0:0:
182,192,90921,1,0,0:0:0:0:
329,192,90921,1,0,0:0:0:0:
256,192,91011,1,0,0:0:0:0:
402,192,91011,1,0,0:0:0:0:
182,192,91100,1,0,0:0:0:0:
475,192,91100,1,0,0:0:0:0:
36,192,91189,1,0,0:0:0:70:snare.wav
109,192,91189,1,0,0:0:0:0:
329,192,91189,1,0,0:0:0:0:
256,192,91279,1,0,0:0:0:0:
475,192,91279,1,0,0:0:0:0:
182,192,91368,1,0,0:0:0:0:
402,192,91368,1,0,0:0:0:0:
109,192,91457,1,0,0:0:0:0:
329,192,91457,1,0,0:0:0:0:
36,192,91546,1,0,0:0:0:70:drum.wav
256,192,91546,1,0,0:0:0:0:
475,192,91546,1,0,0:0:0:0:
402,192,91636,1,0,0:0:0:0:
109,192,91725,1,0,0:0:0:0:
329,192,91725,1,0,0:0:0:0:
182,192,91814,1,0,0:0:0:0:
475,192,91814,1,0,0:0:0:0:
36,192,91904,1,0,0:0:0:70:snare.wav
256,192,91904,1,0,0:0:0:0:
402,192,91904,1,0,0:0:0:0:
182,192,91993,1,0,0:0:0:0:
109,192,92082,1,0,0:0:0:0:
256,192,92082,1,0,0:0:0:0:
402,192,92082,1,0,0:0:0:0:
329,192,92171,1,0,0:0:0:0:
109,192,92261,1,0,0:0:0:70:drum.wav
182,192,92261,1,0,0:0:0:0:
402,192,92261,1,0,0:0:0:0:
475,192,92261,1,0,0:0:0:0:
329,192,92350,1,0,0:0:0:0:
36,192,92439,1,0,0:0:0:0:
256,192,92439,1,0,0:0:0:0:
475,192,92439,1,0,0:0:0:0:
109,192,92529,1,0,0:0:0:0:
36,192,92618,1,0,0:0:0:70:snare.wav
182,192,92618,1,0,0:0:0:0:
402,192,92618,1,0,0:0:0:0:
475,192,92618,1,0,0:0:0:0:
256,192,92707,1,0,0:0:0:0:
109,192,92796,1,0,0:0:0:0:
329,192,92796,1,0,0:0:0:0:
475,192,92796,1,0,0:0:0:0:
182,192,92886,1,0,0:0:0:0:
36,192,92975,1,0,0:0:0:70:drum.wav
256,192,92975,1,0,0:0:0:70:finish.wav
329,192,92975,1,0,0:0:0:0:
402,192,92975,1,0,0:0:0:0:
109,192,93064,1,0,0:0:0:0:
182,192,93154,1,0,0:0:0:0:
475,192,93154,1,0,0:0:0:0:
256,192,93243,1,0,0:0:0:0:
402,192,93243,1,0,0:0:0:0:
36,192,93332,1,0,0:0:0:70:snare.wav
109,192,93332,1,0,0:0:0:0:
329,192,93332,1,0,0:0:0:0:
256,192,93421,1,0,0:0:0:0:
182,192,93511,1,0,0:0:0:0:
402,192,93511,1,0,0:0:0:0:
475,192,93511,1,0,0:0:0:0:
329,192,93600,1,0,0:0:0:0:
36,192,93689,1,0,0:0:0:70:drum.wav
256,192,93689,1,0,0:0:0:0:
475,192,93689,1,0,0:0:0:0:
109,192,93779,1,0,0:0:0:0:
402,192,93779,1,0,0:0:0:0:
182,192,93868,1,0,0:0:0:0:
329,192,93868,1,0,0:0:0:0:
256,192,93957,1,0,0:0:0:0:
402,192,93957,1,0,0:0:0:0:
36,192,94046,1,0,0:0:0:70:snare.wav
109,192,94046,1,0,0:0:0:0:
475,192,94046,1,0,0:0:0:0:
182,192,94136,1,0,0:0:0:0:
109,192,94225,1,0,0:0:0:0:
256,192,94225,1,0,0:0:0:0:
402,192,94225,1,0,0:0:0:0:
329,192,94314,1,0,0:0:0:0:
36,192,94404,1,0,0:0:0:70:drum.wav
109,192,94404,1,0,0:0:0:0:
182,192,94404,1,0,0:0:0:0:
475,192,94404,1,0,0:0:0:0:
402,192,94493,1,0,0:0:0:0:
109,192,94582,1,0,0:0:0:0:
329,192,94582,1,0,0:0:0:0:
182,192,94671,1,0,0:0:0:0:
402,192,94671,1,0,0:0:0:0:
36,192,94761,1,0,0:0:0:70:snare.wav
256,192,94761,1,0,0:0:0:0:
475,192,94761,1,0,0:0:0:0:
109,192,94850,1,0,0:0:0:0:
182,192,94939,1,0,0:0:0:0:
402,192,94939,1,0,0:0:0:0:
475,192,94939,1,0,0:0:0:0:
256,192,95029,1,0,0:0:0:0:
36,192,95118,1,0,0:0:0:70:drum.wav
329,192,95118,1,0,0:0:0:0:
475,192,95118,1,0,0:0:0:0:
109,192,95207,1,0,0:0:0:0:
256,192,95207,1,0,0:0:0:0:
182,192,95296,1,0,0:0:0:0:
475,192,95296,1,0,0:0:0:0:
256,192,95386,1,0,0:0:0:0:
402,192,95386,1,0,0:0:0:0:
36,192,95475,1,0,0:0:0:70:snare.wav
109,192,95475,1,0,0:0:0:0:
329,192,95475,1,0,0:0:0:0:
182,192,95564,1,0,0:0:0:0:
256,192,95564,1,0,0:0:0:0:
109,192,95654,1,0,0:0:0:0:
475,192,95654,1,0,0:0:0:0:
256,192,95743,1,0,0:0:0:0:
402,192,95743,1,0,0:0:0:0:
36,192,95832,1,0,0:0:0:70:drum.wav
109,192,95832,1,0,0:0:0:0:
329,192,95832,1,0,0:0:0:0:
182,192,95921,1,0,0:0:0:0:
36,192,96011,1,0,0:0:0:0:
256,192,96011,1,0,0:0:0:0:
109,192,96100,1,0,0:0:0:0:
402,192,96100,1,0,0:0:0:0:
182,192,96189,1,0,0:0:0:70:snare.wav
329,192,96189,1,0,0:0:0:0:
475,192,96189,1,0,0:0:0:0:
256,192,96279,1,0,0:0:0:0:
36,192,96368,1,0,0:0:0:0:
182,192,96368,1,0,0:0:0:0:
329,192,96368,1,0,0:0:0:0:
109,192,96457,1,0,0:0:0:0:
182,192,96546,1,0,0:0:0:70:drum.wav
256,192,96546,1,0,0:0:0:0:
329,192,96546,1,0,0:0:0:0:
475,192,96546,1,0,0:0:0:0:
402,192,96636,1,0,0:0:0:0:
36,192,96725,1,0,0:0:0:0:
109,192,96725,1,0,0:0:0:0:
329,192,96725,1,0,0:0:0:0:
475,192,96814,1,0,0:0:0:0:
36,192,96904,1,0,0:0:0:70:snare.wav
182,192,96904,1,0,0:0:0:0:
329,192,96904,1,0,0:0:0:0:
402,192,96904,1,0,0:0:0:0:
109,192,96993,1,0,0:0:0:0:
182,192,97082,1,0,0:0:0:0:
402,192,97082,1,0,0:0:0:0:
475,192,97082,1,0,0:0:0:0:
256,192,97171,1,0,0:0:0:0:
36,192,97261,1,0,0:0:0:70:drum.wav
109,192,97261,1,0,0:0:0:0:
329,192,97261,1,0,0:0:0:0:
402,192,97261,1,0,0:0:0:0:
182,192,97350,1,0,0:0:0:0:
36,192,97439,1,0,0:0:0:0:
256,192,97439,1,0,0:0:0:0:
402,192,97439,1,0,0:0:0:0:
109,192,97529,1,0,0:0:0:0:
36,192,97618,1,0,0:0:0:70:snare.wav
182,192,97618,1,0,0:0:0:0:
256,192,97618,1,0,0:0:0:0:
475,192,97618,1,0,0:0:0:0:
329,192,97707,1,0,0:0:0:0:
109,192,97796,1,0,0:0:0:0:
402,192,97796,1,0,0:0:0:0:
475,192,97796,1,0,0:0:0:0:
256,192,97886,1,0,0:0:0:0:
36,192,97975,1,0,0:0:0:70:drum.wav
182,192,97975,1,0,0:0:0:0:
402,192,97975,1,0,0:0:0:0:
109,192,98064,1,0,0:0:0:0:
329,192,98064,1,0,0:0:0:0:
182,192,98154,1,0,0:0:0:0:
475,192,98154,1,0,0:0:0:0:
256,192,98243,1,0,0:0:0:0:
402,192,98243,1,0,0:0:0:0:
36,192,98332,1,0,0:0:0:70:snare.wav
109,192,98332,1,0,0:0:0:0:
329,192,98332,1,0,0:0:0:0:
182,192,98421,1,0,0:0:0:0:
256,192,98421,1,0,0:0:0:0:
36,192,98511,1,0,0:0:0:0:
329,192,98511,1,0,0:0:0:0:
182,192,98600,1,0,0:0:0:0:
402,192,98600,1,0,0:0:0:0:
36,192,98689,1,0,0:0:0:70:drum.wav
109,192,98689,1,0,0:0:0:70:finish.wav
256,192,98689,128,0,101546:0:0:0:0:
329,192,98689,1,0,0:0:0:0:
475,192,98689,1,0,0:0:0:0:
36,192,101546,1,0,0:0:0:0:
109,192,101546,1,0,0:0:0:0:
329,192,101725,1,0,0:0:0:0:
475,192,101725,1,0,0:0:0:0:
109,192,101904,1,0,0:0:0:0:
182,192,101904,1,0,0:0:0:0:
329,192,102082,1,0,0:0:0:0:
475,192,102082,1,0,0:0:0:0:
36,192,102261,1,0,0:0:0:0:
109,192,102261,1,0,0:0:0:0:
329,192,102439,1,0,0:0:0:0:
475,192,102439,1,0,0:0:0:0:
109,192,102618,1,0,0:0:0:0:
182,192,102618,1,0,0:0:0:0:
329,192,102796,1,0,0:0:0:0:
402,192,102796,1,0,0:0:0:0:
36,192,102975,1,0,0:0:0:0:
182,192,102975,1,0,0:0:0:0:
402,192,103154,1,0,0:0:0:0:
475,192,103154,1,0,0:0:0:0:
36,192,103332,1,0,0:0:0:0:
182,192,103332,1,0,0:0:0:0:
329,192,103511,1,0,0:0:0:0:
402,192,103511,1,0,0:0:0:0:
36,192,103689,1,0,0:0:0:0:
182,192,103689,1,0,0:0:0:0:
402,192,103868,1,0,0:0:0:0:
475,192,103868,1,0,0:0:0:0:
36,192,104046,1,0,0:0:0:0:
109,192,104046,1,0,0:0:0:0:
329,192,104225,1,0,0:0:0:0:
402,192,104225,1,0,0:0:0:0:
109,192,104404,1,0,0:0:0:0:
182,192,104404,1,0,0:0:0:0:
402,192,104582,1,0,0:0:0:0:
475,192,104582,1,0,0:0:0:0:
36,192,104761,1,0,0:0:0:0:
109,192,104761,1,0,0:0:0:0:
402,192,104939,1,0,0:0:0:0:
475,192,104939,1,0,0:0:0:0:
109,192,105118,1,0,0:0:0:0:
182,192,105118,1,0,0:0:0:0:
402,192,105296,1,0,0:0:0:0:
475,192,105296,1,0,0:0:0:0:
36,192,105475,1,0,0:0:0:0:
109,192,105475,1,0,0:0:0:0:
329,192,105654,1,0,0:0:0:0:
402,192,105654,1,0,0:0:0:0:
36,192,105832,1,0,0:0:0:0:
109,192,105832,1,0,0:0:0:0:
402,192,106011,1,0,0:0:0:0:
475,192,106011,1,0,0:0:0:0:
36,192,106189,1,0,0:0:0:0:
109,192,106189,1,0,0:0:0:0:
329,192,106368,1,0,0:0:0:0:
402,192,106368,1,0,0:0:0:0:
36,192,106546,1,0,0:0:0:0:
109,192,106546,1,0,0:0:0:0:
329,192,106725,1,0,0:0:0:0:
475,192,106725,1,0,0:0:0:0:
109,192,106904,1,0,0:0:0:0:
182,192,106904,1,0,0:0:0:0:
256,192,107082,1,0,0:0:0:0:
402,192,107082,1,0,0:0:0:0:
329,192,107261,1,0,0:0:0:0:
475,192,107261,1,0,0:0:0:0:
36,192,107439,1,0,0:0:0:0:
109,192,107439,1,0,0:0:0:0:
329,192,107618,1,0,0:0:0:0:
475,192,107618,1,0,0:0:0:0:
36,192,107796,1,0,0:0:0:0:
182,192,107796,1,0,0:0:0:0:
329,192,107975,1,0,0:0:0:0:
475,192,107975,1,0,0:0:0:0:
36,192,108154,1,0,0:0:0:0:
109,192,108154,1,0,0:0:0:0:
329,192,108332,1,0,0:0:0:0:
475,192,108332,1,0,0:0:0:0:
109,192,108511,1,0,0:0:0:0:
256,192,108511,1,0,0:0:0:0:
36,192,108689,1,0,0:0:0:0:
182,192,108689,1,0,0:0:0:0:
402,192,108868,1,0,0:0:0:0:
475,192,108868,1,0,0:0:0:0:
36,192,109046,1,0,0:0:0:0:
182,192,109046,1,0,0:0:0:0:
329,192,109225,1,0,0:0:0:0:
475,192,109225,1,0,0:0:0:0:
36,192,109404,1,0,0:0:0:0:
182,192,109404,1,0,0:0:0:0:
402,192,109582,1,0,0:0:0:0:
475,192,109582,1,0,0:0:0:0:
36,192,109761,1,0,0:0:0:0:
182,192,109761,1,0,0:0:0:0:
256,192,109939,1,0,0:0:0:0:
475,192,109939,1,0,0:0:0:0:
329,192,110118,1,0,0:0:0:0:
402,192,110118,1,0,0:0:0:0:
109,192,110296,1,0,0:0:0:0:
182,192,110296,1,0,0:0:0:0:
402,192,110475,1,0,0:0:0:0:
475,192,110475,1,0,0:0:0:0:
109,192,110654,1,0,0:0:0:0:
182,192,110654,1,0,0:0:0:0:
329,192,110832,1,0,0:0:0:0:
402,192,110832,1,0,0:0:0:0:
109,192,111011,1,0,0:0:0:0:
182,192,111011,1,0,0:0:0:0:
329,192,111189,1,0,0:0:0:0:
402,192,111189,1,0,0:0:0:0:
36,192,111368,1,0,0:0:0:0:
109,192,111368,1,0,0:0:0:0:
329,192,111546,1,0,0:0:0:0:
475,192,111546,1,0,0:0:0:0:
36,192,111725,1,0,0:0:0:0:
182,192,111725,1,0,0:0:0:0:
329,192,111904,1,0,0:0:0:0:
475,192,111904,1,0,0:0:0:0:
36,192,112082,1,0,0:0:0:0:
182,192,112082,1,0,0:0:0:0:
329,192,112261,1,0,0:0:0:0:
402,192,112261,1,0,0:0:0:0:
109,192,112439,1,0,0:0:0:0:
182,192,112439,1,0,0:0:0:0:
329,192,112618,1,0,0:0:0:0:
402,192,112618,1,0,0:0:0:0:
36,192,112796,1,0,0:0:0:0:
182,192,112796,1,0,0:0:0:0:
256,192,112975,1,0,0:0:0:70:drum.wav
402,192,112975,1,0,0:0:0:0:
475,192,112975,1,0,0:0:0:0:
36,192,113154,1,0,0:0:0:0:
182,192,113154,1,0,0:0:0:0:
329,192,113154,1,0,0:0:0:0:
329,192,113332,1,0,0:0:0:70:drum.wav
402,192,113332,1,0,0:0:0:0:
475,192,113332,1,0,0:0:0:0:
36,192,113511,1,0,0:0:0:0:
182,192,113511,1,0,0:0:0:0:
329,192,113511,1,0,0:0:0:0:
256,192,113689,1,0,0:0:0:70:drum.wav
402,192,113689,1,0,0:0:0:0:
475,192,113689,1,0,0:0:0:0:
36,192,113868,1,0,0:0:0:0:
182,192,113868,1,0,0:0:0:0:
402,192,113868,1,0,0:0:0:0:
182,192,113957,1,0,0:0:0:0:
109,192,114046,1,0,0:0:0:70:drum.wav
256,192,114046,1,0,0:0:0:0:
475,192,114046,1,0,0:0:0:0:
182,192,114225,1,0,0:0:0:0:
329,192,114225,1,0,0:0:0:0:
402,192,114225,1,0,0:0:0:0:
36,192,114404,1,0,0:0:0:70:drum.wav
182,192,114404,1,0,0:0:0:0:
475,192,114404,1,0,0:0:0:0:
109,192,114582,1,0,0:0:0:0:
182,192,114582,1,0,0:0:0:0:
402,192,114582,1,0,0:0:0:0:
36,192,114761,1,0,0:0:0:70:drum.wav
256,192,114761,1,0,0:0:0:0:
475,192,114761,1,0,0:0:0:0:
109,192,114939,1,0,0:0:0:0:
182,192,114939,1,0,0:0:0:0:
329,192,114939,1,0,0:0:0:0:
36,192,115118,1,0,0:0:0:70:drum.wav
182,192,115118,1,0,0:0:0:0:
475,192,115118,1,0,0:0:0:0:
36,192,115296,1,0,0:0:0:0:
256,192,115296,1,0,0:0:0:0:
402,192,115296,1,0,0:0:0:0:
256,192,115386,1,0,0:0:0:0:
109,192,115475,1,0,0:0:0:70:drum.wav
182,192,115475,1,0,0:0:0:0:
475,192,115475,1,0,0:0:0:0:
109,192,115654,1,0,0:0:0:0:
329,192,115654,1,0,0:0:0:0:
402,192,115654,1,0,0:0:0:0:
182,192,115832,1,0,0:0:0:70:drum.wav
329,192,115832,1,0,0:0:0:0:
475,192,115832,1,0,0:0:0:0:
36,192,116011,1,0,0:0:0:0:
109,192,116011,1,0,0:0:0:0:
329,192,116011,1,0,0:0:0:0:
182,192,116189,1,0,0:0:0:70:drum.wav
329,192,116189,1,0,0:0:0:0:
475,192,116189,1,0,0:0:0:0:
36,192,116368,1,0,0:0:0:0:
182,192,116368,1,0,0:0:0:0:
329,192,116368,1,0,0:0:0:0:
182,192,116546,1,0,0:0:0:70:drum.wav
329,192,116546,1,0,0:0:0:0:
475,192,116546,1,0,0:0:0:0:
36,192,116725,1,0,0:0:0:0:
109,192,116725,1,0,0:0:0:0:
329,192,116725,1,0,0:0:0:0:
329,192,116814,1,0,0:0:0:0:
36,192,116904,1,0,0:0:0:70:drum.wav
256,192,116904,1,0,0:0:0:0:
475,192,116904,1,0,0:0:0:0:
109,192,117082,1,0,0:0:0:0:
256,192,117082,1,0,0:0:0:0:
402,192,117082,1,0,0:0:0:0:
182,192,117261,1,0,0:0:0:70:drum.wav
329,192,117261,1,0,0:0:0:0:
402,192,117261,1,0,0:0:0:0:
36,192,117439,1,0,0:0:0:0:
402,192,117439,1,0,0:0:0:0:
475,192,117439,1,0,0:0:0:0:
182,192,117618,1,0,0:0:0:70:drum.wav
329,192,117618,1,0,0:0:0:0:
402,192,117618,1,0,0:0:0:0:
36,192,117796,1,0,0:0:0:0:
329,192,117796,1,0,0:0:0:0:
475,192,117796,1,0,0:0:0:0:
182,192,117975,1,0,0:0:0:70:drum.wav
329,192,117975,1,0,0:0:0:0:
402,192,117975,1,0,0:0:0:0:
36,192,118154,1,0,0:0:0:0:
109,192,118154,1,0,0:0:0:0:
402,192,118154,1,0,0:0:0:0:
402,192,118243,1,0,0:0:0:0:
182,192,118332,1,0,0:0:0:70:drum.wav
329,192,118332,1,0,0:0:0:0:
475,192,118332,1,0,0:0:0:0:
109,192,118511,1,0,0:0:0:0:
256,192,118511,1,0,0:0:0:0:
402,192,118511,1,0,0:0:0:0:
36,192,118689,1,0,0:0:0:70:drum.wav
109,192,118689,1,0,0:0:0:0:
256,192,118689,128,0,124046:0:0:0:0:
475,192,118689,1,0,0:0:0:0:
109,192,118868,1,0,0:0:0:0:
402,192,118868,1,0,0:0:0:0:
182,192,119046,1,0,0:0:0:70:drum.wav
329,192,119046,1,0,0:0:0:0:
475,192,119046,1,0,0:0:0:0:
36,192,119225,1,0,0:0:0:0:
402,192,119225,1,0,0:0:0:0:
109,192,119404,1,0,0:0:0:70:drum.wav
402,192,119404,1,0,0:0:0:0:
475,192,119404,1,0,0:0:0:0:
109,192,119582,1,0,0:0:0:0:
329,192,119582,1,0,0:0:0:0:
329,192,119671,1,0,0:0:0:0:
36,192,119761,1,0,0:0:0:70:drum.wav
182,192,119761,1,0,0:0:0:0:
475,192,119761,1,0,0:0:0:0:
182,192,119939,1,0,0:0:0:0:
402,192,119939,1,0,0:0:0:0:
36,192,120118,1,0,0:0:0:70:drum.wav
329,192,120118,1,0,0:0:0:0:
475,192,120118,1,0,0:0:0:0:
109,192,120296,1,0,0:0:0:0:
402,192,120296,1,0,0:0:0:0:
109,192,120475,1,0,0:0:0:70:drum.wav
402,192,120475,1,0,0:0:0:0:
475,192,120475,1,0,0:0:0:0:
182,192,120654,1,0,0:0:0:0:
475,192,120654,1,0,0:0:0:0:
36,192,120832,1,0,0:0:0:70:drum.wav
109,192,120832,1,0,0:0:0:0:
329,192,120832,1,0,0:0:0:0:
182,192,121011,1,0,0:0:0:0:
475,192,121011,1,0,0:0:0:0:
182,192,121100,1,0,0:0:0:0:
36,192,121189,1,0,0:0:0:70:drum.wav
329,192,121189,1,0,0:0:0:0:
402,192,121189,1,0,0:0:0:0:
109,192,121368,1,0,0:0:0:0:
475,192,121368,1,0,0:0:0:0:
36,192,121546,1,0,0:0:0:70:drum.wav
329,192,121546,1,0,0:0:0:0:
475,192,121546,1,0,0:0:0:0:
182,192,121725,1,0,0:0:0:0:
402,192,121725,1,0,0:0:0:0:
36,192,121904,1,0,0:0:0:70:drum.wav
402,192,121904,1,0,0:0:0:0:
475,192,121904,1,0,0:0:0:0:
109,192,122082,1,0,0:0:0:0:
402,192,122082,1,0,0:0:0:0:
36,192,122261,1,0,0:0:0:70:drum.wav
182,192,122261,1,0,0:0:0:0:
329,192,122261,1,0,0:0:0:0:
109,192,122439,1,0,0:0:0:0:
402,192,122439,1,0,0:0:0:0:
402,192,122529,1,0,0:0:0:0:
36,192,122618,1,0,0:0:0:70:drum.wav
182,192,122618,1,0,0:0:0:0:
329,192,122618,1,0,0:0:0:0:
109,192,122796,1,0,0:0:0:0:
475,192,122796,1,0,0:0:0:0:
36,192,122975,1,0,0:0:0:70:drum.wav
182,192,122975,1,0,0:0:0:0:
402,192,122975,1,0,0:0:0:0:
109,192,123154,1,0,0:0:0:0:
475,192,123154,1,0,0:0:0:0:
182,192,123332,1,0,0:0:0:70:drum.wav
329,192,123332,1,0,0:0:0:0:
402,192,123332,1,0,0:0:0:0:
36,192,123511,1,0,0:0:0:0:
475,192,123511,1,0,0:0:0:0:
36,192,123689,1,0,0:0:0:70:drum.wav
109,192,123689,1,0,0:0:0:0:
402,192,123689,1,0,0:0:0:0:
109,192,123868,1,0,0:0:0:0:
402,192,123868,1,0,0:0:0:0:
109,192,123957,1,0,0:0:0:0:
36,192,124046,1,0,0:0:0:0:
182,192,124046,1,0,0:0:0:0:
329,192,124046,1,0,0:0:0:0:
475,192,124046,1,0,0:0:0:0:
109,192,124225,1,0,0:0:0:0:
182,192,124225,1,0,0:0:0:0:
329,192,124225,1,0,0:0:0:0:
402,192,124225,1,0,0:0:0:0:
36,192,124404,1,0,0:0:0:70:finish.wav
182,192,124404,1,0,0:0:0:0:
256,192,124404,1,0,0:0:0:0:
402,192,124404,1,0,0:0:0:0:
475,192,124404,1,0,0:0:0:0:
36,192,124582,1,0,0:0:0:0:
36,192,124761,1,0,0:0:0:70:bell.wav
36,192,124939,1,0,0:0:0:0:
36,192,125118,1,0,0:0:0:70:bell.wav
329,192,125118,1,0,0:0:0:0:
329,192,125296,1,0,0:0:0:0:
329,192,125475,1,0,0:0:0:70:bell.wav
329,192,125654,1,0,0:0:0:0:
109,192,125832,1,0,0:0:0:70:bell.wav
329,192,125832,1,0,0:0:0:0:
109,192,126011,1,0,0:0:0:0:
109,192,126189,1,0,0:0:0:70:bell.wav
109,192,126368,1,0,0:0:0:0:
109,192,126546,1,0,0:0:0:70:bell.wav
402,192,126546,1,0,0:0:0:0:
402,192,126725,1,0,0:0:0:0:
402,192,126904,1,0,0:0:0:70:bell.wav
402,192,127082,1,0,0:0:0:0:
182,192,127261,1,0,0:0:0:70:bell.wav
402,192,127261,1,0,0:0:0:0:
182,192,127439,1,0,0:0:0:0:
182,192,127618,1,0,0:0:0:70:bell.wav
182,192,127796,1,0,0:0:0:0:
182,192,127975,1,0,0:0:0:70:bell.wav
256,192,127975,1,0,0:0:0:0:
256,192,128154,1,0,0:0:0:0:
256,192,128332,1,0,0:0:0:70:bell.wav
256,192,128511,1,0,0:0:0:0:
256,192,128689,1,0,0:0:0:70:bell.wav
402,192,128689,1,0,0:0:0:0:
402,192,128868,1,0,0:0:0:0:
402,192,129046,1,0,0:0:0:70:bell.wav
402,192,129225,1,0,0:0:0:0:
36,192,129404,1,0,0:0:0:70:bell.wav
402,192,129404,1,0,0:0:0:0:
36,192,129582,1,0,0:0:0:0:
36,192,129761,1,0,0:0:0:70:bell.wav
36,192,129939,1,0,0:0:0:0:
36,192,130118,1,0,0:0:0:70:bell.wav
329,192,130118,1,0,0:0:0:0:
329,192,130296,1,0,0:0:0:0:
329,192,130475,1,0,0:0:0:70:bell.wav
329,192,130654,1,0,0:0:0:0:
182,192,130832,1,0,0:0:0:70:bell.wav
329,192,130832,1,0,0:0:0:0:
182,192,131011,1,0,0:0:0:0:
182,192,131189,1,0,0:0:0:70:bell.wav
182,192,131368,1,0,0:0:0:0:
182,192,131546,1,0,0:0:0:70:bell.wav
475,192,131546,1,0,0:0:0:0:
475,192,131725,1,0,0:0:0:0:
475,192,131904,1,0,0:0:0:70:bell.wav
475,192,132082,1,0,0:0:0:0:
36,192,132261,1,0,0:0:0:70:bell.wav
475,192,132261,1,0,0:0:0:0:
36,192,132439,1,0,0:0:0:0:
36,192,132618,1,0,0:0:0:70:bell.wav
36,192,132796,1,0,0:0:0:0:
36,192,132975,1,0,0:0:0:70:bell.wav
329,192,132975,1,0,0:0:0:0:
329,192,133154,1,0,0:0:0:0:
329,192,133332,1,0,0:0:0:70:bell.wav
329,192,133511,1,0,0:0:0:0:
182,192,133689,1,0,0:0:0:70:bell.wav
329,192,133689,1,0,0:0:0:0:
182,192,133868,1,0,0:0:0:0:
182,192,134046,1,0,0:0:0:70:bell.wav
182,192,134225,1,0,0:0:0:0:
182,192,134404,1,0,0:0:0:70:bell.wav
402,192,134404,1,0,0:0:0:0:
402,192,134582,1,0,0:0:0:0:
402,192,134761,1,0,0:0:0:70:bell.wav
402,192,134939,1,0,0:0:0:0:
109,192,135118,1,0,0:0:0:70:bell.wav
402,192,135118,1,0,0:0:0:0:
109,192,135296,1,0,0:0:0:0:
109,192,135475,1,0,0:0:0:70:bell.wav
256,192,135475,1,0,0:0:0:0:
329,192,135475,1,0,0:0:0:0:
402,192,135564,1,0,0:0:0:0:
475,192,135564,1,0,0:0:0:0:
109,192,135654,1,0,0:0:0:0:
182,192,135654,1,0,0:0:0:0:
256,192,135654,1,0,0:0:0:0:
329,192,135743,1,0,0:0:0:0:
402,192,135743,1,0,0:0:0:0:
36,192,135832,1,0,0:0:0:70:finish.wav
109,192,135832,1,0,0:0:0:70:snare.wav
182,192,135832,1,0,0:0:0:0:
256,192,135832,1,0,0:0:0:0:
475,192,136011,1,0,0:0:0:0:
36,192,136189,1,0,0:0:0:70:snare.wav
109,192,136189,1,0,0:0:0:0:
182,192,136189,1,0,0:0:0:0:
329,192,136189,1,0,0:0:0:0:
402,192,136368,1,0,0:0:0:0:
36,192,136546,1,0,0:0:0:70:snare.wav
109,192,136546,1,0,0:0:0:0:
182,192,136546,1,0,0:0:0:0:
256,192,136546,1,0,0:0:0:0:
475,192,136725,1,0,0:0:0:0:
402,192,136814,1,0,0:0:0:0:
36,192,136904,1,0,0:0:0:70:snare.wav
109,192,136904,1,0,0:0:0:0:
182,192,136904,1,0,0:0:0:0:
329,192,136904,1,0,0:0:0:0:
256,192,137082,1,0,0:0:0:0:
109,192,137261,1,0,0:0:0:70:snare.wav
329,192,137261,1,0,0:0:0:0:
402,192,137261,1,0,0:0:0:0:
475,192,137261,1,0,0:0:0:0:
182,192,137439,1,0,0:0:0:0:
182,192,137529,1,0,0:0:0:0:
36,192,137618,1,0,0:0:0:70:snare.wav
329,192,137618,1,0,0:0:0:0:
402,192,137618,1,0,0:0:0:0:
475,192,137618,1,0,0:0:0:0:
256,192,137796,1,0,0:0:0:0:
182,192,137975,1,0,0:0:0:70:snare.wav
329,192,137975,1,0,0:0:0:0:
402,192,137975,1,0,0:0:0:0:
475,192,137975,1,0,0:0:0:0:
109,192,138154,1,0,0:0:0:0:
36,192,138243,1,0,0:0:0:0:
182,192,138332,1,0,0:0:0:70:snare.wav
329,192,138332,1,0,0:0:0:0:
402,192,138332,1,0,0:0:0:0:
475,192,138332,1,0,0:0:0:0:
256,192,138511,1,0,0:0:0:70:drum.wav
402,192,138511,1,0,0:0:0:0:
475,192,138511,1,0,0:0:0:0:
36,192,138689,1,0,0:0:0:70:snare.wav
109,192,138689,1,0,0:0:0:0:
182,192,138689,1,0,0:0:0:0:
475,192,138689,1,0,0:0:0:0:
329,192,138868,1,0,0:0:0:0:
402,192,138957,1,0,0:0:0:0:
36,192,139046,1,0,0:0:0:70:snare.wav
109,192,139046,1,0,0:0:0:0:
182,192,139046,1,0,0:0:0:0:
475,192,139046,1,0,0:0:0:0:
402,192,139225,1,0,0:0:0:0:
36,192,139404,1,0,0:0:0:70:snare.wav
109,192,139404,1,0,0:0:0:0:
182,192,139404,1,0,0:0:0:0:
329,192,139404,1,0,0:0:0:0:
475,192,139582,1,0,0:0:0:0:
36,192,139761,1,0,0:0:0:70:snare.wav
109,192,139761,1,0,0:0:0:0:
182,192,139761,1,0,0:0:0:0:
329,192,139761,1,0,0:0:0:0:
182,192,139939,1,0,0:0:0:0:
36,192,140118,1,0,0:0:0:70:snare.wav
329,192,140118,1,0,0:0:0:0:
402,192,140118,1,0,0:0:0:0:
475,192,140118,1,0,0:0:0:0:
109,192,140296,1,0,0:0:0:0:
182,192,140386,1,0,0:0:0:0:
256,192,140475,1,0,0:0:0:70:snare.wav
329,192,140475,1,0,0:0:0:0:
402,192,140475,1,0,0:0:0:0:
475,192,140475,1,0,0:0:0:0:
109,192,140654,1,0,0:0:0:0:
182,192,140832,1,0,0:0:0:70:snare.wav
329,192,140832,1,0,0:0:0:0:
402,192,140832,1,0,0:0:0:0:
475,192,140832,1,0,0:0:0:0:
109,192,141011,1,0,0:0:0:0:
475,192,141100,1,0,0:0:0:70:snare.wav
36,192,141189,1,0,0:0:0:70:drum.wav
329,192,141189,1,0,0:0:0:0:
402,192,141189,1,0,0:0:0:0:
109,192,141368,1,0,0:0:0:70:snare.wav
329,192,141368,1,0,0:0:0:0:
402,192,141368,1,0,0:0:0:0:
36,192,141546,1,0,0:0:0:70:drum.wav
256,192,141546,1,0,0:0:0:0:
402,192,141546,1,0,0:0:0:0:
475,192,141546,1,0,0:0:0:0:
109,192,141725,1,0,0:0:0:70:snare.wav
329,192,141725,1,0,0:0:0:0:
182,192,141904,1,0,0:0:0:70:drum.wav
402,192,141904,1,0,0:0:0:0:
256,192,142082,1,0,0:0:0:70:snare.wav
475,192,142082,1,0,0:0:0:0:
36,192,142261,1,0,0:0:0:70:drum.wav
109,192,142261,1,0,0:0:0:0:
402,192,142261,1,0,0:0:0:0:
256,192,142439,1,0,0:0:0:70:snare.wav
329,192,142439,1,0,0:0:0:0:
109,192,142618,1,0,0:0:0:70:drum.wav
182,192,142618,1,0,0:0:0:0:
402,192,142796,1,0,0:0:0:70:snare.wav
475,192,142796,1,0,0:0:0:0:
36,192,142975,1,0,0:0:0:70:drum.wav
256,192,142975,1,0,0:0:0:0:
329,192,142975,1,0,0:0:0:0:
182,192,143064,1,0,0:0:0:70:drum.wav
109,192,143154,1,0,0:0:0:70:drum.wav
475,192,143154,1,0,0:0:0:0:
329,192,143243,1,0,0:0:0:70:drum.wav
182,192,143332,1,0,0:0:0:70:drum.wav
402,192,143332,1,0,0:0:0:0:
36,192,143421,1,0,0:0:0:70:drum.wav
329,192,143511,1,0,0:0:0:70:drum.wav
475,192,143511,1,0,0:0:0:0:
109,192,143600,1,0,0:0:0:70:drum.wav
182,192,143689,1,0,0:0:0:70:drum.wav
475,192,143689,1,0,0:0:0:0:
256,192,143779,1,0,0:0:0:70:drum.wav
329,192,143779,1,0,0:0:0:0:
402,192,143868,1,0,0:0:0:70:drum.wav
475,192,143868,1,0,0:0:0:0:
109,192,143957,1,0,0:0:0:70:drum.wav
182,192,143957,1,0,0:0:0:0:
329,192,144046,1,0,0:0:0:70:drum.wav
402,192,144046,1,0,0:0:0:0:
182,192,144136,1,0,0:0:0:70:drum.wav
256,192,144136,1,0,0:0:0:0:
36,192,144225,1,0,0:0:0:70:drum.wav
109,192,144225,1,0,0:0:0:0:
402,192,144314,1,0,0:0:0:70:drum.wav
475,192,144314,1,0,0:0:0:0:
36,192,144404,1,0,0:0:0:70:bell.wav
182,192,144404,128,0,146904:0:0:0:0:
256,192,144404,1,0,0:0:0:0:
329,192,144404,1,0,0:0:0:0:
329,192,144761,1,0,0:0:0:70:bell.wav
329,192,145118,1,0,0:0:0:70:bell.wav
329,192,145475,1,0,0:0:0:70:bell.wav
329,192,145832,1,0,0:0:0:0:
329,192,146189,1,0,0:0:0:0:
329,192,146546,1,0,0:0:0:0:
329,192,146904,128,0,147261:0:0:0:0:
36,192,147261,1,0,0:0:0:70:drum.wav
109,192,147261,1,0,0:0:0:50:Clap.wav
182,192,147261,1,0,0:0:0:70:finish.wav
256,192,147261,1,0,0:0:0:0:
402,192,147261,1,0,0:0:0:0:
475,192,147261,1,0,0:0:0:0:
109,192,147439,1,0,0:0:0:0:
256,192,147439,1,0,0:0:0:0:
475,192,147439,1,0,0:0:0:0:
36,192,147618,1,0,0:0:0:70:drum.wav
109,192,147618,1,0,0:0:0:50:Clap.wav
182,192,147618,1,0,0:0:0:0:
256,192,147618,1,0,0:0:0:0:
329,192,147618,1,0,0:0:0:0:
402,192,147618,1,0,0:0:0:0:
475,192,147618,1,0,0:0:0:0:
36,192,147796,1,0,0:0:0:0:
256,192,147796,1,0,0:0:0:0:
402,192,147796,1,0,0:0:0:0:
36,192,147975,1,0,0:0:0:70:drum.wav
109,192,147975,1,0,0:0:0:50:Clap.wav
182,192,147975,1,0,0:0:0:0:
256,192,147975,1,0,0:0:0:0:
329,192,147975,1,0,0:0:0:0:
402,192,147975,1,0,0:0:0:0:
475,192,147975,1,0,0:0:0:0:
109,192,148154,1,0,0:0:0:0:
402,192,148154,1,0,0:0:0:0:
475,192,148154,1,0,0:0:0:0:
182,192,148243,1,0,0:0:0:0:
329,192,148243,1,0,0:0:0:0:
36,192,148332,1,0,0:0:0:70:drum.wav
109,192,148332,1,0,0:0:0:50:Clap.wav
256,192,148332,1,0,0:0:0:0:
402,192,148332,1,0,0:0:0:0:
475,192,148332,1,0,0:0:0:0:
36,192,148511,1,0,0:0:0:0:
182,192,148511,1,0,0:0:0:0:
256,192,148511,1,0,0:0:0:0:
329,192,148511,1,0,0:0:0:0:
475,192,148511,1,0,0:0:0:0:
36,192,148689,1,0,0:0:0:70:drum.wav
109,192,148689,1,0,0:0:0:50:Clap.wav
182,192,148689,1,0,0:0:0:0:
256,192,148689,1,0,0:0:0:0:
329,192,148689,1,0,0:0:0:0:
402,192,148689,1,0,0:0:0:0:
475,192,148689,1,0,0:0:0:0:
109,192,148868,1,0,0:0:0:0:
256,192,148868,1,0,0:0:0:0:
402,192,148868,1,0,0:0:0:0:
182,192,148957,1,0,0:0:0:0:
402,192,148957,1,0,0:0:0:0:
36,192,149046,1,0,0:0:0:70:drum.wav
109,192,149046,1,0,0:0:0:50:Clap.wav
256,192,149046,1,0,0:0:0:0:
329,192,149046,1,0,0:0:0:0:
475,192,149046,1,0,0:0:0:0:
36,192,149225,1,0,0:0:0:0:
109,192,149225,1,0,0:0:0:0:
402,192,149225,1,0,0:0:0:0:
36,192,149404,1,0,0:0:0:70:drum.wav
109,192,149404,1,0,0:0:0:50:Clap.wav
182,192,149404,1,0,0:0:0:0:
256,192,149404,1,0,0:0:0:0:
329,192,149404,1,0,0:0:0:0:
402,192,149404,1,0,0:0:0:0:
475,192,149404,1,0,0:0:0:0:
182,192,149582,1,0,0:0:0:0:
329,192,149582,1,0,0:0:0:0:
402,192,149582,1,0,0:0:0:0:
109,192,149671,1,0,0:0:0:0:
256,192,149671,1,0,0:0:0:0:
36,192,149761,1,0,0:0:0:70:drum.wav
182,192,149761,1,0,0:0:0:50:Clap.wav
329,192,149761,1,0,0:0:0:0:
402,192,149761,1,0,0:0:0:0:
475,192,149761,1,0,0:0:0:0:
36,192,149939,1,0,0:0:0:70:drum.wav
109,192,149939,1,0,0:0:0:0:
182,192,149939,1,0,0:0:0:0:
256,192,149939,1,0,0:0:0:0:
402,192,149939,1,0,0:0:0:0:
475,192,149939,1,0,0:0:0:0:
36,192,150118,1,0,0:0:0:70:drum.wav
109,192,150118,1,0,0:0:0:50:Clap.wav
182,192,150118,1,0,0:0:0:0:
256,192,150118,1,0,0:0:0:0:
329,192,150118,1,0,0:0:0:0:
402,192,150118,1,0,0:0:0:0:
475,192,150118,1,0,0:0:0:0:
36,192,150296,1,0,0:0:0:0:
109,192,150296,1,0,0:0:0:0:
329,192,150296,1,0,0:0:0:0:
182,192,150386,1,0,0:0:0:0:
402,192,150386,1,0,0:0:0:0:
36,192,150475,1,0,0:0:0:70:drum.wav
109,192,150475,1,0,0:0:0:50:Clap.wav
256,192,150475,1,0,0:0:0:0:
329,192,150475,1,0,0:0:0:0:
475,192,150475,1,0,0:0:0:0:
109,192,150654,1,0,0:0:0:0:
182,192,150654,1,0,0:0:0:0:
256,192,150654,1,0,0:0:0:0:
402,192,150654,1,0,0:0:0:0:
475,192,150654,1,0,0:0:0:0:
36,192,150832,1,0,0:0:0:70:drum.wav
109,192,150832,1,0,0:0:0:50:Clap.wav
182,192,150832,1,0,0:0:0:0:
256,192,150832,1,0,0:0:0:0:
329,192,150832,1,0,0:0:0:0:
402,192,150832,1,0,0:0:0:0:
475,192,150832,1,0,0:0:0:0:
109,192,151011,1,0,0:0:0:0:
256,192,151011,1,0,0:0:0:0:
475,192,151011,1,0,0:0:0:0:
36,192,151189,1,0,0:0:0:70:drum.wav
109,192,151189,1,0,0:0:0:50:Clap.wav
182,192,151189,1,0,0:0:0:0:
256,192,151189,1,0,0:0:0:0:
329,192,151189,1,0,0:0:0:0:
402,192,151189,1,0,0:0:0:0:
475,192,151189,1,0,0:0:0:0:
36,192,151368,1,0,0:0:0:0:
256,192,151368,1,0,0:0:0:0:
402,192,151368,1,0,0:0:0:0:
36,192,151546,1,0,0:0:0:70:drum.wav
109,192,151546,1,0,0:0:0:50:Clap.wav
182,192,151546,1,0,0:0:0:0:
256,192,151546,1,0,0:0:0:0:
329,192,151546,1,0,0:0:0:0:
402,192,151546,1,0,0:0:0:0:
475,192,151546,1,0,0:0:0:0:
109,192,151725,1,0,0:0:0:0:
182,192,151725,1,0,0:0:0:0:
402,192,151725,1,0,0:0:0:0:
256,192,151814,1,0,0:0:0:0:
329,192,151814,1,0,0:0:0:0:
36,192,151904,1,0,0:0:0:70:drum.wav
109,192,151904,1,0,0:0:0:50:Clap.wav
182,192,151904,1,0,0:0:0:0:
402,192,151904,1,0,0:0:0:0:
475,192,151904,1,0,0:0:0:0:
109,192,152082,1,0,0:0:0:0:
182,192,152082,1,0,0:0:0:0:
256,192,152082,1,0,0:0:0:0:
329,192,152082,1,0,0:0:0:0:
475,192,152082,1,0,0:0:0:0:
36,192,152261,1,0,0:0:0:70:drum.wav
109,192,152261,1,0,0:0:0:50:Clap.wav
182,192,152261,1,0,0:0:0:0:
256,192,152261,1,0,0:0:0:0:
329,192,152261,1,0,0:0:0:0:
402,192,152261,1,0,0:0:0:0:
475,192,152261,1,0,0:0:0:0:
109,192,152439,1,0,0:0:0:0:
256,192,152439,1,0,0:0:0:0:
475,192,152439,1,0,0:0:0:0:
36,192,152618,1,0,0:0:0:70:drum.wav
109,192,152618,1,0,0:0:0:50:Clap.wav
182,192,152618,1,0,0:0:0:0:
256,192,152618,1,0,0:0:0:0:
329,192,152618,1,0,0:0:0:0:
402,192,152618,1,0,0:0:0:0:
475,192,152618,1,0,0:0:0:0:
182,192,152796,1,0,0:0:0:70:drum.wav
329,192,152796,1,0,0:0:0:0:
475,192,152796,1,0,0:0:0:0:
36,192,152975,1,0,0:0:0:70:drum.wav
109,192,152975,1,0,0:0:0:50:Clap.wav
182,192,152975,1,0,0:0:0:0:
256,192,152975,1,0,0:0:0:0:
329,192,152975,1,0,0:0:0:0:
402,192,152975,1,0,0:0:0:0:
475,192,152975,1,0,0:0:0:0:
36,192,153154,1,0,0:0:0:0:
182,192,153154,1,0,0:0:0:0:
329,192,153154,1,0,0:0:0:0:
475,192,153154,1,0,0:0:0:0:
36,192,153332,1,0,0:0:0:70:drum.wav
109,192,153332,1,0,0:0:0:50:Clap.wav
182,192,153332,1,0,0:0:0:0:
256,192,153332,1,0,0:0:0:0:
329,192,153332,1,0,0:0:0:0:
402,192,153332,1,0,0:0:0:0:
475,192,153332,1,0,0:0:0:0:
36,192,153511,1,0,0:0:0:0:
182,192,153511,1,0,0:0:0:0:
329,192,153511,1,0,0:0:0:0:
402,192,153511,1,0,0:0:0:0:
36,192,153689,1,0,0:0:0:70:drum.wav
109,192,153689,1,0,0:0:0:50:Clap.wav
182,192,153689,1,0,0:0:0:0:
256,192,153689,1,0,0:0:0:0:
329,192,153689,1,0,0:0:0:0:
402,192,153689,1,0,0:0:0:0:
475,192,153689,1,0,0:0:0:0:
109,192,153868,1,0,0:0:0:0:
256,192,153868,1,0,0:0:0:0:
402,192,153868,1,0,0:0:0:0:
182,192,153957,1,0,0:0:0:0:
329,192,153957,1,0,0:0:0:0:
36,192,154046,1,0,0:0:0:70:drum.wav
109,192,154046,1,0,0:0:0:50:Clap.wav
256,192,154046,1,0,0:0:0:0:
402,192,154046,1,0,0:0:0:0:
475,192,154046,1,0,0:0:0:0:
36,192,154225,1,0,0:0:0:0:
109,192,154225,1,0,0:0:0:0:
182,192,154225,1,0,0:0:0:0:
329,192,154225,1,0,0:0:0:0:
402,192,154225,1,0,0:0:0:0:
475,192,154225,1,0,0:0:0:0:
36,192,154404,1,0,0:0:0:70:drum.wav
109,192,154404,1,0,0:0:0:50:Clap.wav
182,192,154404,1,0,0:0:0:0:
256,192,154404,1,0,0:0:0:0:
329,192,154404,1,0,0:0:0:0:
402,192,154404,1,0,0:0:0:0:
475,192,154404,1,0,0:0:0:0:
109,192,154582,1,0,0:0:0:0:
256,192,154582,1,0,0:0:0:0:
402,192,154582,1,0,0:0:0:0:
182,192,154671,1,0,0:0:0:0:
402,192,154671,1,0,0:0:0:0:
36,192,154761,1,0,0:0:0:70:drum.wav
109,192,154761,1,0,0:0:0:50:Clap.wav
256,192,154761,1,0,0:0:0:0:
329,192,154761,1,0,0:0:0:0:
475,192,154761,1,0,0:0:0:0:
182,192,154939,1,0,0:0:0:0:
402,192,154939,1,0,0:0:0:0:
475,192,154939,1,0,0:0:0:0:
256,192,155029,1,0,0:0:0:0:
329,192,155029,1,0,0:0:0:0:
36,192,155118,1,0,0:0:0:70:drum.wav
109,192,155118,1,0,0:0:0:50:Clap.wav
182,192,155118,1,0,0:0:0:0:
402,192,155118,1,0,0:0:0:0:
475,192,155118,1,0,0:0:0:0:
109,192,155296,1,0,0:0:0:0:
256,192,155296,1,0,0:0:0:0:
402,192,155296,1,0,0:0:0:0:
329,192,155386,1,0,0:0:0:70:drum.wav
475,192,155386,1,0,0:0:0:0:
36,192,155475,1,0,0:0:0:70:drum.wav
109,192,155475,1,0,0:0:0:50:Clap.wav
182,192,155475,1,0,0:0:0:0:
256,192,155475,1,0,0:0:0:0:
402,192,155475,1,0,0:0:0:0:
36,192,155654,1,0,0:0:0:70:drum.wav
109,192,155654,1,0,0:0:0:0:
256,192,155654,1,0,0:0:0:0:
329,192,155654,1,0,0:0:0:0:
402,192,155654,1,0,0:0:0:0:
475,192,155654,1,0,0:0:0:0:
36,192,155832,1,0,0:0:0:70:drum.wav
109,192,155832,1,0,0:0:0:50:Clap.wav
182,192,155832,1,0,0:0:0:0:
256,192,155832,1,0,0:0:0:0:
329,192,155832,1,0,0:0:0:0:
402,192,155832,1,0,0:0:0:0:
475,192,155832,1,0,0:0:0:0:
36,192,156011,1,0,0:0:0:0:
109,192,156011,1,0,0:0:0:0:
475,192,156011,1,0,0:0:0:0:
182,192,156100,1,0,0:0:0:0:
329,192,156100,1,0,0:0:0:0:
36,192,156189,1,0,0:0:0:70:drum.wav
109,192,156189,1,0,0:0:0:50:Clap.wav
256,192,156189,1,0,0:0:0:0:
402,192,156189,1,0,0:0:0:0:
475,192,156189,1,0,0:0:0:0:
109,192,156368,1,0,0:0:0:0:
182,192,156368,1,0,0:0:0:0:
256,192,156368,1,0,0:0:0:0:
329,192,156368,1,0,0:0:0:0:
402,192,156368,1,0,0:0:0:0:
475,192,156368,1,0,0:0:0:0:
36,192,156546,1,0,0:0:0:70:drum.wav
109,192,156546,1,0,0:0:0:50:Clap.wav
182,192,156546,1,0,0:0:0:0:
256,192,156546,1,0,0:0:0:0:
329,192,156546,1,0,0:0:0:0:
402,192,156546,1,0,0:0:0:0:
475,192,156546,1,0,0:0:0:0:
36,192,156725,1,0,0:0:0:0:
182,192,156725,1,0,0:0:0:0:
402,192,156725,1,0,0:0:0:0:
36,192,156904,1,0,0:0:0:70:drum.wav
109,192,156904,1,0,0:0:0:50:Clap.wav
182,192,156904,1,0,0:0:0:0:
256,192,156904,1,0,0:0:0:0:
329,192,156904,1,0,0:0:0:0:
402,192,156904,1,0,0:0:0:0:
475,192,156904,1,0,0:0:0:0:
182,192,157082,1,0,0:0:0:0:
329,192,157082,1,0,0:0:0:0:
475,192,157082,1,0,0:0:0:0:
36,192,157261,1,0,0:0:0:70:drum.wav
109,192,157261,1,0,0:0:0:50:Clap.wav
182,192,157261,1,0,0:0:0:70:snare.wav
256,192,157261,1,0,0:0:0:0:
329,192,157261,1,0,0:0:0:0:
402,192,157261,1,0,0:0:0:0:
475,192,157261,1,0,0:0:0:0:
109,192,157439,1,0,0:0:0:0:
402,192,157439,1,0,0:0:0:0:
36,192,157618,1,0,0:0:0:50:Clap.wav
109,192,157618,1,0,0:0:0:70:snare.wav
182,192,157618,1,0,0:0:0:0:
256,192,157618,1,0,0:0:0:0:
329,192,157618,1,0,0:0:0:0:
402,192,157618,1,0,0:0:0:0:
475,192,157618,1,0,0:0:0:0:
182,192,157796,1,0,0:0:0:0:
329,192,157796,1,0,0:0:0:0:
36,192,157975,1,0,0:0:0:50:Clap.wav
109,192,157975,1,0,0:0:0:70:snare.wav
182,192,157975,1,0,0:0:0:0:
256,192,157975,1,0,0:0:0:0:
329,192,157975,1,0,0:0:0:0:
402,192,157975,1,0,0:0:0:0:
475,192,157975,1,0,0:0:0:0:
256,192,158154,1,0,0:0:0:0:
182,192,158243,1,0,0:0:0:70:drum.wav
329,192,158243,1,0,0:0:0:0:
36,192,158332,1,0,0:0:0:50:Clap.wav
109,192,158332,1,0,0:0:0:70:snare.wav
256,192,158332,1,0,0:0:0:0:
402,192,158332,1,0,0:0:0:0:
475,192,158332,1,0,0:0:0:0:
36,192,158511,1,0,0:0:0:70:drum.wav
109,192,158511,1,0,0:0:0:0:
182,192,158511,1,0,0:0:0:0:
256,192,158600,1,0,0:0:0:0:
329,192,158600,1,0,0:0:0:0:
36,192,158689,1,0,0:0:0:70:drum.wav
109,192,158689,1,0,0:0:0:70:finish.wav
182,192,158689,1,0,0:0:0:70:bell.wav
402,192,158689,1,0,0:0:0:0:
475,192,158689,1,0,0:0:0:0:
329,192,158779,1,0,0:0:0:0:
109,192,158868,1,0,0:0:0:0:
256,192,158868,1,0,0:0:0:0:
182,192,158957,1,0,0:0:0:70:snare.wav
475,192,158957,1,0,0:0:0:0:
36,192,159046,1,0,0:0:0:70:drum.wav
256,192,159046,1,0,0:0:0:70:bell.wav
329,192,159046,1,0,0:0:0:0:
402,192,159046,1,0,0:0:0:0:
109,192,159136,1,0,0:0:0:0:
182,192,159225,1,0,0:0:0:70:snare.wav
329,192,159225,1,0,0:0:0:0:
475,192,159225,1,0,0:0:0:0:
256,192,159314,1,0,0:0:0:0:
36,192,159404,1,0,0:0:0:70:drum.wav
109,192,159404,1,0,0:0:0:70:bell.wav
402,192,159404,1,0,0:0:0:0:
475,192,159404,1,0,0:0:0:0:
329,192,159493,1,0,0:0:0:0:
109,192,159582,1,0,0:0:0:70:snare.wav
182,192,159582,1,0,0:0:0:0:
256,192,159582,1,0,0:0:0:0:
475,192,159671,1,0,0:0:0:0:
36,192,159761,1,0,0:0:0:70:drum.wav
109,192,159761,1,0,0:0:0:70:bell.wav
329,192,159761,1,0,0:0:0:0:
402,192,159761,1,0,0:0:0:0:
182,192,159850,1,0,0:0:0:0:
256,192,159939,1,0,0:0:0:70:snare.wav
329,192,159939,1,0,0:0:0:0:
475,192,159939,1,0,0:0:0:0:
36,192,160029,1,0,0:0:0:0:
109,192,160118,1,0,0:0:0:70:drum.wav
182,192,160118,1,0,0:0:0:70:bell.wav
256,192,160118,1,0,0:0:0:0:
475,192,160118,1,0,0:0:0:0:
402,192,160207,1,0,0:0:0:0:
36,192,160296,1,0,0:0:0:0:
182,192,160296,1,0,0:0:0:0:
329,192,160296,1,0,0:0:0:0:
109,192,160386,1,0,0:0:0:70:snare.wav
475,192,160386,1,0,0:0:0:0:
36,192,160475,1,0,0:0:0:70:drum.wav
256,192,160475,1,0,0:0:0:70:bell.wav
329,192,160475,1,0,0:0:0:0:
402,192,160475,1,0,0:0:0:0:
182,192,160564,1,0,0:0:0:0:
36,192,160654,1,0,0:0:0:70:snare.wav
109,192,160654,1,0,0:0:0:0:
475,192,160654,1,0,0:0:0:0:
329,192,160743,1,0,0:0:0:0:
36,192,160832,1,0,0:0:0:70:drum.wav
109,192,160832,1,0,0:0:0:70:bell.wav
256,192,160832,1,0,0:0:0:0:
475,192,160832,1,0,0:0:0:0:
182,192,160921,1,0,0:0:0:0:
36,192,161011,1,0,0:0:0:70:snare.wav
329,192,161011,1,0,0:0:0:0:
402,192,161011,1,0,0:0:0:0:
109,192,161100,1,0,0:0:0:0:
475,192,161100,1,0,0:0:0:0:
36,192,161189,1,0,0:0:0:70:drum.wav
182,192,161189,1,0,0:0:0:70:bell.wav
329,192,161189,1,0,0:0:0:0:
402,192,161189,1,0,0:0:0:0:
256,192,161279,1,0,0:0:0:0:
36,192,161368,1,0,0:0:0:70:snare.wav
182,192,161368,1,0,0:0:0:0:
475,192,161368,1,0,0:0:0:0:
402,192,161457,1,0,0:0:0:0:
36,192,161546,1,0,0:0:0:70:drum.wav
109,192,161546,1,0,0:0:0:70:bell.wav
329,192,161546,1,0,0:0:0:0:
475,192,161546,1,0,0:0:0:0:
182,192,161636,1,0,0:0:0:0:
256,192,161725,1,0,0:0:0:0:
475,192,161725,1,0,0:0:0:0:
109,192,161814,1,0,0:0:0:70:snare.wav
329,192,161814,1,0,0:0:0:0:
36,192,161904,1,0,0:0:0:70:drum.wav
256,192,161904,1,0,0:0:0:70:bell.wav
402,192,161904,1,0,0:0:0:0:
475,192,161904,1,0,0:0:0:0:
329,192,161993,1,0,0:0:0:0:
109,192,162082,1,0,0:0:0:70:snare.wav
256,192,162082,1,0,0:0:0:0:
475,192,162082,1,0,0:0:0:0:
182,192,162171,1,0,0:0:0:0:
36,192,162261,1,0,0:0:0:70:drum.wav
256,192,162261,1,0,0:0:0:70:bell.wav
329,192,162261,1,0,0:0:0:0:
475,192,162261,1,0,0:0:0:0:
109,192,162350,1,0,0:0:0:0:
36,192,162439,1,0,0:0:0:70:snare.wav
182,192,162439,1,0,0:0:0:0:
402,192,162439,1,0,0:0:0:0:
329,192,162529,1,0,0:0:0:0:
36,192,162618,1,0,0:0:0:70:drum.wav
109,192,162618,1,0,0:0:0:70:bell.wav
256,192,162618,1,0,0:0:0:0:
475,192,162618,1,0,0:0:0:0:
182,192,162707,1,0,0:0:0:0:
109,192,162796,1,0,0:0:0:70:snare.wav
329,192,162796,1,0,0:0:0:0:
402,192,162796,1,0,0:0:0:0:
256,192,162886,1,0,0:0:0:0:
36,192,162975,1,0,0:0:0:70:drum.wav
182,192,162975,1,0,0:0:0:70:bell.wav
402,192,162975,1,0,0:0:0:0:
109,192,163064,1,0,0:0:0:0:
182,192,163154,1,0,0:0:0:0:
475,192,163154,1,0,0:0:0:0:
256,192,163243,1,0,0:0:0:70:snare.wav
402,192,163243,1,0,0:0:0:0:
36,192,163332,1,0,0:0:0:70:drum.wav
109,192,163332,1,0,0:0:0:70:bell.wav
329,192,163332,1,0,0:0:0:0:
475,192,163332,1,0,0:0:0:0:
182,192,163421,1,0,0:0:0:0:
36,192,163511,1,0,0:0:0:70:snare.wav
256,192,163511,1,0,0:0:0:0:
402,192,163511,1,0,0:0:0:0:
329,192,163600,1,0,0:0:0:0:
36,192,163689,1,0,0:0:0:70:drum.wav
109,192,163689,1,0,0:0:0:70:bell.wav
402,192,163689,1,0,0:0:0:0:
475,192,163689,1,0,0:0:0:0:
256,192,163779,1,0,0:0:0:0:
36,192,163868,1,0,0:0:0:70:snare.wav
402,192,163868,1,0,0:0:0:0:
475,192,163868,1,0,0:0:0:0:
182,192,163957,1,0,0:0:0:70:snare.wav
329,192,163957,1,0,0:0:0:0:
36,192,164046,1,0,0:0:0:70:drum.wav
109,192,164046,1,0,0:0:0:70:bell.wav
256,192,164046,1,0,0:0:0:0:
475,192,164046,1,0,0:0:0:0:
329,192,164136,1,0,0:0:0:0:
109,192,164225,1,0,0:0:0:70:snare.wav
402,192,164225,1,0,0:0:0:0:
475,192,164225,1,0,0:0:0:0:
182,192,164314,1,0,0:0:0:0:
36,192,164404,1,0,0:0:0:70:drum.wav
256,192,164404,1,0,0:0:0:70:finish.wav
402,192,164404,1,0,0:0:0:70:bell.wav
475,192,164404,1,0,0:0:0:0:
109,192,164493,1,0,0:0:0:0:
182,192,164582,1,0,0:0:0:0:
475,192,164582,1,0,0:0:0:0:
256,192,164671,1,0,0:0:0:70:snare.wav
329,192,164671,1,0,0:0:0:0:
36,192,164761,1,0,0:0:0:70:drum.wav
182,192,164761,1,0,0:0:0:70:bell.wav
402,192,164761,1,0,0:0:0:0:
475,192,164761,1,0,0:0:0:0:
329,192,164850,1,0,0:0:0:0:
109,192,164939,1,0,0:0:0:70:snare.wav
256,192,164939,1,0,0:0:0:0:
475,192,164939,1,0,0:0:0:0:
402,192,165029,1,0,0:0:0:0:
36,192,165118,1,0,0:0:0:70:drum.wav
182,192,165118,1,0,0:0:0:70:bell.wav
329,192,165118,1,0,0:0:0:0:
475,192,165118,1,0,0:0:0:0:
256,192,165207,1,0,0:0:0:0:
109,192,165296,1,0,0:0:0:70:snare.wav
329,192,165296,1,0,0:0:0:0:
402,192,165296,1,0,0:0:0:0:
182,192,165386,1,0,0:0:0:0:
36,192,165475,1,0,0:0:0:70:drum.wav
256,192,165475,1,0,0:0:0:70:bell.wav
402,192,165475,1,0,0:0:0:0:
475,192,165475,1,0,0:0:0:0:
329,192,165564,1,0,0:0:0:0:
109,192,165654,1,0,0:0:0:70:snare.wav
182,192,165654,1,0,0:0:0:0:
256,192,165654,1,0,0:0:0:0:
475,192,165743,1,0,0:0:0:0:
36,192,165832,1,0,0:0:0:70:drum.wav
109,192,165832,1,0,0:0:0:70:bell.wav
402,192,165832,1,0,0:0:0:0:
329,192,165921,1,0,0:0:0:0:
109,192,166011,1,0,0:0:0:0:
256,192,166011,1,0,0:0:0:0:
475,192,166011,1,0,0:0:0:0:
182,192,166100,1,0,0:0:0:70:snare.wav
402,192,166100,1,0,0:0:0:0:
36,192,166189,1,0,0:0:0:70:drum.wav
256,192,166189,1,0,0:0:0:70:bell.wav
329,192,166189,1,0,0:0:0:0:
475,192,166189,1,0,0:0:0:0:
109,192,166279,1,0,0:0:0:0:
182,192,166368,1,0,0:0:0:70:snare.wav
329,192,166368,1,0,0:0:0:0:
402,192,166368,1,0,0:0:0:0:
256,192,166457,1,0,0:0:0:0:
36,192,166546,1,0,0:0:0:70:drum.wav
109,192,166546,1,0,0:0:0:70:bell.wav
329,192,166546,1,0,0:0:0:0:
475,192,166546,1,0,0:0:0:0:
182,192,166636,1,0,0:0:0:0:
36,192,166725,1,0,0:0:0:70:snare.wav
256,192,166725,1,0,0:0:0:0:
402,192,166725,1,0,0:0:0:0:
109,192,166814,1,0,0:0:0:0:
36,192,166904,1,0,0:0:0:70:drum.wav
182,192,166904,1,0,0:0:0:70:bell.wav
402,192,166904,1,0,0:0:0:0:
475,192,166904,1,0,0:0:0:0:
256,192,166993,1,0,0:0:0:0:
329,192,166993,1,0,0:0:0:0:
36,192,167082,1,0,0:0:0:70:snare.wav
109,192,167082,1,0,0:0:0:0:
475,192,167082,1,0,0:0:0:0:
182,192,167171,1,0,0:0:0:0:
402,192,167171,1,0,0:0:0:0:
36,192,167261,1,0,0:0:0:70:drum.wav
256,192,167261,1,0,0:0:0:70:finish.wav
329,192,167261,1,0,0:0:0:70:bell.wav
475,192,167261,1,0,0:0:0:0:
109,192,167350,1,0,0:0:0:0:
182,192,167439,1,0,0:0:0:0:
402,192,167439,1,0,0:0:0:0:
256,192,167529,1,0,0:0:0:70:snare.wav
36,192,167618,1,0,0:0:0:70:drum.wav
182,192,167618,1,0,0:0:0:70:bell.wav
329,192,167618,1,0,0:0:0:0:
402,192,167618,1,0,0:0:0:0:
475,192,167618,1,0,0:0:0:0:
109,192,167707,1,0,0:0:0:0:
182,192,167796,1,0,0:0:0:70:snare.wav
475,192,167796,1,0,0:0:0:0:
402,192,167886,1,0,0:0:0:0:
36,192,167975,1,0,0:0:0:70:drum.wav
109,192,167975,1,0,0:0:0:70:finish.wav
329,192,167975,1,0,0:0:0:70:bell.wav
475,192,167975,1,0,0:0:0:0:
256,192,168064,1,0,0:0:0:0:
36,192,168154,1,0,0:0:0:70:snare.wav
182,192,168154,1,0,0:0:0:0:
402,192,168154,1,0,0:0:0:0:
475,192,168154,1,0,0:0:0:0:
329,192,168243,1,0,0:0:0:70:snare.wav
36,192,168332,1,0,0:0:0:70:drum.wav
182,192,168332,1,0,0:0:0:70:bell.wav
256,192,168332,1,0,0:0:0:0:
475,192,168332,1,0,0:0:0:0:
109,192,168421,1,0,0:0:0:0:
36,192,168511,1,0,0:0:0:70:snare.wav
182,192,168511,1,0,0:0:0:0:
329,192,168511,1,0,0:0:0:0:
475,192,168511,1,0,0:0:0:0:
256,192,168600,1,0,0:0:0:0:
36,192,168689,1,0,0:0:0:70:drum.wav
109,192,168689,1,0,0:0:0:70:finish.wav
329,192,168689,1,0,0:0:0:70:bell.wav
402,192,168689,1,0,0:0:0:0:
475,192,168689,1,0,0:0:0:0:
182,192,168779,1,0,0:0:0:0:
256,192,168868,1,0,0:0:0:70:snare.wav
402,192,168868,1,0,0:0:0:0:
329,192,168957,1,0,0:0:0:70:snare.wav
36,192,169046,1,0,0:0:0:70:drum.wav
256,192,169046,1,0,0:0:0:70:finish.wav
475,192,169046,1,0,0:0:0:70:bell.wav
182,192,169136,1,0,0:0:0:0:
109,192,169225,1,0,0:0:0:70:snare.wav
256,192,169225,1,0,0:0:0:0:
402,192,169225,1,0,0:0:0:0:
475,192,169225,1,0,0:0:0:0:
329,192,169314,1,0,0:0:0:0:
36,192,169404,1,0,0:0:0:70:drum.wav
109,192,169404,1,0,0:0:0:70:finish.wav
182,192,169404,1,0,0:0:0:70:bell.wav
256,192,169404,1,0,0:0:0:0:
475,192,169404,1,0,0:0:0:0:
329,192,169493,1,0,0:0:0:0:
402,192,169493,1,0,0:0:0:0:
109,192,169582,1,0,0:0:0:70:snare.wav
182,192,169582,1,0,0:0:0:0:
402,192,169671,1,0,0:0:0:70:snare.wav
475,192,169671,1,0,0:0:0:0:
36,192,169761,1,0,0:0:0:70:drum.wav
109,192,169761,1,0,0:0:0:70:finish.wav
182,192,169761,1,0,0:0:0:70:bell.wav
256,192,169761,1,0,0:0:0:0:
402,192,169850,1,0,0:0:0:0:
475,192,169850,1,0,0:0:0:0:
256,192,169939,1,0,0:0:0:70:snare.wav
329,192,169939,1,0,0:0:0:0:
109,192,170029,1,0,0:0:0:70:snare.wav
182,192,170029,1,0,0:0:0:0:
36,192,170118,1,0,0:0:0:70:drum.wav
256,192,170118,1,0,0:0:0:70:finish.wav
329,192,170118,1,0,0:0:0:70:bell.wav
402,192,170118,1,0,0:0:0:0:
475,192,170118,1,0,0:0:0:0:
109,192,170296,1,0,0:0:0:0:
182,192,170296,1,0,0:0:0:0:
36,192,170475,1,0,0:0:0:70:bell.wav
182,192,170475,1,0,0:0:0:70:snare.wav
256,192,170475,1,0,0:0:0:0:
329,192,170654,1,0,0:0:0:0:
402,192,170654,1,0,0:0:0:0:
36,192,170832,1,0,0:0:0:70:drum.wav
182,192,170832,1,0,0:0:0:70:bell.wav
256,192,170832,1,0,0:0:0:0:
402,192,171011,1,0,0:0:0:0:
475,192,171011,1,0,0:0:0:0:
182,192,171100,1,0,0:0:0:0:
256,192,171100,1,0,0:0:0:0:
36,192,171189,1,0,0:0:0:70:bell.wav
329,192,171189,1,0,0:0:0:70:snare.wav
475,192,171189,1,0,0:0:0:0:
182,192,171279,1,0,0:0:0:0:
256,192,171368,1,0,0:0:0:0:
402,192,171368,1,0,0:0:0:0:
109,192,171457,1,0,0:0:0:0:
36,192,171546,1,0,0:0:0:70:drum.wav
182,192,171546,1,0,0:0:0:70:bell.wav
329,192,171546,1,0,0:0:0:0:
256,192,171725,1,0,0:0:0:0:
475,192,171725,1,0,0:0:0:0:
475,192,171814,1,0,0:0:0:0:
36,192,171904,1,0,0:0:0:70:bell.wav
182,192,171904,1,0,0:0:0:70:snare.wav
329,192,171904,1,0,0:0:0:0:
256,192,172082,1,0,0:0:0:0:
402,192,172082,1,0,0:0:0:0:
36,192,172261,1,0,0:0:0:70:drum.wav
182,192,172261,1,0,0:0:0:70:bell.wav
475,192,172261,1,0,0:0:0:0:
256,192,172439,1,0,0:0:0:0:
329,192,172439,1,0,0:0:0:0:
109,192,172529,1,0,0:0:0:0:
182,192,172529,1,0,0:0:0:0:
36,192,172618,1,0,0:0:0:70:bell.wav
402,192,172618,1,0,0:0:0:70:snare.wav
475,192,172618,1,0,0:0:0:0:
329,192,172707,1,0,0:0:0:0:
182,192,172796,1,0,0:0:0:0:
256,192,172796,1,0,0:0:0:0:
402,192,172886,1,0,0:0:0:0:
36,192,172975,1,0,0:0:0:70:drum.wav
109,192,172975,1,0,0:0:0:70:bell.wav
475,192,172975,1,0,0:0:0:0:
182,192,173154,1,0,0:0:0:0:
329,192,173154,1,0,0:0:0:0:
36,192,173243,1,0,0:0:0:0:
402,192,173243,1,0,0:0:0:0:
109,192,173332,1,0,0:0:0:70:bell.wav
256,192,173332,1,0,0:0:0:70:snare.wav
475,192,173332,1,0,0:0:0:0:
36,192,173511,1,0,0:0:0:0:
182,192,173511,1,0,0:0:0:0:
256,192,173689,1,0,0:0:0:70:drum.wav
329,192,173689,1,0,0:0:0:70:bell.wav
475,192,173689,1,0,0:0:0:0:
36,192,173868,1,0,0:0:0:0:
109,192,173868,1,0,0:0:0:0:
329,192,173957,1,0,0:0:0:0:
109,192,174046,1,0,0:0:0:70:bell.wav
256,192,174046,1,0,0:0:0:70:snare.wav
475,192,174046,1,0,0:0:0:0:
402,192,174136,1,0,0:0:0:0:
36,192,174225,1,0,0:0:0:0:
182,192,174225,1,0,0:0:0:0:
329,192,174314,1,0,0:0:0:0:
109,192,174404,1,0,0:0:0:70:drum.wav
256,192,174404,1,0,0:0:0:70:bell.wav
475,192,174404,1,0,0:0:0:0:
182,192,174582,1,0,0:0:0:0:
329,192,174582,1,0,0:0:0:0:
36,192,174671,1,0,0:0:0:0:
256,192,174671,1,0,0:0:0:0:
109,192,174761,1,0,0:0:0:70:bell.wav
182,192,174761,1,0,0:0:0:70:snare.wav
475,192,174761,1,0,0:0:0:0:
182,192,174939,1,0,0:0:0:0:
256,192,174939,1,0,0:0:0:0:
36,192,175118,1,0,0:0:0:70:drum.wav
329,192,175118,1,0,0:0:0:70:bell.wav
475,192,175118,1,0,0:0:0:0:
182,192,175296,1,0,0:0:0:0:
256,192,175296,1,0,0:0:0:0:
109,192,175386,1,0,0:0:0:0:
36,192,175475,1,0,0:0:0:70:bell.wav
329,192,175475,1,0,0:0:0:70:snare.wav
475,192,175475,1,0,0:0:0:0:
182,192,175564,1,0,0:0:0:0:
109,192,175654,1,0,0:0:0:0:
256,192,175654,1,0,0:0:0:0:
329,192,175743,1,0,0:0:0:0:
36,192,175832,1,0,0:0:0:70:drum.wav
402,192,175832,1,0,0:0:0:70:bell.wav
475,192,175832,1,0,0:0:0:0:
182,192,176011,1,0,0:0:0:0:
329,192,176011,1,0,0:0:0:0:
36,192,176189,1,0,0:0:0:70:bell.wav
256,192,176189,1,0,0:0:0:70:snare.wav
475,192,176189,1,0,0:0:0:0:
182,192,176368,1,0,0:0:0:0:
402,192,176368,1,0,0:0:0:0:
36,192,176546,1,0,0:0:0:70:drum.wav
256,192,176546,1,0,0:0:0:70:bell.wav
329,192,176546,1,0,0:0:0:0:
402,192,176725,1,0,0:0:0:0:
475,192,176725,1,0,0:0:0:0:
182,192,176814,1,0,0:0:0:0:
256,192,176814,1,0,0:0:0:0:
36,192,176904,1,0,0:0:0:70:bell.wav
402,192,176904,1,0,0:0:0:70:snare.wav
475,192,176904,1,0,0:0:0:0:
182,192,176993,1,0,0:0:0:0:
329,192,177082,1,0,0:0:0:0:
402,192,177082,1,0,0:0:0:0:
182,192,177171,1,0,0:0:0:0:
36,192,177261,1,0,0:0:0:70:drum.wav
256,192,177261,1,0,0:0:0:70:bell.wav
475,192,177261,1,0,0:0:0:0:
182,192,177439,1,0,0:0:0:0:
402,192,177439,1,0,0:0:0:0:
182,192,177529,1,0,0:0:0:0:
36,192,177618,1,0,0:0:0:70:bell.wav
256,192,177618,1,0,0:0:0:70:snare.wav
402,192,177618,1,0,0:0:0:0:
329,192,177796,1,0,0:0:0:0:
475,192,177796,1,0,0:0:0:0:
182,192,177886,1,0,0:0:0:0:
256,192,177886,1,0,0:0:0:0:
36,192,177975,1,0,0:0:0:70:drum.wav
402,192,177975,1,0,0:0:0:70:bell.wav
475,192,177975,1,0,0:0:0:0:
329,192,178154,1,0,0:0:0:0:
402,192,178154,1,0,0:0:0:0:
182,192,178243,1,0,0:0:0:0:
256,192,178243,1,0,0:0:0:0:
36,192,178332,1,0,0:0:0:70:bell.wav
402,192,178332,1,0,0:0:0:70:snare.wav
475,192,178332,1,0,0:0:0:0:
329,192,178421,1,0,0:0:0:0:
182,192,178511,1,0,0:0:0:0:
36,192,178511,1,0,0:0:0:0:
256,192,178600,1,0,0:0:0:0:
109,192,178689,1,0,0:0:0:70:bell.wav
329,192,178689,1,0,0:0:0:0:
402,192,178689,1,0,0:0:0:0:
475,192,178689,1,0,0:0:0:0:
36,192,178868,1,0,0:0:0:0:
109,192,178868,1,0,0:0:0:0:
182,192,178957,1,0,0:0:0:0:
256,192,178957,1,0,0:0:0:0:
329,192,179046,1,0,0:0:0:70:bell.wav
402,192,179046,1,0,0:0:0:0:
475,192,179046,1,0,0:0:0:0:
36,192,179225,1,0,0:0:0:0:
109,192,179225,1,0,0:0:0:0:
182,192,179225,1,0,0:0:0:0:
36,192,179404,1,0,0:0:0:70:bell.wav
182,192,179404,1,0,0:0:0:0:
329,192,179404,1,0,0:0:0:0:
475,192,179404,1,0,0:0:0:0:
402,192,179582,1,0,0:0:0:0:
475,192,179582,1,0,0:0:0:0:
256,192,179671,1,0,0:0:0:0:
329,192,179671,1,0,0:0:0:0:
36,192,179761,1,0,0:0:0:70:bell.wav
109,192,179761,1,0,0:0:0:0:
182,192,179761,1,0,0:0:0:0:
402,192,179850,1,0,0:0:0:0:
475,192,179850,1,0,0:0:0:0:
256,192,179939,1,0,0:0:0:0:
109,192,179939,1,0,0:0:0:0:
36,192,179939,1,0,0:0:0:0:
329,192,180029,1,0,0:0:0:0:
402,192,180029,1,0,0:0:0:0:
36,192,180118,1,0,0:0:0:70:bell.wav
109,192,180118,1,0,0:0:0:0:
182,192,180118,1,0,0:0:0:0:
475,192,180118,1,0,0:0:0:0:
329,192,180296,1,0,0:0:0:0:
402,192,180296,1,0,0:0:0:0:
109,192,180386,1,0,0:0:0:0:
182,192,180386,1,0,0:0:0:0:
329,192,180475,1,0,0:0:0:70:bell.wav
402,192,180475,1,0,0:0:0:0:
475,192,180475,1,0,0:0:0:0:
36,192,180654,1,0,0:0:0:0:
109,192,180654,1,0,0:0:0:0:
182,192,180654,1,0,0:0:0:0:
36,192,180832,1,0,0:0:0:70:bell.wav
182,192,180832,1,0,0:0:0:0:
256,192,180832,1,0,0:0:0:0:
329,192,180832,1,0,0:0:0:0:
475,192,180832,1,0,0:0:0:0:
109,192,181011,1,0,0:0:0:0:
402,192,181011,1,0,0:0:0:0:
329,192,181070,1,0,0:0:0:0:
182,192,181070,1,0,0:0:0:0:
256,192,181130,1,0,0:0:0:0:
36,192,181189,1,0,0:0:0:70:finish.wav
109,192,181189,1,0,0:0:0:70:bell.wav
182,192,181189,1,0,0:0:0:0:
402,192,181189,1,0,0:0:0:0:
475,192,181189,1,0,0:0:0:0:
329,192,181189,1,0,0:0:0:0:
