osu file format v14

[General]
AudioFilename: audio.mp3
AudioLeadIn: 0
PreviewTime: 46904
Countdown: 0
SampleSet: Soft
StackLeniency: 0.7
Mode: 3
LetterboxInBreaks: 0
SpecialStyle: 0
WidescreenStoryboard: 1

[Editor]
Bookmarks: 98679,158679,178679
DistanceSpacing: 0.7
BeatDivisor: 4
GridSize: 32
TimelineZoom: 1.4

[Metadata]
Title:Merry Snowy Fantasy feat. Hanon
TitleUnicode:Merry Snowy Fantasy feat. Hanon
Artist:mustie=DC
ArtistUnicode:mustie=DC
Creator:Murumoo
Version:Rem's White Insane
Source:
Tags:remuring qodtjr electronic japanese xmas christmas マスティ はのん A FUTURE MEOWS
BeatmapID:2286438
BeatmapSetID:1055617

[Difficulty]
HPDrainRate:8
CircleSize:7
OverallDifficulty:8
ApproachRate:5
SliderMultiplier:1.4
SliderTickRate:1

[Events]
//Background and Video events
0,0,"bg.jpg",0,0
//Break Periods
//Storyboard Layer 0 (Background)
//Storyboard Layer 1 (Fail)
//Storyboard Layer 2 (Pass)
//Storyboard Layer 3 (Foreground)
//Storyboard Layer 4 (Overlay)
//Storyboard Sound Samples

[TimingPoints]
1547,357.142857142857,4,2,1,20,1,0
72975,-100,4,2,1,20,0,1
98689,-100,4,2,1,20,0,0
158689,-100,4,2,1,20,0,1
170118,-100,4,2,1,20,0,0

[HitObjects]
36,192,1547,5,0,0:0:0:70:finish.wav
256,192,1547,1,0,0:0:0:0:
402,192,1547,128,0,1636:0:0:0:0:
475,192,1547,1,0,0:0:0:0:
182,192,1725,128,0,1814:0:0:0:0:
36,192,1904,1,0,0:0:0:0:
329,192,1904,128,0,1993:0:0:0:0:
109,192,2082,128,0,2172:0:0:0:0:
36,192,2261,1,0,0:0:0:0:
402,192,2261,128,0,2350:0:0:0:0:
182,192,2439,128,0,2529:0:0:0:0:
36,192,2618,1,0,0:0:0:0:
329,192,2618,128,0,2707:0:0:0:0:
109,192,2796,128,0,2886:0:0:0:0:
36,192,2975,128,0,3064:0:0:0:0:
475,192,2975,1,0,0:0:0:0:
256,192,3154,128,0,3243:0:0:0:0:
109,192,3332,128,0,3421:0:0:0:0:
475,192,3332,1,0,0:0:0:0:
329,192,3511,128,0,3600:0:0:0:0:
36,192,3689,128,0,3779:0:0:0:0:
475,192,3689,1,0,0:0:0:0:
256,192,3868,128,0,3957:0:0:0:0:
109,192,4046,128,0,4136:0:0:0:0:
475,192,4046,1,0,0:0:0:0:
329,192,4225,128,0,4314:0:0:0:0:
36,192,4404,1,0,0:0:0:0:
402,192,4404,128,0,4493:0:0:0:0:
182,192,4582,128,0,4671:0:0:0:0:
36,192,4761,1,0,0:0:0:0:
329,192,4761,128,0,4850:0:0:0:0:
109,192,4939,128,0,5029:0:0:0:0:
36,192,5118,1,0,0:0:0:0:
402,192,5118,128,0,5207:0:0:0:0:
182,192,5296,128,0,5386:0:0:0:0:
36,192,5475,1,0,0:0:0:0:
329,192,5475,128,0,5564:0:0:0:0:
109,192,5654,128,0,5743:0:0:0:0:
36,192,5832,128,0,5921:0:0:0:0:
475,192,5832,1,0,0:0:0:0:
256,192,6011,128,0,6100:0:0:0:0:
109,192,6189,128,0,6279:0:0:0:0:
475,192,6189,1,0,0:0:0:0:
329,192,6368,128,0,6457:0:0:0:0:
36,192,6546,128,0,6636:0:0:0:0:
475,192,6546,1,0,0:0:0:0:
256,192,6725,128,0,6814:0:0:0:0:
109,192,6904,128,0,6993:0:0:0:0:
475,192,6904,1,0,0:0:0:0:
329,192,7082,128,0,7171:0:0:0:0:
36,192,7261,128,0,7350:0:0:0:70:drum.wav
182,192,7261,1,0,0:0:0:0:
402,192,7439,128,0,7529:0:0:0:0:
36,192,7618,1,0,0:0:0:70:drum.wav
182,192,7618,128,0,7707:0:0:0:0:
329,192,7796,128,0,7886:0:0:0:0:
36,192,7975,128,0,8064:0:0:0:70:drum.wav
182,192,7975,1,0,0:0:0:0:
475,192,8154,128,0,8243:0:0:0:0:
36,192,8332,1,0,0:0:0:70:drum.wav
182,192,8332,128,0,8421:0:0:0:0:
402,192,8511,128,0,8600:0:0:0:0:
329,192,8689,1,0,0:0:0:70:drum.wav
475,192,8689,128,0,8779:0:0:0:0:
109,192,8868,128,0,8957:0:0:0:0:
329,192,9046,128,0,9136:0:0:0:70:drum.wav
475,192,9046,1,0,0:0:0:0:
182,192,9225,128,0,9314:0:0:0:0:
329,192,9404,1,0,0:0:0:70:drum.wav
475,192,9404,128,0,9493:0:0:0:0:
36,192,9582,128,0,9671:0:0:0:0:
329,192,9761,128,0,9850:0:0:0:70:drum.wav
475,192,9761,1,0,0:0:0:0:
109,192,9939,128,0,10029:0:0:0:0:
36,192,10118,128,0,10207:0:0:0:70:drum.wav
182,192,10118,1,0,0:0:0:0:
402,192,10296,128,0,10386:0:0:0:0:
36,192,10475,1,0,0:0:0:70:drum.wav
182,192,10475,128,0,10564:0:0:0:0:
329,192,10654,128,0,10743:0:0:0:0:
36,192,10832,128,0,10921:0:0:0:70:drum.wav
182,192,10832,1,0,0:0:0:0:
475,192,11011,128,0,11100:0:0:0:0:
36,192,11189,1,0,0:0:0:70:drum.wav
182,192,11189,128,0,11279:0:0:0:0:
402,192,11368,128,0,11457:0:0:0:0:
36,192,11546,128,0,12618:0:0:0:70:drum.wav
256,192,11546,128,0,11636:0:0:0:0:
475,192,11546,128,0,12618:0:0:0:0:
182,192,11725,128,0,11814:0:0:0:0:
329,192,11904,128,0,11993:0:0:0:0:
256,192,12082,128,0,12171:0:0:0:0:
182,192,12261,128,0,12350:0:0:0:0:
329,192,12439,128,0,12529:0:0:0:0:
109,192,12618,1,0,0:0:0:50:Clap.wav
256,192,12618,128,0,12707:0:0:0:0:
402,192,12618,1,0,0:0:0:0:
182,192,12796,128,0,12886:0:0:0:0:
36,192,12975,128,0,13064:0:0:0:70:drum.wav
182,192,12975,1,0,0:0:0:70:finish.wav
329,192,12975,1,0,0:0:0:0:
475,192,12975,1,0,0:0:0:0:
109,192,13154,128,0,13243:0:0:0:0:
36,192,13332,128,0,13421:0:0:0:70:drum.wav
329,192,13332,1,0,0:0:0:0:
475,192,13332,1,0,0:0:0:0:
182,192,13511,128,0,13600:0:0:0:0:
109,192,13689,128,0,13779:0:0:0:70:drum.wav
329,192,13689,1,0,0:0:0:0:
475,192,13689,1,0,0:0:0:0:
256,192,13868,128,0,13957:0:0:0:0:
402,192,13957,1,0,0:0:0:0:
182,192,14046,128,0,14136:0:0:0:70:drum.wav
329,192,14046,1,0,0:0:0:0:
475,192,14046,1,0,0:0:0:0:
109,192,14225,128,0,14314:0:0:0:0:
36,192,14404,1,0,0:0:0:70:drum.wav
182,192,14404,1,0,0:0:0:0:
475,192,14404,128,0,14493:0:0:0:0:
402,192,14582,128,0,14671:0:0:0:0:
36,192,14761,1,0,0:0:0:70:drum.wav
182,192,14761,1,0,0:0:0:0:
475,192,14761,128,0,14850:0:0:0:0:
329,192,14939,128,0,15029:0:0:0:0:
36,192,15118,1,0,0:0:0:70:drum.wav
182,192,15118,1,0,0:0:0:0:
402,192,15118,128,0,15207:0:0:0:0:
256,192,15296,128,0,15386:0:0:0:0:
109,192,15386,1,0,0:0:0:0:
36,192,15475,1,0,0:0:0:70:drum.wav
182,192,15475,1,0,0:0:0:0:
329,192,15475,128,0,15564:0:0:0:0:
402,192,15654,128,0,15743:0:0:0:0:
36,192,15832,128,0,15921:0:0:0:70:drum.wav
256,192,15832,1,0,0:0:0:0:
475,192,15832,1,0,0:0:0:0:
182,192,16011,128,0,16100:0:0:0:0:
36,192,16189,1,0,0:0:0:70:drum.wav
182,192,16189,1,0,0:0:0:0:
329,192,16189,128,0,16279:0:0:0:0:
475,192,16368,128,0,16457:0:0:0:0:
109,192,16546,128,0,16636:0:0:0:70:drum.wav
329,192,16546,1,0,0:0:0:0:
475,192,16546,1,0,0:0:0:0:
256,192,16725,128,0,16814:0:0:0:0:
402,192,16814,1,0,0:0:0:0:
109,192,16904,128,0,16993:0:0:0:70:drum.wav
329,192,16904,1,0,0:0:0:0:
475,192,16904,1,0,0:0:0:0:
329,192,17082,128,0,17171:0:0:0:0:
36,192,17261,128,0,17350:0:0:0:70:drum.wav
256,192,17261,1,0,0:0:0:0:
475,192,17261,1,0,0:0:0:0:
182,192,17439,128,0,17529:0:0:0:0:
109,192,17618,128,0,17707:0:0:0:70:drum.wav
329,192,17618,1,0,0:0:0:0:
475,192,17618,1,0,0:0:0:0:
256,192,17796,128,0,17886:0:0:0:0:
36,192,17975,1,0,0:0:0:70:drum.wav
182,192,17975,1,0,0:0:0:0:
402,192,17975,128,0,18064:0:0:0:0:
329,192,18154,128,0,18243:0:0:0:0:
109,192,18243,1,0,0:0:0:0:
36,192,18332,1,0,0:0:0:70:drum.wav
182,192,18332,1,0,0:0:0:0:
475,192,18332,128,0,18421:0:0:0:0:
256,192,18511,128,0,18600:0:0:0:0:
36,192,18689,128,0,18779:0:0:0:70:drum.wav
329,192,18689,1,0,0:0:0:0:
475,192,18689,1,0,0:0:0:0:
109,192,18868,128,0,18957:0:0:0:0:
36,192,19046,128,0,19136:0:0:0:70:drum.wav
329,192,19046,1,0,0:0:0:0:
475,192,19046,1,0,0:0:0:0:
182,192,19225,128,0,19314:0:0:0:0:
109,192,19404,128,0,19493:0:0:0:70:drum.wav
329,192,19404,1,0,0:0:0:0:
475,192,19404,1,0,0:0:0:0:
256,192,19582,128,0,19671:0:0:0:0:
402,192,19671,1,0,0:0:0:0:
182,192,19761,128,0,19850:0:0:0:70:drum.wav
329,192,19761,1,0,0:0:0:0:
475,192,19761,1,0,0:0:0:0:
109,192,19939,128,0,20029:0:0:0:0:
36,192,20118,1,0,0:0:0:70:drum.wav
256,192,20118,1,0,0:0:0:0:
475,192,20118,128,0,20207:0:0:0:0:
329,192,20296,128,0,20386:0:0:0:0:
182,192,20475,128,0,20564:0:0:0:70:drum.wav
329,192,20475,1,0,0:0:0:0:
475,192,20475,1,0,0:0:0:0:
36,192,20654,128,0,20743:0:0:0:0:
36,192,20832,1,0,0:0:0:70:drum.wav
182,192,20832,1,0,0:0:0:0:
402,192,20832,128,0,20921:0:0:0:0:
256,192,21011,128,0,21100:0:0:0:0:
109,192,21100,1,0,0:0:0:0:
36,192,21189,1,0,0:0:0:70:drum.wav
182,192,21189,1,0,0:0:0:0:
402,192,21189,128,0,21279:0:0:0:0:
182,192,21368,128,0,21457:0:0:0:0:
36,192,21546,128,0,21636:0:0:0:70:drum.wav
256,192,21546,1,0,0:0:0:0:
475,192,21546,1,0,0:0:0:0:
329,192,21725,128,0,21814:0:0:0:0:
36,192,21904,1,0,0:0:0:70:drum.wav
182,192,21904,128,0,21993:0:0:0:0:
402,192,21904,1,0,0:0:0:0:
475,192,22082,128,0,22171:0:0:0:0:
109,192,22261,128,0,22350:0:0:0:70:drum.wav
256,192,22261,1,0,0:0:0:0:
402,192,22261,1,0,0:0:0:0:
182,192,22439,128,0,22529:0:0:0:0:
402,192,22529,1,0,0:0:0:0:
36,192,22618,128,0,22707:0:0:0:70:drum.wav
329,192,22618,1,0,0:0:0:0:
475,192,22618,1,0,0:0:0:0:
256,192,22796,128,0,22886:0:0:0:0:
36,192,22975,128,0,23689:0:0:0:70:drum.wav
109,192,22975,128,0,23064:0:0:0:70:finish.wav
402,192,22975,128,0,23064:0:0:0:0:
475,192,22975,128,0,23689:0:0:0:0:
182,192,23154,128,0,23243:0:0:0:0:
109,192,23332,128,0,23421:0:0:0:70:drum.wav
256,192,23332,1,0,0:0:0:0:
402,192,23332,128,0,23421:0:0:0:0:
329,192,23511,128,0,23600:0:0:0:0:
109,192,23689,128,0,23779:0:0:0:70:drum.wav
256,192,23689,1,0,0:0:0:0:
402,192,23689,128,0,23779:0:0:0:0:
182,192,23868,1,0,0:0:0:0:
329,192,23868,1,0,0:0:0:0:
109,192,23957,1,0,0:0:0:0:
402,192,23957,1,0,0:0:0:0:
36,192,24046,128,0,24136:0:0:0:70:drum.wav
256,192,24046,1,0,0:0:0:0:
475,192,24046,128,0,24136:0:0:0:0:
36,192,24404,1,0,0:0:0:70:drum.wav
182,192,24404,1,0,0:0:0:70:finish.wav
329,192,24404,1,0,0:0:0:0:
475,192,24404,128,0,24582:0:0:0:0:
329,192,24582,1,0,0:0:0:0:
109,192,24761,1,0,0:0:0:70:snare.wav
256,192,24761,1,0,0:0:0:0:
402,192,24761,128,0,24939:0:0:0:0:
256,192,24939,1,0,0:0:0:0:
36,192,25118,1,0,0:0:0:70:drum.wav
182,192,25118,1,0,0:0:0:0:
329,192,25118,128,0,25296:0:0:0:0:
182,192,25296,1,0,0:0:0:0:
109,192,25475,1,0,0:0:0:70:snare.wav
256,192,25475,128,0,25832:0:0:0:0:
402,192,25475,1,0,0:0:0:0:
109,192,25654,1,0,0:0:0:0:
402,192,25654,128,0,25832:0:0:0:0:
36,192,25832,128,0,26189:0:0:0:70:drum.wav
329,192,25832,1,0,0:0:0:0:
475,192,25832,1,0,0:0:0:0:
182,192,26011,128,0,26189:0:0:0:0:
329,192,26011,1,0,0:0:0:0:
109,192,26189,128,0,26546:0:0:0:70:snare.wav
402,192,26189,1,0,0:0:0:0:
475,192,26189,1,0,0:0:0:0:
256,192,26368,128,0,26546:0:0:0:0:
402,192,26368,1,0,0:0:0:0:
36,192,26546,128,0,26904:0:0:0:70:drum.wav
182,192,26546,1,0,0:0:0:0:
475,192,26546,1,0,0:0:0:0:
256,192,26725,1,0,0:0:0:70:snare.wav
329,192,26725,1,0,0:0:0:0:
109,192,26814,1,0,0:0:0:0:
329,192,26904,1,0,0:0:0:70:drum.wav
402,192,26904,1,0,0:0:0:0:
182,192,26993,1,0,0:0:0:0:
402,192,27082,1,0,0:0:0:70:snare.wav
475,192,27082,1,0,0:0:0:0:
256,192,27171,1,0,0:0:0:0:
36,192,27261,128,0,27439:0:0:0:70:drum.wav
182,192,27261,1,0,0:0:0:70:finish.wav
402,192,27261,1,0,0:0:0:0:
475,192,27261,1,0,0:0:0:0:
182,192,27439,1,0,0:0:0:0:
109,192,27618,128,0,27796:0:0:0:70:snare.wav
256,192,27618,1,0,0:0:0:0:
402,192,27618,1,0,0:0:0:0:
256,192,27796,1,0,0:0:0:0:
182,192,27975,128,0,28154:0:0:0:70:drum.wav
329,192,27975,1,0,0:0:0:0:
475,192,27975,1,0,0:0:0:0:
329,192,28154,1,0,0:0:0:0:
109,192,28332,1,0,0:0:0:70:snare.wav
256,192,28332,128,0,28689:0:0:0:0:
402,192,28332,1,0,0:0:0:0:
109,192,28511,128,0,28689:0:0:0:0:
402,192,28511,1,0,0:0:0:0:
36,192,28689,1,0,0:0:0:70:drum.wav
182,192,28689,1,0,0:0:0:0:
475,192,28689,128,0,29046:0:0:0:0:
182,192,28868,1,0,0:0:0:0:
329,192,28868,128,0,29046:0:0:0:0:
109,192,29046,1,0,0:0:0:70:snare.wav
256,192,29046,1,0,0:0:0:0:
402,192,29046,128,0,29404:0:0:0:0:
109,192,29225,1,0,0:0:0:0:
36,192,29404,1,0,0:0:0:70:drum.wav
329,192,29404,1,0,0:0:0:0:
475,192,29404,128,0,29761:0:0:0:0:
182,192,29582,1,0,0:0:0:70:snare.wav
256,192,29582,1,0,0:0:0:0:
402,192,29671,1,0,0:0:0:0:
109,192,29761,1,0,0:0:0:70:drum.wav
182,192,29761,1,0,0:0:0:0:
329,192,29850,1,0,0:0:0:0:
36,192,29939,1,0,0:0:0:70:snare.wav
109,192,29939,1,0,0:0:0:0:
256,192,30029,1,0,0:0:0:0:
36,192,30118,128,0,30296:0:0:0:70:drum.wav
182,192,30118,1,0,0:0:0:70:finish.wav
402,192,30118,1,0,0:0:0:0:
475,192,30118,1,0,0:0:0:0:
402,192,30296,1,0,0:0:0:0:
36,192,30475,1,0,0:0:0:70:snare.wav
182,192,30475,128,0,30654:0:0:0:0:
329,192,30475,1,0,0:0:0:0:
329,192,30654,1,0,0:0:0:0:
109,192,30832,128,0,31011:0:0:0:70:drum.wav
256,192,30832,1,0,0:0:0:0:
402,192,30832,1,0,0:0:0:0:
256,192,31011,1,0,0:0:0:0:
182,192,31189,128,0,31546:0:0:0:70:snare.wav
329,192,31189,1,0,0:0:0:0:
475,192,31189,1,0,0:0:0:0:
256,192,31368,128,0,31546:0:0:0:0:
329,192,31368,1,0,0:0:0:0:
36,192,31546,1,0,0:0:0:70:drum.wav
109,192,31546,1,0,0:0:0:0:
475,192,31546,128,0,31904:0:0:0:0:
109,192,31725,1,0,0:0:0:0:
402,192,31725,128,0,31904:0:0:0:0:
36,192,31904,1,0,0:0:0:70:snare.wav
182,192,31904,1,0,0:0:0:0:
329,192,31904,128,0,32261:0:0:0:0:
182,192,32082,1,0,0:0:0:0:
256,192,32082,128,0,32261:0:0:0:0:
36,192,32261,128,0,32618:0:0:0:70:drum.wav
402,192,32261,1,0,0:0:0:0:
475,192,32261,1,0,0:0:0:0:
109,192,32439,128,0,32618:0:0:0:0:
402,192,32439,1,0,0:0:0:0:
182,192,32618,128,0,32975:0:0:0:70:snare.wav
329,192,32618,1,0,0:0:0:0:
475,192,32618,1,0,0:0:0:0:
256,192,32796,128,0,32975:0:0:0:0:
329,192,32796,1,0,0:0:0:0:
36,192,32975,1,0,0:0:0:70:drum.wav
109,192,32975,1,0,0:0:0:70:finish.wav
402,192,32975,1,0,0:0:0:0:
475,192,32975,128,0,33689:0:0:0:0:
256,192,33154,1,0,0:0:0:0:
36,192,33332,1,0,0:0:0:70:snare.wav
182,192,33332,1,0,0:0:0:0:
329,192,33511,1,0,0:0:0:0:
109,192,33689,1,0,0:0:0:70:drum.wav
256,192,33689,1,0,0:0:0:0:
402,192,33868,1,0,0:0:0:0:
36,192,34046,128,0,34404:0:0:0:70:snare.wav
182,192,34046,1,0,0:0:0:0:
329,192,34046,1,0,0:0:0:0:
475,192,34225,1,0,0:0:0:0:
109,192,34404,128,0,34761:0:0:0:70:drum.wav
256,192,34404,1,0,0:0:0:0:
402,192,34404,1,0,0:0:0:0:
475,192,34582,1,0,0:0:0:0:
36,192,34761,1,0,0:0:0:70:snare.wav
182,192,34761,128,0,35118:0:0:0:0:
329,192,34761,1,0,0:0:0:0:
402,192,34939,1,0,0:0:0:0:
36,192,35118,128,0,35475:0:0:0:70:drum.wav
256,192,35118,1,0,0:0:0:0:
475,192,35118,1,0,0:0:0:0:
329,192,35296,1,0,0:0:0:0:
182,192,35475,128,0,36189:0:0:0:70:snare.wav
402,192,35475,1,0,0:0:0:0:
475,192,35475,1,0,0:0:0:0:
256,192,35654,1,0,0:0:0:0:
109,192,35832,128,0,36189:0:0:0:70:drum.wav
329,192,35832,1,0,0:0:0:0:
475,192,35832,1,0,0:0:0:0:
402,192,36011,1,0,0:0:0:0:
36,192,36189,1,0,0:0:0:70:snare.wav
256,192,36189,1,0,0:0:0:0:
475,192,36189,1,0,0:0:0:0:
109,192,36368,1,0,0:0:0:0:
402,192,36368,128,0,37886:0:0:0:0:
36,192,36546,1,0,0:0:0:70:drum.wav
182,192,36546,1,0,0:0:0:0:
475,192,36546,128,0,37886:0:0:0:0:
256,192,36725,1,0,0:0:0:0:
36,192,36904,1,0,0:0:0:70:snare.wav
109,192,36904,1,0,0:0:0:0:
182,192,37082,1,0,0:0:0:0:
36,192,37261,1,0,0:0:0:70:drum.wav
256,192,37261,1,0,0:0:0:0:
109,192,37439,1,0,0:0:0:0:
182,192,37618,1,0,0:0:0:70:snare.wav
329,192,37618,1,0,0:0:0:0:
109,192,37796,1,0,0:0:0:0:
36,192,37975,1,0,0:0:0:70:drum.wav
256,192,37975,1,0,0:0:0:0:
475,192,37975,1,0,0:0:0:0:
402,192,38154,1,0,0:0:0:0:
36,192,38332,1,0,0:0:0:70:snare.wav
182,192,38332,1,0,0:0:0:0:
329,192,38332,1,0,0:0:0:0:
329,192,38511,1,0,0:0:0:0:
36,192,38689,1,0,0:0:0:70:drum.wav
256,192,38689,1,0,0:0:0:70:finish.wav
402,192,38689,1,0,0:0:0:0:
475,192,38689,1,0,0:0:0:0:
256,192,38868,1,0,0:0:0:0:
256,192,39046,1,0,0:0:0:70:bell.wav
256,192,39225,1,0,0:0:0:0:
402,192,39404,1,0,0:0:0:70:bell.wav
402,192,39582,1,0,0:0:0:0:
402,192,39761,1,0,0:0:0:70:bell.wav
402,192,39939,1,0,0:0:0:0:
109,192,40118,1,0,0:0:0:70:bell.wav
109,192,40296,1,0,0:0:0:0:
109,192,40475,1,0,0:0:0:70:bell.wav
109,192,40654,1,0,0:0:0:0:
256,192,40832,1,0,0:0:0:70:bell.wav
256,192,41011,1,0,0:0:0:0:
256,192,41189,1,0,0:0:0:70:bell.wav
256,192,41368,1,0,0:0:0:0:
402,192,41546,1,0,0:0:0:70:bell.wav
402,192,41725,1,0,0:0:0:0:
402,192,41904,1,0,0:0:0:70:bell.wav
402,192,42082,1,0,0:0:0:0:
182,192,42261,1,0,0:0:0:70:bell.wav
182,192,42439,1,0,0:0:0:0:
182,192,42618,1,0,0:0:0:70:bell.wav
182,192,42796,1,0,0:0:0:0:
329,192,42975,1,0,0:0:0:70:bell.wav
329,192,43154,1,0,0:0:0:0:
329,192,43332,1,0,0:0:0:70:bell.wav
329,192,43511,1,0,0:0:0:0:
109,192,43689,1,0,0:0:0:70:bell.wav
109,192,43868,1,0,0:0:0:0:
109,192,44046,1,0,0:0:0:70:bell.wav
109,192,44225,1,0,0:0:0:0:
256,192,44404,1,0,0:0:0:70:bell.wav
256,192,44582,1,0,0:0:0:0:
256,192,44761,1,0,0:0:0:70:bell.wav
256,192,44939,1,0,0:0:0:0:
402,192,45118,1,0,0:0:0:70:bell.wav
402,192,45296,1,0,0:0:0:0:
402,192,45475,1,0,0:0:0:70:bell.wav
402,192,45654,1,0,0:0:0:0:
109,192,45832,1,0,0:0:0:70:bell.wav
109,192,46011,1,0,0:0:0:0:
109,192,46189,1,0,0:0:0:70:bell.wav
109,192,46368,1,0,0:0:0:0:
256,192,46546,1,0,0:0:0:70:bell.wav
256,192,46725,1,0,0:0:0:0:
256,192,46904,1,0,0:0:0:70:bell.wav
256,192,47082,1,0,0:0:0:0:
36,192,47261,1,0,0:0:0:70:bell.wav
36,192,47439,1,0,0:0:0:0:
36,192,47618,1,0,0:0:0:70:bell.wav
36,192,47796,1,0,0:0:0:0:
256,192,47975,1,0,0:0:0:70:bell.wav
256,192,48154,1,0,0:0:0:0:
256,192,48332,1,0,0:0:0:70:bell.wav
256,192,48511,1,0,0:0:0:0:
475,192,48689,1,0,0:0:0:70:bell.wav
475,192,48868,1,0,0:0:0:0:
475,192,49046,1,0,0:0:0:70:bell.wav
475,192,49225,1,0,0:0:0:0:
109,192,49404,1,0,0:0:0:70:bell.wav
109,192,49582,1,0,0:0:0:0:
109,192,49761,128,0,49939:0:0:0:70:bell.wav
182,192,49850,128,0,50029:0:0:0:0:
256,192,49939,128,0,50118:0:0:0:0:
329,192,50029,128,0,50207:0:0:0:0:
36,192,50118,128,0,50386:0:0:0:70:finish.wav
182,192,50118,1,0,0:0:0:70:snare.wav
402,192,50118,1,0,0:0:0:0:
475,192,50118,1,0,0:0:0:0:
109,192,50296,128,0,50386:0:0:0:0:
329,192,50296,1,0,0:0:0:0:
36,192,50475,1,0,0:0:0:70:snare.wav
256,192,50475,128,0,50743:0:0:0:0:
475,192,50475,1,0,0:0:0:0:
109,192,50654,1,0,0:0:0:0:
329,192,50654,128,0,50743:0:0:0:0:
36,192,50832,128,0,51011:0:0:0:70:snare.wav
256,192,50832,1,0,0:0:0:0:
475,192,50832,1,0,0:0:0:0:
182,192,51011,128,0,51100:0:0:0:0:
329,192,51011,1,0,0:0:0:0:
109,192,51100,128,0,51189:0:0:0:0:
402,192,51189,1,0,0:0:0:0:
475,192,51189,1,0,0:0:0:0:
256,192,51189,128,0,51279:0:0:0:70:snare.wav
329,192,51368,1,0,0:0:0:0:
182,192,51368,128,0,51457:0:0:0:0:
36,192,51546,1,0,0:0:0:70:snare.wav
256,192,51546,128,0,51636:0:0:0:0:
475,192,51546,1,0,0:0:0:0:
182,192,51725,1,0,0:0:0:0:
402,192,51725,128,0,51814:0:0:0:0:
329,192,51814,128,0,51904:0:0:0:0:
36,192,51904,1,0,0:0:0:70:snare.wav
109,192,51904,1,0,0:0:0:0:
256,192,51904,128,0,51993:0:0:0:0:
182,192,52082,1,0,0:0:0:0:
329,192,52082,128,0,52171:0:0:0:0:
36,192,52261,128,0,52439:0:0:0:70:snare.wav
256,192,52261,1,0,0:0:0:0:
475,192,52261,1,0,0:0:0:0:
109,192,52439,128,0,52529:0:0:0:0:
329,192,52439,1,0,0:0:0:0:
182,192,52529,128,0,52618:0:0:0:0:
256,192,52618,128,0,52975:0:0:0:70:snare.wav
402,192,52618,1,0,0:0:0:0:
475,192,52618,1,0,0:0:0:0:
109,192,52796,128,0,52975:0:0:0:70:drum.wav
402,192,52796,1,0,0:0:0:0:
475,192,52796,1,0,0:0:0:0:
36,192,52975,1,0,0:0:0:70:snare.wav
182,192,52975,1,0,0:0:0:0:
475,192,52975,128,0,53154:0:0:0:0:
109,192,53154,1,0,0:0:0:0:
329,192,53154,128,0,53243:0:0:0:0:
402,192,53243,128,0,53332:0:0:0:0:
36,192,53332,1,0,0:0:0:70:snare.wav
182,192,53332,1,0,0:0:0:0:
256,192,53332,128,0,53421:0:0:0:0:
109,192,53511,1,0,0:0:0:0:
329,192,53511,128,0,53600:0:0:0:0:
256,192,53689,128,0,53957:0:0:0:70:snare.wav
402,192,53689,1,0,0:0:0:0:
475,192,53689,1,0,0:0:0:0:
36,192,53868,1,0,0:0:0:0:
182,192,53868,128,0,53957:0:0:0:0:
329,192,54046,128,0,54314:0:0:0:70:snare.wav
402,192,54046,1,0,0:0:0:0:
475,192,54046,1,0,0:0:0:0:
109,192,54225,1,0,0:0:0:0:
256,192,54225,128,0,54314:0:0:0:0:
36,192,54404,128,0,54582:0:0:0:70:snare.wav
329,192,54404,1,0,0:0:0:0:
475,192,54404,1,0,0:0:0:0:
182,192,54582,128,0,54671:0:0:0:0:
402,192,54582,1,0,0:0:0:0:
109,192,54671,128,0,54761:0:0:0:0:
256,192,54761,1,0,0:0:0:70:snare.wav
329,192,54761,1,0,0:0:0:0:
475,192,54761,128,0,54850:0:0:0:0:
182,192,54939,1,0,0:0:0:0:
402,192,54939,128,0,55029:0:0:0:0:
36,192,55118,1,0,0:0:0:70:snare.wav
109,192,55118,1,0,0:0:0:0:
256,192,55118,128,0,55386:0:0:0:0:
329,192,55296,128,0,55386:0:0:0:0:
402,192,55386,1,0,0:0:0:70:snare.wav
475,192,55386,1,0,0:0:0:0:
36,192,55475,1,0,0:0:0:70:drum.wav
109,192,55475,1,0,0:0:0:0:
182,192,55475,128,0,55743:0:0:0:0:
256,192,55654,128,0,55743:0:0:0:70:snare.wav
329,192,55654,1,0,0:0:0:0:
402,192,55654,1,0,0:0:0:0:
36,192,55832,1,0,0:0:0:70:drum.wav
109,192,55832,1,0,0:0:0:0:
256,192,55832,1,0,0:0:0:0:
475,192,55832,1,0,0:0:0:0:
109,192,56011,1,0,0:0:0:70:snare.wav
329,192,56011,1,0,0:0:0:0:
109,192,56189,1,0,0:0:0:70:drum.wav
256,192,56189,1,0,0:0:0:0:
402,192,56189,1,0,0:0:0:0:
109,192,56368,1,0,0:0:0:70:snare.wav
475,192,56368,1,0,0:0:0:0:
36,192,56546,1,0,0:0:0:70:drum.wav
182,192,56546,1,0,0:0:0:0:
402,192,56546,1,0,0:0:0:0:
109,192,56725,1,0,0:0:0:70:snare.wav
402,192,56725,1,0,0:0:0:0:
182,192,56814,1,0,0:0:0:0:
36,192,56904,1,0,0:0:0:70:drum.wav
256,192,56904,1,0,0:0:0:0:
402,192,56904,1,0,0:0:0:0:
182,192,57082,1,0,0:0:0:70:snare.wav
402,192,57082,1,0,0:0:0:0:
36,192,57261,1,0,0:0:0:70:drum.wav
329,192,57261,1,0,0:0:0:0:
402,192,57261,1,0,0:0:0:0:
256,192,57350,1,0,0:0:0:70:drum.wav
182,192,57439,1,0,0:0:0:70:drum.wav
109,192,57529,1,0,0:0:0:70:drum.wav
402,192,57618,1,0,0:0:0:70:drum.wav
36,192,57618,1,0,0:0:0:0:
329,192,57707,1,0,0:0:0:70:drum.wav
256,192,57796,1,0,0:0:0:70:drum.wav
182,192,57886,1,0,0:0:0:70:drum.wav
475,192,57975,1,0,0:0:0:70:drum.wav
109,192,57975,1,0,0:0:0:0:
402,192,58064,1,0,0:0:0:70:drum.wav
329,192,58154,1,0,0:0:0:70:drum.wav
256,192,58243,1,0,0:0:0:70:drum.wav
36,192,58332,1,0,0:0:0:70:drum.wav
475,192,58332,1,0,0:0:0:0:
109,192,58421,1,0,0:0:0:70:drum.wav
182,192,58511,1,0,0:0:0:70:drum.wav
256,192,58600,1,0,0:0:0:70:drum.wav
36,192,58689,128,0,59046:0:0:0:70:bell.wav
475,192,58689,128,0,58868:0:0:0:0:
182,192,59046,128,0,59404:0:0:0:70:bell.wav
475,192,59046,128,0,59225:0:0:0:0:
36,192,59404,128,0,59582:0:0:0:70:bell.wav
475,192,59404,128,0,59582:0:0:0:0:
256,192,59582,128,0,59761:0:0:0:0:
109,192,59761,128,0,59939:0:0:0:70:bell.wav
475,192,59761,128,0,59939:0:0:0:0:
329,192,59939,128,0,60118:0:0:0:0:
36,192,60118,128,0,61189:0:0:0:0:
182,192,60118,128,0,61189:0:0:0:0:
475,192,60118,128,0,60654:0:0:0:0:
402,192,60654,128,0,60832:0:0:0:0:
329,192,60832,128,0,61189:0:0:0:0:
475,192,60832,128,0,61189:0:0:0:0:
109,192,61189,128,0,61368:0:0:0:0:
182,192,61279,128,0,61368:0:0:0:0:
402,192,61368,128,0,61546:0:0:0:0:
329,192,61457,128,0,61546:0:0:0:0:
36,192,61546,128,0,61814:0:0:0:70:drum.wav
109,192,61546,1,0,0:0:0:70:finish.wav
256,192,61546,1,0,0:0:0:0:
475,192,61546,1,0,0:0:0:0:
109,192,61725,128,0,61814:0:0:0:0:
182,192,61725,128,0,61814:0:0:0:0:
256,192,61904,128,0,61993:0:0:0:0:
329,192,61904,128,0,61993:0:0:0:0:
109,192,62082,128,0,62171:0:0:0:0:
182,192,62082,128,0,62171:0:0:0:0:
36,192,62261,1,0,0:0:0:70:snare.wav
256,192,62261,128,0,62439:0:0:0:0:
475,192,62261,1,0,0:0:0:0:
109,192,62439,128,0,62529:0:0:0:0:
402,192,62439,128,0,62529:0:0:0:0:
182,192,62529,128,0,62618:0:0:0:0:
329,192,62529,128,0,62618:0:0:0:0:
36,192,62618,128,0,62707:0:0:0:0:
256,192,62618,128,0,62707:0:0:0:0:
109,192,62796,128,0,62886:0:0:0:0:
329,192,62796,128,0,62886:0:0:0:0:
36,192,62975,1,0,0:0:0:70:drum.wav
256,192,62975,128,0,63154:0:0:0:0:
475,192,62975,1,0,0:0:0:0:
182,192,63154,128,0,63243:0:0:0:0:
329,192,63154,128,0,63243:0:0:0:0:
109,192,63243,128,0,63332:0:0:0:0:
402,192,63243,128,0,63332:0:0:0:0:
36,192,63332,128,0,63421:0:0:0:0:
475,192,63332,128,0,63421:0:0:0:0:
182,192,63511,128,0,63600:0:0:0:0:
329,192,63511,128,0,63600:0:0:0:0:
36,192,63689,1,0,0:0:0:70:snare.wav
256,192,63689,128,0,63868:0:0:0:0:
475,192,63689,1,0,0:0:0:0:
109,192,63868,128,0,63957:0:0:0:0:
402,192,63868,128,0,63957:0:0:0:0:
182,192,63957,128,0,64046:0:0:0:0:
329,192,63957,128,0,64046:0:0:0:0:
256,192,64046,128,0,64136:0:0:0:0:
475,192,64046,128,0,64136:0:0:0:0:
182,192,64225,128,0,64314:0:0:0:0:
402,192,64225,128,0,64314:0:0:0:0:
36,192,64404,1,0,0:0:0:70:drum.wav
256,192,64404,128,0,64582:0:0:0:0:
475,192,64404,1,0,0:0:0:0:
329,192,64582,128,0,64671:0:0:0:0:
475,192,64582,128,0,64671:0:0:0:0:
36,192,64671,128,0,64761:0:0:0:0:
182,192,64671,128,0,64761:0:0:0:0:
256,192,64761,128,0,64850:0:0:0:0:
402,192,64761,128,0,64850:0:0:0:0:
182,192,64939,128,0,65029:0:0:0:0:
329,192,64939,128,0,65029:0:0:0:0:
36,192,65118,128,0,65386:0:0:0:70:snare.wav
256,192,65118,1,0,0:0:0:0:
475,192,65118,1,0,0:0:0:0:
109,192,65296,128,0,65386:0:0:0:0:
182,192,65296,128,0,65386:0:0:0:0:
256,192,65475,128,0,65564:0:0:0:0:
329,192,65475,128,0,65564:0:0:0:0:
109,192,65654,128,0,65743:0:0:0:0:
182,192,65654,128,0,65743:0:0:0:0:
36,192,65832,1,0,0:0:0:70:drum.wav
256,192,65832,128,0,66011:0:0:0:0:
475,192,65832,1,0,0:0:0:0:
36,192,66011,128,0,66100:0:0:0:0:
182,192,66011,128,0,66100:0:0:0:0:
329,192,66100,128,0,66189:0:0:0:0:
475,192,66100,128,0,66189:0:0:0:0:
109,192,66189,128,0,66279:0:0:0:0:
256,192,66189,128,0,66279:0:0:0:0:
182,192,66368,128,0,66457:0:0:0:0:
329,192,66368,128,0,66457:0:0:0:0:
36,192,66546,1,0,0:0:0:70:snare.wav
256,192,66546,1,0,0:0:0:0:
475,192,66546,128,0,66814:0:0:0:0:
329,192,66725,128,0,66814:0:0:0:0:
402,192,66725,128,0,66814:0:0:0:0:
256,192,66904,128,0,66993:0:0:0:0:
329,192,66904,128,0,66993:0:0:0:0:
182,192,67082,128,0,67171:0:0:0:0:
256,192,67082,128,0,67171:0:0:0:0:
36,192,67261,128,0,67350:0:0:0:70:drum.wav
402,192,67261,128,0,67350:0:0:0:0:
475,192,67261,1,0,0:0:0:0:
109,192,67439,128,0,67529:0:0:0:0:
256,192,67439,128,0,67529:0:0:0:0:
182,192,67618,128,0,67707:0:0:0:0:
329,192,67618,128,0,67707:0:0:0:0:
36,192,67796,128,0,67886:0:0:0:0:
109,192,67796,128,0,67886:0:0:0:0:
256,192,67975,128,0,68064:0:0:0:70:snare.wav
402,192,67975,128,0,68064:0:0:0:0:
475,192,67975,1,0,0:0:0:0:
36,192,68154,128,0,68243:0:0:0:0:
109,192,68154,128,0,68243:0:0:0:0:
182,192,68243,128,0,68332:0:0:0:0:
329,192,68243,128,0,68332:0:0:0:0:
36,192,68332,128,0,68421:0:0:0:70:drum.wav
109,192,68332,128,0,68421:0:0:0:70:finish.wav
402,192,68332,1,0,0:0:0:0:
475,192,68332,128,0,69314:0:0:0:0:
256,192,68511,128,0,68600:0:0:0:0:
329,192,68511,128,0,68600:0:0:0:0:
36,192,68689,128,0,68779:0:0:0:0:
182,192,68689,128,0,68779:0:0:0:0:
109,192,68868,128,0,68957:0:0:0:0:
402,192,68868,128,0,68957:0:0:0:0:
182,192,68957,128,0,69046:0:0:0:0:
329,192,68957,128,0,69046:0:0:0:0:
36,192,69046,128,0,69136:0:0:0:70:drum.wav
256,192,69046,128,0,69136:0:0:0:0:
182,192,69225,128,0,69314:0:0:0:0:
329,192,69225,128,0,69314:0:0:0:0:
109,192,69314,128,0,69404:0:0:0:0:
402,192,69314,128,0,69404:0:0:0:0:
36,192,69404,128,0,69493:0:0:0:70:snare.wav
256,192,69404,128,0,69493:0:0:0:0:
475,192,69404,1,0,0:0:0:0:
182,192,69582,128,0,69671:0:0:0:0:
329,192,69582,128,0,69671:0:0:0:0:
36,192,69671,128,0,69761:0:0:0:0:
109,192,69761,128,0,69850:0:0:0:70:snare.wav
256,192,69761,128,0,69850:0:0:0:0:
475,192,69761,1,0,0:0:0:0:
182,192,69939,128,0,70029:0:0:0:0:
329,192,69939,128,0,70029:0:0:0:0:
36,192,70118,128,0,70386:0:0:0:70:drum.wav
256,192,70118,1,0,0:0:0:70:finish.wav
475,192,70118,1,0,0:0:0:0:
182,192,70296,128,0,70386:0:0:0:0:
402,192,70296,128,0,70386:0:0:0:0:
256,192,70386,128,0,70475:0:0:0:0:
475,192,70386,128,0,70475:0:0:0:0:
109,192,70475,128,0,70564:0:0:0:0:
329,192,70475,128,0,70564:0:0:0:0:
109,192,70654,128,0,70743:0:0:0:0:
329,192,70654,128,0,70743:0:0:0:0:
36,192,70832,128,0,70921:0:0:0:70:snare.wav
256,192,70832,128,0,70921:0:0:0:0:
475,192,70832,1,0,0:0:0:0:
182,192,71011,128,0,71100:0:0:0:0:
402,192,71011,128,0,71100:0:0:0:0:
109,192,71189,128,0,71279:0:0:0:0:
329,192,71189,128,0,71279:0:0:0:0:
182,192,71368,128,0,71457:0:0:0:0:
402,192,71368,128,0,71457:0:0:0:0:
36,192,71546,1,0,0:0:0:70:drum.wav
109,192,71546,128,0,71814:0:0:0:0:
475,192,71546,1,0,0:0:0:0:
182,192,71725,128,0,71814:0:0:0:0:
475,192,71725,128,0,71814:0:0:0:0:
256,192,71814,128,0,71904:0:0:0:0:
402,192,71814,128,0,71904:0:0:0:0:
36,192,71904,1,0,0:0:0:70:drum.wav
109,192,71904,128,0,71993:0:0:0:0:
329,192,71904,128,0,71993:0:0:0:0:
182,192,72082,128,0,72171:0:0:0:0:
402,192,72082,128,0,72171:0:0:0:0:
36,192,72261,128,0,72350:0:0:0:70:snare.wav
256,192,72261,128,0,72350:0:0:0:0:
475,192,72261,128,0,72350:0:0:0:0:
109,192,72439,128,0,72529:0:0:0:0:
329,192,72439,128,0,72529:0:0:0:0:
475,192,72529,1,0,0:0:0:70:drum.wav
109,192,72618,128,0,72707:0:0:0:70:finish.wav
256,192,72618,128,0,72707:0:0:0:70:snare.wav
402,192,72618,1,0,0:0:0:0:
109,192,72796,128,0,72886:0:0:0:70:drum.wav
182,192,72796,128,0,72886:0:0:0:0:
329,192,72796,1,0,0:0:0:0:
36,192,72975,128,0,74046:0:0:0:70:drum.wav
109,192,72975,1,0,0:0:0:70:finish.wav
256,192,72975,1,0,0:0:0:0:
475,192,72975,1,0,0:0:0:0:
402,192,73064,1,0,0:0:0:0:
329,192,73154,1,0,0:0:0:0:
182,192,73332,1,0,0:0:0:70:drum.wav
402,192,73332,1,0,0:0:0:0:
475,192,73332,1,0,0:0:0:0:
256,192,73421,1,0,0:0:0:0:
329,192,73511,1,0,0:0:0:0:
109,192,73689,128,0,74046:0:0:0:70:snare.wav
402,192,73689,1,0,0:0:0:0:
475,192,73689,1,0,0:0:0:0:
329,192,73779,1,0,0:0:0:0:
256,192,73868,1,0,0:0:0:0:
182,192,74046,128,0,74404:0:0:0:70:drum.wav
402,192,74046,1,0,0:0:0:0:
475,192,74046,1,0,0:0:0:0:
256,192,74136,1,0,0:0:0:0:
329,192,74225,1,0,0:0:0:0:
36,192,74404,1,0,0:0:0:70:drum.wav
256,192,74404,1,0,0:0:0:0:
475,192,74404,128,0,74582:0:0:0:0:
109,192,74493,1,0,0:0:0:0:
182,192,74582,1,0,0:0:0:0:
402,192,74582,128,0,74761:0:0:0:0:
182,192,74761,1,0,0:0:0:70:drum.wav
329,192,74761,128,0,74939:0:0:0:0:
475,192,74761,1,0,0:0:0:0:
109,192,74850,1,0,0:0:0:0:
36,192,74939,1,0,0:0:0:0:
256,192,74939,128,0,75118:0:0:0:0:
36,192,75118,1,0,0:0:0:70:snare.wav
182,192,75118,1,0,0:0:0:0:
475,192,75118,128,0,75654:0:0:0:0:
256,192,75207,1,0,0:0:0:0:
329,192,75296,1,0,0:0:0:0:
36,192,75475,1,0,0:0:0:70:drum.wav
109,192,75475,1,0,0:0:0:0:
402,192,75475,1,0,0:0:0:0:
182,192,75564,1,0,0:0:0:0:
256,192,75654,1,0,0:0:0:0:
329,192,75654,128,0,75832:0:0:0:0:
36,192,75832,128,0,76011:0:0:0:70:drum.wav
182,192,75832,1,0,0:0:0:0:
475,192,75832,1,0,0:0:0:0:
402,192,75921,1,0,0:0:0:0:
109,192,76011,128,0,76189:0:0:0:0:
329,192,76011,1,0,0:0:0:0:
36,192,76189,1,0,0:0:0:70:drum.wav
182,192,76189,128,0,76368:0:0:0:0:
329,192,76189,1,0,0:0:0:0:
402,192,76279,1,0,0:0:0:0:
256,192,76368,128,0,76546:0:0:0:0:
475,192,76368,1,0,0:0:0:0:
36,192,76546,128,0,77261:0:0:0:70:snare.wav
329,192,76546,1,0,0:0:0:0:
475,192,76546,1,0,0:0:0:0:
256,192,76636,1,0,0:0:0:0:
182,192,76725,1,0,0:0:0:0:
109,192,76904,128,0,77261:0:0:0:70:drum.wav
402,192,76904,1,0,0:0:0:0:
475,192,76904,1,0,0:0:0:0:
329,192,76993,1,0,0:0:0:0:
256,192,77082,1,0,0:0:0:0:
182,192,77261,128,0,77618:0:0:0:70:drum.wav
402,192,77261,1,0,0:0:0:0:
475,192,77261,1,0,0:0:0:0:
256,192,77350,1,0,0:0:0:0:
329,192,77439,1,0,0:0:0:0:
36,192,77618,128,0,77707:0:0:0:70:drum.wav
256,192,77618,128,0,77707:0:0:0:0:
475,192,77618,1,0,0:0:0:0:
109,192,77707,128,0,77796:0:0:0:0:
329,192,77707,128,0,77796:0:0:0:0:
182,192,77796,128,0,77886:0:0:0:0:
402,192,77796,128,0,77886:0:0:0:0:
256,192,77886,128,0,77975:0:0:0:0:
475,192,77886,128,0,77975:0:0:0:0:
36,192,77975,128,0,78243:0:0:0:70:snare.wav
109,192,77975,1,0,0:0:0:0:
329,192,77975,128,0,78243:0:0:0:0:
182,192,78064,1,0,0:0:0:0:
256,192,78154,1,0,0:0:0:0:
109,192,78332,128,0,78600:0:0:0:70:drum.wav
182,192,78332,1,0,0:0:0:0:
402,192,78332,128,0,78600:0:0:0:0:
256,192,78421,1,0,0:0:0:0:
329,192,78511,1,0,0:0:0:0:
36,192,78689,1,0,0:0:0:70:drum.wav
256,192,78689,1,0,0:0:0:70:finish.wav
402,192,78689,1,0,0:0:0:0:
475,192,78689,128,0,79761:0:0:0:0:
109,192,78779,1,0,0:0:0:0:
182,192,78868,1,0,0:0:0:0:
36,192,79046,1,0,0:0:0:70:drum.wav
109,192,79046,1,0,0:0:0:0:
329,192,79046,1,0,0:0:0:0:
256,192,79136,1,0,0:0:0:0:
182,192,79225,1,0,0:0:0:0:
36,192,79404,1,0,0:0:0:70:snare.wav
109,192,79404,1,0,0:0:0:0:
402,192,79404,128,0,79761:0:0:0:0:
182,192,79493,1,0,0:0:0:0:
256,192,79582,1,0,0:0:0:0:
36,192,79761,1,0,0:0:0:70:drum.wav
109,192,79761,1,0,0:0:0:0:
329,192,79761,128,0,80118:0:0:0:0:
256,192,79850,1,0,0:0:0:0:
182,192,79939,1,0,0:0:0:0:
36,192,80118,128,0,80296:0:0:0:70:drum.wav
256,192,80118,1,0,0:0:0:0:
475,192,80118,1,0,0:0:0:0:
402,192,80207,1,0,0:0:0:0:
109,192,80296,128,0,80475:0:0:0:0:
329,192,80296,1,0,0:0:0:0:
36,192,80475,1,0,0:0:0:70:drum.wav
182,192,80475,128,0,80654:0:0:0:0:
329,192,80475,1,0,0:0:0:0:
402,192,80564,1,0,0:0:0:0:
256,192,80654,128,0,80832:0:0:0:0:
475,192,80654,1,0,0:0:0:0:
36,192,80832,128,0,81189:0:0:0:70:snare.wav
329,192,80832,1,0,0:0:0:0:
475,192,80832,1,0,0:0:0:0:
256,192,80921,1,0,0:0:0:0:
182,192,81011,1,0,0:0:0:0:
329,192,81189,128,0,81279:0:0:0:70:drum.wav
402,192,81189,1,0,0:0:0:0:
475,192,81189,1,0,0:0:0:0:
256,192,81279,128,0,81368:0:0:0:0:
182,192,81368,128,0,81457:0:0:0:0:
109,192,81457,128,0,81546:0:0:0:0:
36,192,81546,1,0,0:0:0:70:drum.wav
256,192,81546,1,0,0:0:0:70:finish.wav
402,192,81546,1,0,0:0:0:0:
475,192,81546,128,0,81904:0:0:0:0:
182,192,81725,1,0,0:0:0:0:
109,192,81904,1,0,0:0:0:70:drum.wav
329,192,81904,1,0,0:0:0:0:
402,192,81904,128,0,82261:0:0:0:0:
256,192,82082,1,0,0:0:0:0:
36,192,82261,1,0,0:0:0:70:finish.wav
182,192,82261,1,0,0:0:0:70:snare.wav
475,192,82261,128,0,82618:0:0:0:0:
182,192,82439,1,0,0:0:0:0:
329,192,82439,128,0,82618:0:0:0:0:
36,192,82618,1,0,0:0:0:70:drum.wav
109,192,82618,1,0,0:0:0:0:
402,192,82618,128,0,82975:0:0:0:0:
109,192,82796,1,0,0:0:0:0:
256,192,82796,128,0,82975:0:0:0:0:
36,192,82975,1,0,0:0:0:70:drum.wav
182,192,82975,1,0,0:0:0:70:finish.wav
475,192,82975,1,0,0:0:0:0:
109,192,83154,1,0,0:0:0:70:snare.wav
256,192,83154,1,0,0:0:0:0:
402,192,83154,1,0,0:0:0:0:
36,192,83332,1,0,0:0:0:70:drum.wav
329,192,83332,1,0,0:0:0:70:finish.wav
475,192,83332,1,0,0:0:0:0:
109,192,83689,1,0,0:0:0:70:finish.wav
256,192,83689,1,0,0:0:0:70:snare.wav
402,192,83689,1,0,0:0:0:0:
182,192,83957,1,0,0:0:0:70:drum.wav
329,192,83957,1,0,0:0:0:0:
36,192,84046,1,0,0:0:0:70:finish.wav
256,192,84046,1,0,0:0:0:70:snare.wav
475,192,84046,1,0,0:0:0:0:
109,192,84225,1,0,0:0:0:70:drum.wav
256,192,84225,1,0,0:0:0:0:
402,192,84225,1,0,0:0:0:0:
36,192,84404,128,0,84671:0:0:0:70:drum.wav
182,192,84404,1,0,0:0:0:70:finish.wav
329,192,84404,1,0,0:0:0:0:
475,192,84404,1,0,0:0:0:0:
256,192,84582,1,0,0:0:0:0:
182,192,84671,1,0,0:0:0:0:
109,192,84761,128,0,85029:0:0:0:70:snare.wav
402,192,84761,1,0,0:0:0:0:
475,192,84761,1,0,0:0:0:0:
329,192,84939,1,0,0:0:0:0:
36,192,85118,1,0,0:0:0:70:drum.wav
182,192,85118,128,0,85386:0:0:0:0:
402,192,85118,1,0,0:0:0:0:
256,192,85296,1,0,0:0:0:0:
329,192,85386,1,0,0:0:0:0:
36,192,85475,128,0,85743:0:0:0:70:snare.wav
182,192,85475,1,0,0:0:0:0:
475,192,85475,1,0,0:0:0:0:
329,192,85564,1,0,0:0:0:0:
109,192,85654,128,0,85743:0:0:0:0:
256,192,85654,1,0,0:0:0:0:
182,192,85743,1,0,0:0:0:0:
36,192,85832,1,0,0:0:0:70:drum.wav
109,192,85832,1,0,0:0:0:0:
329,192,85832,128,0,86011:0:0:0:0:
109,192,86011,1,0,0:0:0:0:
402,192,86011,128,0,86189:0:0:0:0:
182,192,86100,1,0,0:0:0:0:
36,192,86189,1,0,0:0:0:70:snare.wav
256,192,86189,1,0,0:0:0:0:
475,192,86189,128,0,86368:0:0:0:0:
182,192,86368,1,0,0:0:0:0:
329,192,86368,128,0,86546:0:0:0:0:
109,192,86546,1,0,0:0:0:70:drum.wav
256,192,86546,1,0,0:0:0:0:
402,192,86546,128,0,86904:0:0:0:0:
182,192,86725,1,0,0:0:0:0:
256,192,86814,1,0,0:0:0:0:
109,192,86904,1,0,0:0:0:70:snare.wav
329,192,86904,1,0,0:0:0:0:
475,192,86904,1,0,0:0:0:0:
182,192,86993,1,0,0:0:0:0:
36,192,87082,1,0,0:0:0:0:
109,192,87171,1,0,0:0:0:0:
36,192,87261,1,0,0:0:0:70:drum.wav
182,192,87261,1,0,0:0:0:0:
475,192,87261,128,0,87529:0:0:0:0:
256,192,87439,1,0,0:0:0:0:
329,192,87529,1,0,0:0:0:0:
36,192,87618,1,0,0:0:0:70:snare.wav
109,192,87618,1,0,0:0:0:0:
402,192,87618,128,0,87886:0:0:0:0:
182,192,87796,1,0,0:0:0:0:
109,192,87975,1,0,0:0:0:70:drum.wav
329,192,87975,128,0,88243:0:0:0:0:
475,192,87975,1,0,0:0:0:0:
256,192,88154,1,0,0:0:0:0:
182,192,88243,1,0,0:0:0:0:
36,192,88332,1,0,0:0:0:70:snare.wav
329,192,88332,1,0,0:0:0:0:
475,192,88332,128,0,88600:0:0:0:0:
182,192,88421,1,0,0:0:0:0:
256,192,88511,1,0,0:0:0:0:
402,192,88511,128,0,88600:0:0:0:0:
329,192,88600,1,0,0:0:0:0:
182,192,88689,128,0,88868:0:0:0:70:drum.wav
402,192,88689,1,0,0:0:0:0:
475,192,88689,1,0,0:0:0:0:
109,192,88868,128,0,89046:0:0:0:0:
256,192,88868,1,0,0:0:0:0:
329,192,88957,1,0,0:0:0:0:
36,192,89046,128,0,89225:0:0:0:70:snare.wav
402,192,89046,1,0,0:0:0:0:
475,192,89046,1,0,0:0:0:0:
182,192,89225,128,0,89404:0:0:0:0:
329,192,89225,1,0,0:0:0:0:
109,192,89404,128,0,89761:0:0:0:70:drum.wav
256,192,89404,1,0,0:0:0:0:
402,192,89404,1,0,0:0:0:0:
329,192,89582,1,0,0:0:0:0:
256,192,89671,1,0,0:0:0:0:
36,192,89761,1,0,0:0:0:70:snare.wav
182,192,89761,1,0,0:0:0:0:
402,192,89761,1,0,0:0:0:0:
329,192,89850,1,0,0:0:0:0:
475,192,89939,1,0,0:0:0:0:
402,192,90029,1,0,0:0:0:0:
36,192,90118,128,0,90386:0:0:0:70:drum.wav
329,192,90118,1,0,0:0:0:0:
475,192,90118,1,0,0:0:0:0:
256,192,90296,1,0,0:0:0:0:
182,192,90386,1,0,0:0:0:0:
109,192,90475,128,0,90743:0:0:0:70:snare.wav
402,192,90475,1,0,0:0:0:0:
475,192,90475,1,0,0:0:0:0:
329,192,90654,1,0,0:0:0:0:
36,192,90832,1,0,0:0:0:70:drum.wav
182,192,90832,128,0,91100:0:0:0:0:
402,192,90832,1,0,0:0:0:0:
256,192,91011,1,0,0:0:0:0:
329,192,91100,1,0,0:0:0:0:
36,192,91189,128,0,91457:0:0:0:70:snare.wav
182,192,91189,1,0,0:0:0:0:
475,192,91189,1,0,0:0:0:0:
329,192,91279,1,0,0:0:0:0:
109,192,91368,128,0,91457:0:0:0:0:
256,192,91368,1,0,0:0:0:0:
182,192,91457,1,0,0:0:0:0:
36,192,91546,1,0,0:0:0:70:drum.wav
109,192,91546,1,0,0:0:0:0:
329,192,91546,128,0,91725:0:0:0:0:
109,192,91725,1,0,0:0:0:0:
402,192,91725,128,0,91904:0:0:0:0:
182,192,91814,1,0,0:0:0:0:
36,192,91904,1,0,0:0:0:70:snare.wav
256,192,91904,1,0,0:0:0:0:
475,192,91904,128,0,92082:0:0:0:0:
182,192,92082,1,0,0:0:0:0:
329,192,92082,128,0,92261:0:0:0:0:
36,192,92261,1,0,0:0:0:70:drum.wav
256,192,92261,1,0,0:0:0:0:
402,192,92261,128,0,92618:0:0:0:0:
182,192,92439,1,0,0:0:0:0:
256,192,92529,1,0,0:0:0:0:
109,192,92618,1,0,0:0:0:70:snare.wav
329,192,92618,1,0,0:0:0:0:
475,192,92618,128,0,92796:0:0:0:0:
182,192,92707,1,0,0:0:0:0:
36,192,92796,1,0,0:0:0:0:
329,192,92796,128,0,92975:0:0:0:0:
109,192,92886,1,0,0:0:0:0:
36,192,92975,1,0,0:0:0:70:drum.wav
182,192,92975,1,0,0:0:0:70:finish.wav
402,192,92975,1,0,0:0:0:0:
475,192,92975,128,0,93689:0:0:0:0:
109,192,93154,1,0,0:0:0:0:
256,192,93154,1,0,0:0:0:0:
329,192,93243,1,0,0:0:0:0:
36,192,93332,1,0,0:0:0:70:snare.wav
109,192,93332,1,0,0:0:0:0:
402,192,93332,1,0,0:0:0:0:
182,192,93511,1,0,0:0:0:0:
329,192,93511,1,0,0:0:0:0:
109,192,93689,128,0,93779:0:0:0:70:drum.wav
256,192,93689,1,0,0:0:0:0:
402,192,93689,1,0,0:0:0:0:
36,192,93779,128,0,93868:0:0:0:0:
182,192,93868,128,0,93957:0:0:0:0:
329,192,93868,1,0,0:0:0:0:
109,192,93957,128,0,94046:0:0:0:0:
36,192,94046,128,0,94404:0:0:0:70:snare.wav
256,192,94046,1,0,0:0:0:0:
475,192,94046,1,0,0:0:0:0:
402,192,94136,1,0,0:0:0:0:
109,192,94225,128,0,94314:0:0:0:0:
329,192,94225,1,0,0:0:0:0:
182,192,94314,128,0,94404:0:0:0:0:
256,192,94404,128,0,94761:0:0:0:70:drum.wav
402,192,94404,1,0,0:0:0:0:
475,192,94404,1,0,0:0:0:0:
182,192,94582,1,0,0:0:0:0:
329,192,94582,1,0,0:0:0:0:
109,192,94761,128,0,95118:0:0:0:70:snare.wav
402,192,94761,1,0,0:0:0:0:
475,192,94761,1,0,0:0:0:0:
256,192,94939,1,0,0:0:0:0:
402,192,94939,1,0,0:0:0:0:
36,192,95118,128,0,95475:0:0:0:70:drum.wav
182,192,95118,1,0,0:0:0:0:
329,192,95118,128,0,95207:0:0:0:0:
402,192,95207,128,0,95296:0:0:0:0:
256,192,95296,128,0,95386:0:0:0:0:
475,192,95296,1,0,0:0:0:0:
329,192,95386,128,0,95475:0:0:0:0:
109,192,95475,1,0,0:0:0:70:snare.wav
182,192,95475,128,0,95832:0:0:0:0:
475,192,95475,128,0,95564:0:0:0:0:
402,192,95564,128,0,95654:0:0:0:0:
36,192,95654,1,0,0:0:0:0:
329,192,95654,128,0,95743:0:0:0:0:
256,192,95743,128,0,95832:0:0:0:0:
109,192,95832,128,0,96368:0:0:0:70:drum.wav
402,192,95832,1,0,0:0:0:0:
475,192,95832,1,0,0:0:0:0:
256,192,96011,1,0,0:0:0:0:
402,192,96011,1,0,0:0:0:0:
182,192,96100,1,0,0:0:0:0:
36,192,96189,1,0,0:0:0:70:snare.wav
329,192,96189,1,0,0:0:0:0:
475,192,96189,1,0,0:0:0:0:
402,192,96368,128,0,98689:0:0:0:0:
475,192,96368,1,0,0:0:0:0:
36,192,96546,1,0,0:0:0:70:drum.wav
109,192,96546,128,0,97975:0:0:0:0:
182,192,96546,1,0,0:0:0:0:
329,192,96725,1,0,0:0:0:0:
256,192,96814,1,0,0:0:0:0:
36,192,96904,1,0,0:0:0:70:snare.wav
182,192,96904,1,0,0:0:0:0:
475,192,96904,1,0,0:0:0:0:
329,192,96993,1,0,0:0:0:0:
182,192,97082,1,0,0:0:0:0:
256,192,97171,1,0,0:0:0:0:
36,192,97261,1,0,0:0:0:70:drum.wav
329,192,97261,1,0,0:0:0:0:
475,192,97261,1,0,0:0:0:0:
329,192,97439,1,0,0:0:0:0:
256,192,97529,1,0,0:0:0:0:
36,192,97618,1,0,0:0:0:70:snare.wav
182,192,97618,1,0,0:0:0:0:
475,192,97618,1,0,0:0:0:0:
256,192,97796,1,0,0:0:0:0:
36,192,97975,128,0,98154:0:0:0:70:drum.wav
329,192,97975,1,0,0:0:0:0:
475,192,97975,1,0,0:0:0:0:
109,192,98064,128,0,98243:0:0:0:0:
182,192,98154,128,0,98332:0:0:0:0:
256,192,98243,128,0,98421:0:0:0:0:
36,192,98332,128,0,98511:0:0:0:70:snare.wav
329,192,98332,1,0,0:0:0:0:
475,192,98332,1,0,0:0:0:0:
109,192,98421,128,0,98600:0:0:0:0:
182,192,98511,128,0,98689:0:0:0:0:
256,192,98600,128,0,98779:0:0:0:0:
36,192,98689,1,0,0:0:0:70:drum.wav
329,192,98689,128,0,101546:0:0:0:70:finish.wav
475,192,98689,128,0,101546:0:0:0:0:
36,192,101546,128,0,101636:0:0:0:0:
182,192,101546,128,0,101636:0:0:0:0:
256,192,101725,128,0,101814:0:0:0:0:
329,192,101725,128,0,101814:0:0:0:0:
36,192,101904,128,0,101993:0:0:0:0:
109,192,101904,128,0,101993:0:0:0:0:
182,192,102082,128,0,102171:0:0:0:0:
256,192,102082,128,0,102171:0:0:0:0:
329,192,102261,128,0,102350:0:0:0:0:
475,192,102261,128,0,102350:0:0:0:0:
182,192,102439,128,0,102529:0:0:0:0:
256,192,102439,128,0,102529:0:0:0:0:
402,192,102618,128,0,102707:0:0:0:0:
475,192,102618,128,0,102707:0:0:0:0:
109,192,102796,128,0,102886:0:0:0:0:
256,192,102796,128,0,102886:0:0:0:0:
36,192,102975,128,0,103064:0:0:0:0:
182,192,102975,128,0,103064:0:0:0:0:
256,192,103154,128,0,103243:0:0:0:0:
402,192,103154,128,0,103243:0:0:0:0:
36,192,103332,128,0,103421:0:0:0:0:
109,192,103332,128,0,103421:0:0:0:0:
182,192,103511,128,0,103600:0:0:0:0:
329,192,103511,128,0,103600:0:0:0:0:
402,192,103689,128,0,103779:0:0:0:0:
475,192,103689,128,0,103779:0:0:0:0:
109,192,103868,128,0,103957:0:0:0:0:
256,192,103868,128,0,103957:0:0:0:0:
329,192,104046,128,0,104136:0:0:0:0:
475,192,104046,128,0,104136:0:0:0:0:
36,192,104225,128,0,104314:0:0:0:0:
182,192,104225,128,0,104314:0:0:0:0:
329,192,104404,128,0,104493:0:0:0:0:
402,192,104404,128,0,104493:0:0:0:0:
109,192,104582,128,0,104671:0:0:0:0:
256,192,104582,128,0,104671:0:0:0:0:
329,192,104761,128,0,104850:0:0:0:0:
475,192,104761,128,0,104850:0:0:0:0:
36,192,104939,128,0,105029:0:0:0:0:
182,192,104939,128,0,105029:0:0:0:0:
109,192,105118,128,0,105207:0:0:0:0:
329,192,105118,128,0,105207:0:0:0:0:
182,192,105296,128,0,105386:0:0:0:0:
402,192,105296,128,0,105386:0:0:0:0:
36,192,105475,128,0,105564:0:0:0:0:
256,192,105475,128,0,105564:0:0:0:0:
182,192,105654,128,0,105743:0:0:0:0:
402,192,105654,128,0,105743:0:0:0:0:
329,192,105832,128,0,105921:0:0:0:0:
475,192,105832,128,0,105921:0:0:0:0:
109,192,106011,128,0,106100:0:0:0:0:
182,192,106011,128,0,106100:0:0:0:0:
329,192,106189,128,0,106279:0:0:0:0:
475,192,106189,128,0,106279:0:0:0:0:
182,192,106368,128,0,106457:0:0:0:0:
256,192,106368,128,0,106457:0:0:0:0:
109,192,106546,128,0,106636:0:0:0:0:
402,192,106546,128,0,106636:0:0:0:0:
182,192,106725,128,0,106814:0:0:0:0:
256,192,106725,128,0,106814:0:0:0:0:
36,192,106904,128,0,106993:0:0:0:0:
329,192,106904,128,0,106993:0:0:0:0:
109,192,107082,128,0,107171:0:0:0:0:
182,192,107082,128,0,107171:0:0:0:0:
256,192,107261,128,0,107350:0:0:0:0:
475,192,107261,128,0,107350:0:0:0:0:
329,192,107439,128,0,107529:0:0:0:0:
402,192,107439,128,0,107529:0:0:0:0:
36,192,107618,128,0,107707:0:0:0:0:
256,192,107618,128,0,107707:0:0:0:0:
109,192,107796,128,0,107886:0:0:0:0:
182,192,107796,128,0,107886:0:0:0:0:
329,192,107975,128,0,108064:0:0:0:0:
475,192,107975,128,0,108064:0:0:0:0:
182,192,108154,128,0,108243:0:0:0:0:
256,192,108154,128,0,108243:0:0:0:0:
329,192,108332,128,0,108421:0:0:0:0:
475,192,108332,128,0,108421:0:0:0:0:
109,192,108511,128,0,108600:0:0:0:0:
182,192,108511,128,0,108600:0:0:0:0:
36,192,108689,128,0,108779:0:0:0:0:
256,192,108689,128,0,108779:0:0:0:0:
182,192,108868,128,0,108957:0:0:0:0:
402,192,108868,128,0,108957:0:0:0:0:
256,192,109046,128,0,109136:0:0:0:0:
475,192,109046,128,0,109136:0:0:0:0:
109,192,109225,128,0,109314:0:0:0:0:
329,192,109225,128,0,109314:0:0:0:0:
36,192,109404,128,0,109493:0:0:0:0:
182,192,109404,128,0,109493:0:0:0:0:
256,192,109582,128,0,109671:0:0:0:0:
329,192,109582,128,0,109671:0:0:0:0:
36,192,109761,128,0,109850:0:0:0:0:
109,192,109761,128,0,109850:0:0:0:0:
182,192,109939,128,0,110029:0:0:0:0:
256,192,109939,128,0,110029:0:0:0:0:
329,192,110118,128,0,110207:0:0:0:0:
475,192,110118,128,0,110207:0:0:0:0:
182,192,110296,128,0,110386:0:0:0:0:
256,192,110296,128,0,110386:0:0:0:0:
402,192,110475,128,0,110564:0:0:0:0:
475,192,110475,128,0,110564:0:0:0:0:
109,192,110654,128,0,110743:0:0:0:0:
256,192,110654,128,0,110743:0:0:0:0:
36,192,110832,128,0,110921:0:0:0:0:
182,192,110832,128,0,110921:0:0:0:0:
256,192,111011,128,0,111100:0:0:0:0:
402,192,111011,128,0,111100:0:0:0:0:
36,192,111189,128,0,111279:0:0:0:0:
109,192,111189,128,0,111279:0:0:0:0:
182,192,111368,128,0,111457:0:0:0:0:
329,192,111368,128,0,111457:0:0:0:0:
402,192,111546,128,0,111636:0:0:0:0:
475,192,111546,128,0,111636:0:0:0:0:
109,192,111725,128,0,111814:0:0:0:0:
256,192,111725,128,0,111814:0:0:0:0:
329,192,111904,128,0,111993:0:0:0:0:
475,192,111904,128,0,111993:0:0:0:0:
36,192,112082,128,0,112171:0:0:0:0:
182,192,112082,128,0,112171:0:0:0:0:
402,192,112261,128,0,112350:0:0:0:0:
475,192,112261,128,0,112350:0:0:0:0:
182,192,112439,128,0,112529:0:0:0:0:
256,192,112439,128,0,112529:0:0:0:0:
329,192,112618,128,0,112707:0:0:0:0:
475,192,112618,128,0,112707:0:0:0:0:
109,192,112796,128,0,112886:0:0:0:0:
182,192,112796,128,0,112886:0:0:0:0:
36,192,112975,128,0,113064:0:0:0:70:drum.wav
329,192,112975,1,0,0:0:0:0:
475,192,112975,1,0,0:0:0:0:
109,192,113154,128,0,113243:0:0:0:0:
36,192,113332,128,0,113421:0:0:0:70:drum.wav
329,192,113332,1,0,0:0:0:0:
475,192,113332,1,0,0:0:0:0:
182,192,113511,128,0,113600:0:0:0:0:
109,192,113689,128,0,113779:0:0:0:70:drum.wav
329,192,113689,1,0,0:0:0:0:
475,192,113689,1,0,0:0:0:0:
256,192,113868,128,0,113957:0:0:0:0:
402,192,113957,1,0,0:0:0:0:
182,192,114046,128,0,114136:0:0:0:70:drum.wav
329,192,114046,1,0,0:0:0:0:
475,192,114046,1,0,0:0:0:0:
109,192,114225,128,0,114314:0:0:0:0:
36,192,114404,1,0,0:0:0:70:drum.wav
182,192,114404,1,0,0:0:0:0:
475,192,114404,128,0,114493:0:0:0:0:
402,192,114582,128,0,114671:0:0:0:0:
36,192,114761,1,0,0:0:0:70:drum.wav
182,192,114761,1,0,0:0:0:0:
475,192,114761,128,0,114850:0:0:0:0:
329,192,114939,128,0,115029:0:0:0:0:
36,192,115118,1,0,0:0:0:70:drum.wav
182,192,115118,1,0,0:0:0:0:
402,192,115118,128,0,115207:0:0:0:0:
256,192,115296,128,0,115386:0:0:0:0:
109,192,115386,1,0,0:0:0:0:
36,192,115475,1,0,0:0:0:70:drum.wav
182,192,115475,1,0,0:0:0:0:
329,192,115475,128,0,115564:0:0:0:0:
402,192,115654,128,0,115743:0:0:0:0:
36,192,115832,128,0,115921:0:0:0:70:drum.wav
256,192,115832,1,0,0:0:0:0:
475,192,115832,1,0,0:0:0:0:
182,192,116011,128,0,116100:0:0:0:0:
36,192,116189,1,0,0:0:0:70:drum.wav
182,192,116189,1,0,0:0:0:0:
329,192,116189,128,0,116279:0:0:0:0:
475,192,116368,128,0,116457:0:0:0:0:
109,192,116546,128,0,116636:0:0:0:70:drum.wav
329,192,116546,1,0,0:0:0:0:
475,192,116546,1,0,0:0:0:0:
256,192,116725,128,0,116814:0:0:0:0:
402,192,116814,1,0,0:0:0:0:
109,192,116904,128,0,116993:0:0:0:70:drum.wav
329,192,116904,1,0,0:0:0:0:
475,192,116904,1,0,0:0:0:0:
329,192,117082,128,0,117171:0:0:0:0:
36,192,117261,128,0,117350:0:0:0:70:drum.wav
256,192,117261,1,0,0:0:0:0:
475,192,117261,1,0,0:0:0:0:
182,192,117439,128,0,117529:0:0:0:0:
109,192,117618,128,0,117707:0:0:0:70:drum.wav
329,192,117618,1,0,0:0:0:0:
475,192,117618,1,0,0:0:0:0:
256,192,117796,128,0,117886:0:0:0:0:
36,192,117975,1,0,0:0:0:70:drum.wav
182,192,117975,1,0,0:0:0:0:
402,192,117975,128,0,118064:0:0:0:0:
329,192,118154,128,0,118243:0:0:0:0:
109,192,118243,1,0,0:0:0:0:
36,192,118332,1,0,0:0:0:70:drum.wav
182,192,118332,1,0,0:0:0:0:
475,192,118332,128,0,118421:0:0:0:0:
256,192,118511,128,0,118600:0:0:0:0:
36,192,118689,128,0,118779:0:0:0:70:drum.wav
329,192,118689,1,0,0:0:0:0:
475,192,118689,1,0,0:0:0:0:
109,192,118868,128,0,118957:0:0:0:0:
36,192,119046,128,0,119136:0:0:0:70:drum.wav
329,192,119046,1,0,0:0:0:0:
475,192,119046,1,0,0:0:0:0:
182,192,119225,128,0,119314:0:0:0:0:
109,192,119404,128,0,119493:0:0:0:70:drum.wav
329,192,119404,1,0,0:0:0:0:
475,192,119404,1,0,0:0:0:0:
256,192,119582,128,0,119671:0:0:0:0:
402,192,119671,1,0,0:0:0:0:
182,192,119761,128,0,119850:0:0:0:70:drum.wav
329,192,119761,1,0,0:0:0:0:
475,192,119761,1,0,0:0:0:0:
109,192,119939,128,0,120029:0:0:0:0:
36,192,120118,1,0,0:0:0:70:drum.wav
256,192,120118,1,0,0:0:0:0:
475,192,120118,128,0,120207:0:0:0:0:
329,192,120296,128,0,120386:0:0:0:0:
182,192,120475,128,0,120564:0:0:0:70:drum.wav
329,192,120475,1,0,0:0:0:0:
475,192,120475,1,0,0:0:0:0:
36,192,120654,128,0,120743:0:0:0:0:
36,192,120832,1,0,0:0:0:70:drum.wav
182,192,120832,1,0,0:0:0:0:
402,192,120832,128,0,120921:0:0:0:0:
256,192,121011,128,0,121100:0:0:0:0:
109,192,121100,1,0,0:0:0:0:
36,192,121189,1,0,0:0:0:70:drum.wav
182,192,121189,1,0,0:0:0:0:
402,192,121189,128,0,121279:0:0:0:0:
182,192,121368,128,0,121457:0:0:0:0:
36,192,121546,128,0,121636:0:0:0:70:drum.wav
256,192,121546,1,0,0:0:0:0:
475,192,121546,1,0,0:0:0:0:
329,192,121725,128,0,121814:0:0:0:0:
36,192,121904,1,0,0:0:0:70:drum.wav
182,192,121904,128,0,121993:0:0:0:0:
402,192,121904,1,0,0:0:0:0:
475,192,122082,128,0,122171:0:0:0:0:
109,192,122261,128,0,122350:0:0:0:70:drum.wav
256,192,122261,1,0,0:0:0:0:
402,192,122261,1,0,0:0:0:0:
182,192,122439,128,0,122529:0:0:0:0:
402,192,122529,1,0,0:0:0:0:
36,192,122618,128,0,122707:0:0:0:70:drum.wav
329,192,122618,1,0,0:0:0:0:
475,192,122618,1,0,0:0:0:0:
256,192,122796,128,0,122886:0:0:0:0:
36,192,122975,128,0,123779:0:0:0:70:drum.wav
109,192,122975,128,0,123064:0:0:0:0:
402,192,122975,128,0,123064:0:0:0:0:
475,192,122975,128,0,123779:0:0:0:0:
256,192,123154,128,0,123243:0:0:0:0:
182,192,123332,128,0,123421:0:0:0:70:drum.wav
329,192,123332,128,0,123421:0:0:0:0:
256,192,123511,128,0,123600:0:0:0:0:
109,192,123689,128,0,123779:0:0:0:70:drum.wav
402,192,123689,128,0,123779:0:0:0:0:
256,192,123868,1,0,0:0:0:0:
109,192,124046,128,0,124225:0:0:0:0:
256,192,124046,1,0,0:0:0:0:
402,192,124046,128,0,124225:0:0:0:0:
182,192,124225,128,0,124404:0:0:0:0:
329,192,124225,128,0,124404:0:0:0:0:
36,192,124404,1,0,0:0:0:70:finish.wav
109,192,124404,1,0,0:0:0:0:
256,192,124404,1,0,0:0:0:0:
475,192,124404,1,0,0:0:0:0:
256,192,124582,1,0,0:0:0:0:
256,192,124761,1,0,0:0:0:70:bell.wav
475,192,124761,128,0,124939:0:0:0:0:
256,192,124939,1,0,0:0:0:0:
109,192,125118,1,0,0:0:0:70:bell.wav
475,192,125118,128,0,125296:0:0:0:0:
109,192,125296,1,0,0:0:0:0:
109,192,125475,1,0,0:0:0:70:bell.wav
475,192,125475,128,0,125654:0:0:0:0:
109,192,125654,1,0,0:0:0:0:
36,192,125832,128,0,126011:0:0:0:70:bell.wav
402,192,125832,1,0,0:0:0:0:
402,192,126011,1,0,0:0:0:0:
36,192,126189,128,0,126368:0:0:0:70:bell.wav
402,192,126189,1,0,0:0:0:0:
402,192,126368,1,0,0:0:0:0:
36,192,126546,128,0,126725:0:0:0:70:bell.wav
256,192,126546,1,0,0:0:0:0:
256,192,126725,1,0,0:0:0:0:
36,192,126904,128,0,127082:0:0:0:70:bell.wav
256,192,126904,1,0,0:0:0:0:
256,192,127082,1,0,0:0:0:0:
109,192,127261,1,0,0:0:0:70:bell.wav
475,192,127261,128,0,127439:0:0:0:0:
109,192,127439,1,0,0:0:0:0:
109,192,127618,1,0,0:0:0:70:bell.wav
475,192,127618,128,0,127796:0:0:0:0:
109,192,127796,1,0,0:0:0:0:
329,192,127975,1,0,0:0:0:70:bell.wav
475,192,127975,128,0,128154:0:0:0:0:
329,192,128154,1,0,0:0:0:0:
329,192,128332,1,0,0:0:0:70:bell.wav
475,192,128332,128,0,128511:0:0:0:0:
329,192,128511,1,0,0:0:0:0:
36,192,128689,128,0,128868:0:0:0:70:bell.wav
182,192,128689,1,0,0:0:0:0:
182,192,128868,1,0,0:0:0:0:
36,192,129046,128,0,129225:0:0:0:70:bell.wav
182,192,129046,1,0,0:0:0:0:
182,192,129225,1,0,0:0:0:0:
36,192,129404,128,0,129582:0:0:0:70:bell.wav
402,192,129404,1,0,0:0:0:0:
402,192,129582,1,0,0:0:0:0:
36,192,129761,128,0,129939:0:0:0:70:bell.wav
402,192,129761,1,0,0:0:0:0:
402,192,129939,1,0,0:0:0:0:
256,192,130118,1,0,0:0:0:70:bell.wav
475,192,130118,128,0,130296:0:0:0:0:
256,192,130296,1,0,0:0:0:0:
256,192,130475,1,0,0:0:0:70:bell.wav
475,192,130475,128,0,130654:0:0:0:0:
256,192,130654,1,0,0:0:0:0:
109,192,130832,1,0,0:0:0:70:bell.wav
475,192,130832,128,0,131011:0:0:0:0:
109,192,131011,1,0,0:0:0:0:
109,192,131189,1,0,0:0:0:70:bell.wav
475,192,131189,128,0,131368:0:0:0:0:
109,192,131368,1,0,0:0:0:0:
36,192,131546,128,0,131725:0:0:0:70:bell.wav
402,192,131546,1,0,0:0:0:0:
402,192,131725,1,0,0:0:0:0:
36,192,131904,128,0,132082:0:0:0:70:bell.wav
402,192,131904,1,0,0:0:0:0:
402,192,132082,1,0,0:0:0:0:
36,192,132261,128,0,132439:0:0:0:70:bell.wav
256,192,132261,1,0,0:0:0:0:
256,192,132439,1,0,0:0:0:0:
36,192,132618,128,0,132796:0:0:0:70:bell.wav
256,192,132618,1,0,0:0:0:0:
256,192,132796,1,0,0:0:0:0:
109,192,132975,1,0,0:0:0:70:bell.wav
475,192,132975,128,0,133154:0:0:0:0:
109,192,133154,1,0,0:0:0:0:
109,192,133332,1,0,0:0:0:70:bell.wav
475,192,133332,128,0,133511:0:0:0:0:
109,192,133511,1,0,0:0:0:0:
329,192,133689,1,0,0:0:0:70:bell.wav
475,192,133689,128,0,133868:0:0:0:0:
329,192,133868,1,0,0:0:0:0:
329,192,134046,1,0,0:0:0:70:bell.wav
475,192,134046,128,0,134225:0:0:0:0:
329,192,134225,1,0,0:0:0:0:
36,192,134404,128,0,134582:0:0:0:70:bell.wav
182,192,134404,1,0,0:0:0:0:
182,192,134582,1,0,0:0:0:0:
36,192,134761,128,0,134939:0:0:0:70:bell.wav
182,192,134761,1,0,0:0:0:0:
182,192,134939,1,0,0:0:0:0:
36,192,135118,128,0,135296:0:0:0:70:bell.wav
402,192,135118,1,0,0:0:0:0:
402,192,135296,1,0,0:0:0:0:
36,192,135475,128,0,135654:0:0:0:70:bell.wav
402,192,135475,128,0,135654:0:0:0:0:
329,192,135564,128,0,135743:0:0:0:0:
256,192,135654,128,0,135832:0:0:0:0:
182,192,135743,128,0,135921:0:0:0:0:
36,192,135832,1,0,0:0:0:70:finish.wav
109,192,135832,1,0,0:0:0:70:snare.wav
329,192,135832,1,0,0:0:0:0:
475,192,135832,128,0,136100:0:0:0:0:
182,192,136011,1,0,0:0:0:0:
402,192,136011,128,0,136100:0:0:0:0:
36,192,136189,1,0,0:0:0:70:snare.wav
256,192,136189,128,0,136457:0:0:0:0:
475,192,136189,1,0,0:0:0:0:
182,192,136368,128,0,136457:0:0:0:0:
402,192,136368,1,0,0:0:0:0:
36,192,136546,1,0,0:0:0:70:snare.wav
256,192,136546,1,0,0:0:0:0:
475,192,136546,128,0,136725:0:0:0:0:
182,192,136725,1,0,0:0:0:0:
329,192,136725,128,0,136814:0:0:0:0:
402,192,136814,128,0,136904:0:0:0:0:
36,192,136904,1,0,0:0:0:70:snare.wav
109,192,136904,128,0,136993:0:0:0:0:
256,192,136904,128,0,136993:0:0:0:0:
182,192,137082,128,0,137171:0:0:0:0:
329,192,137082,128,0,137171:0:0:0:0:
36,192,137261,1,0,0:0:0:70:snare.wav
256,192,137261,128,0,137350:0:0:0:0:
475,192,137261,1,0,0:0:0:0:
109,192,137439,128,0,137529:0:0:0:0:
329,192,137439,1,0,0:0:0:0:
182,192,137529,128,0,137618:0:0:0:0:
256,192,137618,128,0,137707:0:0:0:70:snare.wav
402,192,137618,128,0,137707:0:0:0:0:
475,192,137618,1,0,0:0:0:0:
182,192,137796,128,0,137886:0:0:0:0:
329,192,137796,128,0,137886:0:0:0:0:
36,192,137975,1,0,0:0:0:70:snare.wav
256,192,137975,1,0,0:0:0:0:
475,192,137975,128,0,138154:0:0:0:0:
182,192,138154,1,0,0:0:0:0:
402,192,138154,128,0,138243:0:0:0:0:
329,192,138243,128,0,138332:0:0:0:0:
36,192,138332,1,0,0:0:0:70:snare.wav
109,192,138332,1,0,0:0:0:0:
256,192,138332,128,0,138689:0:0:0:0:
36,192,138511,1,0,0:0:0:70:drum.wav
109,192,138511,1,0,0:0:0:0:
402,192,138511,128,0,138689:0:0:0:0:
36,192,138689,128,0,138868:0:0:0:70:snare.wav
329,192,138689,1,0,0:0:0:0:
475,192,138689,1,0,0:0:0:0:
182,192,138868,128,0,138957:0:0:0:0:
402,192,138868,1,0,0:0:0:0:
109,192,138957,128,0,139046:0:0:0:0:
256,192,139046,128,0,139136:0:0:0:70:snare.wav
329,192,139046,1,0,0:0:0:0:
475,192,139046,128,0,139136:0:0:0:0:
182,192,139225,128,0,139314:0:0:0:0:
402,192,139225,128,0,139314:0:0:0:0:
36,192,139404,1,0,0:0:0:70:snare.wav
109,192,139404,1,0,0:0:0:0:
256,192,139404,128,0,139671:0:0:0:0:
329,192,139582,128,0,139671:0:0:0:0:
475,192,139582,1,0,0:0:0:0:
36,192,139761,1,0,0:0:0:70:snare.wav
109,192,139761,1,0,0:0:0:0:
182,192,139761,128,0,140029:0:0:0:0:
256,192,139939,128,0,140029:0:0:0:0:
402,192,139939,1,0,0:0:0:0:
36,192,140118,1,0,0:0:0:70:snare.wav
182,192,140118,1,0,0:0:0:0:
475,192,140118,128,0,140296:0:0:0:0:
109,192,140296,1,0,0:0:0:0:
329,192,140296,128,0,140386:0:0:0:0:
402,192,140386,128,0,140475:0:0:0:0:
36,192,140475,128,0,140564:0:0:0:70:snare.wav
182,192,140475,1,0,0:0:0:0:
256,192,140475,128,0,140564:0:0:0:0:
109,192,140654,128,0,140743:0:0:0:0:
329,192,140654,128,0,140743:0:0:0:0:
256,192,140832,128,0,141100:0:0:0:70:snare.wav
402,192,140832,1,0,0:0:0:0:
475,192,140832,1,0,0:0:0:0:
182,192,141011,128,0,141100:0:0:0:0:
36,192,141100,1,0,0:0:0:70:snare.wav
109,192,141100,1,0,0:0:0:0:
329,192,141189,128,0,141457:0:0:0:70:drum.wav
402,192,141189,1,0,0:0:0:0:
475,192,141189,1,0,0:0:0:0:
109,192,141368,1,0,0:0:0:70:snare.wav
182,192,141368,1,0,0:0:0:0:
256,192,141368,128,0,141457:0:0:0:0:
36,192,141546,1,0,0:0:0:70:drum.wav
256,192,141546,1,0,0:0:0:0:
402,192,141546,1,0,0:0:0:0:
475,192,141546,1,0,0:0:0:0:
182,192,141725,1,0,0:0:0:70:snare.wav
402,192,141725,1,0,0:0:0:0:
109,192,141904,1,0,0:0:0:70:drum.wav
256,192,141904,1,0,0:0:0:0:
402,192,141904,1,0,0:0:0:0:
36,192,142082,1,0,0:0:0:70:snare.wav
402,192,142082,1,0,0:0:0:0:
109,192,142261,1,0,0:0:0:70:drum.wav
329,192,142261,1,0,0:0:0:0:
475,192,142261,1,0,0:0:0:0:
109,192,142439,1,0,0:0:0:70:snare.wav
402,192,142439,1,0,0:0:0:0:
329,192,142529,1,0,0:0:0:0:
109,192,142618,1,0,0:0:0:70:drum.wav
256,192,142618,1,0,0:0:0:0:
475,192,142618,1,0,0:0:0:0:
109,192,142796,1,0,0:0:0:70:snare.wav
109,192,142975,1,0,0:0:0:70:drum.wav
256,192,142975,1,0,0:0:0:0:
402,192,142975,128,0,143064:0:0:0:0:
329,192,143064,128,0,143154:0:0:0:70:drum.wav
182,192,143154,128,0,143243:0:0:0:70:drum.wav
109,192,143243,128,0,143332:0:0:0:70:drum.wav
329,192,143332,128,0,143421:0:0:0:70:drum.wav
402,192,143332,1,0,0:0:0:0:
182,192,143421,128,0,143511:0:0:0:70:drum.wav
36,192,143511,128,0,143600:0:0:0:70:drum.wav
256,192,143600,128,0,143689:0:0:0:70:drum.wav
109,192,143689,128,0,143779:0:0:0:70:drum.wav
402,192,143689,1,0,0:0:0:0:
329,192,143779,128,0,143868:0:0:0:70:drum.wav
182,192,143868,128,0,143957:0:0:0:70:drum.wav
402,192,143957,128,0,144046:0:0:0:70:drum.wav
109,192,144046,1,0,0:0:0:70:drum.wav
256,192,144046,128,0,144136:0:0:0:0:
475,192,144136,128,0,144225:0:0:0:70:drum.wav
329,192,144225,128,0,144314:0:0:0:70:drum.wav
182,192,144314,128,0,144404:0:0:0:70:drum.wav
36,192,144404,128,0,144582:0:0:0:70:bell.wav
475,192,144404,128,0,144761:0:0:0:0:
36,192,144761,128,0,144939:0:0:0:70:bell.wav
329,192,144761,128,0,145118:0:0:0:0:
36,192,145118,128,0,145296:0:0:0:70:bell.wav
475,192,145118,128,0,145296:0:0:0:0:
256,192,145296,128,0,145475:0:0:0:0:
36,192,145475,128,0,145654:0:0:0:70:bell.wav
402,192,145475,128,0,145654:0:0:0:0:
182,192,145654,128,0,145832:0:0:0:0:
36,192,145832,128,0,146368:0:0:0:0:
329,192,145832,128,0,146904:0:0:0:0:
475,192,145832,128,0,146904:0:0:0:0:
109,192,146368,128,0,146546:0:0:0:0:
36,192,146546,128,0,146904:0:0:0:0:
182,192,146546,128,0,146904:0:0:0:0:
256,192,146904,128,0,147261:0:0:0:0:
36,192,147261,1,0,0:0:0:70:drum.wav
109,192,147261,1,0,0:0:0:50:Clap.wav
182,192,147261,1,0,0:0:0:70:finish.wav
475,192,147261,1,0,0:0:0:0:
256,192,147439,1,0,0:0:0:0:
402,192,147439,1,0,0:0:0:0:
36,192,147618,1,0,0:0:0:70:drum.wav
109,192,147618,1,0,0:0:0:50:Clap.wav
182,192,147618,1,0,0:0:0:0:
475,192,147618,1,0,0:0:0:0:
182,192,147796,1,0,0:0:0:0:
329,192,147796,1,0,0:0:0:0:
36,192,147975,1,0,0:0:0:70:drum.wav
109,192,147975,1,0,0:0:0:50:Clap.wav
402,192,147975,1,0,0:0:0:0:
475,192,147975,1,0,0:0:0:0:
109,192,148154,1,0,0:0:0:0:
256,192,148154,1,0,0:0:0:0:
182,192,148243,1,0,0:0:0:0:
36,192,148332,1,0,0:0:0:70:drum.wav
109,192,148332,1,0,0:0:0:50:Clap.wav
329,192,148332,1,0,0:0:0:0:
475,192,148332,1,0,0:0:0:0:
36,192,148511,1,0,0:0:0:0:
182,192,148511,1,0,0:0:0:0:
36,192,148689,1,0,0:0:0:70:drum.wav
329,192,148689,1,0,0:0:0:50:Clap.wav
402,192,148689,1,0,0:0:0:0:
475,192,148689,1,0,0:0:0:0:
109,192,148868,1,0,0:0:0:0:
256,192,148868,1,0,0:0:0:0:
182,192,148957,1,0,0:0:0:0:
36,192,149046,1,0,0:0:0:70:drum.wav
329,192,149046,1,0,0:0:0:50:Clap.wav
402,192,149046,1,0,0:0:0:0:
475,192,149046,1,0,0:0:0:0:
182,192,149225,1,0,0:0:0:0:
329,192,149225,1,0,0:0:0:0:
36,192,149404,1,0,0:0:0:70:drum.wav
109,192,149404,1,0,0:0:0:50:Clap.wav
402,192,149404,1,0,0:0:0:0:
475,192,149404,1,0,0:0:0:0:
256,192,149582,1,0,0:0:0:0:
402,192,149582,1,0,0:0:0:0:
329,192,149671,1,0,0:0:0:0:
36,192,149761,1,0,0:0:0:70:drum.wav
182,192,149761,1,0,0:0:0:50:Clap.wav
402,192,149761,1,0,0:0:0:0:
475,192,149761,1,0,0:0:0:0:
182,192,149939,1,0,0:0:0:70:drum.wav
329,192,149939,1,0,0:0:0:0:
36,192,150118,1,0,0:0:0:70:drum.wav
109,192,150118,1,0,0:0:0:50:Clap.wav
182,192,150118,1,0,0:0:0:0:
475,192,150118,1,0,0:0:0:0:
256,192,150296,1,0,0:0:0:0:
402,192,150296,1,0,0:0:0:0:
329,192,150386,1,0,0:0:0:0:
36,192,150475,1,0,0:0:0:70:drum.wav
109,192,150475,1,0,0:0:0:50:Clap.wav
182,192,150475,1,0,0:0:0:0:
475,192,150475,1,0,0:0:0:0:
182,192,150654,1,0,0:0:0:0:
329,192,150654,1,0,0:0:0:0:
36,192,150832,1,0,0:0:0:70:drum.wav
256,192,150832,1,0,0:0:0:50:Clap.wav
402,192,150832,1,0,0:0:0:0:
475,192,150832,1,0,0:0:0:0:
109,192,151011,1,0,0:0:0:0:
329,192,151011,1,0,0:0:0:0:
36,192,151189,1,0,0:0:0:70:drum.wav
109,192,151189,1,0,0:0:0:50:Clap.wav
256,192,151189,1,0,0:0:0:0:
475,192,151189,1,0,0:0:0:0:
182,192,151368,1,0,0:0:0:0:
402,192,151368,1,0,0:0:0:0:
36,192,151546,1,0,0:0:0:70:drum.wav
329,192,151546,1,0,0:0:0:50:Clap.wav
402,192,151546,1,0,0:0:0:0:
475,192,151546,1,0,0:0:0:0:
109,192,151725,1,0,0:0:0:0:
256,192,151725,1,0,0:0:0:0:
182,192,151814,1,0,0:0:0:0:
36,192,151904,1,0,0:0:0:70:drum.wav
329,192,151904,1,0,0:0:0:50:Clap.wav
402,192,151904,1,0,0:0:0:0:
475,192,151904,1,0,0:0:0:0:
182,192,152082,1,0,0:0:0:0:
329,192,152082,1,0,0:0:0:0:
36,192,152261,1,0,0:0:0:70:drum.wav
109,192,152261,1,0,0:0:0:50:Clap.wav
402,192,152261,1,0,0:0:0:0:
475,192,152261,1,0,0:0:0:0:
256,192,152439,1,0,0:0:0:0:
402,192,152439,1,0,0:0:0:0:
36,192,152618,1,0,0:0:0:70:drum.wav
182,192,152618,1,0,0:0:0:50:Clap.wav
402,192,152618,1,0,0:0:0:0:
475,192,152618,1,0,0:0:0:0:
109,192,152796,1,0,0:0:0:70:drum.wav
256,192,152796,1,0,0:0:0:0:
36,192,152975,1,0,0:0:0:70:drum.wav
109,192,152975,1,0,0:0:0:50:Clap.wav
182,192,152975,1,0,0:0:0:0:
475,192,152975,1,0,0:0:0:0:
329,192,153154,1,0,0:0:0:0:
475,192,153154,1,0,0:0:0:0:
36,192,153332,1,0,0:0:0:70:drum.wav
109,192,153332,1,0,0:0:0:50:Clap.wav
182,192,153332,1,0,0:0:0:0:
402,192,153332,1,0,0:0:0:0:
256,192,153511,1,0,0:0:0:0:
402,192,153511,1,0,0:0:0:0:
36,192,153689,1,0,0:0:0:70:drum.wav
109,192,153689,1,0,0:0:0:50:Clap.wav
182,192,153689,1,0,0:0:0:0:
329,192,153689,1,0,0:0:0:0:
182,192,153868,1,0,0:0:0:0:
329,192,153868,1,0,0:0:0:0:
402,192,153957,1,0,0:0:0:0:
36,192,154046,1,0,0:0:0:70:drum.wav
109,192,154046,1,0,0:0:0:50:Clap.wav
182,192,154046,1,0,0:0:0:0:
256,192,154046,1,0,0:0:0:0:
109,192,154225,1,0,0:0:0:0:
256,192,154225,1,0,0:0:0:0:
36,192,154404,1,0,0:0:0:70:drum.wav
329,192,154404,1,0,0:0:0:50:Clap.wav
402,192,154404,1,0,0:0:0:0:
475,192,154404,1,0,0:0:0:0:
329,192,154582,1,0,0:0:0:0:
475,192,154582,1,0,0:0:0:0:
256,192,154671,1,0,0:0:0:0:
36,192,154761,1,0,0:0:0:70:drum.wav
109,192,154761,1,0,0:0:0:50:Clap.wav
182,192,154761,1,0,0:0:0:0:
36,192,154939,1,0,0:0:0:0:
182,192,154939,1,0,0:0:0:0:
256,192,155029,1,0,0:0:0:0:
36,192,155118,1,0,0:0:0:70:drum.wav
329,192,155118,1,0,0:0:0:50:Clap.wav
402,192,155118,1,0,0:0:0:0:
475,192,155118,1,0,0:0:0:0:
329,192,155296,1,0,0:0:0:0:
475,192,155296,1,0,0:0:0:0:
256,192,155386,1,0,0:0:0:70:drum.wav
36,192,155475,1,0,0:0:0:70:drum.wav
109,192,155475,1,0,0:0:0:50:Clap.wav
182,192,155475,1,0,0:0:0:0:
475,192,155475,1,0,0:0:0:0:
182,192,155654,1,0,0:0:0:70:drum.wav
329,192,155654,1,0,0:0:0:0:
36,192,155832,1,0,0:0:0:70:drum.wav
256,192,155832,1,0,0:0:0:50:Clap.wav
402,192,155832,1,0,0:0:0:0:
475,192,155832,1,0,0:0:0:0:
182,192,156011,1,0,0:0:0:0:
329,192,156011,1,0,0:0:0:0:
109,192,156100,1,0,0:0:0:0:
36,192,156189,1,0,0:0:0:70:drum.wav
256,192,156189,1,0,0:0:0:50:Clap.wav
402,192,156189,1,0,0:0:0:0:
475,192,156189,1,0,0:0:0:0:
182,192,156368,1,0,0:0:0:0:
329,192,156368,1,0,0:0:0:0:
36,192,156546,1,0,0:0:0:70:drum.wav
109,192,156546,1,0,0:0:0:50:Clap.wav
256,192,156546,1,0,0:0:0:0:
475,192,156546,1,0,0:0:0:0:
109,192,156725,1,0,0:0:0:0:
329,192,156725,1,0,0:0:0:0:
36,192,156904,1,0,0:0:0:70:drum.wav
256,192,156904,1,0,0:0:0:50:Clap.wav
402,192,156904,1,0,0:0:0:0:
475,192,156904,1,0,0:0:0:0:
182,192,157082,1,0,0:0:0:0:
402,192,157082,1,0,0:0:0:0:
36,192,157261,1,0,0:0:0:70:drum.wav
109,192,157261,1,0,0:0:0:50:Clap.wav
182,192,157261,1,0,0:0:0:70:snare.wav
475,192,157261,1,0,0:0:0:0:
36,192,157439,1,0,0:0:0:0:
182,192,157439,1,0,0:0:0:0:
256,192,157529,1,0,0:0:0:0:
36,192,157618,1,0,0:0:0:50:Clap.wav
329,192,157618,1,0,0:0:0:70:snare.wav
402,192,157618,1,0,0:0:0:0:
475,192,157618,1,0,0:0:0:0:
182,192,157796,1,0,0:0:0:0:
329,192,157796,1,0,0:0:0:0:
36,192,157975,1,0,0:0:0:50:Clap.wav
109,192,157975,1,0,0:0:0:70:snare.wav
402,192,157975,1,0,0:0:0:0:
475,192,157975,1,0,0:0:0:0:
182,192,158154,1,0,0:0:0:0:
329,192,158154,1,0,0:0:0:0:
256,192,158243,1,0,0:0:0:70:drum.wav
36,192,158332,1,0,0:0:0:50:Clap.wav
109,192,158332,1,0,0:0:0:70:snare.wav
402,192,158332,1,0,0:0:0:0:
475,192,158332,1,0,0:0:0:0:
109,192,158511,1,0,0:0:0:70:drum.wav
256,192,158511,1,0,0:0:0:0:
402,192,158511,1,0,0:0:0:0:
36,192,158689,128,0,159761:0:0:0:70:drum.wav
109,192,158689,1,0,0:0:0:70:finish.wav
256,192,158689,1,0,0:0:0:70:bell.wav
475,192,158689,1,0,0:0:0:0:
182,192,158957,1,0,0:0:0:70:snare.wav
329,192,158957,1,0,0:0:0:0:
109,192,159046,1,0,0:0:0:70:drum.wav
256,192,159046,1,0,0:0:0:70:bell.wav
402,192,159046,1,0,0:0:0:0:
182,192,159225,1,0,0:0:0:70:snare.wav
329,192,159225,1,0,0:0:0:0:
109,192,159404,128,0,159761:0:0:0:70:drum.wav
256,192,159404,1,0,0:0:0:70:bell.wav
402,192,159404,1,0,0:0:0:0:
256,192,159582,1,0,0:0:0:70:snare.wav
329,192,159582,1,0,0:0:0:0:
182,192,159761,128,0,160118:0:0:0:70:drum.wav
402,192,159761,1,0,0:0:0:70:bell.wav
475,192,159761,1,0,0:0:0:0:
329,192,159939,1,0,0:0:0:70:snare.wav
402,192,159939,1,0,0:0:0:0:
36,192,160118,1,0,0:0:0:70:drum.wav
256,192,160118,1,0,0:0:0:70:bell.wav
475,192,160118,128,0,160296:0:0:0:0:
402,192,160296,128,0,160475:0:0:0:0:
36,192,160386,1,0,0:0:0:70:snare.wav
109,192,160386,1,0,0:0:0:0:
182,192,160475,1,0,0:0:0:70:drum.wav
329,192,160475,128,0,160654:0:0:0:70:bell.wav
475,192,160475,1,0,0:0:0:0:
36,192,160654,1,0,0:0:0:70:snare.wav
109,192,160654,1,0,0:0:0:0:
256,192,160654,128,0,160832:0:0:0:0:
182,192,160832,1,0,0:0:0:70:drum.wav
329,192,160832,1,0,0:0:0:70:bell.wav
475,192,160832,128,0,161368:0:0:0:0:
36,192,161011,1,0,0:0:0:70:snare.wav
109,192,161011,1,0,0:0:0:0:
109,192,161189,1,0,0:0:0:70:drum.wav
256,192,161189,1,0,0:0:0:70:bell.wav
402,192,161189,1,0,0:0:0:0:
109,192,161368,1,0,0:0:0:70:snare.wav
182,192,161368,1,0,0:0:0:0:
329,192,161368,128,0,161546:0:0:0:0:
36,192,161546,128,0,161725:0:0:0:70:drum.wav
256,192,161546,1,0,0:0:0:70:bell.wav
475,192,161546,1,0,0:0:0:0:
109,192,161725,128,0,161904:0:0:0:0:
402,192,161814,1,0,0:0:0:70:snare.wav
475,192,161814,1,0,0:0:0:0:
36,192,161904,1,0,0:0:0:70:drum.wav
182,192,161904,128,0,162082:0:0:0:70:bell.wav
329,192,161904,1,0,0:0:0:0:
256,192,162082,128,0,162261:0:0:0:70:snare.wav
402,192,162082,1,0,0:0:0:0:
475,192,162082,1,0,0:0:0:0:
36,192,162261,128,0,162975:0:0:0:70:drum.wav
182,192,162261,1,0,0:0:0:70:bell.wav
329,192,162261,1,0,0:0:0:0:
402,192,162439,1,0,0:0:0:70:snare.wav
475,192,162439,1,0,0:0:0:0:
109,192,162618,128,0,162975:0:0:0:70:drum.wav
256,192,162618,1,0,0:0:0:70:bell.wav
402,192,162618,1,0,0:0:0:0:
256,192,162796,1,0,0:0:0:70:snare.wav
329,192,162796,1,0,0:0:0:0:
182,192,162975,128,0,163332:0:0:0:70:drum.wav
329,192,162975,1,0,0:0:0:70:bell.wav
475,192,162975,1,0,0:0:0:0:
109,192,163243,1,0,0:0:0:70:snare.wav
402,192,163243,1,0,0:0:0:0:
36,192,163332,128,0,163421:0:0:0:70:drum.wav
256,192,163332,128,0,163421:0:0:0:70:bell.wav
475,192,163332,1,0,0:0:0:0:
109,192,163421,128,0,163511:0:0:0:0:
329,192,163421,128,0,163511:0:0:0:0:
182,192,163511,128,0,163600:0:0:0:70:snare.wav
402,192,163511,128,0,163600:0:0:0:0:
256,192,163600,128,0,163689:0:0:0:0:
475,192,163600,128,0,163689:0:0:0:0:
36,192,163689,128,0,163957:0:0:0:70:drum.wav
182,192,163689,1,0,0:0:0:70:bell.wav
329,192,163689,1,0,0:0:0:0:
109,192,163868,1,0,0:0:0:70:snare.wav
402,192,163868,1,0,0:0:0:0:
182,192,163957,1,0,0:0:0:70:snare.wav
329,192,163957,1,0,0:0:0:0:
109,192,164046,128,0,164314:0:0:0:70:drum.wav
256,192,164046,1,0,0:0:0:70:bell.wav
475,192,164046,1,0,0:0:0:0:
182,192,164225,1,0,0:0:0:70:snare.wav
329,192,164225,1,0,0:0:0:0:
36,192,164404,1,0,0:0:0:70:drum.wav
256,192,164404,1,0,0:0:0:70:finish.wav
402,192,164404,1,0,0:0:0:70:bell.wav
475,192,164404,128,0,165475:0:0:0:0:
182,192,164671,1,0,0:0:0:70:snare.wav
329,192,164671,1,0,0:0:0:0:
109,192,164761,1,0,0:0:0:70:drum.wav
256,192,164761,1,0,0:0:0:70:bell.wav
402,192,164761,1,0,0:0:0:0:
182,192,164939,1,0,0:0:0:70:snare.wav
329,192,164939,1,0,0:0:0:0:
109,192,165118,1,0,0:0:0:70:drum.wav
256,192,165118,1,0,0:0:0:70:bell.wav
402,192,165118,128,0,165475:0:0:0:0:
182,192,165296,1,0,0:0:0:70:snare.wav
256,192,165296,1,0,0:0:0:0:
36,192,165475,1,0,0:0:0:70:drum.wav
109,192,165475,1,0,0:0:0:70:bell.wav
329,192,165475,128,0,165832:0:0:0:0:
109,192,165654,1,0,0:0:0:70:snare.wav
182,192,165654,1,0,0:0:0:0:
36,192,165832,128,0,166011:0:0:0:70:drum.wav
256,192,165832,1,0,0:0:0:70:bell.wav
475,192,165832,1,0,0:0:0:0:
109,192,166011,128,0,166189:0:0:0:0:
402,192,166100,1,0,0:0:0:70:snare.wav
475,192,166100,1,0,0:0:0:0:
36,192,166189,1,0,0:0:0:70:drum.wav
182,192,166189,128,0,166368:0:0:0:70:bell.wav
329,192,166189,1,0,0:0:0:0:
256,192,166368,128,0,166546:0:0:0:70:snare.wav
402,192,166368,1,0,0:0:0:0:
475,192,166368,1,0,0:0:0:0:
36,192,166546,128,0,166904:0:0:0:70:drum.wav
182,192,166546,1,0,0:0:0:70:bell.wav
329,192,166546,1,0,0:0:0:0:
402,192,166725,1,0,0:0:0:70:snare.wav
475,192,166725,1,0,0:0:0:0:
182,192,166904,1,0,0:0:0:70:drum.wav
402,192,166904,128,0,167082:0:0:0:70:bell.wav
475,192,166904,1,0,0:0:0:0:
329,192,166993,128,0,167171:0:0:0:0:
36,192,167082,1,0,0:0:0:70:snare.wav
256,192,167082,128,0,167261:0:0:0:0:
182,192,167171,128,0,167350:0:0:0:0:
36,192,167261,1,0,0:0:0:70:drum.wav
109,192,167261,1,0,0:0:0:70:finish.wav
329,192,167261,1,0,0:0:0:70:bell.wav
475,192,167261,1,0,0:0:0:0:
109,192,167529,1,0,0:0:0:70:snare.wav
402,192,167529,1,0,0:0:0:0:
36,192,167618,1,0,0:0:0:70:drum.wav
256,192,167618,1,0,0:0:0:70:bell.wav
475,192,167618,1,0,0:0:0:0:
36,192,167796,1,0,0:0:0:70:snare.wav
329,192,167796,1,0,0:0:0:0:
475,192,167796,1,0,0:0:0:0:
109,192,167975,1,0,0:0:0:70:drum.wav
256,192,167975,1,0,0:0:0:70:finish.wav
402,192,167975,1,0,0:0:0:70:bell.wav
182,192,168154,1,0,0:0:0:70:snare.wav
329,192,168154,1,0,0:0:0:0:
109,192,168243,1,0,0:0:0:70:snare.wav
402,192,168243,1,0,0:0:0:0:
36,192,168332,1,0,0:0:0:70:drum.wav
256,192,168332,1,0,0:0:0:70:bell.wav
475,192,168332,1,0,0:0:0:0:
109,192,168511,1,0,0:0:0:70:snare.wav
256,192,168511,1,0,0:0:0:0:
402,192,168511,1,0,0:0:0:0:
36,192,168689,1,0,0:0:0:70:drum.wav
109,192,168689,1,0,0:0:0:70:finish.wav
182,192,168689,1,0,0:0:0:70:bell.wav
475,192,168689,1,0,0:0:0:0:
182,192,168868,1,0,0:0:0:70:snare.wav
329,192,168868,1,0,0:0:0:0:
109,192,168957,1,0,0:0:0:70:snare.wav
36,192,169046,1,0,0:0:0:70:drum.wav
329,192,169046,1,0,0:0:0:70:finish.wav
402,192,169046,1,0,0:0:0:70:bell.wav
475,192,169046,1,0,0:0:0:0:
182,192,169225,1,0,0:0:0:70:snare.wav
329,192,169225,1,0,0:0:0:0:
402,192,169314,1,0,0:0:0:0:
36,192,169404,1,0,0:0:0:70:drum.wav
109,192,169404,1,0,0:0:0:70:finish.wav
182,192,169404,1,0,0:0:0:70:bell.wav
475,192,169404,1,0,0:0:0:0:
182,192,169582,1,0,0:0:0:70:snare.wav
329,192,169582,1,0,0:0:0:0:
109,192,169671,1,0,0:0:0:70:snare.wav
36,192,169761,1,0,0:0:0:70:drum.wav
329,192,169761,1,0,0:0:0:70:finish.wav
402,192,169761,1,0,0:0:0:70:bell.wav
475,192,169761,1,0,0:0:0:0:
182,192,169939,1,0,0:0:0:70:snare.wav
329,192,169939,1,0,0:0:0:0:
402,192,170029,1,0,0:0:0:70:snare.wav
36,192,170118,128,0,170296:0:0:0:70:drum.wav
109,192,170118,1,0,0:0:0:70:finish.wav
256,192,170118,1,0,0:0:0:70:bell.wav
475,192,170118,1,0,0:0:0:0:
182,192,170296,128,0,170475:0:0:0:0:
109,192,170475,128,0,170654:0:0:0:70:bell.wav
402,192,170475,1,0,0:0:0:70:snare.wav
475,192,170475,1,0,0:0:0:0:
256,192,170654,128,0,170832:0:0:0:0:
36,192,170832,1,0,0:0:0:70:drum.wav
109,192,170832,1,0,0:0:0:70:bell.wav
182,192,170832,128,0,171011:0:0:0:0:
475,192,171011,128,0,171100:0:0:0:0:
402,192,171100,128,0,171189:0:0:0:0:
36,192,171189,1,0,0:0:0:70:bell.wav
109,192,171189,1,0,0:0:0:70:snare.wav
256,192,171189,128,0,171279:0:0:0:0:
329,192,171368,128,0,171457:0:0:0:0:
36,192,171546,128,0,171725:0:0:0:70:drum.wav
256,192,171546,1,0,0:0:0:70:bell.wav
475,192,171546,1,0,0:0:0:0:
402,192,171725,128,0,171814:0:0:0:0:
329,192,171814,128,0,171904:0:0:0:0:
36,192,171904,1,0,0:0:0:70:bell.wav
182,192,171904,128,0,172082:0:0:0:70:snare.wav
475,192,171904,1,0,0:0:0:0:
256,192,172082,128,0,172261:0:0:0:0:
36,192,172261,128,0,172439:0:0:0:70:drum.wav
402,192,172261,1,0,0:0:0:70:bell.wav
475,192,172261,1,0,0:0:0:0:
329,192,172439,128,0,172529:0:0:0:0:
256,192,172529,128,0,172618:0:0:0:0:
109,192,172618,128,0,172796:0:0:0:70:bell.wav
402,192,172618,1,0,0:0:0:70:snare.wav
475,192,172618,1,0,0:0:0:0:
182,192,172796,128,0,172975:0:0:0:0:
36,192,172975,1,0,0:0:0:70:drum.wav
256,192,172975,1,0,0:0:0:70:bell.wav
475,192,172975,128,0,173154:0:0:0:0:
329,192,173154,128,0,173243:0:0:0:0:
402,192,173243,128,0,173332:0:0:0:0:
36,192,173332,1,0,0:0:0:70:bell.wav
109,192,173332,1,0,0:0:0:70:snare.wav
256,192,173332,128,0,173511:0:0:0:0:
329,192,173511,128,0,173689:0:0:0:0:
36,192,173689,128,0,173868:0:0:0:70:drum.wav
256,192,173689,1,0,0:0:0:70:bell.wav
475,192,173689,1,0,0:0:0:0:
109,192,173868,128,0,174046:0:0:0:0:
36,192,174046,1,0,0:0:0:70:bell.wav
256,192,174046,128,0,174225:0:0:0:70:snare.wav
475,192,174046,1,0,0:0:0:0:
182,192,174225,128,0,174404:0:0:0:0:
36,192,174404,128,0,174582:0:0:0:70:drum.wav
256,192,174404,1,0,0:0:0:70:bell.wav
475,192,174404,1,0,0:0:0:0:
182,192,174582,128,0,174671:0:0:0:0:
109,192,174671,128,0,174761:0:0:0:0:
256,192,174761,128,0,174939:0:0:0:70:bell.wav
402,192,174761,1,0,0:0:0:70:snare.wav
475,192,174761,1,0,0:0:0:0:
182,192,174939,128,0,175118:0:0:0:0:
36,192,175118,1,0,0:0:0:70:drum.wav
256,192,175118,1,0,0:0:0:70:bell.wav
475,192,175118,128,0,175296:0:0:0:0:
402,192,175296,128,0,175475:0:0:0:0:
36,192,175475,1,0,0:0:0:70:bell.wav
256,192,175475,128,0,175654:0:0:0:70:snare.wav
475,192,175475,1,0,0:0:0:0:
329,192,175654,128,0,175832:0:0:0:0:
36,192,175832,128,0,176011:0:0:0:70:drum.wav
256,192,175832,1,0,0:0:0:70:bell.wav
475,192,175832,1,0,0:0:0:0:
182,192,176011,128,0,176189:0:0:0:0:
109,192,176189,128,0,176368:0:0:0:70:bell.wav
402,192,176189,1,0,0:0:0:70:snare.wav
475,192,176189,1,0,0:0:0:0:
256,192,176368,128,0,176546:0:0:0:0:
36,192,176546,1,0,0:0:0:70:drum.wav
109,192,176546,1,0,0:0:0:70:bell.wav
182,192,176546,128,0,176725:0:0:0:0:
475,192,176725,128,0,176814:0:0:0:0:
402,192,176814,128,0,176904:0:0:0:0:
36,192,176904,1,0,0:0:0:70:bell.wav
109,192,176904,1,0,0:0:0:70:snare.wav
256,192,176904,128,0,176993:0:0:0:0:
329,192,177082,128,0,177171:0:0:0:0:
36,192,177261,128,0,177439:0:0:0:70:drum.wav
256,192,177261,1,0,0:0:0:70:bell.wav
475,192,177261,1,0,0:0:0:0:
402,192,177439,128,0,177529:0:0:0:0:
329,192,177529,128,0,177618:0:0:0:0:
36,192,177618,1,0,0:0:0:70:bell.wav
182,192,177618,128,0,177796:0:0:0:70:snare.wav
475,192,177618,1,0,0:0:0:0:
256,192,177796,128,0,177886:0:0:0:0:
109,192,177886,128,0,177975:0:0:0:0:
36,192,177975,128,0,178154:0:0:0:70:drum.wav
402,192,177975,1,0,0:0:0:70:bell.wav
475,192,177975,1,0,0:0:0:0:
329,192,178154,128,0,178243:0:0:0:0:
256,192,178243,128,0,178332:0:0:0:0:
109,192,178332,128,0,178511:0:0:0:70:bell.wav
402,192,178332,1,0,0:0:0:70:snare.wav
475,192,178332,1,0,0:0:0:0:
182,192,178511,128,0,178689:0:0:0:0:
36,192,178689,128,0,178868:0:0:0:70:bell.wav
475,192,178689,128,0,178868:0:0:0:0:
182,192,178868,128,0,178957:0:0:0:0:
329,192,178868,128,0,178957:0:0:0:0:
109,192,178957,128,0,179046:0:0:0:0:
402,192,178957,128,0,179046:0:0:0:0:
36,192,179046,128,0,179136:0:0:0:70:bell.wav
475,192,179046,128,0,179136:0:0:0:0:
182,192,179225,128,0,179314:0:0:0:0:
329,192,179225,128,0,179314:0:0:0:0:
109,192,179404,128,0,179493:0:0:0:70:bell.wav
402,192,179404,128,0,179493:0:0:0:0:
36,192,179582,128,0,179671:0:0:0:0:
256,192,179582,128,0,179671:0:0:0:0:
329,192,179671,1,0,0:0:0:0:
182,192,179761,128,0,179850:0:0:0:70:bell.wav
475,192,179761,128,0,179850:0:0:0:0:
256,192,179850,1,0,0:0:0:0:
109,192,179939,128,0,180029:0:0:0:0:
329,192,179939,128,0,180029:0:0:0:0:
182,192,180029,1,0,0:0:0:0:
36,192,180118,128,0,180296:0:0:0:70:bell.wav
475,192,180118,128,0,180296:0:0:0:0:
182,192,180296,128,0,180386:0:0:0:0:
329,192,180296,128,0,180386:0:0:0:0:
109,192,180386,128,0,180475:0:0:0:0:
402,192,180386,128,0,180475:0:0:0:0:
36,192,180475,128,0,180564:0:0:0:70:bell.wav
475,192,180475,128,0,180564:0:0:0:0:
182,192,180654,128,0,180743:0:0:0:0:
329,192,180654,128,0,180743:0:0:0:0:
36,192,180832,128,0,181011:0:0:0:70:bell.wav
475,192,180832,128,0,181011:0:0:0:0:
109,192,181011,1,0,0:0:0:0:
402,192,181011,1,0,0:0:0:0:
182,192,181070,1,0,0:0:0:0:
329,192,181070,1,0,0:0:0:0:
256,192,181130,1,0,0:0:0:0:
36,192,181189,1,0,0:0:0:70:finish.wav
109,192,181189,1,0,0:0:0:70:bell.wav
402,192,181189,1,0,0:0:0:0:
475,192,181189,1,0,0:0:0:0:
