osu file format v14

[General]
AudioFilename: audio.mp3
AudioLeadIn: 0
PreviewTime: 46904
Countdown: 0
SampleSet: Soft
StackLeniency: 0.7
Mode: 3
LetterboxInBreaks: 0
SpecialStyle: 0
WidescreenStoryboard: 1

[Editor]
DistanceSpacing: 0.7
BeatDivisor: 1
GridSize: 32
TimelineZoom: 1.2

[Metadata]
Title:Merry Snowy Fantasy feat. Hanon
TitleUnicode:Merry Snowy Fantasy feat. Hanon
Artist:mustie=DC
ArtistUnicode:mustie=DC
Creator:Murumoo
Version:Normal
Source:
Tags:remuring qodtjr electronic japanese xmas christmas マスティ はのん A FUTURE MEOWS
BeatmapID:2205805
BeatmapSetID:1055617

[Difficulty]
HPDrainRate:7
CircleSize:7
OverallDifficulty:7
ApproachRate:5
SliderMultiplier:1.4
SliderTickRate:1

[Events]
//Background and Video events
0,0,"bg.jpg",0,0
//Break Periods
//Storyboard Layer 0 (Background)
//Storyboard Layer 1 (Fail)
//Storyboard Layer 2 (Pass)
//Storyboard Layer 3 (Foreground)
//Storyboard Layer 4 (Overlay)
//Storyboard Sound Samples
Sample,83332,0,"finish.wav",70
Sample,84046,0,"snare.wav",70
Sample,157261,0,"snare.wav",70
Sample,169046,0,"bell.wav",70
Sample,169761,0,"bell.wav",70
Sample,170475,0,"snare.wav",70
Sample,171189,0,"snare.wav",70
Sample,171904,0,"snare.wav",70
Sample,172618,0,"snare.wav",70
Sample,173332,0,"snare.wav",70
Sample,174046,0,"snare.wav",70
Sample,174761,0,"snare.wav",70
Sample,175475,0,"snare.wav",70
Sample,176189,0,"snare.wav",70
Sample,176904,0,"snare.wav",70
Sample,177618,0,"snare.wav",70
Sample,178332,0,"snare.wav",70

[TimingPoints]
1547,357.142857142857,4,2,1,20,1,0
72975,-100,4,2,1,20,0,1
98689,-100,4,2,1,20,0,0
158689,-100,4,2,1,20,0,1
170118,-100,4,2,1,20,0,0

[HitObjects]
36,192,1547,5,0,0:0:0:70:finish.wav
256,192,1547,1,0,0:0:0:0:
475,192,1725,1,0,0:0:0:0:
109,192,1904,1,0,0:0:0:0:
402,192,2082,1,0,0:0:0:0:
36,192,2261,1,0,0:0:0:0:
329,192,2439,1,0,0:0:0:0:
109,192,2618,1,0,0:0:0:0:
402,192,2796,1,0,0:0:0:0:
182,192,2975,1,0,0:0:0:0:
475,192,3154,1,0,0:0:0:0:
256,192,3332,1,0,0:0:0:0:
402,192,3511,1,0,0:0:0:0:
182,192,3689,1,0,0:0:0:0:
329,192,3868,1,0,0:0:0:0:
109,192,4046,1,0,0:0:0:0:
256,192,4225,1,0,0:0:0:0:
36,192,4404,1,0,0:0:0:0:
329,192,4582,1,0,0:0:0:0:
109,192,4761,1,0,0:0:0:0:
402,192,4939,1,0,0:0:0:0:
182,192,5118,1,0,0:0:0:0:
475,192,5296,1,0,0:0:0:0:
329,192,5475,1,0,0:0:0:0:
109,192,5654,1,0,0:0:0:0:
402,192,5832,1,0,0:0:0:0:
182,192,6011,1,0,0:0:0:0:
475,192,6189,1,0,0:0:0:0:
329,192,6368,1,0,0:0:0:0:
36,192,6546,1,0,0:0:0:0:
256,192,6725,1,0,0:0:0:0:
109,192,6904,1,0,0:0:0:0:
329,192,7082,1,0,0:0:0:0:
36,192,7261,1,0,0:0:0:70:drum.wav
475,192,7439,1,0,0:0:0:0:
36,192,7618,1,0,0:0:0:70:drum.wav
402,192,7796,1,0,0:0:0:0:
36,192,7975,1,0,0:0:0:70:drum.wav
329,192,8154,1,0,0:0:0:0:
36,192,8332,1,0,0:0:0:70:drum.wav
256,192,8511,1,0,0:0:0:0:
475,192,8689,1,0,0:0:0:70:drum.wav
182,192,8868,1,0,0:0:0:0:
475,192,9046,1,0,0:0:0:70:drum.wav
109,192,9225,1,0,0:0:0:0:
475,192,9404,1,0,0:0:0:70:drum.wav
36,192,9582,1,0,0:0:0:0:
475,192,9761,1,0,0:0:0:70:drum.wav
256,192,9939,1,0,0:0:0:0:
36,192,10118,128,0,11546:0:0:0:70:drum.wav
402,192,10296,1,0,0:0:0:0:
182,192,10475,1,0,0:0:0:70:drum.wav
329,192,10654,1,0,0:0:0:0:
475,192,10832,1,0,0:0:0:70:drum.wav
256,192,11011,1,0,0:0:0:0:
402,192,11189,1,0,0:0:0:70:drum.wav
182,192,11368,1,0,0:0:0:0:
475,192,11546,1,0,0:0:0:70:drum.wav
329,192,11725,1,0,0:0:0:0:
36,192,11904,1,0,0:0:0:0:
182,192,12082,1,0,0:0:0:0:
402,192,12261,1,0,0:0:0:0:
109,192,12439,1,0,0:0:0:0:
329,192,12618,1,0,0:0:0:50:Clap.wav
475,192,12618,1,0,0:0:0:0:
36,192,12975,1,0,0:0:0:70:drum.wav
256,192,12975,1,0,0:0:0:70:finish.wav
402,192,12975,1,0,0:0:0:0:
36,192,13332,1,0,0:0:0:70:drum.wav
475,192,13332,1,0,0:0:0:0:
109,192,13689,1,0,0:0:0:70:drum.wav
329,192,13689,1,0,0:0:0:0:
109,192,14046,1,0,0:0:0:70:drum.wav
402,192,14046,1,0,0:0:0:0:
256,192,14225,1,0,0:0:0:0:
182,192,14404,1,0,0:0:0:70:drum.wav
475,192,14404,1,0,0:0:0:0:
36,192,14761,1,0,0:0:0:70:drum.wav
182,192,14761,1,0,0:0:0:0:
109,192,15118,1,0,0:0:0:70:drum.wav
329,192,15118,1,0,0:0:0:0:
329,192,15475,1,0,0:0:0:70:drum.wav
475,192,15475,1,0,0:0:0:0:
256,192,15654,1,0,0:0:0:0:
182,192,15832,1,0,0:0:0:70:drum.wav
402,192,15832,1,0,0:0:0:0:
109,192,16189,1,0,0:0:0:70:drum.wav
402,192,16189,1,0,0:0:0:0:
36,192,16546,1,0,0:0:0:70:drum.wav
475,192,16546,1,0,0:0:0:0:
182,192,16904,1,0,0:0:0:70:drum.wav
475,192,16904,1,0,0:0:0:0:
329,192,17082,1,0,0:0:0:0:
36,192,17261,1,0,0:0:0:70:drum.wav
256,192,17261,1,0,0:0:0:0:
256,192,17618,1,0,0:0:0:70:drum.wav
475,192,17618,1,0,0:0:0:0:
36,192,17975,1,0,0:0:0:70:drum.wav
402,192,17975,1,0,0:0:0:0:
182,192,18154,1,0,0:0:0:0:
36,192,18332,1,0,0:0:0:70:drum.wav
475,192,18332,1,0,0:0:0:0:
329,192,18511,1,0,0:0:0:0:
182,192,18689,1,0,0:0:0:70:drum.wav
475,192,18689,1,0,0:0:0:0:
36,192,19046,1,0,0:0:0:70:drum.wav
475,192,19046,1,0,0:0:0:0:
182,192,19404,1,0,0:0:0:70:drum.wav
402,192,19404,1,0,0:0:0:0:
109,192,19761,1,0,0:0:0:70:drum.wav
402,192,19761,1,0,0:0:0:0:
256,192,19939,1,0,0:0:0:0:
36,192,20118,1,0,0:0:0:70:drum.wav
329,192,20118,1,0,0:0:0:0:
329,192,20475,1,0,0:0:0:70:drum.wav
475,192,20475,1,0,0:0:0:0:
182,192,20832,1,0,0:0:0:70:drum.wav
402,192,20832,1,0,0:0:0:0:
36,192,21189,1,0,0:0:0:70:drum.wav
182,192,21189,1,0,0:0:0:0:
256,192,21368,1,0,0:0:0:0:
109,192,21546,1,0,0:0:0:70:drum.wav
329,192,21546,1,0,0:0:0:0:
109,192,21904,1,0,0:0:0:70:drum.wav
402,192,21904,1,0,0:0:0:0:
36,192,22261,1,0,0:0:0:70:drum.wav
475,192,22261,1,0,0:0:0:0:
182,192,22439,1,0,0:0:0:0:
329,192,22618,1,0,0:0:0:70:drum.wav
475,192,22618,1,0,0:0:0:0:
109,192,22796,1,0,0:0:0:0:
36,192,22975,1,0,0:0:0:70:drum.wav
256,192,22975,1,0,0:0:0:70:finish.wav
475,192,22975,1,0,0:0:0:0:
109,192,23332,1,0,0:0:0:70:drum.wav
402,192,23332,1,0,0:0:0:0:
36,192,23689,128,0,24046:0:0:0:70:drum.wav
182,192,23689,1,0,0:0:0:0:
329,192,24046,1,0,0:0:0:70:drum.wav
475,192,24046,128,0,24404:0:0:0:0:
109,192,24404,1,0,0:0:0:70:drum.wav
256,192,24404,1,0,0:0:0:70:finish.wav
402,192,24404,1,0,0:0:0:0:
36,192,24761,1,0,0:0:0:70:snare.wav
329,192,24761,1,0,0:0:0:0:
109,192,25118,1,0,0:0:0:70:drum.wav
402,192,25118,1,0,0:0:0:0:
256,192,25296,1,0,0:0:0:0:
182,192,25475,1,0,0:0:0:70:snare.wav
475,192,25475,1,0,0:0:0:0:
36,192,25832,1,0,0:0:0:70:drum.wav
329,192,25832,1,0,0:0:0:0:
109,192,26189,1,0,0:0:0:70:snare.wav
402,192,26189,1,0,0:0:0:0:
182,192,26546,1,0,0:0:0:70:drum.wav
475,192,26546,1,0,0:0:0:0:
329,192,26725,1,0,0:0:0:70:snare.wav
36,192,26904,1,0,0:0:0:70:drum.wav
109,192,26904,1,0,0:0:0:0:
402,192,27082,1,0,0:0:0:70:snare.wav
36,192,27261,1,0,0:0:0:70:drum.wav
256,192,27261,1,0,0:0:0:70:finish.wav
475,192,27261,1,0,0:0:0:0:
109,192,27618,1,0,0:0:0:70:snare.wav
402,192,27618,1,0,0:0:0:0:
36,192,27975,1,0,0:0:0:70:drum.wav
329,192,27975,1,0,0:0:0:0:
256,192,28154,1,0,0:0:0:0:
182,192,28332,1,0,0:0:0:70:snare.wav
475,192,28332,1,0,0:0:0:0:
109,192,28689,1,0,0:0:0:70:drum.wav
402,192,28689,1,0,0:0:0:0:
36,192,29046,1,0,0:0:0:70:snare.wav
329,192,29046,1,0,0:0:0:0:
109,192,29404,1,0,0:0:0:70:drum.wav
402,192,29404,1,0,0:0:0:0:
36,192,29582,1,0,0:0:0:70:snare.wav
182,192,29761,1,0,0:0:0:70:drum.wav
475,192,29761,1,0,0:0:0:0:
109,192,29939,1,0,0:0:0:70:snare.wav
36,192,30118,1,0,0:0:0:70:drum.wav
256,192,30118,1,0,0:0:0:70:finish.wav
475,192,30118,1,0,0:0:0:0:
109,192,30475,1,0,0:0:0:70:snare.wav
402,192,30475,1,0,0:0:0:0:
182,192,30832,1,0,0:0:0:70:drum.wav
329,192,30832,1,0,0:0:0:0:
256,192,31011,1,0,0:0:0:0:
109,192,31189,1,0,0:0:0:70:snare.wav
402,192,31189,1,0,0:0:0:0:
36,192,31546,1,0,0:0:0:70:drum.wav
475,192,31546,1,0,0:0:0:0:
182,192,31904,1,0,0:0:0:70:snare.wav
329,192,31904,1,0,0:0:0:0:
256,192,32261,128,0,32975:0:0:0:70:drum.wav
109,192,32618,1,0,0:0:0:70:snare.wav
402,192,32618,1,0,0:0:0:0:
36,192,32975,1,0,0:0:0:70:drum.wav
475,192,32975,1,0,0:0:0:70:finish.wav
109,192,33332,1,0,0:0:0:70:snare.wav
329,192,33332,1,0,0:0:0:0:
182,192,33689,1,0,0:0:0:70:drum.wav
402,192,33689,1,0,0:0:0:0:
36,192,33868,1,0,0:0:0:0:
256,192,34046,1,0,0:0:0:70:snare.wav
475,192,34046,1,0,0:0:0:0:
36,192,34404,1,0,0:0:0:70:drum.wav
329,192,34404,1,0,0:0:0:0:
182,192,34761,1,0,0:0:0:70:snare.wav
475,192,34761,1,0,0:0:0:0:
109,192,35118,1,0,0:0:0:70:drum.wav
402,192,35118,1,0,0:0:0:0:
256,192,35296,1,0,0:0:0:0:
36,192,35475,1,0,0:0:0:70:snare.wav
329,192,35475,1,0,0:0:0:0:
256,192,35832,1,0,0:0:0:70:drum.wav
475,192,35832,1,0,0:0:0:0:
36,192,36189,1,0,0:0:0:70:snare.wav
256,192,36189,1,0,0:0:0:0:
109,192,36546,1,0,0:0:0:70:drum.wav
475,192,36546,1,0,0:0:0:0:
256,192,36725,1,0,0:0:0:0:
109,192,36904,1,0,0:0:0:70:snare.wav
329,192,36904,1,0,0:0:0:0:
182,192,37261,1,0,0:0:0:70:drum.wav
402,192,37261,1,0,0:0:0:0:
36,192,37618,1,0,0:0:0:70:snare.wav
402,192,37618,1,0,0:0:0:0:
109,192,37975,1,0,0:0:0:70:drum.wav
329,192,37975,1,0,0:0:0:0:
182,192,38154,1,0,0:0:0:0:
329,192,38332,1,0,0:0:0:70:snare.wav
475,192,38332,1,0,0:0:0:0:
256,192,38511,1,0,0:0:0:0:
36,192,38689,1,0,0:0:0:70:drum.wav
182,192,38689,1,0,0:0:0:70:finish.wav
402,192,38689,1,0,0:0:0:0:
182,192,39046,1,0,0:0:0:70:bell.wav
329,192,39404,1,0,0:0:0:70:bell.wav
329,192,39761,1,0,0:0:0:70:bell.wav
256,192,40118,1,0,0:0:0:70:bell.wav
256,192,40475,1,0,0:0:0:70:bell.wav
475,192,40832,1,0,0:0:0:70:bell.wav
475,192,41189,1,0,0:0:0:70:bell.wav
36,192,41546,1,0,0:0:0:70:bell.wav
36,192,41904,1,0,0:0:0:70:bell.wav
402,192,42261,1,0,0:0:0:70:bell.wav
402,192,42618,1,0,0:0:0:70:bell.wav
109,192,42975,1,0,0:0:0:70:bell.wav
109,192,43332,1,0,0:0:0:70:bell.wav
329,192,43689,1,0,0:0:0:70:bell.wav
329,192,44046,1,0,0:0:0:70:bell.wav
256,192,44404,1,0,0:0:0:70:bell.wav
256,192,44761,1,0,0:0:0:70:bell.wav
36,192,45118,1,0,0:0:0:70:bell.wav
36,192,45475,1,0,0:0:0:70:bell.wav
475,192,45832,1,0,0:0:0:70:bell.wav
475,192,46189,1,0,0:0:0:70:bell.wav
109,192,46546,1,0,0:0:0:70:bell.wav
109,192,46904,1,0,0:0:0:70:bell.wav
182,192,47261,1,0,0:0:0:70:bell.wav
182,192,47618,1,0,0:0:0:70:bell.wav
402,192,47975,1,0,0:0:0:70:bell.wav
402,192,48332,1,0,0:0:0:70:bell.wav
109,192,48689,1,0,0:0:0:70:bell.wav
109,192,49046,1,0,0:0:0:70:bell.wav
329,192,49404,1,0,0:0:0:70:bell.wav
329,192,49761,128,0,50118:0:0:0:70:bell.wav
36,192,50118,1,0,0:0:0:70:finish.wav
475,192,50118,1,0,0:0:0:70:snare.wav
182,192,50296,1,0,0:0:0:0:
329,192,50475,1,0,0:0:0:70:snare.wav
475,192,50654,1,0,0:0:0:0:
182,192,50832,128,0,51189:0:0:0:70:snare.wav
329,192,50832,1,0,0:0:0:0:
36,192,51189,128,0,51546:0:0:0:70:snare.wav
182,192,51546,1,0,0:0:0:70:snare.wav
475,192,51546,1,0,0:0:0:0:
329,192,51725,1,0,0:0:0:0:
182,192,51904,1,0,0:0:0:70:snare.wav
36,192,52082,1,0,0:0:0:0:
182,192,52261,1,0,0:0:0:70:snare.wav
329,192,52261,128,0,52618:0:0:0:0:
475,192,52618,128,0,52975:0:0:0:70:snare.wav
109,192,52975,1,0,0:0:0:70:snare.wav
182,192,52975,1,0,0:0:0:0:
329,192,53154,1,0,0:0:0:0:
36,192,53332,1,0,0:0:0:70:snare.wav
256,192,53511,1,0,0:0:0:0:
109,192,53689,128,0,54046:0:0:0:70:snare.wav
329,192,53689,1,0,0:0:0:0:
402,192,54046,128,0,54404:0:0:0:70:snare.wav
182,192,54404,1,0,0:0:0:70:snare.wav
256,192,54404,1,0,0:0:0:0:
36,192,54582,1,0,0:0:0:0:
329,192,54761,1,0,0:0:0:70:snare.wav
109,192,54939,1,0,0:0:0:0:
182,192,55118,1,0,0:0:0:70:snare.wav
475,192,55118,128,0,55475:0:0:0:0:
36,192,55475,128,0,55832:0:0:0:70:drum.wav
182,192,55832,1,0,0:0:0:70:drum.wav
475,192,55832,1,0,0:0:0:0:
329,192,56011,1,0,0:0:0:70:snare.wav
475,192,56189,1,0,0:0:0:70:drum.wav
329,192,56368,1,0,0:0:0:70:snare.wav
36,192,56546,1,0,0:0:0:70:drum.wav
475,192,56546,1,0,0:0:0:0:
182,192,56725,1,0,0:0:0:70:snare.wav
36,192,56904,1,0,0:0:0:70:drum.wav
182,192,57082,1,0,0:0:0:70:snare.wav
36,192,57261,1,0,0:0:0:70:drum.wav
475,192,57261,128,0,57439:0:0:0:0:
329,192,57439,128,0,57618:0:0:0:70:drum.wav
182,192,57618,128,0,57796:0:0:0:70:drum.wav
36,192,57796,128,0,57975:0:0:0:70:drum.wav
256,192,57975,128,0,58154:0:0:0:70:drum.wav
402,192,57975,1,0,0:0:0:0:
109,192,58154,128,0,58332:0:0:0:70:drum.wav
329,192,58332,128,0,58511:0:0:0:70:drum.wav
182,192,58511,128,0,58689:0:0:0:70:drum.wav
329,192,58689,1,0,0:0:0:70:bell.wav
329,192,59046,1,0,0:0:0:70:bell.wav
182,192,59404,1,0,0:0:0:70:bell.wav
182,192,59761,1,0,0:0:0:70:bell.wav
329,192,60118,128,0,60654:0:0:0:0:
475,192,60118,128,0,60654:0:0:0:0:
36,192,60654,1,0,0:0:0:0:
182,192,60654,1,0,0:0:0:0:
36,192,60832,128,0,61189:0:0:0:0:
182,192,60832,128,0,61189:0:0:0:0:
402,192,61189,128,0,61546:0:0:0:0:
36,192,61546,1,0,0:0:0:70:drum.wav
182,192,61546,1,0,0:0:0:70:finish.wav
329,192,61725,1,0,0:0:0:0:
109,192,61904,1,0,0:0:0:0:
402,192,62082,1,0,0:0:0:0:
36,192,62261,128,0,62618:0:0:0:70:snare.wav
182,192,62261,1,0,0:0:0:0:
475,192,62618,128,0,62975:0:0:0:0:
109,192,62975,1,0,0:0:0:70:drum.wav
182,192,62975,1,0,0:0:0:0:
329,192,63154,1,0,0:0:0:0:
36,192,63332,1,0,0:0:0:0:
475,192,63511,1,0,0:0:0:0:
109,192,63689,128,0,64046:0:0:0:70:snare.wav
182,192,63689,1,0,0:0:0:0:
402,192,64046,128,0,64404:0:0:0:0:
36,192,64404,1,0,0:0:0:70:drum.wav
256,192,64404,1,0,0:0:0:0:
182,192,64582,1,0,0:0:0:0:
402,192,64761,1,0,0:0:0:0:
109,192,64939,1,0,0:0:0:0:
329,192,65118,1,0,0:0:0:70:snare.wav
475,192,65118,128,0,65475:0:0:0:0:
36,192,65475,128,0,65832:0:0:0:0:
256,192,65832,1,0,0:0:0:70:drum.wav
402,192,65832,1,0,0:0:0:0:
109,192,66011,1,0,0:0:0:0:
475,192,66189,1,0,0:0:0:0:
182,192,66368,1,0,0:0:0:0:
36,192,66546,1,0,0:0:0:70:snare.wav
402,192,66546,128,0,66904:0:0:0:0:
256,192,66904,128,0,67261:0:0:0:0:
36,192,67261,1,0,0:0:0:70:drum.wav
475,192,67261,1,0,0:0:0:0:
182,192,67439,1,0,0:0:0:0:
329,192,67618,1,0,0:0:0:0:
475,192,67796,1,0,0:0:0:0:
36,192,67975,1,0,0:0:0:70:snare.wav
329,192,67975,128,0,68332:0:0:0:0:
109,192,68332,1,0,0:0:0:70:drum.wav
182,192,68332,1,0,0:0:0:70:finish.wav
475,192,68332,128,0,68689:0:0:0:0:
256,192,68689,1,0,0:0:0:0:
36,192,68868,1,0,0:0:0:0:
402,192,69046,1,0,0:0:0:70:drum.wav
182,192,69225,1,0,0:0:0:0:
36,192,69404,128,0,69761:0:0:0:70:snare.wav
475,192,69404,1,0,0:0:0:0:
182,192,69761,1,0,0:0:0:70:snare.wav
402,192,69761,128,0,70118:0:0:0:0:
36,192,70118,1,0,0:0:0:70:drum.wav
109,192,70118,128,0,70296:0:0:0:70:finish.wav
329,192,70296,128,0,70475:0:0:0:0:
182,192,70475,128,0,70654:0:0:0:0:
402,192,70654,128,0,70832:0:0:0:0:
36,192,70832,128,0,71011:0:0:0:70:snare.wav
329,192,70832,1,0,0:0:0:0:
182,192,71011,128,0,71189:0:0:0:0:
329,192,71189,128,0,71368:0:0:0:0:
475,192,71368,128,0,71546:0:0:0:0:
36,192,71546,1,0,0:0:0:70:drum.wav
109,192,71546,128,0,71725:0:0:0:0:
256,192,71725,128,0,71904:0:0:0:0:
402,192,71904,128,0,72082:0:0:0:70:drum.wav
475,192,71904,1,0,0:0:0:0:
36,192,72082,128,0,72261:0:0:0:0:
182,192,72261,1,0,0:0:0:70:snare.wav
475,192,72261,128,0,72439:0:0:0:0:
329,192,72439,128,0,72618:0:0:0:0:
182,192,72618,128,0,72796:0:0:0:70:finish.wav
256,192,72618,1,0,0:0:0:70:snare.wav
36,192,72796,128,0,72975:0:0:0:70:drum.wav
329,192,72975,1,0,0:0:0:70:drum.wav
402,192,72975,1,0,0:0:0:70:finish.wav
475,192,72975,128,0,74404:0:0:0:0:
109,192,73332,1,0,0:0:0:70:drum.wav
36,192,73689,1,0,0:0:0:70:snare.wav
256,192,73689,1,0,0:0:0:0:
182,192,74046,1,0,0:0:0:70:drum.wav
256,192,74225,1,0,0:0:0:0:
36,192,74404,128,0,74582:0:0:0:70:drum.wav
329,192,74404,1,0,0:0:0:0:
182,192,74582,128,0,74761:0:0:0:0:
329,192,74761,128,0,74939:0:0:0:70:drum.wav
475,192,74939,128,0,75118:0:0:0:0:
36,192,75118,128,0,75832:0:0:0:70:snare.wav
109,192,75118,1,0,0:0:0:0:
329,192,75118,1,0,0:0:0:0:
402,192,75475,1,0,0:0:0:70:drum.wav
256,192,75654,1,0,0:0:0:0:
182,192,75832,1,0,0:0:0:70:drum.wav
475,192,75832,128,0,76011:0:0:0:0:
329,192,76011,128,0,76189:0:0:0:0:
182,192,76189,128,0,76368:0:0:0:70:drum.wav
36,192,76368,128,0,76546:0:0:0:0:
182,192,76546,1,0,0:0:0:70:snare.wav
329,192,76546,1,0,0:0:0:0:
475,192,76546,128,0,77261:0:0:0:0:
109,192,76904,1,0,0:0:0:70:drum.wav
256,192,77082,1,0,0:0:0:0:
36,192,77261,1,0,0:0:0:70:drum.wav
329,192,77261,1,0,0:0:0:0:
182,192,77439,1,0,0:0:0:0:
475,192,77618,128,0,77975:0:0:0:70:drum.wav
256,192,77796,1,0,0:0:0:0:
36,192,77975,1,0,0:0:0:70:snare.wav
109,192,77975,1,0,0:0:0:0:
329,192,77975,128,0,78332:0:0:0:0:
182,192,78332,128,0,78689:0:0:0:70:drum.wav
402,192,78332,1,0,0:0:0:0:
36,192,78689,128,0,80118:0:0:0:70:drum.wav
256,192,78689,1,0,0:0:0:70:finish.wav
475,192,78689,1,0,0:0:0:0:
329,192,79046,1,0,0:0:0:70:drum.wav
182,192,79404,1,0,0:0:0:70:snare.wav
402,192,79404,1,0,0:0:0:0:
256,192,79761,1,0,0:0:0:70:drum.wav
329,192,79939,1,0,0:0:0:0:
182,192,80118,1,0,0:0:0:70:drum.wav
475,192,80118,128,0,80296:0:0:0:0:
329,192,80296,128,0,80475:0:0:0:0:
182,192,80475,128,0,80654:0:0:0:70:drum.wav
36,192,80654,128,0,80832:0:0:0:0:
329,192,80832,1,0,0:0:0:70:snare.wav
475,192,80832,128,0,81546:0:0:0:0:
109,192,81189,1,0,0:0:0:70:drum.wav
256,192,81368,1,0,0:0:0:0:
36,192,81546,128,0,81904:0:0:0:70:drum.wav
182,192,81546,1,0,0:0:0:70:finish.wav
329,192,81904,128,0,82261:0:0:0:70:drum.wav
475,192,81904,1,0,0:0:0:0:
36,192,82261,1,0,0:0:0:70:finish.wav
182,192,82261,128,0,82618:0:0:0:70:snare.wav
329,192,82618,1,0,0:0:0:70:drum.wav
475,192,82618,128,0,82975:0:0:0:0:
256,192,82796,1,0,0:0:0:0:
36,192,82975,1,0,0:0:0:70:drum.wav
182,192,82975,1,0,0:0:0:70:finish.wav
329,192,83154,1,0,0:0:0:70:snare.wav
109,192,83332,1,0,0:0:0:70:drum.wav
475,192,83511,1,0,0:0:0:0:
182,192,83689,1,0,0:0:0:70:finish.wav
329,192,83689,1,0,0:0:0:70:snare.wav
36,192,83868,1,0,0:0:0:0:
402,192,84046,1,0,0:0:0:70:finish.wav
182,192,84225,1,0,0:0:0:70:drum.wav
329,192,84404,1,0,0:0:0:70:drum.wav
475,192,84404,1,0,0:0:0:70:finish.wav
109,192,84761,1,0,0:0:0:70:snare.wav
256,192,84761,1,0,0:0:0:0:
36,192,85118,1,0,0:0:0:70:drum.wav
329,192,85118,1,0,0:0:0:0:
182,192,85475,1,0,0:0:0:70:snare.wav
402,192,85475,1,0,0:0:0:0:
256,192,85654,1,0,0:0:0:0:
36,192,85832,1,0,0:0:0:70:drum.wav
475,192,85832,1,0,0:0:0:0:
329,192,86011,1,0,0:0:0:0:
109,192,86189,1,0,0:0:0:70:snare.wav
256,192,86368,1,0,0:0:0:0:
182,192,86546,1,0,0:0:0:70:drum.wav
475,192,86546,1,0,0:0:0:0:
329,192,86725,1,0,0:0:0:0:
182,192,86904,1,0,0:0:0:70:snare.wav
36,192,87082,1,0,0:0:0:0:
329,192,87261,1,0,0:0:0:70:drum.wav
475,192,87261,1,0,0:0:0:0:
109,192,87618,1,0,0:0:0:70:snare.wav
402,192,87618,1,0,0:0:0:0:
36,192,87975,1,0,0:0:0:70:drum.wav
329,192,87975,1,0,0:0:0:0:
109,192,88332,1,0,0:0:0:70:snare.wav
402,192,88332,1,0,0:0:0:0:
256,192,88511,1,0,0:0:0:0:
36,192,88689,1,0,0:0:0:70:drum.wav
475,192,88689,1,0,0:0:0:0:
182,192,88868,1,0,0:0:0:0:
402,192,89046,1,0,0:0:0:70:snare.wav
256,192,89225,1,0,0:0:0:0:
36,192,89404,1,0,0:0:0:70:drum.wav
329,192,89404,1,0,0:0:0:0:
182,192,89582,1,0,0:0:0:0:
329,192,89761,1,0,0:0:0:70:snare.wav
475,192,89939,1,0,0:0:0:0:
36,192,90118,1,0,0:0:0:70:drum.wav
256,192,90118,1,0,0:0:0:0:
109,192,90475,1,0,0:0:0:70:snare.wav
402,192,90475,1,0,0:0:0:0:
182,192,90832,1,0,0:0:0:70:drum.wav
475,192,90832,1,0,0:0:0:0:
109,192,91189,1,0,0:0:0:70:snare.wav
256,192,91189,1,0,0:0:0:0:
402,192,91368,1,0,0:0:0:0:
36,192,91546,128,0,92618:0:0:0:70:drum.wav
475,192,91546,1,0,0:0:0:0:
182,192,91725,1,0,0:0:0:0:
402,192,91904,1,0,0:0:0:70:snare.wav
256,192,92082,1,0,0:0:0:0:
475,192,92261,1,0,0:0:0:70:drum.wav
329,192,92439,1,0,0:0:0:0:
182,192,92618,1,0,0:0:0:70:snare.wav
402,192,92796,1,0,0:0:0:0:
36,192,92975,1,0,0:0:0:70:drum.wav
256,192,92975,1,0,0:0:0:70:finish.wav
475,192,92975,1,0,0:0:0:0:
109,192,93154,1,0,0:0:0:0:
402,192,93332,1,0,0:0:0:70:snare.wav
256,192,93511,1,0,0:0:0:0:
109,192,93689,1,0,0:0:0:70:drum.wav
475,192,93689,1,0,0:0:0:0:
329,192,93868,1,0,0:0:0:0:
36,192,94046,1,0,0:0:0:70:snare.wav
182,192,94225,1,0,0:0:0:0:
109,192,94404,1,0,0:0:0:70:drum.wav
475,192,94404,1,0,0:0:0:0:
256,192,94582,1,0,0:0:0:0:
182,192,94761,1,0,0:0:0:70:snare.wav
402,192,94939,1,0,0:0:0:0:
36,192,95118,1,0,0:0:0:70:drum.wav
329,192,95118,1,0,0:0:0:0:
475,192,95296,1,0,0:0:0:0:
402,192,95475,1,0,0:0:0:70:snare.wav
109,192,95654,1,0,0:0:0:0:
329,192,95832,1,0,0:0:0:70:drum.wav
475,192,95832,1,0,0:0:0:0:
36,192,96011,1,0,0:0:0:0:
402,192,96189,1,0,0:0:0:70:snare.wav
256,192,96368,1,0,0:0:0:0:
36,192,96546,1,0,0:0:0:70:drum.wav
475,192,96546,1,0,0:0:0:0:
182,192,96725,1,0,0:0:0:0:
402,192,96904,1,0,0:0:0:70:snare.wav
109,192,97082,1,0,0:0:0:0:
329,192,97261,1,0,0:0:0:70:drum.wav
475,192,97261,1,0,0:0:0:0:
182,192,97439,1,0,0:0:0:0:
402,192,97618,1,0,0:0:0:70:snare.wav
109,192,97796,1,0,0:0:0:0:
256,192,97975,1,0,0:0:0:70:drum.wav
475,192,97975,1,0,0:0:0:0:
36,192,98154,1,0,0:0:0:0:
182,192,98332,1,0,0:0:0:70:snare.wav
329,192,98511,1,0,0:0:0:0:
36,192,98689,1,0,0:0:0:70:drum.wav
256,192,98689,128,0,101546:0:0:0:70:finish.wav
475,192,98689,1,0,0:0:0:0:
182,192,101546,1,0,0:0:0:0:
36,192,101725,1,0,0:0:0:0:
402,192,101904,1,0,0:0:0:0:
182,192,102082,1,0,0:0:0:0:
475,192,102261,1,0,0:0:0:0:
256,192,102439,1,0,0:0:0:0:
402,192,102618,1,0,0:0:0:0:
109,192,102796,1,0,0:0:0:0:
329,192,102975,1,0,0:0:0:0:
36,192,103154,1,0,0:0:0:0:
256,192,103332,1,0,0:0:0:0:
109,192,103511,1,0,0:0:0:0:
329,192,103689,1,0,0:0:0:0:
182,192,103868,1,0,0:0:0:0:
402,192,104046,1,0,0:0:0:0:
256,192,104225,1,0,0:0:0:0:
475,192,104404,1,0,0:0:0:0:
182,192,104582,1,0,0:0:0:0:
402,192,104761,1,0,0:0:0:0:
109,192,104939,1,0,0:0:0:0:
329,192,105118,1,0,0:0:0:0:
36,192,105296,1,0,0:0:0:0:
182,192,105475,1,0,0:0:0:0:
402,192,105654,1,0,0:0:0:0:
109,192,105832,1,0,0:0:0:0:
329,192,106011,1,0,0:0:0:0:
36,192,106189,1,0,0:0:0:0:
182,192,106368,1,0,0:0:0:0:
475,192,106546,1,0,0:0:0:0:
256,192,106725,1,0,0:0:0:0:
402,192,106904,1,0,0:0:0:0:
182,192,107082,1,0,0:0:0:0:
475,192,107261,1,0,0:0:0:0:
36,192,107439,1,0,0:0:0:0:
402,192,107618,1,0,0:0:0:0:
109,192,107796,1,0,0:0:0:0:
475,192,107975,1,0,0:0:0:0:
182,192,108154,1,0,0:0:0:0:
402,192,108332,1,0,0:0:0:0:
256,192,108511,1,0,0:0:0:0:
36,192,108689,1,0,0:0:0:0:
329,192,108868,1,0,0:0:0:0:
109,192,109046,1,0,0:0:0:0:
402,192,109225,1,0,0:0:0:0:
36,192,109404,1,0,0:0:0:0:
475,192,109582,1,0,0:0:0:0:
109,192,109761,1,0,0:0:0:0:
256,192,109939,1,0,0:0:0:0:
402,192,110118,1,0,0:0:0:0:
109,192,110296,1,0,0:0:0:0:
329,192,110475,1,0,0:0:0:0:
182,192,110654,1,0,0:0:0:0:
36,192,110832,1,0,0:0:0:0:
475,192,111011,1,0,0:0:0:0:
256,192,111189,1,0,0:0:0:0:
402,192,111368,1,0,0:0:0:0:
36,192,111546,1,0,0:0:0:0:
182,192,111725,1,0,0:0:0:0:
475,192,111904,1,0,0:0:0:0:
329,192,112082,1,0,0:0:0:0:
109,192,112261,1,0,0:0:0:0:
402,192,112439,1,0,0:0:0:0:
182,192,112618,1,0,0:0:0:0:
329,192,112796,1,0,0:0:0:0:
109,192,112975,1,0,0:0:0:70:drum.wav
475,192,112975,1,0,0:0:0:0:
36,192,113332,1,0,0:0:0:70:drum.wav
475,192,113332,1,0,0:0:0:0:
182,192,113689,1,0,0:0:0:70:drum.wav
402,192,113689,1,0,0:0:0:0:
109,192,114046,1,0,0:0:0:70:drum.wav
402,192,114046,1,0,0:0:0:0:
256,192,114225,1,0,0:0:0:0:
36,192,114404,1,0,0:0:0:70:drum.wav
329,192,114404,1,0,0:0:0:0:
329,192,114761,1,0,0:0:0:70:drum.wav
475,192,114761,1,0,0:0:0:0:
182,192,115118,1,0,0:0:0:70:drum.wav
402,192,115118,1,0,0:0:0:0:
36,192,115475,1,0,0:0:0:70:drum.wav
182,192,115475,1,0,0:0:0:0:
256,192,115654,1,0,0:0:0:0:
109,192,115832,1,0,0:0:0:70:drum.wav
329,192,115832,1,0,0:0:0:0:
109,192,116189,1,0,0:0:0:70:drum.wav
402,192,116189,1,0,0:0:0:0:
36,192,116546,1,0,0:0:0:70:drum.wav
475,192,116546,1,0,0:0:0:0:
36,192,116904,1,0,0:0:0:70:drum.wav
329,192,116904,1,0,0:0:0:0:
182,192,117082,1,0,0:0:0:0:
256,192,117261,1,0,0:0:0:70:drum.wav
475,192,117261,1,0,0:0:0:0:
36,192,117618,1,0,0:0:0:70:drum.wav
256,192,117618,1,0,0:0:0:0:
109,192,117975,1,0,0:0:0:70:drum.wav
475,192,117975,1,0,0:0:0:0:
256,192,118154,1,0,0:0:0:0:
36,192,118332,1,0,0:0:0:70:drum.wav
475,192,118332,1,0,0:0:0:0:
182,192,118689,1,0,0:0:0:70:drum.wav
329,192,118689,1,0,0:0:0:0:
182,192,119046,1,0,0:0:0:70:drum.wav
475,192,119046,1,0,0:0:0:0:
109,192,119404,1,0,0:0:0:70:drum.wav
329,192,119404,1,0,0:0:0:0:
109,192,119761,1,0,0:0:0:70:drum.wav
402,192,119761,1,0,0:0:0:0:
256,192,119939,1,0,0:0:0:0:
182,192,120118,1,0,0:0:0:70:drum.wav
475,192,120118,1,0,0:0:0:0:
36,192,120475,1,0,0:0:0:70:drum.wav
182,192,120475,1,0,0:0:0:0:
109,192,120832,1,0,0:0:0:70:drum.wav
329,192,120832,1,0,0:0:0:0:
329,192,121189,1,0,0:0:0:70:drum.wav
475,192,121189,1,0,0:0:0:0:
256,192,121368,1,0,0:0:0:0:
182,192,121546,1,0,0:0:0:70:drum.wav
402,192,121546,1,0,0:0:0:0:
109,192,121904,1,0,0:0:0:70:drum.wav
402,192,121904,1,0,0:0:0:0:
36,192,122261,1,0,0:0:0:70:drum.wav
475,192,122261,1,0,0:0:0:0:
182,192,122618,1,0,0:0:0:70:drum.wav
475,192,122618,1,0,0:0:0:0:
329,192,122796,1,0,0:0:0:0:
36,192,122975,128,0,124404:0:0:0:70:drum.wav
256,192,122975,1,0,0:0:0:0:
329,192,123332,1,0,0:0:0:70:drum.wav
182,192,123689,1,0,0:0:0:70:drum.wav
475,192,123689,1,0,0:0:0:0:
256,192,124046,1,0,0:0:0:0:
329,192,124404,1,0,0:0:0:70:finish.wav
475,192,124404,1,0,0:0:0:0:
329,192,124761,1,0,0:0:0:70:bell.wav
182,192,125118,1,0,0:0:0:70:bell.wav
182,192,125475,1,0,0:0:0:70:bell.wav
256,192,125832,1,0,0:0:0:70:bell.wav
256,192,126189,1,0,0:0:0:70:bell.wav
36,192,126546,1,0,0:0:0:70:bell.wav
36,192,126904,1,0,0:0:0:70:bell.wav
402,192,127261,1,0,0:0:0:70:bell.wav
402,192,127618,1,0,0:0:0:70:bell.wav
109,192,127975,1,0,0:0:0:70:bell.wav
109,192,128332,1,0,0:0:0:70:bell.wav
182,192,128689,1,0,0:0:0:70:bell.wav
182,192,129046,1,0,0:0:0:70:bell.wav
402,192,129404,1,0,0:0:0:70:bell.wav
402,192,129761,1,0,0:0:0:70:bell.wav
256,192,130118,1,0,0:0:0:70:bell.wav
256,192,130475,1,0,0:0:0:70:bell.wav
182,192,130832,1,0,0:0:0:70:bell.wav
182,192,131189,1,0,0:0:0:70:bell.wav
36,192,131546,1,0,0:0:0:70:bell.wav
36,192,131904,1,0,0:0:0:70:bell.wav
402,192,132261,1,0,0:0:0:70:bell.wav
402,192,132618,1,0,0:0:0:70:bell.wav
329,192,132975,1,0,0:0:0:70:bell.wav
329,192,133332,1,0,0:0:0:70:bell.wav
109,192,133689,1,0,0:0:0:70:bell.wav
109,192,134046,1,0,0:0:0:70:bell.wav
402,192,134404,1,0,0:0:0:70:bell.wav
402,192,134761,1,0,0:0:0:70:bell.wav
182,192,135118,1,0,0:0:0:70:bell.wav
182,192,135475,128,0,135832:0:0:0:70:bell.wav
36,192,135832,1,0,0:0:0:70:finish.wav
256,192,135832,1,0,0:0:0:70:snare.wav
475,192,135832,1,0,0:0:0:0:
329,192,136011,1,0,0:0:0:0:
182,192,136189,1,0,0:0:0:70:snare.wav
36,192,136368,1,0,0:0:0:0:
182,192,136546,1,0,0:0:0:70:snare.wav
329,192,136546,128,0,136904:0:0:0:0:
475,192,136904,128,0,137261:0:0:0:70:snare.wav
36,192,137261,1,0,0:0:0:70:snare.wav
329,192,137261,1,0,0:0:0:0:
182,192,137439,1,0,0:0:0:0:
329,192,137618,1,0,0:0:0:70:snare.wav
475,192,137796,1,0,0:0:0:0:
182,192,137975,128,0,138332:0:0:0:70:snare.wav
329,192,137975,1,0,0:0:0:0:
36,192,138332,128,0,138689:0:0:0:70:snare.wav
329,192,138689,1,0,0:0:0:70:snare.wav
402,192,138689,1,0,0:0:0:0:
182,192,138868,1,0,0:0:0:0:
475,192,139046,1,0,0:0:0:70:snare.wav
256,192,139225,1,0,0:0:0:0:
36,192,139404,1,0,0:0:0:70:snare.wav
402,192,139404,128,0,139761:0:0:0:0:
109,192,139761,128,0,140118:0:0:0:70:snare.wav
256,192,140118,1,0,0:0:0:70:snare.wav
329,192,140118,1,0,0:0:0:0:
475,192,140296,1,0,0:0:0:0:
182,192,140475,1,0,0:0:0:70:snare.wav
402,192,140654,1,0,0:0:0:0:
36,192,140832,128,0,141189:0:0:0:70:snare.wav
256,192,140832,1,0,0:0:0:0:
475,192,141189,128,0,141546:0:0:0:70:drum.wav
36,192,141546,1,0,0:0:0:70:drum.wav
329,192,141546,1,0,0:0:0:0:
182,192,141725,1,0,0:0:0:70:snare.wav
36,192,141904,1,0,0:0:0:70:drum.wav
182,192,142082,1,0,0:0:0:70:snare.wav
36,192,142261,1,0,0:0:0:70:drum.wav
475,192,142261,1,0,0:0:0:0:
329,192,142439,1,0,0:0:0:70:snare.wav
475,192,142618,1,0,0:0:0:70:drum.wav
329,192,142796,1,0,0:0:0:70:snare.wav
36,192,142975,128,0,143154:0:0:0:70:drum.wav
475,192,142975,1,0,0:0:0:0:
182,192,143154,128,0,143332:0:0:0:70:drum.wav
329,192,143332,128,0,143511:0:0:0:70:drum.wav
475,192,143511,128,0,143689:0:0:0:70:drum.wav
109,192,143689,1,0,0:0:0:70:drum.wav
256,192,143689,128,0,143868:0:0:0:0:
402,192,143868,128,0,144046:0:0:0:70:drum.wav
182,192,144046,128,0,144225:0:0:0:70:drum.wav
329,192,144225,128,0,144404:0:0:0:70:drum.wav
182,192,144404,1,0,0:0:0:70:bell.wav
182,192,144761,1,0,0:0:0:70:bell.wav
329,192,145118,1,0,0:0:0:70:bell.wav
329,192,145475,1,0,0:0:0:70:bell.wav
36,192,145832,128,0,146368:0:0:0:0:
182,192,145832,128,0,146368:0:0:0:0:
329,192,146368,1,0,0:0:0:0:
475,192,146368,1,0,0:0:0:0:
329,192,146546,128,0,146904:0:0:0:0:
475,192,146546,128,0,146904:0:0:0:0:
109,192,146904,128,0,147261:0:0:0:0:
36,192,147261,1,0,0:0:0:70:drum.wav
256,192,147261,1,0,0:0:0:50:Clap.wav
475,192,147261,1,0,0:0:0:70:finish.wav
182,192,147618,1,0,0:0:0:70:drum.wav
475,192,147618,1,0,0:0:0:50:Clap.wav
36,192,147975,1,0,0:0:0:70:drum.wav
109,192,147975,1,0,0:0:0:50:Clap.wav
402,192,147975,1,0,0:0:0:0:
256,192,148154,1,0,0:0:0:0:
109,192,148332,1,0,0:0:0:70:drum.wav
329,192,148332,1,0,0:0:0:50:Clap.wav
36,192,148689,1,0,0:0:0:70:drum.wav
256,192,148689,1,0,0:0:0:50:Clap.wav
402,192,148689,1,0,0:0:0:0:
109,192,149046,1,0,0:0:0:70:drum.wav
402,192,149046,1,0,0:0:0:50:Clap.wav
182,192,149404,1,0,0:0:0:70:drum.wav
329,192,149404,1,0,0:0:0:50:Clap.wav
475,192,149404,1,0,0:0:0:0:
402,192,149582,1,0,0:0:0:0:
36,192,149761,1,0,0:0:0:70:drum.wav
182,192,149761,1,0,0:0:0:50:Clap.wav
109,192,150118,1,0,0:0:0:70:drum.wav
256,192,150118,1,0,0:0:0:50:Clap.wav
475,192,150118,1,0,0:0:0:0:
329,192,150475,1,0,0:0:0:70:drum.wav
475,192,150475,1,0,0:0:0:50:Clap.wav
36,192,150832,1,0,0:0:0:70:drum.wav
109,192,150832,1,0,0:0:0:50:Clap.wav
402,192,150832,1,0,0:0:0:0:
182,192,151011,1,0,0:0:0:0:
36,192,151189,1,0,0:0:0:70:drum.wav
256,192,151189,1,0,0:0:0:50:Clap.wav
109,192,151546,1,0,0:0:0:70:drum.wav
182,192,151546,1,0,0:0:0:50:Clap.wav
402,192,151546,1,0,0:0:0:0:
329,192,151904,1,0,0:0:0:70:drum.wav
402,192,151904,1,0,0:0:0:50:Clap.wav
109,192,152261,1,0,0:0:0:70:drum.wav
256,192,152261,1,0,0:0:0:50:Clap.wav
475,192,152261,1,0,0:0:0:0:
182,192,152439,1,0,0:0:0:0:
109,192,152618,1,0,0:0:0:70:drum.wav
329,192,152618,1,0,0:0:0:50:Clap.wav
36,192,152975,1,0,0:0:0:70:drum.wav
256,192,152975,1,0,0:0:0:50:Clap.wav
475,192,152975,1,0,0:0:0:0:
256,192,153332,1,0,0:0:0:70:drum.wav
402,192,153332,1,0,0:0:0:50:Clap.wav
36,192,153689,1,0,0:0:0:70:drum.wav
109,192,153689,1,0,0:0:0:50:Clap.wav
329,192,153689,1,0,0:0:0:0:
475,192,153868,1,0,0:0:0:0:
36,192,154046,1,0,0:0:0:70:drum.wav
182,192,154046,1,0,0:0:0:50:Clap.wav
109,192,154404,1,0,0:0:0:70:drum.wav
402,192,154404,1,0,0:0:0:50:Clap.wav
475,192,154404,1,0,0:0:0:0:
256,192,154761,1,0,0:0:0:70:drum.wav
402,192,154761,1,0,0:0:0:50:Clap.wav
109,192,155118,1,0,0:0:0:70:drum.wav
182,192,155118,1,0,0:0:0:50:Clap.wav
329,192,155118,1,0,0:0:0:0:
402,192,155296,1,0,0:0:0:0:
36,192,155475,1,0,0:0:0:70:drum.wav
182,192,155475,1,0,0:0:0:50:Clap.wav
109,192,155832,1,0,0:0:0:70:drum.wav
329,192,155832,1,0,0:0:0:50:Clap.wav
475,192,155832,1,0,0:0:0:0:
329,192,156189,1,0,0:0:0:70:drum.wav
402,192,156189,1,0,0:0:0:50:Clap.wav
109,192,156546,1,0,0:0:0:70:drum.wav
256,192,156546,1,0,0:0:0:50:Clap.wav
475,192,156546,1,0,0:0:0:0:
329,192,156725,1,0,0:0:0:0:
109,192,156904,1,0,0:0:0:70:drum.wav
182,192,156904,1,0,0:0:0:50:Clap.wav
329,192,157261,1,0,0:0:0:70:drum.wav
475,192,157261,1,0,0:0:0:50:Clap.wav
36,192,157439,1,0,0:0:0:0:
329,192,157618,1,0,0:0:0:50:Clap.wav
475,192,157618,1,0,0:0:0:70:snare.wav
182,192,157796,1,0,0:0:0:0:
329,192,157975,1,0,0:0:0:50:Clap.wav
475,192,157975,1,0,0:0:0:70:snare.wav
36,192,158332,1,0,0:0:0:50:Clap.wav
182,192,158332,1,0,0:0:0:70:snare.wav
475,192,158332,1,0,0:0:0:0:
36,192,158689,1,0,0:0:0:70:drum.wav
256,192,158689,1,0,0:0:0:70:finish.wav
329,192,158689,1,0,0:0:0:70:bell.wav
475,192,158689,1,0,0:0:0:0:
182,192,158868,1,0,0:0:0:0:
329,192,159046,1,0,0:0:0:70:drum.wav
475,192,159046,1,0,0:0:0:70:bell.wav
36,192,159225,1,0,0:0:0:70:snare.wav
182,192,159404,1,0,0:0:0:70:drum.wav
402,192,159404,1,0,0:0:0:70:bell.wav
329,192,159582,1,0,0:0:0:70:snare.wav
36,192,159761,1,0,0:0:0:70:drum.wav
109,192,159761,1,0,0:0:0:70:bell.wav
402,192,159939,1,0,0:0:0:70:snare.wav
182,192,160118,1,0,0:0:0:70:drum.wav
475,192,160118,1,0,0:0:0:70:bell.wav
329,192,160296,1,0,0:0:0:0:
36,192,160475,1,0,0:0:0:70:drum.wav
256,192,160475,1,0,0:0:0:70:bell.wav
109,192,160654,1,0,0:0:0:70:snare.wav
182,192,160832,1,0,0:0:0:70:drum.wav
402,192,160832,1,0,0:0:0:70:bell.wav
329,192,161011,1,0,0:0:0:70:snare.wav
36,192,161189,1,0,0:0:0:70:drum.wav
475,192,161189,1,0,0:0:0:70:bell.wav
182,192,161368,1,0,0:0:0:70:snare.wav
329,192,161546,1,0,0:0:0:70:drum.wav
402,192,161546,1,0,0:0:0:70:bell.wav
36,192,161725,1,0,0:0:0:0:
109,192,161904,1,0,0:0:0:70:drum.wav
475,192,161904,1,0,0:0:0:70:bell.wav
256,192,162082,1,0,0:0:0:70:snare.wav
182,192,162261,1,0,0:0:0:70:drum.wav
402,192,162261,1,0,0:0:0:70:bell.wav
36,192,162439,1,0,0:0:0:70:snare.wav
109,192,162618,1,0,0:0:0:70:drum.wav
329,192,162618,1,0,0:0:0:70:bell.wav
475,192,162796,1,0,0:0:0:70:snare.wav
182,192,162975,1,0,0:0:0:70:drum.wav
402,192,162975,1,0,0:0:0:70:bell.wav
36,192,163154,1,0,0:0:0:0:
109,192,163332,1,0,0:0:0:70:drum.wav
475,192,163332,1,0,0:0:0:70:bell.wav
329,192,163511,1,0,0:0:0:70:snare.wav
36,192,163689,1,0,0:0:0:70:drum.wav
182,192,163689,1,0,0:0:0:70:bell.wav
475,192,163868,1,0,0:0:0:70:snare.wav
109,192,164046,1,0,0:0:0:70:drum.wav
402,192,164046,1,0,0:0:0:70:bell.wav
36,192,164404,1,0,0:0:0:70:drum.wav
182,192,164404,1,0,0:0:0:70:finish.wav
475,192,164404,1,0,0:0:0:70:bell.wav
329,192,164582,1,0,0:0:0:0:
36,192,164761,1,0,0:0:0:70:drum.wav
182,192,164761,1,0,0:0:0:70:bell.wav
475,192,164939,1,0,0:0:0:70:snare.wav
109,192,165118,1,0,0:0:0:70:drum.wav
329,192,165118,1,0,0:0:0:70:bell.wav
182,192,165296,1,0,0:0:0:70:snare.wav
402,192,165475,1,0,0:0:0:70:drum.wav
475,192,165475,1,0,0:0:0:70:bell.wav
109,192,165654,1,0,0:0:0:70:snare.wav
36,192,165832,1,0,0:0:0:70:drum.wav
329,192,165832,1,0,0:0:0:70:bell.wav
182,192,166011,1,0,0:0:0:0:
256,192,166189,1,0,0:0:0:70:drum.wav
475,192,166189,1,0,0:0:0:70:bell.wav
402,192,166368,1,0,0:0:0:70:snare.wav
109,192,166546,1,0,0:0:0:70:drum.wav
329,192,166546,1,0,0:0:0:70:bell.wav
182,192,166725,1,0,0:0:0:70:snare.wav
36,192,166904,1,0,0:0:0:70:drum.wav
402,192,166904,1,0,0:0:0:70:bell.wav
329,192,167082,1,0,0:0:0:70:snare.wav
109,192,167261,1,0,0:0:0:70:drum.wav
256,192,167261,1,0,0:0:0:70:finish.wav
475,192,167261,1,0,0:0:0:70:bell.wav
36,192,167618,1,0,0:0:0:70:drum.wav
182,192,167618,1,0,0:0:0:70:bell.wav
329,192,167796,1,0,0:0:0:70:snare.wav
36,192,167975,1,0,0:0:0:70:drum.wav
109,192,167975,1,0,0:0:0:70:finish.wav
475,192,167975,1,0,0:0:0:70:bell.wav
256,192,168154,1,0,0:0:0:70:snare.wav
329,192,168332,1,0,0:0:0:70:drum.wav
475,192,168332,1,0,0:0:0:70:bell.wav
36,192,168511,1,0,0:0:0:70:snare.wav
182,192,168689,1,0,0:0:0:70:drum.wav
402,192,168689,1,0,0:0:0:70:finish.wav
475,192,168689,1,0,0:0:0:70:bell.wav
256,192,168868,1,0,0:0:0:70:snare.wav
36,192,169046,1,0,0:0:0:70:drum.wav
109,192,169046,1,0,0:0:0:70:finish.wav
475,192,169225,1,0,0:0:0:70:snare.wav
36,192,169404,1,0,0:0:0:70:drum.wav
182,192,169404,1,0,0:0:0:70:finish.wav
402,192,169404,1,0,0:0:0:70:bell.wav
329,192,169582,1,0,0:0:0:70:snare.wav
256,192,169761,1,0,0:0:0:70:drum.wav
475,192,169761,1,0,0:0:0:70:finish.wav
182,192,169939,1,0,0:0:0:70:snare.wav
36,192,170118,1,0,0:0:0:70:drum.wav
109,192,170118,1,0,0:0:0:70:finish.wav
402,192,170118,1,0,0:0:0:70:bell.wav
256,192,170296,1,0,0:0:0:0:
182,192,170475,1,0,0:0:0:70:bell.wav
329,192,170654,1,0,0:0:0:0:
36,192,170832,128,0,171011:0:0:0:70:drum.wav
402,192,170832,1,0,0:0:0:70:bell.wav
182,192,171011,128,0,171189:0:0:0:0:
329,192,171189,128,0,171368:0:0:0:70:bell.wav
475,192,171368,128,0,171546:0:0:0:0:
182,192,171546,1,0,0:0:0:70:drum.wav
402,192,171546,1,0,0:0:0:70:bell.wav
36,192,171725,1,0,0:0:0:0:
256,192,171904,1,0,0:0:0:70:bell.wav
109,192,172082,1,0,0:0:0:0:
182,192,172261,1,0,0:0:0:70:drum.wav
475,192,172261,128,0,172439:0:0:0:70:bell.wav
329,192,172439,128,0,172618:0:0:0:0:
182,192,172618,128,0,172796:0:0:0:70:bell.wav
36,192,172796,128,0,172975:0:0:0:0:
256,192,172975,1,0,0:0:0:70:drum.wav
402,192,172975,1,0,0:0:0:70:bell.wav
475,192,173154,1,0,0:0:0:0:
182,192,173332,1,0,0:0:0:70:bell.wav
402,192,173511,1,0,0:0:0:0:
109,192,173689,1,0,0:0:0:70:drum.wav
329,192,173689,128,0,173868:0:0:0:70:bell.wav
182,192,173868,128,0,174046:0:0:0:0:
475,192,174046,128,0,174225:0:0:0:70:bell.wav
36,192,174225,128,0,174404:0:0:0:0:
182,192,174404,1,0,0:0:0:70:drum.wav
256,192,174404,1,0,0:0:0:70:bell.wav
402,192,174582,1,0,0:0:0:0:
109,192,174761,1,0,0:0:0:70:bell.wav
329,192,174939,1,0,0:0:0:0:
182,192,175118,128,0,175296:0:0:0:70:drum.wav
402,192,175118,1,0,0:0:0:70:bell.wav
329,192,175296,128,0,175475:0:0:0:0:
36,192,175475,128,0,175654:0:0:0:70:bell.wav
475,192,175654,128,0,175832:0:0:0:0:
182,192,175832,1,0,0:0:0:70:drum.wav
402,192,175832,1,0,0:0:0:70:bell.wav
36,192,176011,1,0,0:0:0:0:
256,192,176189,1,0,0:0:0:70:bell.wav
109,192,176368,1,0,0:0:0:0:
36,192,176546,1,0,0:0:0:70:drum.wav
402,192,176546,128,0,176725:0:0:0:70:bell.wav
256,192,176725,128,0,176904:0:0:0:0:
109,192,176904,128,0,177082:0:0:0:70:bell.wav
329,192,177082,128,0,177261:0:0:0:0:
36,192,177261,1,0,0:0:0:70:drum.wav
182,192,177261,1,0,0:0:0:70:bell.wav
475,192,177439,1,0,0:0:0:0:
256,192,177618,1,0,0:0:0:70:bell.wav
109,192,177796,1,0,0:0:0:0:
329,192,177975,1,0,0:0:0:70:drum.wav
402,192,177975,128,0,178154:0:0:0:70:bell.wav
36,192,178154,128,0,178332:0:0:0:0:
182,192,178332,128,0,178511:0:0:0:70:bell.wav
329,192,178511,128,0,178689:0:0:0:0:
36,192,178689,1,0,0:0:0:70:bell.wav
182,192,178868,1,0,0:0:0:0:
329,192,179046,1,0,0:0:0:70:bell.wav
475,192,179225,1,0,0:0:0:0:
109,192,179404,1,0,0:0:0:70:bell.wav
402,192,179582,1,0,0:0:0:0:
182,192,179761,1,0,0:0:0:70:bell.wav
329,192,179939,1,0,0:0:0:0:
256,192,180118,1,0,0:0:0:70:bell.wav
36,192,180296,1,0,0:0:0:0:
475,192,180475,1,0,0:0:0:70:bell.wav
256,192,180654,1,0,0:0:0:0:
109,192,180832,1,0,0:0:0:70:bell.wav
402,192,181011,1,0,0:0:0:0:
36,192,181189,1,0,0:0:0:70:finish.wav
256,192,181189,1,0,0:0:0:70:bell.wav
475,192,181189,1,0,0:0:0:0:
