osu file format v14

[General]
AudioFilename: audio.mp3
AudioLeadIn: 0
PreviewTime: 46904
Countdown: 0
SampleSet: Soft
StackLeniency: 0.7
Mode: 3
LetterboxInBreaks: 0
SpecialStyle: 0
WidescreenStoryboard: 1

[Editor]
Bookmarks: 98673,152959,158673
DistanceSpacing: 0.8
BeatDivisor: 4
GridSize: 32
TimelineZoom: 2.599999

[Metadata]
Title:Merry Snowy Fantasy feat. Hanon
TitleUnicode:Merry Snowy Fantasy feat. Hanon
Artist:mustie=DC
ArtistUnicode:mustie=DC
Creator:Kibitz
Version:HowToPlayLN's Shiawase
Source:
Tags:howtoplayln htpln christmas xmas j-pop jpop pop japanese electronic マスティ はのん A FUTURE MEOWS
BeatmapID:3340038
BeatmapSetID:1627998

[Difficulty]
HPDrainRate:8
CircleSize:4
OverallDifficulty:7
ApproachRate:5
SliderMultiplier:1.4
SliderTickRate:1

[Events]
//Background and Video events
0,0,"christmas-anime-girl-03.jpg",0,0
//Break Periods
//Storyboard Layer 0 (Background)
//Storyboard Layer 1 (Fail)
//Storyboard Layer 2 (Pass)
//Storyboard Layer 3 (Foreground)
//Storyboard Layer 4 (Overlay)
//Storyboard Sound Samples

[TimingPoints]
1519,357.142857142857,4,2,1,50,1,0
72947,-100,4,2,1,50,0,1
84376,-100,4,2,1,50,0,0
158661,-100,4,2,1,50,0,1
170090,-100,4,2,1,50,0,0

[HitObjects]
192,192,1519,128,0,1608:0:0:0:0:
64,192,1519,1,0,0:0:0:0:
448,192,1697,128,0,1786:0:0:0:0:
320,192,1697,1,0,0:0:0:0:
64,192,1876,128,0,1965:0:0:0:0:
448,192,2054,128,0,2144:0:0:0:0:
192,192,2054,1,0,0:0:0:0:
320,192,2233,128,0,2322:0:0:0:0:
448,192,2411,128,0,2501:0:0:0:0:
64,192,2411,1,0,0:0:0:0:
192,192,2590,128,0,2679:0:0:0:0:
320,192,2768,128,0,2858:0:0:0:0:
448,192,2768,1,0,0:0:0:0:
64,192,2947,128,0,3036:0:0:0:0:
448,192,3126,128,0,3215:0:0:0:0:
320,192,3126,1,0,0:0:0:0:
192,192,3304,128,0,3393:0:0:0:0:
448,192,3483,128,0,3572:0:0:0:0:
320,192,3483,1,0,0:0:0:0:
64,192,3661,128,0,3751:0:0:0:0:
320,192,3840,128,0,3929:0:0:0:0:
192,192,3840,1,0,0:0:0:0:
64,192,4018,128,0,4108:0:0:0:0:
448,192,4197,128,0,4286:0:0:0:0:
320,192,4197,1,0,0:0:0:0:
192,192,4376,128,0,4465:0:0:0:0:
64,192,4554,128,0,4643:0:0:0:0:
320,192,4554,1,0,0:0:0:0:
448,192,4733,128,0,4822:0:0:0:0:
64,192,4911,128,0,5001:0:0:0:0:
192,192,4911,1,0,0:0:0:0:
320,192,5090,128,0,5179:0:0:0:0:
64,192,5268,128,0,5358:0:0:0:0:
448,192,5268,1,0,0:0:0:0:
192,192,5447,128,0,5536:0:0:0:0:
320,192,5626,128,0,5715:0:0:0:0:
448,192,5626,1,0,0:0:0:0:
64,192,5804,128,0,5893:0:0:0:0:
448,192,5983,128,0,6072:0:0:0:0:
320,192,5983,1,0,0:0:0:0:
192,192,6161,128,0,6251:0:0:0:0:
448,192,6340,128,0,6429:0:0:0:0:
320,192,6340,1,0,0:0:0:0:
64,192,6518,128,0,6608:0:0:0:0:
320,192,6697,128,0,6786:0:0:0:0:
448,192,6697,1,0,0:0:0:0:
192,192,6876,128,0,6965:0:0:0:0:
320,192,7054,128,0,7143:0:0:0:0:
64,192,7054,1,0,0:0:0:0:
448,192,7233,128,0,7322:0:0:0:0:
192,192,7233,1,0,0:0:0:0:
64,192,7411,128,0,7501:0:0:0:0:
192,192,7411,1,0,0:0:0:0:
448,192,7590,128,0,7679:0:0:0:0:
320,192,7590,1,0,0:0:0:0:
320,192,7768,1,0,0:0:0:0:
64,192,7768,128,0,7858:0:0:0:0:
192,192,7947,128,0,8036:0:0:0:0:
448,192,7947,1,0,0:0:0:0:
448,192,8126,1,0,0:0:0:0:
64,192,8126,128,0,8215:0:0:0:0:
320,192,8304,128,0,8393:0:0:0:0:
192,192,8304,1,0,0:0:0:0:
64,192,8483,1,0,0:0:0:0:
192,192,8483,128,0,8572:0:0:0:0:
448,192,8661,128,0,8751:0:0:0:0:
320,192,8661,1,0,0:0:0:0:
64,192,8840,128,0,8929:0:0:0:0:
448,192,8840,1,0,0:0:0:0:
320,192,9018,128,0,9108:0:0:0:0:
192,192,9018,1,0,0:0:0:0:
64,192,9197,128,0,9286:0:0:0:0:
320,192,9197,1,0,0:0:0:0:
448,192,9376,128,0,9465:0:0:0:0:
192,192,9376,1,0,0:0:0:0:
320,192,9554,1,0,0:0:0:0:
192,192,9554,128,0,9643:0:0:0:0:
448,192,9733,128,0,9822:0:0:0:0:
64,192,9733,1,0,0:0:0:0:
192,192,9911,1,0,0:0:0:0:
64,192,9911,128,0,10001:0:0:0:0:
320,192,10090,128,0,10179:0:0:0:0:
448,192,10090,1,0,0:0:0:0:
192,192,10268,1,0,0:0:0:0:
448,192,10268,128,0,10358:0:0:0:0:
64,192,10447,128,0,10536:0:0:0:0:
320,192,10447,1,0,0:0:0:0:
320,192,10626,1,0,0:0:0:0:
448,192,10626,128,0,10715:0:0:0:0:
192,192,10804,128,0,10893:0:0:0:0:
64,192,10804,1,0,0:0:0:0:
64,192,10983,1,0,0:0:0:0:
448,192,10983,128,0,11072:0:0:0:0:
320,192,11161,128,0,11251:0:0:0:0:
192,192,11161,1,0,0:0:0:0:
64,192,11340,1,0,0:0:0:0:
192,192,11340,128,0,11429:0:0:0:0:
448,192,11518,128,0,11608:0:0:0:0:
320,192,11518,1,0,0:0:0:0:
192,192,11697,1,0,0:0:0:0:
64,192,11697,128,0,11786:0:0:0:0:
320,192,11876,128,0,11965:0:0:0:0:
192,192,12054,1,0,0:0:0:0:
64,192,12054,128,0,12143:0:0:0:0:
448,192,12233,128,0,12322:0:0:0:0:
64,192,12411,1,0,0:0:0:0:
192,192,12411,128,0,12501:0:0:0:0:
320,192,12590,128,0,12679:0:0:0:0:
448,192,12768,1,0,0:0:0:0:
192,192,12768,128,0,12858:0:0:0:0:
64,192,12947,128,0,13036:0:0:0:0:
320,192,12947,1,0,0:0:0:0:
448,192,13126,128,0,13215:0:0:0:0:
192,192,13126,1,0,0:0:0:0:
320,192,13215,1,0,0:0:0:0:
64,192,13304,128,0,13393:0:0:0:0:
448,192,13304,1,0,0:0:0:0:
448,192,13483,128,0,13572:0:0:0:0:
192,192,13483,1,0,0:0:0:0:
320,192,13661,128,0,13751:0:0:0:0:
64,192,13661,1,0,0:0:0:0:
448,192,13840,128,0,13929:0:0:0:0:
192,192,13840,1,0,0:0:0:0:
320,192,13929,1,0,0:0:0:0:
192,192,14018,128,0,14108:0:0:0:0:
64,192,14018,1,0,0:0:0:0:
320,192,14197,128,0,14286:0:0:0:0:
448,192,14197,1,0,0:0:0:0:
64,192,14376,128,0,14465:0:0:0:0:
192,192,14376,1,0,0:0:0:0:
448,192,14554,128,0,14643:0:0:0:0:
320,192,14554,1,0,0:0:0:0:
64,192,14643,1,0,0:0:0:0:
192,192,14733,128,0,14822:0:0:0:0:
320,192,14733,1,0,0:0:0:0:
448,192,14911,128,0,15001:0:0:0:0:
192,192,14911,1,0,0:0:0:0:
64,192,15090,128,0,15179:0:0:0:0:
320,192,15090,1,0,0:0:0:0:
320,192,15268,128,0,15358:0:0:0:0:
192,192,15268,1,0,0:0:0:0:
448,192,15358,1,0,0:0:0:0:
64,192,15447,128,0,15536:0:0:0:0:
192,192,15447,1,0,0:0:0:0:
448,192,15626,128,0,15715:0:0:0:0:
320,192,15626,1,0,0:0:0:0:
192,192,15804,128,0,15893:0:0:0:0:
64,192,15804,1,0,0:0:0:0:
64,192,15983,128,0,16072:0:0:0:0:
320,192,15983,1,0,0:0:0:0:
192,192,16072,1,0,0:0:0:0:
448,192,16161,128,0,16251:0:0:0:0:
320,192,16161,1,0,0:0:0:0:
64,192,16340,128,0,16429:0:0:0:0:
192,192,16340,1,0,0:0:0:0:
320,192,16518,128,0,16608:0:0:0:0:
448,192,16518,1,0,0:0:0:0:
64,192,16697,128,0,16786:0:0:0:0:
448,192,16697,1,0,0:0:0:0:
320,192,16786,1,0,0:0:0:0:
192,192,16876,128,0,16965:0:0:0:0:
64,192,16876,1,0,0:0:0:0:
320,192,17054,128,0,17143:0:0:0:0:
448,192,17054,1,0,0:0:0:0:
64,192,17233,128,0,17322:0:0:0:0:
192,192,17233,1,0,0:0:0:0:
448,192,17411,128,0,17501:0:0:0:0:
320,192,17411,1,0,0:0:0:0:
64,192,17501,1,0,0:0:0:0:
192,192,17590,128,0,17679:0:0:0:0:
448,192,17590,1,0,0:0:0:0:
320,192,17768,128,0,17858:0:0:0:0:
64,192,17768,1,0,0:0:0:0:
64,192,17947,128,0,18036:0:0:0:0:
192,192,17947,1,0,0:0:0:0:
320,192,18126,128,0,18215:0:0:0:0:
448,192,18126,1,0,0:0:0:0:
64,192,18215,1,0,0:0:0:0:
192,192,18304,128,0,18393:0:0:0:0:
320,192,18304,1,0,0:0:0:0:
320,192,18483,128,0,18572:0:0:0:0:
64,192,18483,1,0,0:0:0:0:
448,192,18661,128,0,18751:0:0:0:0:
192,192,18661,1,0,0:0:0:0:
64,192,18840,128,0,18929:0:0:0:0:
320,192,18840,1,0,0:0:0:0:
192,192,18929,1,0,0:0:0:0:
448,192,19018,128,0,19108:0:0:0:0:
320,192,19018,1,0,0:0:0:0:
64,192,19197,128,0,19286:0:0:0:0:
192,192,19197,1,0,0:0:0:0:
192,192,19376,128,0,19465:0:0:0:0:
320,192,19376,1,0,0:0:0:0:
448,192,19554,1,0,0:0:0:0:
64,192,19554,128,0,19643:0:0:0:0:
192,192,19643,1,0,0:0:0:0:
320,192,19733,128,0,19822:0:0:0:0:
448,192,19733,1,0,0:0:0:0:
64,192,19911,1,0,0:0:0:0:
192,192,19911,128,0,20001:0:0:0:0:
448,192,20090,128,0,20179:0:0:0:0:
320,192,20090,1,0,0:0:0:0:
192,192,20268,1,0,0:0:0:0:
64,192,20268,128,0,20358:0:0:0:0:
448,192,20358,1,0,0:0:0:0:
320,192,20447,128,0,20536:0:0:0:0:
192,192,20447,1,0,0:0:0:0:
64,192,20626,128,0,20715:0:0:0:0:
448,192,20626,1,0,0:0:0:0:
448,192,20804,128,0,20893:0:0:0:0:
320,192,20804,1,0,0:0:0:0:
192,192,20983,128,0,21072:0:0:0:0:
64,192,20983,1,0,0:0:0:0:
320,192,21072,1,0,0:0:0:0:
448,192,21161,128,0,21251:0:0:0:0:
64,192,21161,1,0,0:0:0:0:
192,192,21340,1,0,0:0:0:0:
64,192,21340,128,0,21429:0:0:0:0:
320,192,21518,128,0,21608:0:0:0:0:
448,192,21518,1,0,0:0:0:0:
192,192,21697,1,0,0:0:0:0:
448,192,21697,128,0,21786:0:0:0:0:
320,192,21786,1,0,0:0:0:0:
64,192,21876,128,0,21965:0:0:0:0:
192,192,21876,1,0,0:0:0:0:
320,192,22054,128,0,22143:0:0:0:0:
448,192,22054,1,0,0:0:0:0:
192,192,22233,128,0,22322:0:0:0:0:
64,192,22233,1,0,0:0:0:0:
64,192,22411,1,0,0:0:0:0:
448,192,22411,128,0,22501:0:0:0:0:
192,192,22501,1,0,0:0:0:0:
320,192,22590,128,0,22679:0:0:0:0:
448,192,22590,1,0,0:0:0:0:
320,192,22768,1,0,0:0:0:0:
192,192,22768,128,0,22858:0:0:0:0:
64,192,22947,128,0,23036:0:0:0:0:
192,192,22947,1,0,0:0:0:0:
192,192,23126,1,0,0:0:0:0:
448,192,23126,128,0,23215:0:0:0:0:
64,192,23215,5,0,0:0:0:0:
448,192,23304,1,0,0:0:0:0:
320,192,23304,128,0,23393:0:0:0:0:
64,192,23483,128,0,23572:0:0:0:0:
320,192,23483,1,0,0:0:0:0:
448,192,23661,128,0,23751:0:0:0:0:
64,192,23661,1,0,0:0:0:0:
320,192,23840,128,0,23929:0:0:0:0:
192,192,23840,1,0,0:0:0:0:
64,192,24018,1,0,0:0:0:0:
192,192,24018,128,0,24108:0:0:0:0:
64,192,24197,128,0,24286:0:0:0:0:
448,192,24376,128,0,24554:0:0:0:0:
192,192,24376,1,0,0:0:0:0:
320,192,24376,128,0,24465:0:0:0:0:
64,192,24554,128,0,24643:0:0:0:0:
448,192,24733,128,0,24911:0:0:0:0:
192,192,24733,128,0,24822:0:0:0:0:
320,192,24911,128,0,25001:0:0:0:0:
448,192,25090,128,0,25358:0:0:0:0:
64,192,25090,128,0,25268:0:0:0:0:
192,192,25268,128,0,25358:0:0:0:0:
64,192,25447,128,0,25626:0:0:0:0:
320,192,25447,1,0,0:0:0:0:
320,192,25626,128,0,25715:0:0:0:0:
448,192,25804,128,0,25983:0:0:0:0:
192,192,25804,1,0,0:0:0:0:
192,192,25983,128,0,26072:0:0:0:0:
64,192,26161,128,0,26340:0:0:0:0:
448,192,26161,1,0,0:0:0:0:
448,192,26340,128,0,26518:0:0:0:0:
320,192,26518,1,0,0:0:0:0:
192,192,26518,128,0,26786:0:0:0:0:
448,192,26697,1,0,0:0:0:0:
320,192,26786,1,0,0:0:0:0:
192,192,26876,1,0,0:0:0:0:
64,192,26876,1,0,0:0:0:0:
448,192,26965,1,0,0:0:0:0:
320,192,27054,1,0,0:0:0:0:
192,192,27143,1,0,0:0:0:0:
64,192,27233,128,0,27411:0:0:0:0:
448,192,27233,1,0,0:0:0:0:
320,192,27233,128,0,27322:0:0:0:0:
448,192,27411,128,0,27501:0:0:0:0:
64,192,27590,128,0,27768:0:0:0:0:
320,192,27590,128,0,27679:0:0:0:0:
192,192,27768,128,0,27858:0:0:0:0:
64,192,27947,128,0,28215:0:0:0:0:
448,192,27947,128,0,28126:0:0:0:0:
320,192,28126,128,0,28215:0:0:0:0:
448,192,28304,128,0,28483:0:0:0:0:
192,192,28304,1,0,0:0:0:0:
192,192,28483,128,0,28572:0:0:0:0:
64,192,28661,128,0,28840:0:0:0:0:
320,192,28661,1,0,0:0:0:0:
320,192,28840,128,0,28929:0:0:0:0:
448,192,29018,128,0,29197:0:0:0:0:
64,192,29018,1,0,0:0:0:0:
64,192,29197,128,0,29376:0:0:0:0:
192,192,29376,1,0,0:0:0:0:
320,192,29376,128,0,29643:0:0:0:0:
64,192,29554,1,0,0:0:0:0:
192,192,29643,1,0,0:0:0:0:
448,192,29733,1,0,0:0:0:0:
320,192,29733,1,0,0:0:0:0:
64,192,29822,1,0,0:0:0:0:
192,192,29911,1,0,0:0:0:0:
320,192,30001,1,0,0:0:0:0:
448,192,30090,128,0,30268:0:0:0:0:
192,192,30090,1,0,0:0:0:0:
64,192,30090,128,0,30179:0:0:0:0:
320,192,30268,128,0,30358:0:0:0:0:
448,192,30447,128,0,30626:0:0:0:0:
192,192,30447,128,0,30536:0:0:0:0:
64,192,30626,128,0,30715:0:0:0:0:
448,192,30804,128,0,31072:0:0:0:0:
320,192,30804,128,0,30983:0:0:0:0:
192,192,30983,128,0,31072:0:0:0:0:
64,192,31161,128,0,31340:0:0:0:0:
320,192,31161,1,0,0:0:0:0:
320,192,31340,128,0,31429:0:0:0:0:
448,192,31518,128,0,31697:0:0:0:0:
192,192,31518,1,0,0:0:0:0:
192,192,31697,128,0,31786:0:0:0:0:
320,192,31876,128,0,32054:0:0:0:0:
64,192,31876,1,0,0:0:0:0:
64,192,32054,128,0,32143:0:0:0:0:
192,192,32233,128,0,32411:0:0:0:0:
448,192,32233,1,0,0:0:0:0:
448,192,32411,128,0,32501:0:0:0:0:
64,192,32590,128,0,32768:0:0:0:0:
320,192,32590,1,0,0:0:0:0:
320,192,32768,128,0,32858:0:0:0:0:
192,192,32947,128,0,33661:0:0:0:0:
448,192,32947,1,0,0:0:0:0:
64,192,32947,1,0,0:0:0:0:
448,192,33126,128,0,33215:0:0:0:0:
320,192,33304,1,0,0:0:0:0:
64,192,33304,1,0,0:0:0:0:
64,192,33483,128,0,33572:0:0:0:0:
448,192,33661,1,0,0:0:0:0:
320,192,33661,1,0,0:0:0:0:
448,192,33840,128,0,33929:0:0:0:0:
64,192,34018,1,0,0:0:0:0:
192,192,34018,128,0,34286:0:0:0:0:
64,192,34197,128,0,34286:0:0:0:0:
448,192,34376,1,0,0:0:0:0:
320,192,34376,128,0,34643:0:0:0:0:
448,192,34554,128,0,34643:0:0:0:0:
192,192,34733,128,0,35001:0:0:0:0:
320,192,34733,1,0,0:0:0:0:
320,192,34911,128,0,35001:0:0:0:0:
192,192,35090,1,0,0:0:0:0:
64,192,35090,128,0,35358:0:0:0:0:
192,192,35268,128,0,35358:0:0:0:0:
448,192,35447,128,0,35715:0:0:0:0:
64,192,35447,1,0,0:0:0:0:
64,192,35626,128,0,35715:0:0:0:0:
192,192,35804,128,0,36161:0:0:0:0:
448,192,35804,1,0,0:0:0:0:
448,192,35983,128,0,36072:0:0:0:0:
64,192,36161,1,0,0:0:0:0:
320,192,36161,1,0,0:0:0:0:
320,192,36340,128,0,36429:0:0:0:0:
320,192,36518,128,0,37233:0:0:0:0:
64,192,36518,1,0,0:0:0:0:
64,192,36697,128,0,36786:0:0:0:0:
448,192,36876,1,0,0:0:0:0:
192,192,36876,1,0,0:0:0:0:
448,192,37054,128,0,37143:0:0:0:0:
192,192,37233,1,0,0:0:0:0:
64,192,37233,1,0,0:0:0:0:
64,192,37411,128,0,37501:0:0:0:0:
320,192,37590,5,0,0:0:0:0:
192,192,37590,1,0,0:0:0:0:
192,192,37768,128,0,37858:0:0:0:0:
448,192,37947,1,0,0:0:0:0:
320,192,37947,1,0,0:0:0:0:
320,192,38126,128,0,38215:0:0:0:0:
448,192,38304,1,0,0:0:0:0:
64,192,38304,1,0,0:0:0:0:
64,192,38483,128,0,38572:0:0:0:0:
192,192,38661,5,0,0:0:0:0:
64,192,38661,1,0,0:0:0:0:
448,192,38661,128,0,38751:0:0:0:0:
448,192,38840,1,0,0:0:0:0:
448,192,39018,128,0,39108:0:0:0:0:
192,192,39018,1,0,0:0:0:0:
448,192,39197,1,0,0:0:0:0:
64,192,39376,128,0,39465:0:0:0:0:
320,192,39376,1,0,0:0:0:0:
64,192,39554,1,0,0:0:0:0:
64,192,39733,128,0,39822:0:0:0:0:
320,192,39733,1,0,0:0:0:0:
64,192,39911,1,0,0:0:0:0:
320,192,40090,128,0,40179:0:0:0:0:
448,192,40090,1,0,0:0:0:0:
320,192,40268,1,0,0:0:0:0:
320,192,40447,128,0,40536:0:0:0:0:
448,192,40447,1,0,0:0:0:0:
320,192,40626,1,0,0:0:0:0:
192,192,40804,128,0,40893:0:0:0:0:
64,192,40804,1,0,0:0:0:0:
192,192,40983,1,0,0:0:0:0:
448,192,41042,1,0,0:0:0:0:
320,192,41102,1,0,0:0:0:0:
192,192,41161,128,0,41251:0:0:0:0:
64,192,41161,1,0,0:0:0:0:
448,192,41251,1,0,0:0:0:0:
192,192,41340,1,0,0:0:0:0:
64,192,41429,1,0,0:0:0:0:
320,192,41518,128,0,41608:0:0:0:0:
448,192,41518,1,0,0:0:0:0:
320,192,41697,1,0,0:0:0:0:
192,192,41786,1,0,0:0:0:0:
320,192,41876,128,0,41965:0:0:0:0:
448,192,41876,1,0,0:0:0:0:
320,192,42054,1,0,0:0:0:0:
64,192,42233,128,0,42322:0:0:0:0:
192,192,42233,1,0,0:0:0:0:
64,192,42411,1,0,0:0:0:0:
448,192,42501,1,0,0:0:0:0:
64,192,42590,128,0,42679:0:0:0:0:
192,192,42590,1,0,0:0:0:0:
320,192,42679,1,0,0:0:0:0:
64,192,42768,1,0,0:0:0:0:
192,192,42858,1,0,0:0:0:0:
448,192,42947,128,0,43036:0:0:0:0:
320,192,42947,1,0,0:0:0:0:
448,192,43126,1,0,0:0:0:0:
192,192,43126,1,0,0:0:0:0:
64,192,43215,1,0,0:0:0:0:
448,192,43304,128,0,43393:0:0:0:0:
320,192,43304,1,0,0:0:0:0:
448,192,43483,1,0,0:0:0:0:
64,192,43661,128,0,43751:0:0:0:0:
320,192,43661,1,0,0:0:0:0:
64,192,43840,1,0,0:0:0:0:
320,192,43899,1,0,0:0:0:0:
192,192,43959,1,0,0:0:0:0:
64,192,44018,128,0,44108:0:0:0:0:
448,192,44018,1,0,0:0:0:0:
320,192,44108,1,0,0:0:0:0:
64,192,44197,1,0,0:0:0:0:
192,192,44286,1,0,0:0:0:0:
448,192,44376,128,0,44465:0:0:0:0:
320,192,44376,1,0,0:0:0:0:
448,192,44554,1,0,0:0:0:0:
448,192,44733,128,0,44822:0:0:0:0:
320,192,44733,1,0,0:0:0:0:
448,192,44911,1,0,0:0:0:0:
192,192,45090,128,0,45179:0:0:0:0:
64,192,45090,1,0,0:0:0:0:
192,192,45268,1,0,0:0:0:0:
320,192,45358,1,0,0:0:0:0:
192,192,45447,128,0,45536:0:0:0:0:
64,192,45447,1,0,0:0:0:0:
448,192,45536,1,0,0:0:0:0:
192,192,45626,1,0,0:0:0:0:
320,192,45626,1,0,0:0:0:0:
64,192,45715,1,0,0:0:0:0:
320,192,45804,128,0,45893:0:0:0:0:
448,192,45804,1,0,0:0:0:0:
320,192,45983,1,0,0:0:0:0:
64,192,45983,1,0,0:0:0:0:
320,192,46161,128,0,46251:0:0:0:0:
448,192,46161,1,0,0:0:0:0:
320,192,46340,1,0,0:0:0:0:
192,192,46340,1,0,0:0:0:0:
64,192,46518,128,0,46608:0:0:0:0:
192,192,46518,1,0,0:0:0:0:
64,192,46697,1,0,0:0:0:0:
448,192,46757,1,0,0:0:0:0:
320,192,46816,1,0,0:0:0:0:
64,192,46876,128,0,46965:0:0:0:0:
192,192,46876,1,0,0:0:0:0:
448,192,46965,1,0,0:0:0:0:
64,192,47054,128,0,47233:0:0:0:0:
320,192,47054,1,0,0:0:0:0:
192,192,47143,1,0,0:0:0:0:
448,192,47233,128,0,47322:0:0:0:0:
320,192,47233,128,0,47411:0:0:0:0:
448,192,47411,1,0,0:0:0:0:
448,192,47590,128,0,47679:0:0:0:0:
64,192,47590,128,0,47947:0:0:0:0:
448,192,47768,1,0,0:0:0:0:
320,192,47947,128,0,48036:0:0:0:0:
192,192,47947,128,0,48126:0:0:0:0:
320,192,48126,1,0,0:0:0:0:
64,192,48215,1,0,0:0:0:0:
320,192,48304,128,0,48393:0:0:0:0:
448,192,48304,128,0,48483:0:0:0:0:
192,192,48393,1,0,0:0:0:0:
320,192,48483,1,0,0:0:0:0:
64,192,48572,1,0,0:0:0:0:
192,192,48661,128,0,48751:0:0:0:0:
448,192,48661,128,0,49018:0:0:0:0:
192,192,48840,1,0,0:0:0:0:
320,192,48929,1,0,0:0:0:0:
192,192,49018,128,0,49108:0:0:0:0:
64,192,49018,1,0,0:0:0:0:
192,192,49197,1,0,0:0:0:0:
320,192,49197,128,0,49286:0:0:0:0:
64,192,49376,128,0,49465:0:0:0:0:
320,192,49376,128,0,49554:0:0:0:0:
64,192,49554,1,0,0:0:0:0:
448,192,49554,1,0,0:0:0:0:
192,192,49643,1,0,0:0:0:0:
64,192,49733,128,0,49822:0:0:0:0:
320,192,49733,1,0,0:0:0:0:
448,192,49822,128,0,49911:0:0:0:0:
64,192,49911,1,0,0:0:0:0:
192,192,49911,128,0,50001:0:0:0:0:
320,192,50001,128,0,50090:0:0:0:0:
192,192,50090,1,0,0:0:0:0:
64,192,50090,1,0,0:0:0:0:
448,192,50090,128,0,50268:0:0:0:0:
64,192,50268,128,0,50358:0:0:0:0:
192,192,50447,128,0,50536:0:0:0:0:
320,192,50447,1,0,0:0:0:0:
448,192,50626,128,0,50715:0:0:0:0:
320,192,50804,128,0,50983:0:0:0:0:
64,192,50804,1,0,0:0:0:0:
192,192,50983,128,0,51161:0:0:0:0:
320,192,51072,128,0,51161:0:0:0:0:
448,192,51161,128,0,51251:0:0:0:0:
64,192,51161,1,0,0:0:0:0:
192,192,51340,128,0,51429:0:0:0:0:
320,192,51518,128,0,51608:0:0:0:0:
64,192,51518,1,0,0:0:0:0:
448,192,51697,128,0,51876:0:0:0:0:
64,192,51786,128,0,51876:0:0:0:0:
320,192,51876,128,0,51965:0:0:0:0:
192,192,51876,1,0,0:0:0:0:
64,192,52054,128,0,52143:0:0:0:0:
192,192,52233,128,0,52411:0:0:0:0:
320,192,52233,1,0,0:0:0:0:
448,192,52411,128,0,52590:0:0:0:0:
320,192,52501,128,0,52590:0:0:0:0:
64,192,52590,128,0,52768:0:0:0:0:
192,192,52590,1,0,0:0:0:0:
192,192,52768,128,0,52947:0:0:0:0:
320,192,52768,1,0,0:0:0:0:
448,192,52947,128,0,53126:0:0:0:0:
64,192,52947,1,0,0:0:0:0:
64,192,53126,128,0,53304:0:0:0:0:
192,192,53215,128,0,53304:0:0:0:0:
320,192,53304,128,0,53393:0:0:0:0:
448,192,53304,1,0,0:0:0:0:
448,192,53483,128,0,53572:0:0:0:0:
64,192,53661,128,0,53840:0:0:0:0:
192,192,53661,1,0,0:0:0:0:
448,192,53840,128,0,53929:0:0:0:0:
320,192,54018,128,0,54108:0:0:0:0:
192,192,54018,1,0,0:0:0:0:
64,192,54197,128,0,54286:0:0:0:0:
192,192,54376,128,0,54554:0:0:0:0:
448,192,54376,1,0,0:0:0:0:
320,192,54554,128,0,54733:0:0:0:0:
448,192,54643,128,0,54733:0:0:0:0:
64,192,54733,128,0,54822:0:0:0:0:
192,192,54733,1,0,0:0:0:0:
192,192,54911,128,0,55001:0:0:0:0:
448,192,55090,128,0,55268:0:0:0:0:
320,192,55090,1,0,0:0:0:0:
192,192,55268,128,0,55358:0:0:0:0:
64,192,55358,1,0,0:0:0:0:
320,192,55447,128,0,55626:0:0:0:0:
448,192,55447,1,0,0:0:0:0:
64,192,55626,128,0,55715:0:0:0:0:
192,192,55626,1,0,0:0:0:0:
448,192,55804,128,0,55983:0:0:0:0:
320,192,55804,1,0,0:0:0:0:
64,192,55983,128,0,56072:0:0:0:0:
192,192,55983,1,0,0:0:0:0:
192,192,56161,128,0,56251:0:0:0:0:
320,192,56161,1,0,0:0:0:0:
448,192,56340,128,0,56429:0:0:0:0:
64,192,56340,1,0,0:0:0:0:
320,192,56518,128,0,56697:0:0:0:0:
192,192,56518,1,0,0:0:0:0:
64,192,56697,128,0,56876:0:0:0:0:
448,192,56697,1,0,0:0:0:0:
192,192,56786,128,0,56876:0:0:0:0:
320,192,56876,128,0,56965:0:0:0:0:
448,192,56876,1,0,0:0:0:0:
64,192,57054,128,0,57143:0:0:0:0:
192,192,57054,1,0,0:0:0:0:
320,192,57233,128,0,57322:0:0:0:0:
448,192,57233,1,0,0:0:0:0:
192,192,57322,1,0,0:0:0:0:
64,192,57411,1,0,0:0:0:0:
448,192,57411,128,0,57590:0:0:0:0:
320,192,57501,128,0,57590:0:0:0:0:
64,192,57590,128,0,57679:0:0:0:0:
192,192,57590,1,0,0:0:0:0:
320,192,57679,1,0,0:0:0:0:
192,192,57768,128,0,57947:0:0:0:0:
448,192,57768,1,0,0:0:0:0:
320,192,57858,128,0,57947:0:0:0:0:
448,192,57947,128,0,58126:0:0:0:0:
64,192,57947,1,0,0:0:0:0:
192,192,58036,1,0,0:0:0:0:
320,192,58126,128,0,58304:0:0:0:0:
64,192,58126,1,0,0:0:0:0:
192,192,58215,128,0,58304:0:0:0:0:
64,192,58304,128,0,58393:0:0:0:0:
448,192,58304,1,0,0:0:0:0:
320,192,58393,1,0,0:0:0:0:
448,192,58483,128,0,58572:0:0:0:0:
64,192,58572,1,0,0:0:0:0:
192,192,58661,128,0,58840:0:0:0:0:
448,192,59018,128,0,59376:0:0:0:0:
64,192,59376,128,0,59554:0:0:0:0:
192,192,59554,128,0,59643:0:0:0:0:
448,192,59733,128,0,59911:0:0:0:0:
320,192,59911,128,0,60001:0:0:0:0:
192,192,60090,1,0,0:0:0:0:
64,192,60090,128,0,60447:0:0:0:0:
320,192,60626,128,0,60715:0:0:0:0:
320,192,60804,128,0,61161:0:0:0:0:
64,192,61161,128,0,61251:0:0:0:0:
192,192,61251,128,0,61340:0:0:0:0:
448,192,61340,128,0,61429:0:0:0:0:
320,192,61429,128,0,61518:0:0:0:0:
64,192,61518,128,0,61786:0:0:0:0:
192,192,61518,1,0,0:0:0:0:
448,192,61518,1,0,0:0:0:0:
448,192,61697,128,0,61965:0:0:0:0:
320,192,61697,128,0,61786:0:0:0:0:
320,192,61876,128,0,62143:0:0:0:0:
64,192,61876,128,0,61965:0:0:0:0:
64,192,62054,128,0,62322:0:0:0:0:
192,192,62054,128,0,62143:0:0:0:0:
448,192,62233,128,0,62501:0:0:0:0:
320,192,62233,1,0,0:0:0:0:
192,192,62233,1,0,0:0:0:0:
192,192,62411,128,0,62679:0:0:0:0:
64,192,62411,128,0,62501:0:0:0:0:
320,192,62501,128,0,62590:0:0:0:0:
448,192,62590,128,0,62679:0:0:0:0:
64,192,62590,128,0,62858:0:0:0:0:
448,192,62768,128,0,63036:0:0:0:0:
192,192,62768,128,0,62858:0:0:0:0:
320,192,62947,128,0,63215:0:0:0:0:
64,192,62947,1,0,0:0:0:0:
192,192,62947,1,0,0:0:0:0:
448,192,63126,128,0,63215:0:0:0:0:
64,192,63126,128,0,63215:0:0:0:0:
192,192,63215,128,0,63304:0:0:0:0:
448,192,63304,128,0,63572:0:0:0:0:
320,192,63304,128,0,63393:0:0:0:0:
64,192,63483,128,0,63751:0:0:0:0:
192,192,63483,128,0,63572:0:0:0:0:
320,192,63661,128,0,63929:0:0:0:0:
448,192,63661,1,0,0:0:0:0:
192,192,63661,1,0,0:0:0:0:
448,192,63840,128,0,63929:0:0:0:0:
64,192,63840,128,0,63929:0:0:0:0:
192,192,63929,128,0,64018:0:0:0:0:
448,192,64018,128,0,64286:0:0:0:0:
320,192,64018,128,0,64108:0:0:0:0:
320,192,64197,128,0,64465:0:0:0:0:
64,192,64197,128,0,64286:0:0:0:0:
64,192,64376,128,0,64643:0:0:0:0:
192,192,64376,1,0,0:0:0:0:
448,192,64376,1,0,0:0:0:0:
448,192,64554,128,0,64643:0:0:0:0:
192,192,64554,128,0,64643:0:0:0:0:
320,192,64643,128,0,64733:0:0:0:0:
192,192,64733,128,0,65001:0:0:0:0:
64,192,64733,128,0,64822:0:0:0:0:
448,192,64911,128,0,65179:0:0:0:0:
320,192,64911,128,0,65001:0:0:0:0:
320,192,65090,1,0,0:0:0:0:
192,192,65090,1,0,0:0:0:0:
64,192,65090,128,0,65358:0:0:0:0:
192,192,65268,128,0,65536:0:0:0:0:
320,192,65268,128,0,65358:0:0:0:0:
320,192,65447,128,0,65715:0:0:0:0:
448,192,65447,128,0,65536:0:0:0:0:
448,192,65626,128,0,65893:0:0:0:0:
64,192,65626,128,0,65715:0:0:0:0:
64,192,65804,128,0,66072:0:0:0:0:
192,192,65804,1,0,0:0:0:0:
320,192,65804,1,0,0:0:0:0:
448,192,65983,128,0,66072:0:0:0:0:
192,192,65983,128,0,66072:0:0:0:0:
320,192,66072,128,0,66161:0:0:0:0:
64,192,66161,128,0,66429:0:0:0:0:
192,192,66161,128,0,66280:0:0:0:0:
320,192,66280,128,0,66399:0:0:0:0:
448,192,66340,128,0,66608:0:0:0:0:
192,192,66399,128,0,66518:0:0:0:0:
64,192,66518,128,0,66786:0:0:0:0:
320,192,66518,1,0,0:0:0:0:
320,192,66697,128,0,66965:0:0:0:0:
192,192,66697,128,0,66786:0:0:0:0:
448,192,66876,128,0,67143:0:0:0:0:
64,192,66876,128,0,66965:0:0:0:0:
192,192,67054,128,0,67322:0:0:0:0:
320,192,67054,128,0,67143:0:0:0:0:
448,192,67233,1,0,0:0:0:0:
320,192,67233,1,0,0:0:0:0:
64,192,67233,128,0,67501:0:0:0:0:
448,192,67411,128,0,67679:0:0:0:0:
320,192,67411,1,0,0:0:0:0:
192,192,67501,1,0,0:0:0:0:
320,192,67590,128,0,67858:0:0:0:0:
64,192,67590,128,0,67768:0:0:0:0:
448,192,67768,128,0,67947:0:0:0:0:
320,192,67947,1,0,0:0:0:0:
192,192,67947,1,0,0:0:0:0:
64,192,67947,1,0,0:0:0:0:
64,192,68126,128,0,68215:0:0:0:0:
320,192,68215,128,0,68304:0:0:0:0:
448,192,68304,128,0,68572:0:0:0:0:
64,192,68304,1,0,0:0:0:0:
192,192,68304,1,0,0:0:0:0:
320,192,68393,128,0,68483:0:0:0:0:
64,192,68483,128,0,68751:0:0:0:0:
192,192,68572,128,0,68661:0:0:0:0:
320,192,68661,128,0,68840:0:0:0:0:
448,192,68661,128,0,68780:0:0:0:0:
192,192,68780,128,0,68899:0:0:0:0:
448,192,68840,128,0,68929:0:0:0:0:
64,192,68899,128,0,69018:0:0:0:0:
320,192,68929,128,0,69018:0:0:0:0:
192,192,69018,128,0,69286:0:0:0:0:
448,192,69018,128,0,69197:0:0:0:0:
64,192,69108,128,0,69286:0:0:0:0:
320,192,69197,128,0,69286:0:0:0:0:
448,192,69286,128,0,69376:0:0:0:0:
320,192,69376,1,0,0:0:0:0:
192,192,69376,1,0,0:0:0:0:
64,192,69376,128,0,69643:0:0:0:0:
448,192,69554,128,0,69643:0:0:0:0:
320,192,69643,128,0,69733:0:0:0:0:
192,192,69733,1,0,0:0:0:0:
448,192,69733,128,0,69822:0:0:0:0:
64,192,69733,128,0,70001:0:0:0:0:
320,192,69911,128,0,70001:0:0:0:0:
192,192,69911,128,0,70179:0:0:0:0:
448,192,70090,128,0,70358:0:0:0:0:
64,192,70090,1,0,0:0:0:0:
320,192,70090,1,0,0:0:0:0:
64,192,70268,128,0,70358:0:0:0:0:
320,192,70268,128,0,70358:0:0:0:0:
192,192,70358,128,0,70447:0:0:0:0:
64,192,70447,128,0,70715:0:0:0:0:
448,192,70447,128,0,70536:0:0:0:0:
448,192,70626,128,0,70893:0:0:0:0:
192,192,70626,128,0,70715:0:0:0:0:
320,192,70804,128,0,71072:0:0:0:0:
192,192,70804,1,0,0:0:0:0:
64,192,70804,1,0,0:0:0:0:
192,192,70983,128,0,71251:0:0:0:0:
64,192,70983,128,0,71072:0:0:0:0:
448,192,71161,128,0,71429:0:0:0:0:
320,192,71161,128,0,71251:0:0:0:0:
64,192,71340,128,0,71608:0:0:0:0:
192,192,71340,128,0,71429:0:0:0:0:
320,192,71518,128,0,71786:0:0:0:0:
448,192,71518,1,0,0:0:0:0:
192,192,71518,1,0,0:0:0:0:
64,192,71697,128,0,71786:0:0:0:0:
192,192,71786,128,0,71876:0:0:0:0:
448,192,71876,128,0,72143:0:0:0:0:
320,192,71876,128,0,71965:0:0:0:0:
64,192,71965,128,0,72054:0:0:0:0:
192,192,72054,128,0,72322:0:0:0:0:
320,192,72143,128,0,72233:0:0:0:0:
64,192,72233,128,0,72501:0:0:0:0:
448,192,72233,1,0,0:0:0:0:
320,192,72411,128,0,72501:0:0:0:0:
192,192,72501,1,0,0:0:0:0:
320,192,72590,128,0,72858:0:0:0:0:
64,192,72590,1,0,0:0:0:0:
448,192,72590,1,0,0:0:0:0:
64,192,72768,128,0,72947:0:0:0:0:
192,192,72768,1,0,0:0:0:0:
448,192,72858,128,0,72947:0:0:0:0:
320,192,72947,128,0,73215:0:0:0:0:
192,192,72947,128,0,73126:0:0:0:0:
64,192,73036,128,0,73126:0:0:0:0:
448,192,73126,128,0,73215:0:0:0:0:
192,192,73215,128,0,73304:0:0:0:0:
448,192,73304,128,0,73572:0:0:0:0:
320,192,73304,128,0,73483:0:0:0:0:
64,192,73393,128,0,73483:0:0:0:0:
192,192,73483,128,0,73572:0:0:0:0:
320,192,73572,128,0,73661:0:0:0:0:
64,192,73661,128,0,73840:0:0:0:0:
448,192,73661,128,0,73929:0:0:0:0:
192,192,73751,128,0,73840:0:0:0:0:
320,192,73840,128,0,73929:0:0:0:0:
64,192,73929,128,0,74018:0:0:0:0:
192,192,74018,128,0,74286:0:0:0:0:
448,192,74018,128,0,74197:0:0:0:0:
320,192,74108,128,0,74197:0:0:0:0:
64,192,74197,128,0,74286:0:0:0:0:
448,192,74286,128,0,74376:0:0:0:0:
192,192,74376,128,0,74554:0:0:0:0:
64,192,74376,128,0,74465:0:0:0:0:
320,192,74465,128,0,74554:0:0:0:0:
448,192,74554,128,0,74643:0:0:0:0:
64,192,74554,128,0,74733:0:0:0:0:
192,192,74643,128,0,74733:0:0:0:0:
448,192,74733,128,0,74911:0:0:0:0:
320,192,74733,128,0,74822:0:0:0:0:
64,192,74822,128,0,74911:0:0:0:0:
320,192,74911,128,0,75090:0:0:0:0:
192,192,74911,128,0,75001:0:0:0:0:
448,192,75001,128,0,75090:0:0:0:0:
64,192,75090,128,0,75268:0:0:0:0:
192,192,75090,128,0,75358:0:0:0:0:
448,192,75179,128,0,75268:0:0:0:0:
320,192,75268,128,0,75358:0:0:0:0:
64,192,75358,128,0,75447:0:0:0:0:
448,192,75447,128,0,75536:0:0:0:0:
192,192,75447,128,0,75626:0:0:0:0:
64,192,75536,128,0,75626:0:0:0:0:
448,192,75626,128,0,75804:0:0:0:0:
320,192,75626,128,0,75715:0:0:0:0:
192,192,75715,128,0,75804:0:0:0:0:
320,192,75804,128,0,75983:0:0:0:0:
64,192,75804,128,0,75893:0:0:0:0:
448,192,75893,128,0,75983:0:0:0:0:
192,192,75983,128,0,76161:0:0:0:0:
64,192,75983,128,0,76072:0:0:0:0:
320,192,76072,128,0,76161:0:0:0:0:
64,192,76161,128,0,76340:0:0:0:0:
448,192,76161,128,0,76251:0:0:0:0:
320,192,76251,128,0,76340:0:0:0:0:
448,192,76340,128,0,76518:0:0:0:0:
192,192,76340,128,0,76429:0:0:0:0:
320,192,76429,128,0,76518:0:0:0:0:
192,192,76518,128,0,76786:0:0:0:0:
64,192,76518,128,0,76697:0:0:0:0:
448,192,76608,128,0,76697:0:0:0:0:
320,192,76697,128,0,76786:0:0:0:0:
64,192,76786,128,0,76876:0:0:0:0:
448,192,76876,128,0,77054:0:0:0:0:
192,192,76876,128,0,77143:0:0:0:0:
320,192,76965,128,0,77054:0:0:0:0:
64,192,77054,128,0,77143:0:0:0:0:
448,192,77143,128,0,77233:0:0:0:0:
64,192,77233,128,0,77501:0:0:0:0:
192,192,77233,128,0,77411:0:0:0:0:
320,192,77322,128,0,77411:0:0:0:0:
448,192,77411,128,0,77501:0:0:0:0:
192,192,77501,128,0,77590:0:0:0:0:
320,192,77590,128,0,77768:0:0:0:0:
64,192,77590,128,0,77768:0:0:0:0:
448,192,77679,128,0,77858:0:0:0:0:
192,192,77768,128,0,77858:0:0:0:0:
320,192,77858,128,0,77947:0:0:0:0:
448,192,77947,128,0,78215:0:0:0:0:
64,192,77947,128,0,78126:0:0:0:0:
192,192,78036,128,0,78126:0:0:0:0:
320,192,78126,128,0,78215:0:0:0:0:
64,192,78215,128,0,78304:0:0:0:0:
192,192,78304,128,0,78572:0:0:0:0:
448,192,78304,128,0,78483:0:0:0:0:
320,192,78393,128,0,78483:0:0:0:0:
64,192,78483,128,0,78572:0:0:0:0:
448,192,78572,128,0,78661:0:0:0:0:
64,192,78661,128,0,78929:0:0:0:0:
192,192,78661,128,0,78840:0:0:0:0:
320,192,78751,128,0,78840:0:0:0:0:
448,192,78840,128,0,78929:0:0:0:0:
192,192,78929,128,0,79018:0:0:0:0:
320,192,79018,128,0,79286:0:0:0:0:
64,192,79018,128,0,79197:0:0:0:0:
448,192,79108,128,0,79197:0:0:0:0:
192,192,79197,128,0,79286:0:0:0:0:
64,192,79286,128,0,79376:0:0:0:0:
448,192,79376,128,0,79643:0:0:0:0:
320,192,79376,128,0,79554:0:0:0:0:
192,192,79465,128,0,79554:0:0:0:0:
64,192,79554,128,0,79643:0:0:0:0:
320,192,79643,128,0,79733:0:0:0:0:
192,192,79733,128,0,80001:0:0:0:0:
448,192,79733,128,0,79911:0:0:0:0:
64,192,79822,128,0,79911:0:0:0:0:
320,192,79911,128,0,80001:0:0:0:0:
448,192,80001,128,0,80090:0:0:0:0:
192,192,80090,128,0,80268:0:0:0:0:
64,192,80090,128,0,80179:0:0:0:0:
320,192,80179,128,0,80268:0:0:0:0:
448,192,80268,128,0,80447:0:0:0:0:
64,192,80268,128,0,80358:0:0:0:0:
320,192,80358,128,0,80447:0:0:0:0:
64,192,80447,128,0,80626:0:0:0:0:
192,192,80447,128,0,80536:0:0:0:0:
320,192,80536,128,0,80626:0:0:0:0:
448,192,80626,128,0,80804:0:0:0:0:
192,192,80626,128,0,80715:0:0:0:0:
320,192,80715,128,0,80804:0:0:0:0:
64,192,80804,128,0,81072:0:0:0:0:
192,192,80804,128,0,80983:0:0:0:0:
448,192,80893,128,0,80983:0:0:0:0:
320,192,80983,128,0,81072:0:0:0:0:
192,192,81072,128,0,81161:0:0:0:0:
448,192,81161,128,0,81518:0:0:0:0:
64,192,81161,128,0,81340:0:0:0:0:
320,192,81251,128,0,81429:0:0:0:0:
192,192,81340,128,0,81429:0:0:0:0:
64,192,81429,128,0,81518:0:0:0:0:
320,192,81518,128,0,81786:0:0:0:0:
192,192,81518,128,0,81786:0:0:0:0:
64,192,81608,128,0,81697:0:0:0:0:
448,192,81697,128,0,81786:0:0:0:0:
64,192,81786,128,0,81876:0:0:0:0:
448,192,81876,128,0,82143:0:0:0:0:
320,192,81876,128,0,82143:0:0:0:0:
192,192,81965,128,0,82054:0:0:0:0:
64,192,82054,128,0,82143:0:0:0:0:
192,192,82143,128,0,82233:0:0:0:0:
320,192,82233,128,0,82322:0:0:0:0:
448,192,82233,128,0,82411:0:0:0:0:
64,192,82322,128,0,82411:0:0:0:0:
320,192,82411,128,0,82590:0:0:0:0:
192,192,82411,128,0,82501:0:0:0:0:
448,192,82501,128,0,82590:0:0:0:0:
192,192,82590,128,0,82768:0:0:0:0:
64,192,82590,128,0,82679:0:0:0:0:
320,192,82679,128,0,82768:0:0:0:0:
448,192,82768,128,0,82858:0:0:0:0:
64,192,82768,128,0,82858:0:0:0:0:
192,192,82858,128,0,82947:0:0:0:0:
320,192,82947,128,0,83126:0:0:0:0:
448,192,82947,128,0,83036:0:0:0:0:
64,192,83036,128,0,83215:0:0:0:0:
448,192,83126,128,0,83304:0:0:0:0:
192,192,83126,128,0,83215:0:0:0:0:
320,192,83215,128,0,83304:0:0:0:0:
192,192,83304,128,0,83393:0:0:0:0:
64,192,83304,128,0,83483:0:0:0:0:
448,192,83393,128,0,83483:0:0:0:0:
320,192,83483,128,0,83572:0:0:0:0:
192,192,83483,128,0,83572:0:0:0:0:
64,192,83572,128,0,83661:0:0:0:0:
192,192,83661,128,0,83929:0:0:0:0:
448,192,83661,128,0,83840:0:0:0:0:
320,192,83751,128,0,83840:0:0:0:0:
64,192,83840,128,0,83929:0:0:0:0:
320,192,83929,128,0,84018:0:0:0:0:
448,192,83929,128,0,84018:0:0:0:0:
192,192,84018,128,0,84108:0:0:0:0:
64,192,84018,128,0,84197:0:0:0:0:
448,192,84108,128,0,84197:0:0:0:0:
320,192,84197,128,0,84286:0:0:0:0:
192,192,84197,128,0,84376:0:0:0:0:
448,192,84376,128,0,84643:0:0:0:0:
320,192,84376,128,0,84554:0:0:0:0:
64,192,84465,1,0,0:0:0:0:
192,192,84554,1,0,0:0:0:0:
320,192,84643,1,0,0:0:0:0:
64,192,84733,128,0,85001:0:0:0:0:
448,192,84733,128,0,84911:0:0:0:0:
192,192,84822,1,0,0:0:0:0:
320,192,84911,128,0,85001:0:0:0:0:
192,192,85001,1,0,0:0:0:0:
320,192,85090,128,0,85268:0:0:0:0:
448,192,85090,128,0,85358:0:0:0:0:
64,192,85179,1,0,0:0:0:0:
192,192,85268,128,0,85358:0:0:0:0:
320,192,85358,1,0,0:0:0:0:
64,192,85447,128,0,85715:0:0:0:0:
192,192,85447,128,0,85626:0:0:0:0:
448,192,85536,128,0,85626:0:0:0:0:
320,192,85626,128,0,85715:0:0:0:0:
192,192,85715,128,0,85804:0:0:0:0:
64,192,85804,128,0,86072:0:0:0:0:
448,192,85804,128,0,85983:0:0:0:0:
320,192,85893,1,0,0:0:0:0:
192,192,85983,128,0,86161:0:0:0:0:
448,192,86072,1,0,0:0:0:0:
320,192,86161,128,0,86429:0:0:0:0:
64,192,86161,128,0,86340:0:0:0:0:
192,192,86251,1,0,0:0:0:0:
448,192,86340,128,0,86518:0:0:0:0:
64,192,86429,1,0,0:0:0:0:
192,192,86518,128,0,86786:0:0:0:0:
320,192,86518,128,0,86697:0:0:0:0:
64,192,86608,128,0,86697:0:0:0:0:
448,192,86697,128,0,86786:0:0:0:0:
320,192,86786,1,0,0:0:0:0:
64,192,86876,1,0,0:0:0:0:
192,192,86876,128,0,86965:0:0:0:0:
448,192,86965,1,0,0:0:0:0:
64,192,87054,128,0,87233:0:0:0:0:
192,192,87143,1,0,0:0:0:0:
448,192,87233,128,0,87501:0:0:0:0:
320,192,87233,128,0,87411:0:0:0:0:
64,192,87322,1,0,0:0:0:0:
192,192,87411,1,0,0:0:0:0:
320,192,87501,1,0,0:0:0:0:
64,192,87590,128,0,87858:0:0:0:0:
192,192,87590,128,0,87768:0:0:0:0:
448,192,87679,1,0,0:0:0:0:
320,192,87768,1,0,0:0:0:0:
192,192,87858,128,0,87947:0:0:0:0:
448,192,87947,128,0,88215:0:0:0:0:
64,192,87947,128,0,88126:0:0:0:0:
320,192,88036,128,0,88126:0:0:0:0:
192,192,88126,128,0,88215:0:0:0:0:
64,192,88215,128,0,88304:0:0:0:0:
320,192,88304,128,0,88572:0:0:0:0:
192,192,88304,128,0,88483:0:0:0:0:
64,192,88393,1,0,0:0:0:0:
448,192,88483,128,0,88661:0:0:0:0:
192,192,88572,1,0,0:0:0:0:
320,192,88661,128,0,88929:0:0:0:0:
64,192,88661,128,0,88840:0:0:0:0:
192,192,88751,1,0,0:0:0:0:
448,192,88840,128,0,89018:0:0:0:0:
192,192,88929,128,0,89018:0:0:0:0:
64,192,89018,128,0,89286:0:0:0:0:
320,192,89018,128,0,89197:0:0:0:0:
448,192,89108,1,0,0:0:0:0:
192,192,89197,128,0,89376:0:0:0:0:
320,192,89286,128,0,89376:0:0:0:0:
448,192,89376,128,0,89643:0:0:0:0:
64,192,89376,128,0,89554:0:0:0:0:
192,192,89465,1,0,0:0:0:0:
320,192,89554,128,0,89643:0:0:0:0:
192,192,89643,128,0,89733:0:0:0:0:
448,192,89733,128,0,89822:0:0:0:0:
64,192,89733,1,0,0:0:0:0:
320,192,89822,1,0,0:0:0:0:
192,192,89911,128,0,90090:0:0:0:0:
448,192,90001,1,0,0:0:0:0:
320,192,90090,128,0,90268:0:0:0:0:
64,192,90090,128,0,90358:0:0:0:0:
192,192,90179,1,0,0:0:0:0:
448,192,90268,1,0,0:0:0:0:
320,192,90358,1,0,0:0:0:0:
192,192,90447,128,0,90715:0:0:0:0:
448,192,90447,128,0,90626:0:0:0:0:
64,192,90536,1,0,0:0:0:0:
320,192,90626,128,0,90715:0:0:0:0:
448,192,90715,1,0,0:0:0:0:
320,192,90804,128,0,91072:0:0:0:0:
64,192,90804,128,0,90983:0:0:0:0:
192,192,90893,128,0,90983:0:0:0:0:
448,192,90983,128,0,91072:0:0:0:0:
64,192,91072,128,0,91161:0:0:0:0:
192,192,91161,128,0,91429:0:0:0:0:
320,192,91161,128,0,91340:0:0:0:0:
64,192,91251,1,0,0:0:0:0:
448,192,91340,128,0,91518:0:0:0:0:
320,192,91429,128,0,91518:0:0:0:0:
64,192,91518,128,0,91786:0:0:0:0:
192,192,91518,128,0,91697:0:0:0:0:
448,192,91608,1,0,0:0:0:0:
320,192,91697,128,0,91876:0:0:0:0:
192,192,91786,1,0,0:0:0:0:
64,192,91876,128,0,92143:0:0:0:0:
448,192,91876,128,0,92054:0:0:0:0:
192,192,91965,1,0,0:0:0:0:
320,192,92054,128,0,92233:0:0:0:0:
448,192,92143,1,0,0:0:0:0:
192,192,92233,128,0,92501:0:0:0:0:
64,192,92233,128,0,92411:0:0:0:0:
320,192,92322,1,0,0:0:0:0:
448,192,92411,128,0,92590:0:0:0:0:
64,192,92501,1,0,0:0:0:0:
320,192,92590,128,0,92858:0:0:0:0:
192,192,92590,128,0,92768:0:0:0:0:
448,192,92679,1,0,0:0:0:0:
64,192,92768,128,0,92947:0:0:0:0:
192,192,92858,1,0,0:0:0:0:
448,192,92947,128,0,93215:0:0:0:0:
320,192,92947,128,0,93126:0:0:0:0:
64,192,93036,1,0,0:0:0:0:
192,192,93126,128,0,93215:0:0:0:0:
320,192,93215,1,0,0:0:0:0:
448,192,93304,128,0,93393:0:0:0:0:
64,192,93304,1,0,0:0:0:0:
192,192,93393,1,0,0:0:0:0:
320,192,93483,128,0,93572:0:0:0:0:
64,192,93572,1,0,0:0:0:0:
448,192,93661,128,0,93751:0:0:0:0:
320,192,93661,1,0,0:0:0:0:
64,192,93751,128,0,93840:0:0:0:0:
448,192,93840,128,0,93929:0:0:0:0:
64,192,93929,128,0,94018:0:0:0:0:
192,192,94018,128,0,94286:0:0:0:0:
320,192,94018,128,0,94197:0:0:0:0:
448,192,94108,1,0,0:0:0:0:
64,192,94197,128,0,94286:0:0:0:0:
320,192,94286,1,0,0:0:0:0:
448,192,94376,128,0,94643:0:0:0:0:
192,192,94376,128,0,94554:0:0:0:0:
64,192,94465,1,0,0:0:0:0:
320,192,94554,128,0,94643:0:0:0:0:
192,192,94643,1,0,0:0:0:0:
64,192,94733,128,0,95001:0:0:0:0:
448,192,94733,128,0,94911:0:0:0:0:
320,192,94822,1,0,0:0:0:0:
192,192,94911,128,0,95001:0:0:0:0:
448,192,95001,1,0,0:0:0:0:
192,192,95090,128,0,95358:0:0:0:0:
320,192,95090,128,0,95268:0:0:0:0:
64,192,95179,128,0,95268:0:0:0:0:
448,192,95268,128,0,95358:0:0:0:0:
320,192,95358,128,0,95447:0:0:0:0:
192,192,95447,128,0,95626:0:0:0:0:
64,192,95447,128,0,95715:0:0:0:0:
448,192,95536,128,0,95626:0:0:0:0:
320,192,95626,128,0,95715:0:0:0:0:
192,192,95715,128,0,95804:0:0:0:0:
448,192,95804,128,0,96161:0:0:0:0:
320,192,95804,128,0,95983:0:0:0:0:
64,192,95893,1,0,0:0:0:0:
192,192,95983,1,0,0:0:0:0:
320,192,96072,1,0,0:0:0:0:
64,192,96161,1,0,0:0:0:0:
192,192,96161,128,0,96251:0:0:0:0:
320,192,96251,1,0,0:0:0:0:
64,192,96340,128,0,96429:0:0:0:0:
448,192,96429,128,0,96518:0:0:0:0:
192,192,96518,1,0,0:0:0:0:
64,192,96518,128,0,96786:0:0:0:0:
320,192,96608,1,0,0:0:0:0:
448,192,96697,128,0,96786:0:0:0:0:
192,192,96786,1,0,0:0:0:0:
64,192,96876,128,0,97233:0:0:0:0:
320,192,96876,128,0,96965:0:0:0:0:
448,192,96965,1,0,0:0:0:0:
192,192,97054,1,0,0:0:0:0:
320,192,97143,1,0,0:0:0:0:
448,192,97233,128,0,97501:0:0:0:0:
192,192,97233,128,0,97411:0:0:0:0:
64,192,97322,128,0,97411:0:0:0:0:
320,192,97411,128,0,97501:0:0:0:0:
192,192,97501,128,0,97590:0:0:0:0:
64,192,97590,128,0,97858:0:0:0:0:
448,192,97590,128,0,97768:0:0:0:0:
320,192,97679,128,0,97768:0:0:0:0:
192,192,97768,128,0,97858:0:0:0:0:
448,192,97858,128,0,97947:0:0:0:0:
192,192,97947,128,0,98126:0:0:0:0:
64,192,97947,128,0,98036:0:0:0:0:
320,192,98036,128,0,98215:0:0:0:0:
64,192,98126,128,0,98304:0:0:0:0:
192,192,98215,128,0,98483:0:0:0:0:
320,192,98304,128,0,98572:0:0:0:0:
448,192,98304,128,0,98393:0:0:0:0:
64,192,98393,128,0,98572:0:0:0:0:
448,192,98483,128,0,98572:0:0:0:0:
192,192,98572,128,0,98661:0:0:0:0:
320,192,98661,1,0,0:0:0:0:
448,192,98661,128,0,101518:0:0:0:0:
64,192,98661,128,0,100090:0:0:0:0:
192,192,101518,128,0,101608:0:0:0:0:
448,192,101697,128,0,101786:0:0:0:0:
320,192,101697,1,0,0:0:0:0:
64,192,101876,128,0,101965:0:0:0:0:
448,192,102054,128,0,102143:0:0:0:0:
192,192,102054,1,0,0:0:0:0:
320,192,102233,128,0,102322:0:0:0:0:
448,192,102411,128,0,102501:0:0:0:0:
64,192,102411,1,0,0:0:0:0:
192,192,102590,128,0,102679:0:0:0:0:
320,192,102768,128,0,102858:0:0:0:0:
448,192,102768,1,0,0:0:0:0:
64,192,102947,128,0,103036:0:0:0:0:
448,192,103126,128,0,103215:0:0:0:0:
320,192,103126,1,0,0:0:0:0:
192,192,103304,128,0,103393:0:0:0:0:
448,192,103483,128,0,103572:0:0:0:0:
320,192,103483,1,0,0:0:0:0:
64,192,103661,128,0,103751:0:0:0:0:
320,192,103840,128,0,103929:0:0:0:0:
192,192,103840,1,0,0:0:0:0:
64,192,104018,128,0,104108:0:0:0:0:
448,192,104197,128,0,104286:0:0:0:0:
320,192,104197,1,0,0:0:0:0:
192,192,104376,128,0,104465:0:0:0:0:
64,192,104554,128,0,104643:0:0:0:0:
320,192,104554,1,0,0:0:0:0:
448,192,104733,128,0,104822:0:0:0:0:
64,192,104911,128,0,105001:0:0:0:0:
192,192,104911,1,0,0:0:0:0:
320,192,105090,128,0,105179:0:0:0:0:
64,192,105268,128,0,105358:0:0:0:0:
448,192,105268,1,0,0:0:0:0:
192,192,105447,128,0,105536:0:0:0:0:
320,192,105626,128,0,105715:0:0:0:0:
448,192,105626,1,0,0:0:0:0:
64,192,105804,128,0,105893:0:0:0:0:
448,192,105983,128,0,106072:0:0:0:0:
320,192,105983,1,0,0:0:0:0:
192,192,106161,128,0,106251:0:0:0:0:
448,192,106340,128,0,106429:0:0:0:0:
320,192,106340,1,0,0:0:0:0:
64,192,106518,128,0,106608:0:0:0:0:
320,192,106697,128,0,106786:0:0:0:0:
448,192,106697,1,0,0:0:0:0:
192,192,106876,128,0,106965:0:0:0:0:
320,192,107054,128,0,107143:0:0:0:0:
64,192,107054,1,0,0:0:0:0:
448,192,107233,128,0,107322:0:0:0:0:
192,192,107411,1,0,0:0:0:0:
64,192,107411,128,0,107501:0:0:0:0:
448,192,107590,128,0,107679:0:0:0:0:
320,192,107768,1,0,0:0:0:0:
64,192,107768,128,0,107858:0:0:0:0:
192,192,107947,128,0,108036:0:0:0:0:
448,192,108126,1,0,0:0:0:0:
64,192,108126,128,0,108215:0:0:0:0:
320,192,108304,128,0,108393:0:0:0:0:
64,192,108483,1,0,0:0:0:0:
192,192,108483,128,0,108572:0:0:0:0:
448,192,108661,128,0,108751:0:0:0:0:
192,192,108840,1,0,0:0:0:0:
64,192,108840,128,0,108929:0:0:0:0:
320,192,109018,128,0,109108:0:0:0:0:
192,192,109197,1,0,0:0:0:0:
64,192,109197,128,0,109286:0:0:0:0:
448,192,109376,128,0,109465:0:0:0:0:
320,192,109554,1,0,0:0:0:0:
192,192,109554,128,0,109643:0:0:0:0:
448,192,109733,128,0,109822:0:0:0:0:
192,192,109911,1,0,0:0:0:0:
64,192,109911,128,0,110001:0:0:0:0:
320,192,110090,128,0,110179:0:0:0:0:
192,192,110268,1,0,0:0:0:0:
448,192,110268,128,0,110358:0:0:0:0:
64,192,110447,128,0,110536:0:0:0:0:
320,192,110626,1,0,0:0:0:0:
448,192,110626,128,0,110715:0:0:0:0:
192,192,110804,128,0,110893:0:0:0:0:
64,192,110983,1,0,0:0:0:0:
448,192,110983,128,0,111072:0:0:0:0:
320,192,111161,128,0,111251:0:0:0:0:
64,192,111340,1,0,0:0:0:0:
192,192,111340,128,0,111429:0:0:0:0:
448,192,111518,128,0,111608:0:0:0:0:
192,192,111697,1,0,0:0:0:0:
64,192,111697,128,0,111786:0:0:0:0:
320,192,111876,128,0,111965:0:0:0:0:
192,192,112054,1,0,0:0:0:0:
64,192,112054,128,0,112143:0:0:0:0:
448,192,112233,128,0,112322:0:0:0:0:
64,192,112411,1,0,0:0:0:0:
192,192,112411,128,0,112501:0:0:0:0:
320,192,112590,128,0,112679:0:0:0:0:
448,192,112768,1,0,0:0:0:0:
192,192,112768,128,0,112858:0:0:0:0:
64,192,112947,128,0,113036:0:0:0:0:
320,192,112947,1,0,0:0:0:0:
448,192,113126,128,0,113215:0:0:0:0:
192,192,113126,1,0,0:0:0:0:
320,192,113215,1,0,0:0:0:0:
64,192,113304,128,0,113393:0:0:0:0:
448,192,113304,1,0,0:0:0:0:
448,192,113483,128,0,113572:0:0:0:0:
192,192,113483,1,0,0:0:0:0:
320,192,113661,128,0,113751:0:0:0:0:
64,192,113661,1,0,0:0:0:0:
448,192,113840,128,0,113929:0:0:0:0:
192,192,113840,1,0,0:0:0:0:
320,192,113929,1,0,0:0:0:0:
192,192,114018,128,0,114108:0:0:0:0:
64,192,114018,1,0,0:0:0:0:
320,192,114197,128,0,114286:0:0:0:0:
448,192,114197,1,0,0:0:0:0:
64,192,114376,128,0,114465:0:0:0:0:
192,192,114376,1,0,0:0:0:0:
448,192,114554,128,0,114643:0:0:0:0:
320,192,114554,1,0,0:0:0:0:
64,192,114643,1,0,0:0:0:0:
192,192,114733,128,0,114822:0:0:0:0:
320,192,114733,1,0,0:0:0:0:
448,192,114911,128,0,115001:0:0:0:0:
192,192,114911,1,0,0:0:0:0:
64,192,115090,128,0,115179:0:0:0:0:
320,192,115090,1,0,0:0:0:0:
320,192,115268,128,0,115358:0:0:0:0:
192,192,115268,1,0,0:0:0:0:
448,192,115358,1,0,0:0:0:0:
64,192,115447,128,0,115536:0:0:0:0:
192,192,115447,1,0,0:0:0:0:
448,192,115626,128,0,115715:0:0:0:0:
320,192,115626,1,0,0:0:0:0:
192,192,115804,128,0,115893:0:0:0:0:
64,192,115804,1,0,0:0:0:0:
64,192,115983,128,0,116072:0:0:0:0:
320,192,115983,1,0,0:0:0:0:
192,192,116072,1,0,0:0:0:0:
448,192,116161,128,0,116251:0:0:0:0:
320,192,116161,1,0,0:0:0:0:
64,192,116340,128,0,116429:0:0:0:0:
192,192,116340,1,0,0:0:0:0:
320,192,116518,128,0,116608:0:0:0:0:
448,192,116518,1,0,0:0:0:0:
64,192,116697,128,0,116786:0:0:0:0:
448,192,116697,1,0,0:0:0:0:
320,192,116786,1,0,0:0:0:0:
192,192,116876,128,0,116965:0:0:0:0:
64,192,116876,1,0,0:0:0:0:
320,192,117054,128,0,117143:0:0:0:0:
448,192,117054,1,0,0:0:0:0:
64,192,117233,128,0,117322:0:0:0:0:
192,192,117233,1,0,0:0:0:0:
448,192,117411,128,0,117501:0:0:0:0:
320,192,117411,1,0,0:0:0:0:
64,192,117501,1,0,0:0:0:0:
192,192,117590,128,0,117679:0:0:0:0:
448,192,117590,1,0,0:0:0:0:
320,192,117768,128,0,117858:0:0:0:0:
64,192,117768,1,0,0:0:0:0:
64,192,117947,128,0,118036:0:0:0:0:
192,192,117947,1,0,0:0:0:0:
320,192,118126,128,0,118215:0:0:0:0:
448,192,118126,1,0,0:0:0:0:
64,192,118215,1,0,0:0:0:0:
192,192,118304,128,0,118393:0:0:0:0:
320,192,118304,1,0,0:0:0:0:
320,192,118483,128,0,118572:0:0:0:0:
64,192,118483,1,0,0:0:0:0:
448,192,118661,128,0,118751:0:0:0:0:
192,192,118661,1,0,0:0:0:0:
64,192,118840,128,0,118929:0:0:0:0:
320,192,118840,1,0,0:0:0:0:
192,192,118929,1,0,0:0:0:0:
448,192,119018,128,0,119108:0:0:0:0:
320,192,119018,1,0,0:0:0:0:
64,192,119197,128,0,119286:0:0:0:0:
192,192,119197,1,0,0:0:0:0:
192,192,119376,128,0,119465:0:0:0:0:
320,192,119376,1,0,0:0:0:0:
448,192,119554,1,0,0:0:0:0:
64,192,119554,128,0,119643:0:0:0:0:
192,192,119643,1,0,0:0:0:0:
320,192,119733,128,0,119822:0:0:0:0:
448,192,119733,1,0,0:0:0:0:
64,192,119911,1,0,0:0:0:0:
192,192,119911,128,0,120001:0:0:0:0:
448,192,120090,128,0,120179:0:0:0:0:
320,192,120090,1,0,0:0:0:0:
192,192,120268,1,0,0:0:0:0:
64,192,120268,128,0,120358:0:0:0:0:
448,192,120358,1,0,0:0:0:0:
320,192,120447,128,0,120536:0:0:0:0:
192,192,120447,1,0,0:0:0:0:
64,192,120626,128,0,120715:0:0:0:0:
448,192,120626,1,0,0:0:0:0:
448,192,120804,128,0,120893:0:0:0:0:
320,192,120804,1,0,0:0:0:0:
192,192,120983,128,0,121072:0:0:0:0:
64,192,120983,1,0,0:0:0:0:
320,192,121072,1,0,0:0:0:0:
448,192,121161,128,0,121251:0:0:0:0:
64,192,121161,1,0,0:0:0:0:
192,192,121340,1,0,0:0:0:0:
64,192,121340,128,0,121429:0:0:0:0:
320,192,121518,128,0,121608:0:0:0:0:
448,192,121518,1,0,0:0:0:0:
64,192,121608,1,0,0:0:0:0:
192,192,121697,1,0,0:0:0:0:
448,192,121697,128,0,121786:0:0:0:0:
320,192,121786,1,0,0:0:0:0:
64,192,121876,128,0,121965:0:0:0:0:
192,192,121876,1,0,0:0:0:0:
448,192,121965,1,0,0:0:0:0:
192,192,122054,1,0,0:0:0:0:
320,192,122054,128,0,122143:0:0:0:0:
448,192,122143,1,0,0:0:0:0:
192,192,122233,128,0,122322:0:0:0:0:
64,192,122233,1,0,0:0:0:0:
320,192,122322,1,0,0:0:0:0:
64,192,122411,1,0,0:0:0:0:
448,192,122411,128,0,122501:0:0:0:0:
192,192,122501,1,0,0:0:0:0:
320,192,122590,128,0,122679:0:0:0:0:
448,192,122590,1,0,0:0:0:0:
64,192,122679,1,0,0:0:0:0:
320,192,122768,1,0,0:0:0:0:
192,192,122768,128,0,122858:0:0:0:0:
448,192,122858,1,0,0:0:0:0:
64,192,122947,128,0,123036:0:0:0:0:
192,192,122947,1,0,0:0:0:0:
320,192,123036,1,0,0:0:0:0:
192,192,123126,1,0,0:0:0:0:
448,192,123126,128,0,123215:0:0:0:0:
64,192,123215,5,0,0:0:0:0:
320,192,123304,128,0,123393:0:0:0:0:
448,192,123304,1,0,0:0:0:0:
192,192,123393,1,0,0:0:0:0:
64,192,123483,128,0,123572:0:0:0:0:
320,192,123483,1,0,0:0:0:0:
192,192,123572,1,0,0:0:0:0:
448,192,123661,128,0,123751:0:0:0:0:
64,192,123661,1,0,0:0:0:0:
320,192,123840,128,0,123929:0:0:0:0:
192,192,124018,1,0,0:0:0:0:
192,192,124197,128,0,124286:0:0:0:0:
320,192,124376,5,0,0:0:0:0:
64,192,124376,1,0,0:0:0:0:
448,192,124376,128,0,124465:0:0:0:0:
448,192,124554,1,0,0:0:0:0:
448,192,124733,128,0,124822:0:0:0:0:
320,192,124733,1,0,0:0:0:0:
448,192,124911,1,0,0:0:0:0:
64,192,125090,128,0,125179:0:0:0:0:
192,192,125090,1,0,0:0:0:0:
64,192,125268,1,0,0:0:0:0:
64,192,125447,128,0,125536:0:0:0:0:
192,192,125447,1,0,0:0:0:0:
64,192,125626,1,0,0:0:0:0:
192,192,125804,128,0,125893:0:0:0:0:
448,192,125804,1,0,0:0:0:0:
192,192,125983,1,0,0:0:0:0:
192,192,126161,128,0,126251:0:0:0:0:
448,192,126161,1,0,0:0:0:0:
192,192,126340,1,0,0:0:0:0:
320,192,126518,128,0,126608:0:0:0:0:
64,192,126518,1,0,0:0:0:0:
320,192,126697,1,0,0:0:0:0:
448,192,126757,1,0,0:0:0:0:
192,192,126816,1,0,0:0:0:0:
320,192,126876,128,0,126965:0:0:0:0:
64,192,126876,1,0,0:0:0:0:
448,192,126965,1,0,0:0:0:0:
320,192,127054,1,0,0:0:0:0:
64,192,127143,1,0,0:0:0:0:
192,192,127233,128,0,127322:0:0:0:0:
448,192,127233,1,0,0:0:0:0:
192,192,127411,1,0,0:0:0:0:
320,192,127501,1,0,0:0:0:0:
192,192,127590,128,0,127679:0:0:0:0:
448,192,127590,1,0,0:0:0:0:
192,192,127768,1,0,0:0:0:0:
64,192,127947,128,0,128036:0:0:0:0:
320,192,127947,1,0,0:0:0:0:
64,192,128126,1,0,0:0:0:0:
448,192,128215,1,0,0:0:0:0:
64,192,128304,128,0,128393:0:0:0:0:
320,192,128304,1,0,0:0:0:0:
192,192,128393,1,0,0:0:0:0:
64,192,128483,1,0,0:0:0:0:
320,192,128572,1,0,0:0:0:0:
448,192,128661,128,0,128751:0:0:0:0:
192,192,128661,1,0,0:0:0:0:
448,192,128840,1,0,0:0:0:0:
320,192,128840,1,0,0:0:0:0:
64,192,128929,1,0,0:0:0:0:
448,192,129018,128,0,129108:0:0:0:0:
192,192,129018,1,0,0:0:0:0:
448,192,129197,1,0,0:0:0:0:
64,192,129376,128,0,129465:0:0:0:0:
192,192,129376,1,0,0:0:0:0:
64,192,129554,1,0,0:0:0:0:
320,192,129614,1,0,0:0:0:0:
192,192,129673,1,0,0:0:0:0:
64,192,129733,128,0,129822:0:0:0:0:
448,192,129733,1,0,0:0:0:0:
192,192,129822,1,0,0:0:0:0:
64,192,129911,1,0,0:0:0:0:
320,192,130001,1,0,0:0:0:0:
448,192,130090,128,0,130179:0:0:0:0:
192,192,130090,1,0,0:0:0:0:
448,192,130268,1,0,0:0:0:0:
448,192,130447,128,0,130536:0:0:0:0:
192,192,130447,1,0,0:0:0:0:
448,192,130626,1,0,0:0:0:0:
320,192,130804,128,0,130893:0:0:0:0:
64,192,130804,1,0,0:0:0:0:
320,192,130983,1,0,0:0:0:0:
192,192,131072,1,0,0:0:0:0:
320,192,131161,128,0,131251:0:0:0:0:
64,192,131161,1,0,0:0:0:0:
448,192,131251,1,0,0:0:0:0:
320,192,131340,1,0,0:0:0:0:
192,192,131340,1,0,0:0:0:0:
64,192,131429,1,0,0:0:0:0:
192,192,131518,128,0,131608:0:0:0:0:
448,192,131518,1,0,0:0:0:0:
192,192,131697,1,0,0:0:0:0:
64,192,131697,1,0,0:0:0:0:
192,192,131876,128,0,131965:0:0:0:0:
448,192,131876,1,0,0:0:0:0:
192,192,132054,1,0,0:0:0:0:
320,192,132054,1,0,0:0:0:0:
64,192,132233,128,0,132322:0:0:0:0:
320,192,132233,1,0,0:0:0:0:
64,192,132411,1,0,0:0:0:0:
448,192,132471,1,0,0:0:0:0:
192,192,132530,1,0,0:0:0:0:
64,192,132590,128,0,132679:0:0:0:0:
320,192,132590,1,0,0:0:0:0:
448,192,132679,1,0,0:0:0:0:
64,192,132768,128,0,132947:0:0:0:0:
192,192,132768,1,0,0:0:0:0:
320,192,132858,1,0,0:0:0:0:
448,192,132947,128,0,133036:0:0:0:0:
192,192,132947,128,0,133126:0:0:0:0:
448,192,133126,1,0,0:0:0:0:
448,192,133304,128,0,133393:0:0:0:0:
64,192,133304,128,0,133661:0:0:0:0:
448,192,133483,1,0,0:0:0:0:
192,192,133661,128,0,133751:0:0:0:0:
320,192,133661,128,0,133840:0:0:0:0:
192,192,133840,1,0,0:0:0:0:
64,192,133929,1,0,0:0:0:0:
192,192,134018,128,0,134108:0:0:0:0:
448,192,134018,128,0,134197:0:0:0:0:
320,192,134108,1,0,0:0:0:0:
192,192,134197,1,0,0:0:0:0:
64,192,134286,1,0,0:0:0:0:
320,192,134376,128,0,134465:0:0:0:0:
448,192,134376,128,0,134733:0:0:0:0:
320,192,134554,1,0,0:0:0:0:
192,192,134643,1,0,0:0:0:0:
320,192,134733,128,0,134822:0:0:0:0:
64,192,134733,1,0,0:0:0:0:
320,192,134911,1,0,0:0:0:0:
192,192,134911,128,0,135001:0:0:0:0:
64,192,135090,128,0,135179:0:0:0:0:
192,192,135090,128,0,135268:0:0:0:0:
64,192,135268,1,0,0:0:0:0:
448,192,135268,1,0,0:0:0:0:
320,192,135358,1,0,0:0:0:0:
64,192,135447,128,0,135536:0:0:0:0:
192,192,135447,1,0,0:0:0:0:
448,192,135536,128,0,135626:0:0:0:0:
64,192,135626,1,0,0:0:0:0:
320,192,135626,128,0,135715:0:0:0:0:
192,192,135715,128,0,135804:0:0:0:0:
320,192,135804,1,0,0:0:0:0:
64,192,135804,1,0,0:0:0:0:
448,192,135804,128,0,135983:0:0:0:0:
64,192,135983,128,0,136072:0:0:0:0:
320,192,136161,128,0,136251:0:0:0:0:
192,192,136161,1,0,0:0:0:0:
448,192,136340,128,0,136429:0:0:0:0:
192,192,136518,128,0,136697:0:0:0:0:
64,192,136518,1,0,0:0:0:0:
320,192,136697,128,0,136876:0:0:0:0:
192,192,136786,128,0,136876:0:0:0:0:
448,192,136876,128,0,136965:0:0:0:0:
64,192,136876,1,0,0:0:0:0:
320,192,137054,128,0,137143:0:0:0:0:
192,192,137233,128,0,137322:0:0:0:0:
64,192,137233,1,0,0:0:0:0:
448,192,137411,128,0,137590:0:0:0:0:
320,192,137501,128,0,137590:0:0:0:0:
192,192,137590,128,0,137679:0:0:0:0:
64,192,137590,1,0,0:0:0:0:
64,192,137768,128,0,137858:0:0:0:0:
320,192,137947,128,0,138126:0:0:0:0:
192,192,137947,1,0,0:0:0:0:
448,192,138126,128,0,138304:0:0:0:0:
192,192,138215,128,0,138304:0:0:0:0:
64,192,138304,128,0,138483:0:0:0:0:
320,192,138304,1,0,0:0:0:0:
320,192,138483,128,0,138661:0:0:0:0:
192,192,138483,1,0,0:0:0:0:
448,192,138661,128,0,138840:0:0:0:0:
64,192,138661,1,0,0:0:0:0:
64,192,138840,128,0,139018:0:0:0:0:
320,192,138929,128,0,139018:0:0:0:0:
192,192,139018,128,0,139108:0:0:0:0:
448,192,139018,1,0,0:0:0:0:
448,192,139197,128,0,139286:0:0:0:0:
64,192,139376,128,0,139554:0:0:0:0:
320,192,139376,1,0,0:0:0:0:
448,192,139554,128,0,139643:0:0:0:0:
192,192,139733,128,0,139822:0:0:0:0:
320,192,139733,1,0,0:0:0:0:
64,192,139911,128,0,140001:0:0:0:0:
320,192,140090,128,0,140268:0:0:0:0:
448,192,140090,1,0,0:0:0:0:
192,192,140268,128,0,140447:0:0:0:0:
448,192,140358,128,0,140447:0:0:0:0:
64,192,140447,128,0,140536:0:0:0:0:
320,192,140447,1,0,0:0:0:0:
320,192,140626,128,0,140715:0:0:0:0:
448,192,140804,128,0,140983:0:0:0:0:
192,192,140804,1,0,0:0:0:0:
320,192,140983,128,0,141072:0:0:0:0:
64,192,141072,1,0,0:0:0:0:
192,192,141161,128,0,141340:0:0:0:0:
448,192,141161,1,0,0:0:0:0:
64,192,141340,128,0,141429:0:0:0:0:
320,192,141340,1,0,0:0:0:0:
448,192,141518,128,0,141697:0:0:0:0:
192,192,141518,1,0,0:0:0:0:
64,192,141697,128,0,141786:0:0:0:0:
320,192,141697,1,0,0:0:0:0:
320,192,141876,128,0,141965:0:0:0:0:
192,192,141876,1,0,0:0:0:0:
448,192,142054,128,0,142143:0:0:0:0:
64,192,142054,1,0,0:0:0:0:
192,192,142233,128,0,142411:0:0:0:0:
320,192,142233,1,0,0:0:0:0:
64,192,142411,128,0,142590:0:0:0:0:
448,192,142411,1,0,0:0:0:0:
320,192,142501,128,0,142590:0:0:0:0:
192,192,142590,128,0,142679:0:0:0:0:
448,192,142590,1,0,0:0:0:0:
64,192,142768,128,0,142858:0:0:0:0:
320,192,142768,1,0,0:0:0:0:
192,192,142947,128,0,143036:0:0:0:0:
448,192,142947,1,0,0:0:0:0:
320,192,143036,1,0,0:0:0:0:
64,192,143126,1,0,0:0:0:0:
448,192,143126,128,0,143304:0:0:0:0:
320,192,143215,128,0,143304:0:0:0:0:
192,192,143304,1,0,0:0:0:0:
64,192,143304,128,0,143393:0:0:0:0:
448,192,143393,1,0,0:0:0:0:
320,192,143483,128,0,143661:0:0:0:0:
192,192,143572,128,0,143661:0:0:0:0:
448,192,143661,128,0,143840:0:0:0:0:
64,192,143661,128,0,143751:0:0:0:0:
320,192,143751,128,0,143840:0:0:0:0:
192,192,143840,128,0,144018:0:0:0:0:
64,192,143840,128,0,143929:0:0:0:0:
320,192,143929,128,0,144108:0:0:0:0:
448,192,144018,128,0,144286:0:0:0:0:
64,192,144018,128,0,144197:0:0:0:0:
192,192,144108,128,0,144376:0:0:0:0:
320,192,144197,128,0,144376:0:0:0:0:
64,192,144286,128,0,144376:0:0:0:0:
448,192,144376,128,0,144554:0:0:0:0:
320,192,144733,128,0,145090:0:0:0:0:
64,192,145090,128,0,145268:0:0:0:0:
192,192,145268,128,0,145358:0:0:0:0:
448,192,145447,128,0,145626:0:0:0:0:
320,192,145626,128,0,145715:0:0:0:0:
192,192,145804,1,0,0:0:0:0:
64,192,145804,128,0,146161:0:0:0:0:
320,192,146340,128,0,146429:0:0:0:0:
320,192,146518,128,0,146876:0:0:0:0:
64,192,146876,128,0,147143:0:0:0:0:
192,192,146920,1,0,0:0:0:0:
448,192,146965,128,0,147143:0:0:0:0:
320,192,147233,1,0,0:0:0:0:
448,192,147233,128,0,147501:0:0:0:0:
64,192,147233,1,0,0:0:0:0:
64,192,147411,128,0,147679:0:0:0:0:
320,192,147590,128,0,147858:0:0:0:0:
192,192,147590,1,0,0:0:0:0:
448,192,147590,1,0,0:0:0:0:
448,192,147768,128,0,148036:0:0:0:0:
320,192,147947,1,0,0:0:0:0:
192,192,147947,1,0,0:0:0:0:
64,192,147947,128,0,148215:0:0:0:0:
320,192,148126,128,0,148215:0:0:0:0:
192,192,148215,128,0,148304:0:0:0:0:
320,192,148304,1,0,0:0:0:0:
64,192,148304,1,0,0:0:0:0:
448,192,148304,128,0,148572:0:0:0:0:
192,192,148483,128,0,148751:0:0:0:0:
448,192,148661,1,0,0:0:0:0:
320,192,148661,1,0,0:0:0:0:
64,192,148661,128,0,148929:0:0:0:0:
448,192,148840,128,0,148929:0:0:0:0:
320,192,148929,128,0,149018:0:0:0:0:
64,192,149018,1,0,0:0:0:0:
192,192,149018,1,0,0:0:0:0:
448,192,149018,128,0,149286:0:0:0:0:
64,192,149197,128,0,149465:0:0:0:0:
448,192,149376,1,0,0:0:0:0:
320,192,149376,1,0,0:0:0:0:
192,192,149376,128,0,149643:0:0:0:0:
448,192,149554,128,0,149643:0:0:0:0:
320,192,149643,128,0,149733:0:0:0:0:
448,192,149733,1,0,0:0:0:0:
192,192,149733,1,0,0:0:0:0:
64,192,149733,128,0,150001:0:0:0:0:
320,192,149911,1,0,0:0:0:0:
192,192,149911,128,0,150179:0:0:0:0:
448,192,150090,1,0,0:0:0:0:
64,192,150090,1,0,0:0:0:0:
320,192,150090,128,0,150358:0:0:0:0:
448,192,150268,128,0,150358:0:0:0:0:
64,192,150358,128,0,150447:0:0:0:0:
320,192,150447,1,0,0:0:0:0:
192,192,150447,1,0,0:0:0:0:
448,192,150447,128,0,150715:0:0:0:0:
192,192,150626,128,0,150893:0:0:0:0:
448,192,150804,1,0,0:0:0:0:
320,192,150804,1,0,0:0:0:0:
64,192,150804,128,0,151072:0:0:0:0:
320,192,150983,128,0,151251:0:0:0:0:
192,192,151161,1,0,0:0:0:0:
64,192,151161,1,0,0:0:0:0:
448,192,151161,128,0,151429:0:0:0:0:
64,192,151340,128,0,151608:0:0:0:0:
448,192,151518,1,0,0:0:0:0:
320,192,151518,1,0,0:0:0:0:
192,192,151518,128,0,151786:0:0:0:0:
448,192,151697,128,0,151786:0:0:0:0:
320,192,151786,128,0,151876:0:0:0:0:
64,192,151876,1,0,0:0:0:0:
192,192,151876,1,0,0:0:0:0:
448,192,151876,128,0,152143:0:0:0:0:
64,192,152054,128,0,152322:0:0:0:0:
320,192,152233,128,0,152501:0:0:0:0:
448,192,152233,1,0,0:0:0:0:
192,192,152233,1,0,0:0:0:0:
192,192,152411,128,0,152679:0:0:0:0:
64,192,152501,1,0,0:0:0:0:
320,192,152590,1,0,0:0:0:0:
448,192,152590,128,0,152858:0:0:0:0:
192,192,152768,1,0,0:0:0:0:
320,192,152768,128,0,152947:0:0:0:0:
448,192,152947,1,0,0:0:0:0:
64,192,152947,1,0,0:0:0:0:
192,192,152947,128,0,153215:0:0:0:0:
320,192,153126,128,0,153215:0:0:0:0:
64,192,153126,128,0,153393:0:0:0:0:
192,192,153304,1,0,0:0:0:0:
448,192,153304,1,0,0:0:0:0:
320,192,153304,128,0,153572:0:0:0:0:
448,192,153483,128,0,153751:0:0:0:0:
64,192,153483,128,0,153572:0:0:0:0:
320,192,153661,1,0,0:0:0:0:
192,192,153661,1,0,0:0:0:0:
64,192,153661,128,0,153929:0:0:0:0:
448,192,153840,128,0,153929:0:0:0:0:
320,192,153840,128,0,153929:0:0:0:0:
192,192,153929,128,0,154018:0:0:0:0:
64,192,154018,1,0,0:0:0:0:
448,192,154018,1,0,0:0:0:0:
320,192,154018,128,0,154286:0:0:0:0:
64,192,154197,128,0,154465:0:0:0:0:
192,192,154197,128,0,154286:0:0:0:0:
320,192,154376,128,0,154643:0:0:0:0:
448,192,154376,128,0,154465:0:0:0:0:
192,192,154465,128,0,154554:0:0:0:0:
448,192,154554,128,0,154643:0:0:0:0:
64,192,154643,128,0,154733:0:0:0:0:
192,192,154733,128,0,155001:0:0:0:0:
320,192,154733,128,0,154822:0:0:0:0:
448,192,154822,128,0,154911:0:0:0:0:
64,192,154911,128,0,155001:0:0:0:0:
320,192,155001,128,0,155090:0:0:0:0:
448,192,155090,128,0,155358:0:0:0:0:
64,192,155090,128,0,155179:0:0:0:0:
192,192,155179,128,0,155268:0:0:0:0:
320,192,155268,128,0,155358:0:0:0:0:
64,192,155358,128,0,155447:0:0:0:0:
192,192,155358,128,0,155447:0:0:0:0:
320,192,155447,128,0,155715:0:0:0:0:
448,192,155447,128,0,155536:0:0:0:0:
64,192,155536,128,0,155626:0:0:0:0:
192,192,155626,128,0,155715:0:0:0:0:
448,192,155715,128,0,155804:0:0:0:0:
64,192,155804,128,0,156072:0:0:0:0:
192,192,155804,128,0,155983:0:0:0:0:
448,192,155893,128,0,155983:0:0:0:0:
320,192,155983,128,0,156072:0:0:0:0:
192,192,156072,128,0,156161:0:0:0:0:
448,192,156161,128,0,156429:0:0:0:0:
320,192,156161,128,0,156340:0:0:0:0:
192,192,156251,128,0,156340:0:0:0:0:
64,192,156340,128,0,156429:0:0:0:0:
320,192,156429,128,0,156518:0:0:0:0:
64,192,156518,128,0,156786:0:0:0:0:
448,192,156518,128,0,156697:0:0:0:0:
192,192,156608,128,0,156697:0:0:0:0:
320,192,156697,128,0,156786:0:0:0:0:
448,192,156786,128,0,156876:0:0:0:0:
192,192,156876,128,0,157143:0:0:0:0:
320,192,156876,128,0,157054:0:0:0:0:
64,192,156965,128,0,157054:0:0:0:0:
448,192,157054,128,0,157143:0:0:0:0:
320,192,157143,128,0,157233:0:0:0:0:
192,192,157233,1,0,0:0:0:0:
64,192,157233,128,0,157501:0:0:0:0:
448,192,157233,128,0,157411:0:0:0:0:
320,192,157322,128,0,157411:0:0:0:0:
192,192,157411,128,0,157501:0:0:0:0:
448,192,157501,128,0,157590:0:0:0:0:
64,192,157590,128,0,157858:0:0:0:0:
320,192,157590,1,0,0:0:0:0:
192,192,157590,128,0,157768:0:0:0:0:
448,192,157679,128,0,157768:0:0:0:0:
320,192,157768,128,0,157858:0:0:0:0:
192,192,157858,128,0,157947:0:0:0:0:
448,192,157947,128,0,158215:0:0:0:0:
64,192,157947,128,0,158126:0:0:0:0:
320,192,157947,1,0,0:0:0:0:
192,192,158036,128,0,158126:0:0:0:0:
320,192,158126,128,0,158215:0:0:0:0:
192,192,158215,128,0,158304:0:0:0:0:
64,192,158215,128,0,158304:0:0:0:0:
320,192,158304,128,0,158483:0:0:0:0:
448,192,158304,128,0,158572:0:0:0:0:
64,192,158393,128,0,158483:0:0:0:0:
192,192,158483,128,0,158572:0:0:0:0:
64,192,158572,1,0,0:0:0:0:
448,192,158661,128,0,158929:0:0:0:0:
320,192,158661,128,0,158840:0:0:0:0:
192,192,158661,1,0,0:0:0:0:
64,192,158751,128,0,158840:0:0:0:0:
192,192,158840,128,0,158929:0:0:0:0:
320,192,158929,128,0,159018:0:0:0:0:
448,192,159018,128,0,159286:0:0:0:0:
64,192,159018,128,0,159197:0:0:0:0:
192,192,159108,128,0,159197:0:0:0:0:
320,192,159197,128,0,159286:0:0:0:0:
64,192,159286,128,0,159376:0:0:0:0:
448,192,159376,128,0,159643:0:0:0:0:
192,192,159376,128,0,159554:0:0:0:0:
320,192,159465,128,0,159554:0:0:0:0:
64,192,159554,128,0,159643:0:0:0:0:
192,192,159643,128,0,159733:0:0:0:0:
320,192,159733,128,0,160001:0:0:0:0:
448,192,159733,128,0,159911:0:0:0:0:
192,192,159822,128,0,159911:0:0:0:0:
64,192,159911,128,0,160001:0:0:0:0:
448,192,160001,128,0,160090:0:0:0:0:
320,192,160090,128,0,160268:0:0:0:0:
64,192,160090,128,0,160179:0:0:0:0:
192,192,160179,128,0,160268:0:0:0:0:
448,192,160268,128,0,160358:0:0:0:0:
64,192,160268,128,0,160447:0:0:0:0:
320,192,160358,128,0,160447:0:0:0:0:
448,192,160447,128,0,160626:0:0:0:0:
192,192,160447,128,0,160536:0:0:0:0:
64,192,160536,128,0,160626:0:0:0:0:
192,192,160626,128,0,160804:0:0:0:0:
320,192,160626,128,0,160715:0:0:0:0:
448,192,160715,128,0,160804:0:0:0:0:
64,192,160804,128,0,160983:0:0:0:0:
320,192,160804,128,0,161072:0:0:0:0:
448,192,160893,128,0,160983:0:0:0:0:
192,192,160983,128,0,161072:0:0:0:0:
64,192,161072,128,0,161161:0:0:0:0:
448,192,161161,128,0,161251:0:0:0:0:
320,192,161161,128,0,161340:0:0:0:0:
64,192,161251,128,0,161340:0:0:0:0:
448,192,161340,128,0,161518:0:0:0:0:
192,192,161340,128,0,161429:0:0:0:0:
320,192,161429,128,0,161518:0:0:0:0:
192,192,161518,128,0,161697:0:0:0:0:
64,192,161518,128,0,161608:0:0:0:0:
448,192,161608,128,0,161697:0:0:0:0:
320,192,161697,128,0,161876:0:0:0:0:
64,192,161697,128,0,161786:0:0:0:0:
192,192,161786,128,0,161876:0:0:0:0:
64,192,161876,128,0,162054:0:0:0:0:
448,192,161876,128,0,161965:0:0:0:0:
192,192,161965,128,0,162054:0:0:0:0:
448,192,162054,128,0,162233:0:0:0:0:
320,192,162054,128,0,162143:0:0:0:0:
192,192,162143,128,0,162233:0:0:0:0:
320,192,162233,128,0,162501:0:0:0:0:
64,192,162233,128,0,162411:0:0:0:0:
448,192,162322,128,0,162411:0:0:0:0:
192,192,162411,128,0,162501:0:0:0:0:
64,192,162501,128,0,162590:0:0:0:0:
448,192,162590,128,0,162768:0:0:0:0:
320,192,162590,128,0,162858:0:0:0:0:
192,192,162679,128,0,162768:0:0:0:0:
64,192,162768,128,0,162858:0:0:0:0:
448,192,162858,128,0,162947:0:0:0:0:
64,192,162947,128,0,163215:0:0:0:0:
320,192,162947,128,0,163126:0:0:0:0:
192,192,163036,128,0,163126:0:0:0:0:
448,192,163126,128,0,163215:0:0:0:0:
320,192,163215,128,0,163304:0:0:0:0:
192,192,163304,128,0,163483:0:0:0:0:
64,192,163304,128,0,163483:0:0:0:0:
448,192,163393,128,0,163572:0:0:0:0:
320,192,163483,128,0,163572:0:0:0:0:
192,192,163572,128,0,163661:0:0:0:0:
448,192,163661,128,0,163929:0:0:0:0:
64,192,163661,128,0,163840:0:0:0:0:
320,192,163751,128,0,163840:0:0:0:0:
192,192,163840,128,0,163929:0:0:0:0:
64,192,163929,128,0,164018:0:0:0:0:
320,192,164018,128,0,164286:0:0:0:0:
448,192,164018,128,0,164197:0:0:0:0:
192,192,164108,128,0,164197:0:0:0:0:
64,192,164197,128,0,164286:0:0:0:0:
448,192,164286,128,0,164376:0:0:0:0:
64,192,164376,128,0,164643:0:0:0:0:
320,192,164376,128,0,164554:0:0:0:0:
192,192,164465,128,0,164554:0:0:0:0:
448,192,164554,128,0,164643:0:0:0:0:
320,192,164643,128,0,164733:0:0:0:0:
192,192,164733,128,0,165001:0:0:0:0:
64,192,164733,128,0,164911:0:0:0:0:
448,192,164822,128,0,164911:0:0:0:0:
320,192,164911,128,0,165001:0:0:0:0:
64,192,165001,128,0,165090:0:0:0:0:
448,192,165090,128,0,165358:0:0:0:0:
192,192,165090,128,0,165268:0:0:0:0:
320,192,165179,128,0,165268:0:0:0:0:
64,192,165268,128,0,165358:0:0:0:0:
192,192,165358,128,0,165447:0:0:0:0:
320,192,165447,128,0,165715:0:0:0:0:
448,192,165447,128,0,165626:0:0:0:0:
64,192,165536,128,0,165626:0:0:0:0:
192,192,165626,128,0,165715:0:0:0:0:
448,192,165715,128,0,165804:0:0:0:0:
320,192,165804,128,0,165983:0:0:0:0:
64,192,165804,128,0,165893:0:0:0:0:
192,192,165893,128,0,165983:0:0:0:0:
448,192,165983,128,0,166161:0:0:0:0:
64,192,165983,128,0,166072:0:0:0:0:
192,192,166072,128,0,166161:0:0:0:0:
64,192,166161,128,0,166340:0:0:0:0:
320,192,166161,128,0,166251:0:0:0:0:
192,192,166251,128,0,166340:0:0:0:0:
448,192,166340,128,0,166518:0:0:0:0:
320,192,166340,128,0,166429:0:0:0:0:
192,192,166429,128,0,166518:0:0:0:0:
64,192,166518,128,0,166786:0:0:0:0:
320,192,166518,128,0,166697:0:0:0:0:
448,192,166608,128,0,166697:0:0:0:0:
192,192,166697,128,0,166786:0:0:0:0:
320,192,166786,128,0,166876:0:0:0:0:
448,192,166876,128,0,167233:0:0:0:0:
64,192,166876,128,0,167054:0:0:0:0:
192,192,166965,128,0,167143:0:0:0:0:
320,192,167054,128,0,167143:0:0:0:0:
64,192,167143,128,0,167233:0:0:0:0:
192,192,167233,128,0,167501:0:0:0:0:
320,192,167233,128,0,167501:0:0:0:0:
64,192,167322,128,0,167411:0:0:0:0:
448,192,167411,128,0,167501:0:0:0:0:
64,192,167501,128,0,167590:0:0:0:0:
448,192,167590,128,0,167858:0:0:0:0:
192,192,167590,128,0,167858:0:0:0:0:
320,192,167679,128,0,167768:0:0:0:0:
64,192,167768,128,0,167858:0:0:0:0:
320,192,167858,128,0,167947:0:0:0:0:
192,192,167947,128,0,168036:0:0:0:0:
448,192,167947,128,0,168126:0:0:0:0:
64,192,168036,128,0,168126:0:0:0:0:
192,192,168126,128,0,168304:0:0:0:0:
320,192,168126,128,0,168215:0:0:0:0:
448,192,168215,128,0,168304:0:0:0:0:
320,192,168304,128,0,168483:0:0:0:0:
64,192,168304,128,0,168393:0:0:0:0:
192,192,168393,128,0,168483:0:0:0:0:
448,192,168483,128,0,168572:0:0:0:0:
64,192,168483,128,0,168572:0:0:0:0:
320,192,168572,128,0,168661:0:0:0:0:
192,192,168661,128,0,168840:0:0:0:0:
448,192,168661,128,0,168751:0:0:0:0:
64,192,168751,128,0,168929:0:0:0:0:
448,192,168840,128,0,169018:0:0:0:0:
320,192,168840,128,0,168929:0:0:0:0:
192,192,168929,128,0,169018:0:0:0:0:
320,192,169018,128,0,169108:0:0:0:0:
64,192,169018,128,0,169197:0:0:0:0:
448,192,169108,128,0,169197:0:0:0:0:
192,192,169197,128,0,169286:0:0:0:0:
320,192,169197,128,0,169286:0:0:0:0:
64,192,169286,128,0,169376:0:0:0:0:
320,192,169376,128,0,169643:0:0:0:0:
448,192,169376,128,0,169554:0:0:0:0:
192,192,169465,128,0,169554:0:0:0:0:
64,192,169554,128,0,169643:0:0:0:0:
192,192,169643,128,0,169733:0:0:0:0:
448,192,169643,128,0,169733:0:0:0:0:
320,192,169733,128,0,169911:0:0:0:0:
64,192,169733,128,0,170001:0:0:0:0:
448,192,169822,128,0,170001:0:0:0:0:
192,192,169911,128,0,170090:0:0:0:0:
320,192,170001,128,0,170090:0:0:0:0:
448,192,170090,1,0,0:0:0:0:
64,192,170090,128,0,170268:0:0:0:0:
192,192,170179,1,0,0:0:0:0:
320,192,170268,128,0,170358:0:0:0:0:
448,192,170358,1,0,0:0:0:0:
192,192,170447,128,0,170536:0:0:0:0:
64,192,170447,1,0,0:0:0:0:
320,192,170536,1,0,0:0:0:0:
448,192,170626,128,0,170715:0:0:0:0:
192,192,170715,1,0,0:0:0:0:
320,192,170804,128,0,170983:0:0:0:0:
64,192,170804,1,0,0:0:0:0:
448,192,170893,1,0,0:0:0:0:
64,192,170983,128,0,171161:0:0:0:0:
192,192,171072,128,0,171161:0:0:0:0:
448,192,171161,128,0,171251:0:0:0:0:
320,192,171161,1,0,0:0:0:0:
192,192,171251,1,0,0:0:0:0:
64,192,171340,128,0,171429:0:0:0:0:
448,192,171429,1,0,0:0:0:0:
320,192,171518,128,0,171697:0:0:0:0:
192,192,171518,1,0,0:0:0:0:
64,192,171608,1,0,0:0:0:0:
192,192,171697,128,0,171876:0:0:0:0:
320,192,171786,128,0,171876:0:0:0:0:
448,192,171876,128,0,171965:0:0:0:0:
64,192,171876,1,0,0:0:0:0:
192,192,171965,1,0,0:0:0:0:
64,192,172054,128,0,172143:0:0:0:0:
320,192,172143,1,0,0:0:0:0:
448,192,172233,128,0,172411:0:0:0:0:
192,192,172233,1,0,0:0:0:0:
320,192,172322,1,0,0:0:0:0:
64,192,172411,128,0,172590:0:0:0:0:
192,192,172501,128,0,172590:0:0:0:0:
320,192,172590,128,0,172768:0:0:0:0:
448,192,172590,1,0,0:0:0:0:
64,192,172679,1,0,0:0:0:0:
192,192,172768,128,0,172947:0:0:0:0:
320,192,172858,1,0,0:0:0:0:
448,192,172947,128,0,173126:0:0:0:0:
64,192,172947,1,0,0:0:0:0:
192,192,173036,1,0,0:0:0:0:
320,192,173126,128,0,173304:0:0:0:0:
192,192,173215,128,0,173304:0:0:0:0:
64,192,173304,128,0,173393:0:0:0:0:
448,192,173304,1,0,0:0:0:0:
192,192,173393,1,0,0:0:0:0:
320,192,173483,128,0,173572:0:0:0:0:
448,192,173572,1,0,0:0:0:0:
192,192,173661,128,0,173840:0:0:0:0:
64,192,173661,1,0,0:0:0:0:
320,192,173751,1,0,0:0:0:0:
448,192,173840,128,0,173929:0:0:0:0:
192,192,173929,1,0,0:0:0:0:
320,192,174018,128,0,174108:0:0:0:0:
64,192,174018,1,0,0:0:0:0:
448,192,174108,1,0,0:0:0:0:
64,192,174197,128,0,174286:0:0:0:0:
320,192,174286,1,0,0:0:0:0:
192,192,174376,128,0,174554:0:0:0:0:
448,192,174376,1,0,0:0:0:0:
64,192,174465,1,0,0:0:0:0:
448,192,174554,128,0,174733:0:0:0:0:
320,192,174643,128,0,174733:0:0:0:0:
64,192,174733,128,0,174822:0:0:0:0:
192,192,174733,1,0,0:0:0:0:
448,192,174822,1,0,0:0:0:0:
192,192,174911,128,0,175001:0:0:0:0:
320,192,175001,1,0,0:0:0:0:
448,192,175090,128,0,175268:0:0:0:0:
64,192,175090,1,0,0:0:0:0:
192,192,175179,1,0,0:0:0:0:
64,192,175268,128,0,175358:0:0:0:0:
448,192,175358,1,0,0:0:0:0:
320,192,175447,128,0,175626:0:0:0:0:
192,192,175447,1,0,0:0:0:0:
64,192,175536,1,0,0:0:0:0:
192,192,175626,128,0,175715:0:0:0:0:
320,192,175715,1,0,0:0:0:0:
448,192,175804,128,0,175983:0:0:0:0:
64,192,175804,1,0,0:0:0:0:
192,192,175893,1,0,0:0:0:0:
64,192,175983,128,0,176072:0:0:0:0:
320,192,176072,1,0,0:0:0:0:
192,192,176161,128,0,176251:0:0:0:0:
448,192,176161,1,0,0:0:0:0:
64,192,176251,1,0,0:0:0:0:
320,192,176340,128,0,176429:0:0:0:0:
448,192,176429,1,0,0:0:0:0:
64,192,176518,128,0,176697:0:0:0:0:
320,192,176518,1,0,0:0:0:0:
192,192,176608,1,0,0:0:0:0:
448,192,176697,128,0,176876:0:0:0:0:
320,192,176786,128,0,176876:0:0:0:0:
192,192,176876,128,0,176965:0:0:0:0:
64,192,176876,1,0,0:0:0:0:
448,192,176965,1,0,0:0:0:0:
64,192,177054,128,0,177143:0:0:0:0:
192,192,177143,1,0,0:0:0:0:
320,192,177233,128,0,177411:0:0:0:0:
448,192,177233,1,0,0:0:0:0:
64,192,177322,1,0,0:0:0:0:
192,192,177411,128,0,177590:0:0:0:0:
320,192,177501,128,0,177590:0:0:0:0:
448,192,177590,128,0,177679:0:0:0:0:
64,192,177590,1,0,0:0:0:0:
192,192,177679,1,0,0:0:0:0:
320,192,177768,128,0,177947:0:0:0:0:
64,192,177858,128,0,177947:0:0:0:0:
192,192,177947,128,0,178126:0:0:0:0:
448,192,177947,1,0,0:0:0:0:
64,192,178036,1,0,0:0:0:0:
320,192,178126,128,0,178304:0:0:0:0:
192,192,178215,128,0,178304:0:0:0:0:
448,192,178304,128,0,178483:0:0:0:0:
64,192,178304,1,0,0:0:0:0:
320,192,178393,1,0,0:0:0:0:
64,192,178483,128,0,178661:0:0:0:0:
192,192,178572,1,0,0:0:0:0:
448,192,178661,128,0,178840:0:0:0:0:
320,192,178661,1,0,0:0:0:0:
192,192,178840,128,0,179018:0:0:0:0:
320,192,178929,128,0,179018:0:0:0:0:
64,192,179018,128,0,179108:0:0:0:0:
448,192,179018,1,0,0:0:0:0:
448,192,179197,128,0,179286:0:0:0:0:
320,192,179376,128,0,179554:0:0:0:0:
64,192,179376,1,0,0:0:0:0:
192,192,179554,128,0,179643:0:0:0:0:
448,192,179643,1,0,0:0:0:0:
64,192,179733,128,0,179822:0:0:0:0:
192,192,179733,1,0,0:0:0:0:
320,192,179822,1,0,0:0:0:0:
448,192,179911,128,0,180001:0:0:0:0:
64,192,180001,1,0,0:0:0:0:
192,192,180090,128,0,180268:0:0:0:0:
320,192,180090,1,0,0:0:0:0:
320,192,180268,128,0,180447:0:0:0:0:
448,192,180358,128,0,180447:0:0:0:0:
64,192,180447,128,0,180536:0:0:0:0:
192,192,180447,1,0,0:0:0:0:
448,192,180626,128,0,180715:0:0:0:0:
192,192,180804,128,0,180983:0:0:0:0:
64,192,180804,1,0,0:0:0:0:
448,192,180983,1,0,0:0:0:0:
320,192,181042,1,0,0:0:0:0:
192,192,181102,1,0,0:0:0:0:
448,192,181161,1,0,0:0:0:0:
64,192,181161,1,0,0:0:0:0:
