osu file format v14

[General]
AudioFilename: audio.mp3
AudioLeadIn: 0
PreviewTime: 46904
Countdown: 0
SampleSet: Soft
StackLeniency: 0.7
Mode: 3
LetterboxInBreaks: 0
SpecialStyle: 0
WidescreenStoryboard: 1

[Editor]
DistanceSpacing: 0.8
BeatDivisor: 4
GridSize: 32
TimelineZoom: 1.9

[Metadata]
Title:Merry Snowy Fantasy feat. Hanon
TitleUnicode:Merry Snowy Fantasy feat. Hanon
Artist:mustie=DC
ArtistUnicode:mustie=DC
Creator:Kibitz
Version:Hard
Source:
Tags:howtoplayln htpln christmas xmas j-pop jpop pop japanese electronic マスティ はのん A FUTURE MEOWS
BeatmapID:3323603
BeatmapSetID:1627998

[Difficulty]
HPDrainRate:7
CircleSize:4
OverallDifficulty:7
ApproachRate:5
SliderMultiplier:1.4
SliderTickRate:1

[Events]
//Background and Video events
0,0,"christmas-anime-girl-03.jpg",0,0
//Break Periods
//Storyboard Layer 0 (Background)
//Storyboard Layer 1 (Fail)
//Storyboard Layer 2 (Pass)
//Storyboard Layer 3 (Foreground)
//Storyboard Layer 4 (Overlay)
//Storyboard Sound Samples

[TimingPoints]
1519,357.142857142857,4,2,1,50,1,0
72947,-100,4,2,1,50,0,1
84376,-100,4,2,1,50,0,0
158661,-100,4,2,1,50,0,1
170090,-100,4,2,1,50,0,0

[HitObjects]
64,192,1519,5,0,0:0:0:0:
448,192,1519,1,0,0:0:0:0:
192,192,1697,1,0,0:0:0:0:
320,192,1876,1,0,0:0:0:0:
64,192,2054,1,0,0:0:0:0:
448,192,2233,1,0,0:0:0:0:
320,192,2411,1,0,0:0:0:0:
64,192,2590,1,0,0:0:0:0:
448,192,2768,1,0,0:0:0:0:
192,192,2947,1,0,0:0:0:0:
64,192,3126,1,0,0:0:0:0:
320,192,3304,1,0,0:0:0:0:
448,192,3483,1,0,0:0:0:0:
64,192,3661,1,0,0:0:0:0:
192,192,3840,1,0,0:0:0:0:
320,192,4018,1,0,0:0:0:0:
448,192,4197,1,0,0:0:0:0:
64,192,4376,1,0,0:0:0:0:
448,192,4554,1,0,0:0:0:0:
320,192,4733,1,0,0:0:0:0:
64,192,4911,1,0,0:0:0:0:
192,192,5090,1,0,0:0:0:0:
448,192,5268,1,0,0:0:0:0:
64,192,5447,1,0,0:0:0:0:
320,192,5626,1,0,0:0:0:0:
448,192,5804,1,0,0:0:0:0:
192,192,5983,1,0,0:0:0:0:
64,192,6161,1,0,0:0:0:0:
320,192,6340,1,0,0:0:0:0:
192,192,6518,1,0,0:0:0:0:
448,192,6697,1,0,0:0:0:0:
192,192,6876,1,0,0:0:0:0:
320,192,7054,1,0,0:0:0:0:
64,192,7233,1,0,0:0:0:0:
192,192,7233,1,0,0:0:0:0:
448,192,7411,1,0,0:0:0:0:
192,192,7590,1,0,0:0:0:0:
64,192,7590,1,0,0:0:0:0:
320,192,7768,1,0,0:0:0:0:
448,192,7947,1,0,0:0:0:0:
64,192,7947,1,0,0:0:0:0:
320,192,8126,1,0,0:0:0:0:
448,192,8304,1,0,0:0:0:0:
64,192,8304,1,0,0:0:0:0:
192,192,8483,1,0,0:0:0:0:
448,192,8661,1,0,0:0:0:0:
320,192,8661,1,0,0:0:0:0:
192,192,8840,1,0,0:0:0:0:
64,192,9018,1,0,0:0:0:0:
320,192,9018,1,0,0:0:0:0:
448,192,9197,1,0,0:0:0:0:
320,192,9376,1,0,0:0:0:0:
192,192,9376,1,0,0:0:0:0:
64,192,9554,1,0,0:0:0:0:
448,192,9733,1,0,0:0:0:0:
192,192,9733,1,0,0:0:0:0:
64,192,9911,1,0,0:0:0:0:
320,192,10090,1,0,0:0:0:0:
448,192,10090,1,0,0:0:0:0:
192,192,10268,1,0,0:0:0:0:
64,192,10447,1,0,0:0:0:0:
448,192,10447,1,0,0:0:0:0:
320,192,10626,1,0,0:0:0:0:
64,192,10804,1,0,0:0:0:0:
192,192,10804,1,0,0:0:0:0:
320,192,10983,1,0,0:0:0:0:
448,192,11161,1,0,0:0:0:0:
64,192,11161,1,0,0:0:0:0:
192,192,11340,1,0,0:0:0:0:
64,192,11518,128,0,12590:0:0:0:0:
320,192,11518,1,0,0:0:0:0:
192,192,11697,1,0,0:0:0:0:
448,192,11876,1,0,0:0:0:0:
320,192,12054,1,0,0:0:0:0:
192,192,12233,1,0,0:0:0:0:
320,192,12411,1,0,0:0:0:0:
448,192,12590,1,0,0:0:0:0:
64,192,12768,1,0,0:0:0:0:
192,192,12947,1,0,0:0:0:0:
448,192,12947,1,0,0:0:0:0:
320,192,13126,1,0,0:0:0:0:
64,192,13304,1,0,0:0:0:0:
448,192,13304,1,0,0:0:0:0:
192,192,13483,1,0,0:0:0:0:
320,192,13661,1,0,0:0:0:0:
448,192,13661,1,0,0:0:0:0:
64,192,13840,1,0,0:0:0:0:
192,192,14018,1,0,0:0:0:0:
448,192,14018,1,0,0:0:0:0:
320,192,14197,1,0,0:0:0:0:
192,192,14376,1,0,0:0:0:0:
64,192,14376,1,0,0:0:0:0:
448,192,14554,1,0,0:0:0:0:
64,192,14733,1,0,0:0:0:0:
320,192,14733,1,0,0:0:0:0:
192,192,14911,1,0,0:0:0:0:
320,192,15090,1,0,0:0:0:0:
448,192,15090,1,0,0:0:0:0:
64,192,15268,1,0,0:0:0:0:
320,192,15447,1,0,0:0:0:0:
192,192,15447,1,0,0:0:0:0:
64,192,15626,1,0,0:0:0:0:
320,192,15804,1,0,0:0:0:0:
448,192,15804,1,0,0:0:0:0:
192,192,15983,1,0,0:0:0:0:
64,192,16161,1,0,0:0:0:0:
448,192,16161,1,0,0:0:0:0:
192,192,16340,1,0,0:0:0:0:
320,192,16518,1,0,0:0:0:0:
448,192,16518,1,0,0:0:0:0:
64,192,16697,1,0,0:0:0:0:
192,192,16876,1,0,0:0:0:0:
320,192,16876,1,0,0:0:0:0:
448,192,17054,1,0,0:0:0:0:
320,192,17233,1,0,0:0:0:0:
64,192,17233,1,0,0:0:0:0:
448,192,17411,1,0,0:0:0:0:
192,192,17590,1,0,0:0:0:0:
320,192,17590,1,0,0:0:0:0:
64,192,17768,1,0,0:0:0:0:
448,192,17947,1,0,0:0:0:0:
320,192,17947,1,0,0:0:0:0:
192,192,18126,1,0,0:0:0:0:
64,192,18304,1,0,0:0:0:0:
320,192,18304,1,0,0:0:0:0:
192,192,18483,1,0,0:0:0:0:
448,192,18661,1,0,0:0:0:0:
64,192,18661,1,0,0:0:0:0:
192,192,18840,1,0,0:0:0:0:
64,192,19018,1,0,0:0:0:0:
448,192,19018,1,0,0:0:0:0:
320,192,19197,1,0,0:0:0:0:
192,192,19376,1,0,0:0:0:0:
64,192,19376,1,0,0:0:0:0:
448,192,19554,1,0,0:0:0:0:
192,192,19733,1,0,0:0:0:0:
320,192,19733,1,0,0:0:0:0:
64,192,19911,1,0,0:0:0:0:
320,192,20090,1,0,0:0:0:0:
448,192,20090,1,0,0:0:0:0:
192,192,20268,1,0,0:0:0:0:
64,192,20447,1,0,0:0:0:0:
320,192,20447,1,0,0:0:0:0:
448,192,20626,1,0,0:0:0:0:
64,192,20804,1,0,0:0:0:0:
192,192,20804,1,0,0:0:0:0:
320,192,20983,1,0,0:0:0:0:
448,192,21161,1,0,0:0:0:0:
192,192,21161,1,0,0:0:0:0:
64,192,21340,1,0,0:0:0:0:
192,192,21518,1,0,0:0:0:0:
448,192,21518,1,0,0:0:0:0:
320,192,21697,1,0,0:0:0:0:
192,192,21876,1,0,0:0:0:0:
64,192,21876,1,0,0:0:0:0:
448,192,22054,1,0,0:0:0:0:
192,192,22233,1,0,0:0:0:0:
64,192,22233,1,0,0:0:0:0:
320,192,22411,1,0,0:0:0:0:
192,192,22590,1,0,0:0:0:0:
448,192,22590,1,0,0:0:0:0:
64,192,22768,1,0,0:0:0:0:
320,192,22947,1,0,0:0:0:0:
448,192,22947,128,0,23661:0:0:0:0:
192,192,23126,1,0,0:0:0:0:
320,192,23304,1,0,0:0:0:0:
64,192,23304,1,0,0:0:0:0:
192,192,23483,1,0,0:0:0:0:
64,192,23661,1,0,0:0:0:0:
320,192,23661,1,0,0:0:0:0:
448,192,23840,1,0,0:0:0:0:
64,192,24018,1,0,0:0:0:0:
192,192,24018,1,0,0:0:0:0:
320,192,24197,128,0,24376:0:0:0:0:
64,192,24376,128,0,24643:0:0:0:0:
192,192,24376,128,0,24643:0:0:0:0:
320,192,24733,128,0,25001:0:0:0:0:
448,192,24733,128,0,25001:0:0:0:0:
192,192,25090,128,0,25358:0:0:0:0:
320,192,25090,128,0,25358:0:0:0:0:
64,192,25447,128,0,25715:0:0:0:0:
192,192,25447,128,0,25715:0:0:0:0:
448,192,25447,1,0,0:0:0:0:
320,192,25626,1,0,0:0:0:0:
448,192,25804,128,0,26072:0:0:0:0:
320,192,25804,128,0,26072:0:0:0:0:
192,192,25983,1,0,0:0:0:0:
64,192,26161,128,0,26429:0:0:0:0:
192,192,26161,128,0,26429:0:0:0:0:
448,192,26340,1,0,0:0:0:0:
320,192,26518,128,0,26786:0:0:0:0:
192,192,26518,128,0,26786:0:0:0:0:
448,192,26697,1,0,0:0:0:0:
64,192,26786,1,0,0:0:0:0:
320,192,26876,1,0,0:0:0:0:
192,192,26965,1,0,0:0:0:0:
448,192,27054,1,0,0:0:0:0:
64,192,27143,1,0,0:0:0:0:
320,192,27233,128,0,27501:0:0:0:0:
192,192,27233,128,0,27501:0:0:0:0:
64,192,27590,128,0,27858:0:0:0:0:
320,192,27590,128,0,27858:0:0:0:0:
192,192,27947,128,0,28215:0:0:0:0:
448,192,27947,128,0,28215:0:0:0:0:
64,192,28304,128,0,28572:0:0:0:0:
192,192,28304,128,0,28572:0:0:0:0:
448,192,28483,1,0,0:0:0:0:
448,192,28661,128,0,28929:0:0:0:0:
320,192,28661,128,0,28929:0:0:0:0:
64,192,28840,1,0,0:0:0:0:
192,192,29018,128,0,29286:0:0:0:0:
64,192,29018,128,0,29286:0:0:0:0:
320,192,29197,1,0,0:0:0:0:
320,192,29376,128,0,29643:0:0:0:0:
448,192,29376,128,0,29643:0:0:0:0:
192,192,29554,1,0,0:0:0:0:
64,192,29643,1,0,0:0:0:0:
320,192,29733,1,0,0:0:0:0:
448,192,29822,1,0,0:0:0:0:
64,192,29911,1,0,0:0:0:0:
320,192,30001,1,0,0:0:0:0:
448,192,30090,128,0,30358:0:0:0:0:
192,192,30090,128,0,30358:0:0:0:0:
64,192,30447,128,0,30715:0:0:0:0:
192,192,30447,128,0,30715:0:0:0:0:
192,192,30804,128,0,31072:0:0:0:0:
448,192,30804,128,0,31072:0:0:0:0:
320,192,31161,128,0,31429:0:0:0:0:
448,192,31161,128,0,31429:0:0:0:0:
64,192,31340,1,0,0:0:0:0:
64,192,31518,128,0,31786:0:0:0:0:
192,192,31518,128,0,31786:0:0:0:0:
448,192,31697,1,0,0:0:0:0:
192,192,31876,128,0,32143:0:0:0:0:
320,192,31876,128,0,32143:0:0:0:0:
64,192,32054,1,0,0:0:0:0:
448,192,32233,128,0,32501:0:0:0:0:
320,192,32233,128,0,32501:0:0:0:0:
192,192,32411,1,0,0:0:0:0:
448,192,32590,128,0,32858:0:0:0:0:
320,192,32590,128,0,32858:0:0:0:0:
64,192,32768,1,0,0:0:0:0:
448,192,32947,128,0,33929:0:0:0:0:
192,192,32947,1,0,0:0:0:0:
192,192,33126,1,0,0:0:0:0:
320,192,33304,1,0,0:0:0:0:
64,192,33304,1,0,0:0:0:0:
64,192,33483,1,0,0:0:0:0:
320,192,33661,1,0,0:0:0:0:
192,192,33661,1,0,0:0:0:0:
320,192,33840,1,0,0:0:0:0:
64,192,34018,128,0,34286:0:0:0:0:
448,192,34018,128,0,34286:0:0:0:0:
192,192,34197,1,0,0:0:0:0:
320,192,34376,128,0,34643:0:0:0:0:
448,192,34376,128,0,34643:0:0:0:0:
192,192,34554,1,0,0:0:0:0:
320,192,34733,128,0,35001:0:0:0:0:
64,192,34733,128,0,35001:0:0:0:0:
448,192,34911,1,0,0:0:0:0:
64,192,35090,128,0,35358:0:0:0:0:
192,192,35090,128,0,35358:0:0:0:0:
320,192,35268,1,0,0:0:0:0:
448,192,35447,128,0,35715:0:0:0:0:
64,192,35447,128,0,35715:0:0:0:0:
192,192,35626,1,0,0:0:0:0:
192,192,35804,128,0,36072:0:0:0:0:
448,192,35804,128,0,36072:0:0:0:0:
320,192,35983,1,0,0:0:0:0:
64,192,36161,128,0,36429:0:0:0:0:
448,192,36161,128,0,36429:0:0:0:0:
192,192,36340,1,0,0:0:0:0:
320,192,36518,128,0,36786:0:0:0:0:
192,192,36518,128,0,36786:0:0:0:0:
448,192,36697,1,0,0:0:0:0:
448,192,36876,128,0,37143:0:0:0:0:
64,192,36876,128,0,37143:0:0:0:0:
192,192,37054,1,0,0:0:0:0:
64,192,37233,128,0,37501:0:0:0:0:
320,192,37233,128,0,37501:0:0:0:0:
192,192,37411,1,0,0:0:0:0:
320,192,37590,128,0,37858:0:0:0:0:
448,192,37590,128,0,37858:0:0:0:0:
64,192,37768,1,0,0:0:0:0:
448,192,37947,128,0,38215:0:0:0:0:
192,192,37947,128,0,38215:0:0:0:0:
320,192,38126,1,0,0:0:0:0:
192,192,38304,128,0,38661:0:0:0:0:
64,192,38304,128,0,38661:0:0:0:0:
448,192,38483,1,0,0:0:0:0:
320,192,38661,1,0,0:0:0:0:
448,192,38661,1,0,0:0:0:0:
448,192,39018,1,0,0:0:0:0:
192,192,39376,1,0,0:0:0:0:
192,192,39733,1,0,0:0:0:0:
448,192,39911,1,0,0:0:0:0:
64,192,40090,1,0,0:0:0:0:
320,192,40268,1,0,0:0:0:0:
448,192,40447,1,0,0:0:0:0:
64,192,40626,1,0,0:0:0:0:
320,192,40804,1,0,0:0:0:0:
64,192,41340,1,0,0:0:0:0:
320,192,41518,1,0,0:0:0:0:
320,192,41876,1,0,0:0:0:0:
448,192,42233,1,0,0:0:0:0:
448,192,42590,1,0,0:0:0:0:
64,192,42947,1,0,0:0:0:0:
192,192,43126,1,0,0:0:0:0:
320,192,43304,1,0,0:0:0:0:
64,192,43483,1,0,0:0:0:0:
448,192,43661,1,0,0:0:0:0:
320,192,44197,1,0,0:0:0:0:
448,192,44376,1,0,0:0:0:0:
448,192,44733,1,0,0:0:0:0:
320,192,45090,1,0,0:0:0:0:
320,192,45447,1,0,0:0:0:0:
64,192,45626,1,0,0:0:0:0:
192,192,45804,1,0,0:0:0:0:
448,192,45983,1,0,0:0:0:0:
320,192,46161,1,0,0:0:0:0:
192,192,46340,1,0,0:0:0:0:
64,192,46518,1,0,0:0:0:0:
192,192,46876,1,0,0:0:0:0:
320,192,47054,1,0,0:0:0:0:
64,192,47233,1,0,0:0:0:0:
64,192,47590,1,0,0:0:0:0:
448,192,47947,1,0,0:0:0:0:
320,192,48126,1,0,0:0:0:0:
192,192,48304,1,0,0:0:0:0:
64,192,48483,1,0,0:0:0:0:
448,192,48661,128,0,49197:0:0:0:0:
320,192,49197,1,0,0:0:0:0:
64,192,49376,128,0,49733:0:0:0:0:
320,192,49733,128,0,50090:0:0:0:0:
448,192,50090,1,0,0:0:0:0:
192,192,50090,1,0,0:0:0:0:
64,192,50268,1,0,0:0:0:0:
448,192,50447,1,0,0:0:0:0:
320,192,50447,1,0,0:0:0:0:
64,192,50626,1,0,0:0:0:0:
192,192,50804,128,0,51161:0:0:0:0:
448,192,50804,1,0,0:0:0:0:
320,192,50983,1,0,0:0:0:0:
448,192,51161,1,0,0:0:0:0:
64,192,51161,1,0,0:0:0:0:
320,192,51340,1,0,0:0:0:0:
64,192,51518,128,0,51876:0:0:0:0:
192,192,51518,1,0,0:0:0:0:
448,192,51697,1,0,0:0:0:0:
192,192,51876,1,0,0:0:0:0:
320,192,51876,1,0,0:0:0:0:
448,192,52054,1,0,0:0:0:0:
192,192,52233,128,0,52590:0:0:0:0:
64,192,52233,1,0,0:0:0:0:
320,192,52411,1,0,0:0:0:0:
448,192,52590,1,0,0:0:0:0:
64,192,52590,1,0,0:0:0:0:
448,192,52768,1,0,0:0:0:0:
64,192,52768,1,0,0:0:0:0:
192,192,52947,128,0,53304:0:0:0:0:
320,192,52947,1,0,0:0:0:0:
448,192,53126,1,0,0:0:0:0:
64,192,53304,1,0,0:0:0:0:
320,192,53304,1,0,0:0:0:0:
448,192,53483,1,0,0:0:0:0:
64,192,53661,128,0,54018:0:0:0:0:
192,192,53661,1,0,0:0:0:0:
448,192,53840,1,0,0:0:0:0:
192,192,54018,1,0,0:0:0:0:
320,192,54018,1,0,0:0:0:0:
448,192,54197,1,0,0:0:0:0:
64,192,54376,1,0,0:0:0:0:
320,192,54376,128,0,54733:0:0:0:0:
192,192,54554,1,0,0:0:0:0:
64,192,54733,1,0,0:0:0:0:
448,192,54733,1,0,0:0:0:0:
192,192,54911,1,0,0:0:0:0:
448,192,55090,128,0,55447:0:0:0:0:
320,192,55090,1,0,0:0:0:0:
192,192,55268,1,0,0:0:0:0:
64,192,55447,1,0,0:0:0:0:
320,192,55447,1,0,0:0:0:0:
192,192,55626,1,0,0:0:0:0:
64,192,55804,1,0,0:0:0:0:
448,192,55804,128,0,56161:0:0:0:0:
192,192,55983,1,0,0:0:0:0:
320,192,56161,5,0,0:0:0:0:
64,192,56161,1,0,0:0:0:0:
448,192,56340,1,0,0:0:0:0:
192,192,56518,1,0,0:0:0:0:
320,192,56518,128,0,56876:0:0:0:0:
64,192,56697,1,0,0:0:0:0:
192,192,56876,1,0,0:0:0:0:
448,192,56876,1,0,0:0:0:0:
320,192,57054,1,0,0:0:0:0:
448,192,57233,128,0,57411:0:0:0:0:
64,192,57411,128,0,57590:0:0:0:0:
320,192,57590,128,0,57768:0:0:0:0:
192,192,57768,128,0,57947:0:0:0:0:
448,192,57947,128,0,58126:0:0:0:0:
320,192,58126,128,0,58304:0:0:0:0:
192,192,58304,128,0,58483:0:0:0:0:
64,192,58483,128,0,58661:0:0:0:0:
448,192,58661,1,0,0:0:0:0:
448,192,59018,1,0,0:0:0:0:
64,192,59376,1,0,0:0:0:0:
192,192,59554,1,0,0:0:0:0:
320,192,59733,1,0,0:0:0:0:
448,192,59911,1,0,0:0:0:0:
192,192,60090,128,0,60626:0:0:0:0:
320,192,60626,1,0,0:0:0:0:
448,192,60804,128,0,61161:0:0:0:0:
64,192,61161,128,0,61518:0:0:0:0:
192,192,61518,1,0,0:0:0:0:
320,192,61518,1,0,0:0:0:0:
448,192,61697,128,0,61876:0:0:0:0:
64,192,61876,128,0,62054:0:0:0:0:
320,192,62054,128,0,62233:0:0:0:0:
192,192,62233,1,0,0:0:0:0:
448,192,62233,1,0,0:0:0:0:
64,192,62411,128,0,62590:0:0:0:0:
448,192,62590,128,0,62768:0:0:0:0:
192,192,62768,128,0,62947:0:0:0:0:
320,192,62947,1,0,0:0:0:0:
64,192,62947,1,0,0:0:0:0:
64,192,63126,128,0,63304:0:0:0:0:
320,192,63304,128,0,63483:0:0:0:0:
192,192,63483,128,0,63661:0:0:0:0:
64,192,63661,1,0,0:0:0:0:
448,192,63661,1,0,0:0:0:0:
320,192,63840,128,0,64018:0:0:0:0:
64,192,64018,128,0,64197:0:0:0:0:
192,192,64197,128,0,64376:0:0:0:0:
448,192,64376,1,0,0:0:0:0:
64,192,64376,1,0,0:0:0:0:
320,192,64554,128,0,64733:0:0:0:0:
64,192,64733,128,0,64911:0:0:0:0:
192,192,64911,128,0,65090:0:0:0:0:
320,192,65090,1,0,0:0:0:0:
448,192,65090,1,0,0:0:0:0:
64,192,65268,128,0,65447:0:0:0:0:
448,192,65447,128,0,65626:0:0:0:0:
192,192,65626,128,0,65804:0:0:0:0:
320,192,65804,1,0,0:0:0:0:
64,192,65804,1,0,0:0:0:0:
448,192,65983,128,0,66161:0:0:0:0:
64,192,66161,128,0,66340:0:0:0:0:
320,192,66340,128,0,66518:0:0:0:0:
448,192,66518,1,0,0:0:0:0:
192,192,66518,1,0,0:0:0:0:
64,192,66697,128,0,66876:0:0:0:0:
192,192,66876,128,0,67054:0:0:0:0:
320,192,67054,128,0,67233:0:0:0:0:
448,192,67233,1,0,0:0:0:0:
64,192,67233,128,0,67858:0:0:0:0:
192,192,67411,128,0,67858:0:0:0:0:
320,192,67590,128,0,67858:0:0:0:0:
448,192,67768,128,0,67858:0:0:0:0:
64,192,67947,1,0,0:0:0:0:
192,192,67947,1,0,0:0:0:0:
320,192,68304,1,0,0:0:0:0:
448,192,68304,128,0,68483:0:0:0:0:
192,192,68483,128,0,68661:0:0:0:0:
320,192,68661,128,0,68840:0:0:0:0:
64,192,68840,128,0,69018:0:0:0:0:
448,192,69018,128,0,69197:0:0:0:0:
192,192,69197,128,0,69376:0:0:0:0:
448,192,69376,1,0,0:0:0:0:
64,192,69376,128,0,69733:0:0:0:0:
320,192,69733,1,0,0:0:0:0:
448,192,69733,128,0,70090:0:0:0:0:
64,192,70090,1,0,0:0:0:0:
192,192,70090,1,0,0:0:0:0:
448,192,70268,128,0,70447:0:0:0:0:
320,192,70447,128,0,70626:0:0:0:0:
64,192,70626,128,0,70804:0:0:0:0:
192,192,70804,1,0,0:0:0:0:
448,192,70804,1,0,0:0:0:0:
320,192,70983,128,0,71161:0:0:0:0:
64,192,71161,128,0,71340:0:0:0:0:
192,192,71340,128,0,71518:0:0:0:0:
448,192,71518,1,0,0:0:0:0:
320,192,71518,1,0,0:0:0:0:
64,192,71697,128,0,71876:0:0:0:0:
448,192,71876,128,0,72054:0:0:0:0:
192,192,72054,128,0,72233:0:0:0:0:
64,192,72233,1,0,0:0:0:0:
320,192,72233,1,0,0:0:0:0:
448,192,72411,128,0,72590:0:0:0:0:
320,192,72590,128,0,72768:0:0:0:0:
192,192,72768,128,0,72947:0:0:0:0:
448,192,72947,1,0,0:0:0:0:
64,192,72947,1,0,0:0:0:0:
320,192,73126,1,0,0:0:0:0:
448,192,73304,1,0,0:0:0:0:
192,192,73304,1,0,0:0:0:0:
64,192,73483,1,0,0:0:0:0:
448,192,73661,1,0,0:0:0:0:
320,192,73661,1,0,0:0:0:0:
192,192,73840,1,0,0:0:0:0:
64,192,74018,1,0,0:0:0:0:
448,192,74018,1,0,0:0:0:0:
320,192,74197,1,0,0:0:0:0:
448,192,74376,128,0,74554:0:0:0:0:
320,192,74554,128,0,74733:0:0:0:0:
192,192,74733,128,0,74911:0:0:0:0:
64,192,74911,128,0,75090:0:0:0:0:
320,192,75090,1,0,0:0:0:0:
448,192,75090,1,0,0:0:0:0:
192,192,75268,1,0,0:0:0:0:
320,192,75447,1,0,0:0:0:0:
64,192,75447,1,0,0:0:0:0:
448,192,75626,128,0,75804:0:0:0:0:
64,192,75804,128,0,75983:0:0:0:0:
192,192,75983,128,0,76161:0:0:0:0:
320,192,76161,128,0,76340:0:0:0:0:
448,192,76340,128,0,76518:0:0:0:0:
192,192,76518,1,0,0:0:0:0:
64,192,76518,1,0,0:0:0:0:
320,192,76697,1,0,0:0:0:0:
448,192,76876,1,0,0:0:0:0:
192,192,76876,1,0,0:0:0:0:
64,192,77054,1,0,0:0:0:0:
448,192,77233,1,0,0:0:0:0:
320,192,77233,1,0,0:0:0:0:
192,192,77411,1,0,0:0:0:0:
64,192,77590,1,0,0:0:0:0:
448,192,77590,1,0,0:0:0:0:
192,192,77768,1,0,0:0:0:0:
320,192,77947,1,0,0:0:0:0:
448,192,77947,128,0,78304:0:0:0:0:
192,192,78126,1,0,0:0:0:0:
64,192,78304,128,0,78661:0:0:0:0:
320,192,78304,1,0,0:0:0:0:
192,192,78483,1,0,0:0:0:0:
448,192,78661,1,0,0:0:0:0:
320,192,78661,1,0,0:0:0:0:
192,192,78840,1,0,0:0:0:0:
64,192,79018,1,0,0:0:0:0:
448,192,79018,1,0,0:0:0:0:
192,192,79197,1,0,0:0:0:0:
64,192,79376,1,0,0:0:0:0:
448,192,79376,1,0,0:0:0:0:
320,192,79554,1,0,0:0:0:0:
192,192,79733,1,0,0:0:0:0:
448,192,79733,1,0,0:0:0:0:
64,192,79911,1,0,0:0:0:0:
448,192,80090,128,0,80268:0:0:0:0:
192,192,80090,1,0,0:0:0:0:
320,192,80268,128,0,80447:0:0:0:0:
192,192,80447,128,0,80626:0:0:0:0:
64,192,80626,128,0,80804:0:0:0:0:
320,192,80804,1,0,0:0:0:0:
448,192,80804,1,0,0:0:0:0:
192,192,80983,1,0,0:0:0:0:
448,192,81161,1,0,0:0:0:0:
64,192,81161,1,0,0:0:0:0:
192,192,81340,1,0,0:0:0:0:
320,192,81518,1,0,0:0:0:0:
64,192,81518,1,0,0:0:0:0:
448,192,81697,1,0,0:0:0:0:
192,192,81876,1,0,0:0:0:0:
64,192,81876,1,0,0:0:0:0:
320,192,82054,1,0,0:0:0:0:
64,192,82233,1,0,0:0:0:0:
448,192,82233,1,0,0:0:0:0:
192,192,82411,1,0,0:0:0:0:
64,192,82590,1,0,0:0:0:0:
320,192,82590,1,0,0:0:0:0:
448,192,82768,1,0,0:0:0:0:
64,192,82947,128,0,83483:0:0:0:0:
320,192,82947,1,0,0:0:0:0:
192,192,83126,1,0,0:0:0:0:
448,192,83304,1,0,0:0:0:0:
320,192,83304,1,0,0:0:0:0:
192,192,83483,1,0,0:0:0:0:
64,192,83661,1,0,0:0:0:0:
448,192,83661,128,0,84376:0:0:0:0:
192,192,83840,1,0,0:0:0:0:
64,192,84018,1,0,0:0:0:0:
320,192,84018,1,0,0:0:0:0:
192,192,84197,128,0,84376:0:0:0:0:
64,192,84376,128,0,84643:0:0:0:0:
320,192,84376,128,0,84643:0:0:0:0:
192,192,84554,1,0,0:0:0:0:
320,192,84733,128,0,85001:0:0:0:0:
448,192,84733,128,0,85001:0:0:0:0:
64,192,84911,1,0,0:0:0:0:
192,192,85090,128,0,85358:0:0:0:0:
320,192,85090,128,0,85358:0:0:0:0:
448,192,85268,1,0,0:0:0:0:
64,192,85447,128,0,85715:0:0:0:0:
192,192,85447,128,0,85715:0:0:0:0:
320,192,85626,1,0,0:0:0:0:
448,192,85804,128,0,86072:0:0:0:0:
320,192,85804,128,0,86072:0:0:0:0:
192,192,85983,1,0,0:0:0:0:
64,192,86161,128,0,86429:0:0:0:0:
192,192,86161,128,0,86429:0:0:0:0:
448,192,86340,1,0,0:0:0:0:
320,192,86518,128,0,86786:0:0:0:0:
192,192,86518,128,0,86786:0:0:0:0:
448,192,86697,1,0,0:0:0:0:
64,192,86786,1,0,0:0:0:0:
192,192,86876,1,0,0:0:0:0:
320,192,86876,1,0,0:0:0:0:
448,192,87054,1,0,0:0:0:0:
320,192,87233,128,0,87501:0:0:0:0:
192,192,87233,128,0,87501:0:0:0:0:
64,192,87411,1,0,0:0:0:0:
64,192,87590,128,0,87858:0:0:0:0:
320,192,87590,128,0,87858:0:0:0:0:
448,192,87768,1,0,0:0:0:0:
192,192,87947,128,0,88215:0:0:0:0:
448,192,87947,128,0,88215:0:0:0:0:
320,192,88126,1,0,0:0:0:0:
64,192,88304,128,0,88572:0:0:0:0:
192,192,88304,128,0,88572:0:0:0:0:
448,192,88483,1,0,0:0:0:0:
448,192,88661,128,0,88929:0:0:0:0:
320,192,88661,128,0,88929:0:0:0:0:
64,192,88840,1,0,0:0:0:0:
192,192,89018,128,0,89286:0:0:0:0:
64,192,89018,128,0,89286:0:0:0:0:
320,192,89197,1,0,0:0:0:0:
320,192,89376,128,0,89643:0:0:0:0:
448,192,89376,128,0,89643:0:0:0:0:
192,192,89554,1,0,0:0:0:0:
64,192,89733,1,0,0:0:0:0:
448,192,89733,1,0,0:0:0:0:
320,192,89911,1,0,0:0:0:0:
448,192,90090,128,0,90358:0:0:0:0:
192,192,90090,128,0,90358:0:0:0:0:
64,192,90268,1,0,0:0:0:0:
64,192,90447,128,0,90715:0:0:0:0:
192,192,90447,128,0,90715:0:0:0:0:
320,192,90626,1,0,0:0:0:0:
192,192,90804,128,0,91072:0:0:0:0:
448,192,90804,128,0,91072:0:0:0:0:
64,192,90983,1,0,0:0:0:0:
320,192,91161,128,0,91429:0:0:0:0:
448,192,91161,128,0,91429:0:0:0:0:
192,192,91340,1,0,0:0:0:0:
64,192,91518,128,0,91786:0:0:0:0:
192,192,91518,128,0,91786:0:0:0:0:
448,192,91697,1,0,0:0:0:0:
192,192,91876,128,0,92143:0:0:0:0:
320,192,91876,128,0,92143:0:0:0:0:
64,192,92054,1,0,0:0:0:0:
448,192,92233,128,0,92501:0:0:0:0:
320,192,92233,128,0,92501:0:0:0:0:
192,192,92411,1,0,0:0:0:0:
448,192,92590,128,0,92858:0:0:0:0:
320,192,92590,128,0,92858:0:0:0:0:
64,192,92768,1,0,0:0:0:0:
448,192,92947,128,0,93661:0:0:0:0:
192,192,92947,1,0,0:0:0:0:
320,192,93126,1,0,0:0:0:0:
192,192,93304,1,0,0:0:0:0:
64,192,93304,1,0,0:0:0:0:
320,192,93483,1,0,0:0:0:0:
64,192,93661,1,0,0:0:0:0:
192,192,93661,1,0,0:0:0:0:
320,192,93840,1,0,0:0:0:0:
64,192,94018,128,0,94286:0:0:0:0:
448,192,94018,1,0,0:0:0:0:
192,192,94197,1,0,0:0:0:0:
448,192,94376,128,0,94643:0:0:0:0:
320,192,94376,1,0,0:0:0:0:
64,192,94554,1,0,0:0:0:0:
192,192,94733,128,0,95001:0:0:0:0:
448,192,94733,1,0,0:0:0:0:
320,192,94911,1,0,0:0:0:0:
448,192,95090,1,0,0:0:0:0:
64,192,95090,128,0,95358:0:0:0:0:
192,192,95268,1,0,0:0:0:0:
320,192,95447,128,0,95715:0:0:0:0:
448,192,95447,1,0,0:0:0:0:
64,192,95626,1,0,0:0:0:0:
448,192,95804,128,0,96072:0:0:0:0:
192,192,95804,1,0,0:0:0:0:
320,192,95983,1,0,0:0:0:0:
192,192,96161,128,0,96429:0:0:0:0:
448,192,96161,1,0,0:0:0:0:
320,192,96340,1,0,0:0:0:0:
448,192,96518,128,0,96786:0:0:0:0:
64,192,96518,1,0,0:0:0:0:
192,192,96697,1,0,0:0:0:0:
320,192,96876,128,0,97143:0:0:0:0:
448,192,96876,1,0,0:0:0:0:
64,192,97054,1,0,0:0:0:0:
192,192,97233,128,0,97501:0:0:0:0:
320,192,97233,1,0,0:0:0:0:
448,192,97411,1,0,0:0:0:0:
192,192,97590,5,0,0:0:0:0:
64,192,97590,128,0,97858:0:0:0:0:
320,192,97768,1,0,0:0:0:0:
448,192,97947,128,0,98215:0:0:0:0:
64,192,97947,1,0,0:0:0:0:
192,192,98126,1,0,0:0:0:0:
320,192,98304,128,0,98661:0:0:0:0:
64,192,98304,1,0,0:0:0:0:
192,192,98483,1,0,0:0:0:0:
448,192,98661,128,0,101518:0:0:0:0:
64,192,98661,1,0,0:0:0:0:
192,192,101518,1,0,0:0:0:0:
448,192,101697,1,0,0:0:0:0:
64,192,101876,1,0,0:0:0:0:
320,192,102054,1,0,0:0:0:0:
192,192,102233,1,0,0:0:0:0:
64,192,102411,1,0,0:0:0:0:
448,192,102590,1,0,0:0:0:0:
64,192,102768,1,0,0:0:0:0:
320,192,102947,1,0,0:0:0:0:
448,192,103126,1,0,0:0:0:0:
192,192,103304,1,0,0:0:0:0:
64,192,103483,1,0,0:0:0:0:
448,192,103661,1,0,0:0:0:0:
320,192,103840,1,0,0:0:0:0:
192,192,104018,1,0,0:0:0:0:
64,192,104197,1,0,0:0:0:0:
448,192,104376,1,0,0:0:0:0:
64,192,104554,1,0,0:0:0:0:
192,192,104733,1,0,0:0:0:0:
448,192,104911,1,0,0:0:0:0:
320,192,105090,1,0,0:0:0:0:
64,192,105268,1,0,0:0:0:0:
448,192,105447,1,0,0:0:0:0:
192,192,105626,1,0,0:0:0:0:
64,192,105804,1,0,0:0:0:0:
320,192,105983,1,0,0:0:0:0:
448,192,106161,1,0,0:0:0:0:
64,192,106340,1,0,0:0:0:0:
320,192,106518,1,0,0:0:0:0:
448,192,106697,1,0,0:0:0:0:
192,192,106876,1,0,0:0:0:0:
64,192,107054,1,0,0:0:0:0:
320,192,107233,1,0,0:0:0:0:
192,192,107411,1,0,0:0:0:0:
64,192,107590,1,0,0:0:0:0:
448,192,107768,1,0,0:0:0:0:
192,192,107947,1,0,0:0:0:0:
320,192,108126,1,0,0:0:0:0:
448,192,108304,1,0,0:0:0:0:
64,192,108483,1,0,0:0:0:0:
192,192,108661,1,0,0:0:0:0:
448,192,108840,1,0,0:0:0:0:
320,192,109018,1,0,0:0:0:0:
64,192,109197,1,0,0:0:0:0:
448,192,109376,1,0,0:0:0:0:
192,192,109554,1,0,0:0:0:0:
320,192,109733,1,0,0:0:0:0:
64,192,109911,1,0,0:0:0:0:
192,192,110090,1,0,0:0:0:0:
448,192,110268,1,0,0:0:0:0:
192,192,110447,1,0,0:0:0:0:
64,192,110626,1,0,0:0:0:0:
320,192,110804,1,0,0:0:0:0:
448,192,110983,1,0,0:0:0:0:
192,192,111161,1,0,0:0:0:0:
320,192,111340,1,0,0:0:0:0:
64,192,111518,1,0,0:0:0:0:
192,192,111697,1,0,0:0:0:0:
448,192,111876,1,0,0:0:0:0:
320,192,112054,1,0,0:0:0:0:
192,192,112233,1,0,0:0:0:0:
448,192,112411,1,0,0:0:0:0:
64,192,112590,1,0,0:0:0:0:
320,192,112768,1,0,0:0:0:0:
192,192,112947,1,0,0:0:0:0:
448,192,112947,1,0,0:0:0:0:
64,192,113126,1,0,0:0:0:0:
192,192,113304,1,0,0:0:0:0:
320,192,113304,1,0,0:0:0:0:
448,192,113483,1,0,0:0:0:0:
320,192,113661,1,0,0:0:0:0:
64,192,113661,1,0,0:0:0:0:
192,192,113840,1,0,0:0:0:0:
448,192,114018,1,0,0:0:0:0:
64,192,114018,1,0,0:0:0:0:
320,192,114197,1,0,0:0:0:0:
192,192,114376,1,0,0:0:0:0:
448,192,114376,1,0,0:0:0:0:
320,192,114554,1,0,0:0:0:0:
192,192,114733,1,0,0:0:0:0:
64,192,114733,1,0,0:0:0:0:
320,192,114911,1,0,0:0:0:0:
64,192,115090,1,0,0:0:0:0:
448,192,115090,1,0,0:0:0:0:
192,192,115268,1,0,0:0:0:0:
448,192,115447,1,0,0:0:0:0:
320,192,115447,1,0,0:0:0:0:
192,192,115626,1,0,0:0:0:0:
448,192,115804,1,0,0:0:0:0:
320,192,115804,1,0,0:0:0:0:
64,192,115983,1,0,0:0:0:0:
192,192,116161,1,0,0:0:0:0:
448,192,116161,1,0,0:0:0:0:
320,192,116340,1,0,0:0:0:0:
64,192,116518,1,0,0:0:0:0:
192,192,116518,1,0,0:0:0:0:
448,192,116697,1,0,0:0:0:0:
192,192,116876,1,0,0:0:0:0:
64,192,116876,1,0,0:0:0:0:
320,192,117054,1,0,0:0:0:0:
448,192,117233,1,0,0:0:0:0:
64,192,117233,1,0,0:0:0:0:
192,192,117411,1,0,0:0:0:0:
320,192,117590,1,0,0:0:0:0:
448,192,117590,1,0,0:0:0:0:
64,192,117768,1,0,0:0:0:0:
192,192,117947,1,0,0:0:0:0:
320,192,117947,1,0,0:0:0:0:
64,192,118126,1,0,0:0:0:0:
192,192,118304,1,0,0:0:0:0:
448,192,118304,1,0,0:0:0:0:
320,192,118483,1,0,0:0:0:0:
192,192,118661,1,0,0:0:0:0:
448,192,118661,1,0,0:0:0:0:
64,192,118840,1,0,0:0:0:0:
448,192,119018,1,0,0:0:0:0:
320,192,119018,1,0,0:0:0:0:
192,192,119197,1,0,0:0:0:0:
64,192,119376,1,0,0:0:0:0:
320,192,119376,1,0,0:0:0:0:
192,192,119554,1,0,0:0:0:0:
64,192,119733,1,0,0:0:0:0:
448,192,119733,1,0,0:0:0:0:
320,192,119911,1,0,0:0:0:0:
448,192,120090,1,0,0:0:0:0:
64,192,120090,1,0,0:0:0:0:
192,192,120268,1,0,0:0:0:0:
320,192,120447,1,0,0:0:0:0:
448,192,120447,1,0,0:0:0:0:
64,192,120626,1,0,0:0:0:0:
448,192,120804,1,0,0:0:0:0:
320,192,120804,1,0,0:0:0:0:
192,192,120983,1,0,0:0:0:0:
448,192,121161,1,0,0:0:0:0:
64,192,121161,1,0,0:0:0:0:
320,192,121340,1,0,0:0:0:0:
192,192,121518,1,0,0:0:0:0:
64,192,121518,1,0,0:0:0:0:
448,192,121697,1,0,0:0:0:0:
192,192,121876,1,0,0:0:0:0:
320,192,121876,1,0,0:0:0:0:
64,192,122054,1,0,0:0:0:0:
448,192,122233,1,0,0:0:0:0:
320,192,122233,1,0,0:0:0:0:
192,192,122411,1,0,0:0:0:0:
64,192,122590,1,0,0:0:0:0:
320,192,122590,1,0,0:0:0:0:
448,192,122768,1,0,0:0:0:0:
192,192,122947,1,0,0:0:0:0:
64,192,122947,1,0,0:0:0:0:
448,192,123126,1,0,0:0:0:0:
192,192,123304,1,0,0:0:0:0:
320,192,123304,1,0,0:0:0:0:
64,192,123483,1,0,0:0:0:0:
448,192,123661,1,0,0:0:0:0:
320,192,123661,1,0,0:0:0:0:
64,192,123840,1,0,0:0:0:0:
192,192,124018,1,0,0:0:0:0:
320,192,124197,1,0,0:0:0:0:
448,192,124376,1,0,0:0:0:0:
64,192,124376,1,0,0:0:0:0:
192,192,124733,1,0,0:0:0:0:
320,192,125090,1,0,0:0:0:0:
320,192,125447,1,0,0:0:0:0:
64,192,125626,1,0,0:0:0:0:
448,192,125804,1,0,0:0:0:0:
192,192,125983,1,0,0:0:0:0:
64,192,126161,1,0,0:0:0:0:
448,192,126340,1,0,0:0:0:0:
192,192,126518,1,0,0:0:0:0:
448,192,127054,1,0,0:0:0:0:
192,192,127233,1,0,0:0:0:0:
192,192,127590,1,0,0:0:0:0:
64,192,127947,1,0,0:0:0:0:
64,192,128304,1,0,0:0:0:0:
448,192,128661,1,0,0:0:0:0:
320,192,128840,1,0,0:0:0:0:
192,192,129018,1,0,0:0:0:0:
448,192,129197,1,0,0:0:0:0:
64,192,129376,1,0,0:0:0:0:
192,192,129911,1,0,0:0:0:0:
64,192,130090,1,0,0:0:0:0:
64,192,130447,1,0,0:0:0:0:
192,192,130804,1,0,0:0:0:0:
192,192,131161,1,0,0:0:0:0:
448,192,131340,1,0,0:0:0:0:
320,192,131518,1,0,0:0:0:0:
64,192,131697,1,0,0:0:0:0:
192,192,131876,1,0,0:0:0:0:
320,192,132054,1,0,0:0:0:0:
448,192,132233,1,0,0:0:0:0:
320,192,132590,1,0,0:0:0:0:
192,192,132768,1,0,0:0:0:0:
448,192,132947,1,0,0:0:0:0:
448,192,133304,1,0,0:0:0:0:
64,192,133661,1,0,0:0:0:0:
192,192,133840,1,0,0:0:0:0:
320,192,134018,1,0,0:0:0:0:
448,192,134197,1,0,0:0:0:0:
64,192,134376,128,0,134911:0:0:0:0:
192,192,134911,1,0,0:0:0:0:
448,192,135090,128,0,135447:0:0:0:0:
192,192,135447,128,0,135804:0:0:0:0:
64,192,135804,1,0,0:0:0:0:
320,192,135804,1,0,0:0:0:0:
448,192,135983,1,0,0:0:0:0:
64,192,136161,1,0,0:0:0:0:
192,192,136161,1,0,0:0:0:0:
448,192,136340,1,0,0:0:0:0:
320,192,136518,128,0,136876:0:0:0:0:
64,192,136518,1,0,0:0:0:0:
192,192,136697,1,0,0:0:0:0:
64,192,136876,1,0,0:0:0:0:
448,192,136876,1,0,0:0:0:0:
192,192,137054,1,0,0:0:0:0:
448,192,137233,128,0,137590:0:0:0:0:
320,192,137233,1,0,0:0:0:0:
64,192,137411,1,0,0:0:0:0:
320,192,137590,1,0,0:0:0:0:
192,192,137590,1,0,0:0:0:0:
64,192,137768,1,0,0:0:0:0:
320,192,137947,128,0,138304:0:0:0:0:
448,192,137947,1,0,0:0:0:0:
192,192,138126,1,0,0:0:0:0:
64,192,138304,1,0,0:0:0:0:
448,192,138304,1,0,0:0:0:0:
64,192,138483,1,0,0:0:0:0:
448,192,138483,1,0,0:0:0:0:
320,192,138661,128,0,139018:0:0:0:0:
192,192,138661,1,0,0:0:0:0:
64,192,138840,1,0,0:0:0:0:
448,192,139018,1,0,0:0:0:0:
192,192,139018,1,0,0:0:0:0:
64,192,139197,1,0,0:0:0:0:
448,192,139376,128,0,139733:0:0:0:0:
320,192,139376,1,0,0:0:0:0:
64,192,139554,1,0,0:0:0:0:
320,192,139733,1,0,0:0:0:0:
192,192,139733,1,0,0:0:0:0:
64,192,139911,1,0,0:0:0:0:
448,192,140090,1,0,0:0:0:0:
192,192,140090,128,0,140447:0:0:0:0:
320,192,140268,1,0,0:0:0:0:
448,192,140447,1,0,0:0:0:0:
64,192,140447,1,0,0:0:0:0:
320,192,140626,1,0,0:0:0:0:
64,192,140804,128,0,141161:0:0:0:0:
192,192,140804,1,0,0:0:0:0:
320,192,140983,1,0,0:0:0:0:
448,192,141161,1,0,0:0:0:0:
192,192,141161,1,0,0:0:0:0:
320,192,141340,1,0,0:0:0:0:
448,192,141518,1,0,0:0:0:0:
64,192,141518,128,0,141876:0:0:0:0:
320,192,141697,1,0,0:0:0:0:
192,192,141876,5,0,0:0:0:0:
448,192,141876,1,0,0:0:0:0:
64,192,142054,1,0,0:0:0:0:
320,192,142233,1,0,0:0:0:0:
192,192,142233,128,0,142590:0:0:0:0:
448,192,142411,1,0,0:0:0:0:
320,192,142590,1,0,0:0:0:0:
64,192,142590,1,0,0:0:0:0:
192,192,142768,1,0,0:0:0:0:
64,192,142947,128,0,143126:0:0:0:0:
448,192,143126,128,0,143304:0:0:0:0:
192,192,143304,128,0,143483:0:0:0:0:
320,192,143483,128,0,143661:0:0:0:0:
64,192,143661,128,0,143840:0:0:0:0:
192,192,143840,128,0,144018:0:0:0:0:
320,192,144018,128,0,144197:0:0:0:0:
448,192,144197,128,0,144376:0:0:0:0:
64,192,144376,1,0,0:0:0:0:
64,192,144733,1,0,0:0:0:0:
448,192,145090,1,0,0:0:0:0:
320,192,145268,1,0,0:0:0:0:
192,192,145447,1,0,0:0:0:0:
64,192,145626,1,0,0:0:0:0:
448,192,145804,128,0,146340:0:0:0:0:
64,192,146340,1,0,0:0:0:0:
320,192,146518,128,0,146876:0:0:0:0:
64,192,146876,128,0,147233:0:0:0:0:
192,192,147233,1,0,0:0:0:0:
448,192,147233,1,0,0:0:0:0:
320,192,147411,1,0,0:0:0:0:
64,192,147590,1,0,0:0:0:0:
448,192,147590,1,0,0:0:0:0:
192,192,147768,1,0,0:0:0:0:
448,192,147947,1,0,0:0:0:0:
320,192,147947,1,0,0:0:0:0:
64,192,148126,1,0,0:0:0:0:
192,192,148215,1,0,0:0:0:0:
448,192,148304,1,0,0:0:0:0:
320,192,148304,1,0,0:0:0:0:
192,192,148483,1,0,0:0:0:0:
448,192,148661,1,0,0:0:0:0:
64,192,148661,1,0,0:0:0:0:
320,192,148840,1,0,0:0:0:0:
192,192,148929,1,0,0:0:0:0:
64,192,149018,1,0,0:0:0:0:
448,192,149018,1,0,0:0:0:0:
320,192,149197,1,0,0:0:0:0:
192,192,149376,1,0,0:0:0:0:
64,192,149376,1,0,0:0:0:0:
448,192,149554,1,0,0:0:0:0:
64,192,149643,1,0,0:0:0:0:
192,192,149733,1,0,0:0:0:0:
320,192,149733,1,0,0:0:0:0:
320,192,149911,1,0,0:0:0:0:
448,192,150090,1,0,0:0:0:0:
192,192,150090,1,0,0:0:0:0:
64,192,150268,1,0,0:0:0:0:
448,192,150358,1,0,0:0:0:0:
192,192,150447,1,0,0:0:0:0:
320,192,150447,1,0,0:0:0:0:
192,192,150626,1,0,0:0:0:0:
64,192,150804,1,0,0:0:0:0:
448,192,150804,1,0,0:0:0:0:
320,192,150983,1,0,0:0:0:0:
64,192,151161,1,0,0:0:0:0:
192,192,151161,1,0,0:0:0:0:
64,192,151340,1,0,0:0:0:0:
448,192,151518,1,0,0:0:0:0:
320,192,151518,1,0,0:0:0:0:
192,192,151697,1,0,0:0:0:0:
320,192,151786,1,0,0:0:0:0:
448,192,151876,1,0,0:0:0:0:
64,192,151876,1,0,0:0:0:0:
64,192,152054,1,0,0:0:0:0:
448,192,152233,128,0,152411:0:0:0:0:
192,192,152233,1,0,0:0:0:0:
320,192,152411,128,0,152590:0:0:0:0:
192,192,152590,128,0,152768:0:0:0:0:
448,192,152590,1,0,0:0:0:0:
64,192,152768,128,0,152947:0:0:0:0:
448,192,152947,1,0,0:0:0:0:
192,192,152947,1,0,0:0:0:0:
320,192,153126,128,0,153304:0:0:0:0:
192,192,153304,1,0,0:0:0:0:
448,192,153304,1,0,0:0:0:0:
64,192,153483,128,0,153661:0:0:0:0:
192,192,153661,1,0,0:0:0:0:
320,192,153661,1,0,0:0:0:0:
448,192,153840,128,0,154018:0:0:0:0:
64,192,154018,1,0,0:0:0:0:
320,192,154018,1,0,0:0:0:0:
192,192,154197,128,0,154376:0:0:0:0:
64,192,154376,1,0,0:0:0:0:
448,192,154376,1,0,0:0:0:0:
320,192,154554,128,0,154733:0:0:0:0:
192,192,154733,1,0,0:0:0:0:
64,192,154733,1,0,0:0:0:0:
448,192,154911,128,0,155090:0:0:0:0:
192,192,155090,1,0,0:0:0:0:
320,192,155090,1,0,0:0:0:0:
64,192,155268,128,0,155447:0:0:0:0:
448,192,155447,1,0,0:0:0:0:
192,192,155447,128,0,155804:0:0:0:0:
448,192,155804,1,0,0:0:0:0:
64,192,155804,1,0,0:0:0:0:
320,192,155983,128,0,156161:0:0:0:0:
192,192,156161,1,0,0:0:0:0:
448,192,156161,1,0,0:0:0:0:
64,192,156340,128,0,156518:0:0:0:0:
192,192,156518,1,0,0:0:0:0:
320,192,156518,1,0,0:0:0:0:
448,192,156697,128,0,156876:0:0:0:0:
64,192,156876,1,0,0:0:0:0:
320,192,156876,1,0,0:0:0:0:
192,192,157054,128,0,157233:0:0:0:0:
448,192,157233,1,0,0:0:0:0:
320,192,157233,1,0,0:0:0:0:
320,192,157590,1,0,0:0:0:0:
448,192,157590,1,0,0:0:0:0:
192,192,157947,1,0,0:0:0:0:
64,192,157947,1,0,0:0:0:0:
64,192,158304,1,0,0:0:0:0:
192,192,158304,1,0,0:0:0:0:
192,192,158661,128,0,158840:0:0:0:0:
448,192,158661,128,0,158840:0:0:0:0:
64,192,158929,1,0,0:0:0:0:
320,192,159018,128,0,159197:0:0:0:0:
448,192,159018,128,0,159197:0:0:0:0:
192,192,159197,128,0,159376:0:0:0:0:
64,192,159376,128,0,159554:0:0:0:0:
448,192,159376,128,0,159554:0:0:0:0:
320,192,159554,128,0,159733:0:0:0:0:
192,192,159733,128,0,159911:0:0:0:0:
448,192,159733,128,0,159911:0:0:0:0:
64,192,159911,128,0,160090:0:0:0:0:
320,192,160090,128,0,160268:0:0:0:0:
448,192,160090,128,0,160268:0:0:0:0:
64,192,160358,1,0,0:0:0:0:
192,192,160447,128,0,160626:0:0:0:0:
448,192,160447,128,0,160626:0:0:0:0:
320,192,160626,128,0,160804:0:0:0:0:
448,192,160804,128,0,160983:0:0:0:0:
64,192,160804,128,0,160983:0:0:0:0:
192,192,160983,128,0,161161:0:0:0:0:
320,192,161161,128,0,161340:0:0:0:0:
448,192,161161,128,0,161340:0:0:0:0:
192,192,161340,128,0,161518:0:0:0:0:
64,192,161518,128,0,161697:0:0:0:0:
320,192,161518,128,0,161697:0:0:0:0:
448,192,161786,1,0,0:0:0:0:
320,192,161876,128,0,162054:0:0:0:0:
192,192,162054,128,0,162233:0:0:0:0:
64,192,162233,128,0,162411:0:0:0:0:
448,192,162233,128,0,162411:0:0:0:0:
320,192,162411,128,0,162590:0:0:0:0:
192,192,162590,128,0,162768:0:0:0:0:
448,192,162590,128,0,162768:0:0:0:0:
64,192,162768,128,0,162947:0:0:0:0:
192,192,162947,128,0,163126:0:0:0:0:
448,192,162947,128,0,163126:0:0:0:0:
320,192,163215,1,0,0:0:0:0:
192,192,163304,128,0,163483:0:0:0:0:
448,192,163304,128,0,163483:0:0:0:0:
64,192,163483,128,0,163661:0:0:0:0:
320,192,163661,128,0,163840:0:0:0:0:
448,192,163661,128,0,163840:0:0:0:0:
192,192,163840,128,0,164018:0:0:0:0:
64,192,164018,128,0,164197:0:0:0:0:
448,192,164018,128,0,164197:0:0:0:0:
320,192,164197,128,0,164376:0:0:0:0:
192,192,164376,128,0,164554:0:0:0:0:
448,192,164376,128,0,164554:0:0:0:0:
64,192,164643,1,0,0:0:0:0:
192,192,164733,128,0,164911:0:0:0:0:
320,192,164733,128,0,164911:0:0:0:0:
448,192,164911,128,0,165090:0:0:0:0:
64,192,165090,128,0,165268:0:0:0:0:
320,192,165090,128,0,165268:0:0:0:0:
192,192,165268,128,0,165447:0:0:0:0:
448,192,165447,128,0,165626:0:0:0:0:
64,192,165447,128,0,165626:0:0:0:0:
320,192,165626,128,0,165804:0:0:0:0:
448,192,165804,128,0,165983:0:0:0:0:
192,192,165804,128,0,165983:0:0:0:0:
64,192,166072,1,0,0:0:0:0:
448,192,166161,128,0,166340:0:0:0:0:
320,192,166161,128,0,166340:0:0:0:0:
192,192,166340,128,0,166518:0:0:0:0:
64,192,166518,128,0,166697:0:0:0:0:
320,192,166518,128,0,166697:0:0:0:0:
448,192,166697,128,0,166876:0:0:0:0:
320,192,166876,128,0,167054:0:0:0:0:
64,192,166876,128,0,167054:0:0:0:0:
192,192,167054,128,0,167233:0:0:0:0:
64,192,167233,128,0,167411:0:0:0:0:
448,192,167233,128,0,167411:0:0:0:0:
320,192,167501,1,0,0:0:0:0:
192,192,167590,128,0,167768:0:0:0:0:
448,192,167590,128,0,167768:0:0:0:0:
64,192,167768,128,0,167947:0:0:0:0:
320,192,167947,128,0,168126:0:0:0:0:
448,192,167947,128,0,168126:0:0:0:0:
192,192,168126,128,0,168304:0:0:0:0:
320,192,168304,128,0,168483:0:0:0:0:
64,192,168304,128,0,168483:0:0:0:0:
192,192,168483,128,0,168661:0:0:0:0:
64,192,168661,128,0,168840:0:0:0:0:
448,192,168661,128,0,168840:0:0:0:0:
320,192,168840,128,0,169018:0:0:0:0:
192,192,169018,128,0,169197:0:0:0:0:
448,192,169018,128,0,169197:0:0:0:0:
320,192,169197,128,0,169376:0:0:0:0:
64,192,169376,128,0,169554:0:0:0:0:
192,192,169376,128,0,169554:0:0:0:0:
320,192,169554,128,0,169733:0:0:0:0:
448,192,169733,128,0,169911:0:0:0:0:
64,192,169733,128,0,169911:0:0:0:0:
192,192,169911,128,0,170090:0:0:0:0:
448,192,170090,1,0,0:0:0:0:
320,192,170090,1,0,0:0:0:0:
64,192,170268,1,0,0:0:0:0:
448,192,170447,1,0,0:0:0:0:
320,192,170447,1,0,0:0:0:0:
64,192,170626,1,0,0:0:0:0:
192,192,170804,128,0,171161:0:0:0:0:
448,192,170804,1,0,0:0:0:0:
320,192,170983,1,0,0:0:0:0:
448,192,171161,1,0,0:0:0:0:
64,192,171161,1,0,0:0:0:0:
320,192,171340,1,0,0:0:0:0:
64,192,171518,128,0,171876:0:0:0:0:
192,192,171518,1,0,0:0:0:0:
448,192,171697,1,0,0:0:0:0:
192,192,171876,1,0,0:0:0:0:
320,192,171876,1,0,0:0:0:0:
448,192,172054,1,0,0:0:0:0:
192,192,172233,128,0,172590:0:0:0:0:
64,192,172233,1,0,0:0:0:0:
320,192,172411,1,0,0:0:0:0:
448,192,172590,1,0,0:0:0:0:
64,192,172590,1,0,0:0:0:0:
448,192,172768,1,0,0:0:0:0:
64,192,172768,1,0,0:0:0:0:
192,192,172947,128,0,173304:0:0:0:0:
320,192,172947,1,0,0:0:0:0:
448,192,173126,1,0,0:0:0:0:
64,192,173304,1,0,0:0:0:0:
320,192,173304,1,0,0:0:0:0:
448,192,173483,1,0,0:0:0:0:
64,192,173661,128,0,174018:0:0:0:0:
192,192,173661,1,0,0:0:0:0:
448,192,173840,1,0,0:0:0:0:
192,192,174018,1,0,0:0:0:0:
320,192,174018,1,0,0:0:0:0:
448,192,174197,1,0,0:0:0:0:
64,192,174376,1,0,0:0:0:0:
320,192,174376,128,0,174733:0:0:0:0:
192,192,174554,1,0,0:0:0:0:
64,192,174733,1,0,0:0:0:0:
448,192,174733,1,0,0:0:0:0:
192,192,174911,1,0,0:0:0:0:
448,192,175090,128,0,175447:0:0:0:0:
320,192,175090,1,0,0:0:0:0:
192,192,175268,1,0,0:0:0:0:
64,192,175447,1,0,0:0:0:0:
320,192,175447,1,0,0:0:0:0:
192,192,175626,1,0,0:0:0:0:
64,192,175804,1,0,0:0:0:0:
448,192,175804,128,0,176161:0:0:0:0:
192,192,175983,1,0,0:0:0:0:
320,192,176161,5,0,0:0:0:0:
64,192,176161,1,0,0:0:0:0:
448,192,176340,1,0,0:0:0:0:
192,192,176518,1,0,0:0:0:0:
320,192,176518,128,0,176876:0:0:0:0:
64,192,176697,1,0,0:0:0:0:
192,192,176876,1,0,0:0:0:0:
448,192,176876,1,0,0:0:0:0:
320,192,177054,1,0,0:0:0:0:
64,192,177233,128,0,177590:0:0:0:0:
448,192,177233,1,0,0:0:0:0:
320,192,177411,1,0,0:0:0:0:
192,192,177590,128,0,177947:0:0:0:0:
448,192,177590,1,0,0:0:0:0:
64,192,177768,1,0,0:0:0:0:
448,192,177947,1,0,0:0:0:0:
320,192,177947,128,0,178304:0:0:0:0:
64,192,178126,1,0,0:0:0:0:
192,192,178304,1,0,0:0:0:0:
448,192,178304,128,0,178661:0:0:0:0:
320,192,178483,1,0,0:0:0:0:
64,192,178661,1,0,0:0:0:0:
192,192,178840,1,0,0:0:0:0:
320,192,178929,1,0,0:0:0:0:
448,192,179018,1,0,0:0:0:0:
64,192,179197,1,0,0:0:0:0:
448,192,179376,1,0,0:0:0:0:
192,192,179554,1,0,0:0:0:0:
448,192,179733,1,0,0:0:0:0:
320,192,179911,1,0,0:0:0:0:
64,192,180090,1,0,0:0:0:0:
448,192,180268,1,0,0:0:0:0:
320,192,180358,1,0,0:0:0:0:
192,192,180447,1,0,0:0:0:0:
64,192,180626,1,0,0:0:0:0:
192,192,180804,1,0,0:0:0:0:
320,192,180983,128,0,181161:0:0:0:0:
64,192,181161,1,0,0:0:0:0:
448,192,181161,1,0,0:0:0:0:
