osu file format v14

[General]
AudioFilename: audio.mp3
AudioLeadIn: 0
PreviewTime: 70457
Countdown: 1
SampleSet: Normal
StackLeniency: 0.2
Mode: 0
LetterboxInBreaks: 0
WidescreenStoryboard: 0

[Editor]
DistanceSpacing: 0.1
BeatDivisor: 8
GridSize: 32
TimelineZoom: 5.099997

[Metadata]
Title:FICKLE SOULS
TitleUnicode:FICKLE SOULS
Artist:muppy
ArtistUnicode:muppy
Creator:nhlx
Version:FRXILTY OF LIFE
Source:
Tags:English Metal Burn This Place Hip Hop Rap Dark Trap
BeatmapID:2070079
BeatmapSetID:989582

[Difficulty]
HPDrainRate:5
CircleSize:4.3
OverallDifficulty:9
ApproachRate:9.5
SliderMultiplier:3.1
SliderTickRate:1

[Events]
//Background and Video events
0,0,"ficklesouls.png",0,0
//Break Periods
//Storyboard Layer 0 (Background)
//Storyboard Layer 1 (Fail)
//Storyboard Layer 2 (Pass)
//Storyboard Layer 3 (Foreground)
//Storyboard Layer 4 (Overlay)
//Storyboard Sound Samples

[TimingPoints]
-569,317.460317460317,4,3,1,60,1,0
696,317.460317460317,4,3,1,60,1,0
1013,-90.9090909090909,4,3,1,60,0,0
1648,-133.333333333333,4,3,1,60,0,0
1807,-100,4,3,1,60,0,0
2918,-83.3333333333333,4,3,1,60,0,0
3235,-100,4,3,1,60,0,0
3553,-83.3333333333333,4,3,1,60,0,0
4188,-111.111111111111,4,3,1,60,0,0
4346,-83.3333333333333,4,3,1,60,0,0
5140,-71.4285714285714,4,3,1,60,0,0
5457,-111.111111111111,4,3,1,60,0,0
5616,-71.4285714285714,4,3,1,60,0,0
6410,-100,4,3,1,60,0,0
6727,-76.9230769230769,4,3,1,60,0,0
7045,-105.263157894737,4,3,1,60,0,0
7203,-79.9999999999999,4,3,1,60,0,0
7521,-66.6666666666667,4,3,1,60,0,0
7997,-100,4,3,1,60,0,0
8315,-71.4285714285714,4,3,1,60,0,0
10219,-100,4,3,1,60,0,0
10537,-66.6666666666667,4,3,1,60,0,0
10854,-90.9090909090909,4,2,1,50,0,0
11092,-90.9090909090909,4,2,1,5,0,0
11172,-333.333333333333,4,2,1,50,0,0
11489,-100,4,2,1,50,0,0
11965,-66.6666666666667,4,2,1,50,0,0
12124,-100,4,2,1,50,0,0
12283,-333.333333333333,4,2,1,50,0,0
13235,-100,4,2,1,50,0,0
13394,-76.9230769230769,4,2,1,50,0,0
13632,-76.9230769230769,4,2,1,5,0,0
13711,-100,4,2,1,50,0,0
13870,-333.333333333333,4,2,1,50,0,0
14029,-100,4,2,1,50,0,0
14505,-66.6666666666667,4,2,1,50,0,0
14664,-66.6666666666667,4,2,1,50,0,0
14822,-100,4,2,1,50,0,0
15140,-100,4,2,1,50,0,0
15299,-333.333333333333,4,2,1,50,0,0
15934,-66.6666666666667,4,2,1,50,0,0
16172,-66.6666666666667,4,2,1,5,0,0
16251,-333.333333333333,4,2,1,50,0,0
16569,-100,4,2,1,50,0,0
16886,-66.6666666666667,4,2,1,50,0,0
17362,-100,4,2,1,50,0,0
17680,-100,4,2,1,50,0,0
17838,-333.333333333333,4,2,1,50,0,0
19108,-100,4,2,1,50,0,0
19426,-100,4,2,1,50,0,0
19584,-66.6666666666667,4,2,1,50,0,0
19743,-100,4,2,1,50,0,0
20061,-181.818181818181,4,2,1,50,0,0
20378,-399.999999999997,4,2,1,50,0,0
20854,-66.6666666666667,4,2,1,50,0,0
21013,-66.6666666666667,4,1,1,60,0,0
21330,-83.3333333333333,4,1,1,60,0,0
21489,-66.6666666666667,4,1,1,60,0,0
21807,-66.6666666666667,4,1,1,5,0,0
21886,-66.6666666666667,4,1,1,60,0,0
22283,-166.666666666667,4,1,1,60,0,0
22600,-100,4,1,1,60,0,0
23076,-66.6666666666667,4,1,1,60,0,0
23235,-500,4,1,1,60,0,0
23711,-66.6666666666667,4,1,1,60,0,0
24293,-66.6666666666667,4,1,1,60,0,0
25140,-100,4,1,1,60,0,0
25299,-66.6666666666667,4,1,1,60,0,0
25457,-66.6666666666667,4,1,1,60,0,0
25616,-500,4,1,1,60,0,0
25934,-66.6666666666667,4,1,1,60,0,0
27362,-500,4,1,1,60,0,0
27680,-66.6666666666667,4,1,1,60,0,0
28156,-500,4,1,1,60,0,0
28473,-55.5555555555556,4,1,1,60,0,0
28791,-66.6666666666667,4,1,1,60,0,0
28949,-100,4,1,1,60,0,0
29267,-66.6666666666667,4,1,1,60,0,0
29584,-76.9230769230769,4,1,1,60,0,0
29902,-500,4,1,1,60,0,0
30219,-100,4,1,1,60,0,0
30695,-71.4285714285714,4,1,1,60,0,0
31013,-58.8235294117647,4,1,1,60,0,0
32124,-71.4285714285714,4,1,1,60,0,0
32442,-58.8235294117647,4,1,1,60,0,0
32759,-100,4,1,1,60,0,0
32918,-83.3333333333333,4,1,1,60,0,0
33235,-500,4,1,1,60,0,0
33553,-50,4,1,1,60,0,0
33711,-66.6666666666667,4,1,1,60,0,0
34029,-50,4,1,1,60,0,0
34188,-58.8235294117647,4,1,1,60,0,0
34505,-117.647058823529,4,1,1,60,0,0
34664,-66.6666666666667,4,1,1,60,0,0
34981,-58.8235294117647,4,1,1,60,0,0
35299,-66.6666666666667,4,1,1,60,0,0
35457,-55.5555555555556,4,1,1,60,0,0
35775,-1000,4,1,1,60,0,0
36251,-66.6666666666667,4,1,1,60,0,0
36569,-50,4,1,1,60,0,0
36886,-399.999999999997,4,1,1,60,0,0
37521,-76.9230769230769,4,1,1,60,0,0
37838,-66.6666666666667,4,1,1,60,0,0
38473,-333.333333333333,4,1,1,60,0,0
38791,-55.5555555555556,4,1,1,60,0,0
38949,-500,4,1,1,60,0,0
39108,-250,4,1,1,60,0,0
39267,-100,4,1,1,60,0,0
39426,-66.6666666666667,4,1,1,60,0,0
40061,-62.5,4,1,1,60,0,0
40299,-62.5,4,1,1,5,0,0
40378,-62.5,4,1,1,60,0,0
40537,-50,4,1,1,60,0,0
41092,-50,4,1,1,5,0,0
41172,-166.666666666667,4,1,1,60,0,0
41251,-166.666666666667,4,1,1,5,0,0
41330,-166.666666666667,4,2,1,60,0,0
41489,-500,4,2,1,50,0,0
41965,-100,4,2,1,50,0,0
43473,-66.6666666666667,4,2,1,50,0,0
44029,-500,4,2,1,50,0,0
44188,-100,4,2,1,50,0,0
45775,-66.6666666666667,4,2,1,50,0,0
45934,-100,4,2,1,50,0,0
46727,-100,4,2,1,50,0,0
48632,-66.6666666666667,4,2,1,50,0,0
48949,-66.6666666666667,4,2,1,50,0,0
51013,-133.333333333333,4,2,1,50,0,0
51330,-666.666666666658,4,2,1,50,0,0
51489,-666.666666666658,4,1,1,50,0,0
53076,-100,4,1,1,50,0,0
56569,-100,4,1,1,50,0,0
56886,-58.8235294117647,4,1,1,50,0,0
57203,-100,4,1,1,50,0,0
57680,-66.6666666666667,4,1,1,50,0,0
58156,-100,4,1,1,50,0,0
58473,-1000,4,1,1,50,0,0
58632,-500,4,1,1,50,0,0
59108,-100,4,1,1,50,0,0
59426,-66.6666666666667,4,1,1,50,0,0
59743,-100,4,1,1,50,0,0
60219,-66.6666666666667,4,1,1,50,0,0
60378,-500,4,1,1,50,0,0
60695,-66.6666666666667,4,1,1,50,0,0
61013,-100,4,1,1,50,0,0
61092,-200,4,1,1,50,0,0
61648,-50,4,1,1,60,0,1
61965,-58.8235294117647,4,1,1,60,0,1
62283,-66.6666666666667,4,1,1,60,0,1
62600,-52.6315789473684,4,1,1,60,0,1
62918,-500,4,1,1,60,0,1
63235,-50,4,1,1,60,0,1
63711,-55.5555555555556,4,1,1,60,0,1
64188,-55.5555555555556,4,1,1,60,0,1
65457,-500,4,1,1,60,0,1
65775,-50,4,1,1,60,0,1
66092,-71.4285714285714,4,1,1,60,0,1
66251,-333.333333333333,4,1,1,60,0,1
66727,-66.6666666666667,4,1,1,60,0,0
67362,-71.4285714285714,4,1,1,60,0,0
67680,-58.8235294117647,4,1,1,60,0,0
68791,-47.6190476190476,4,1,1,60,0,0
68949,-66.6666666666667,4,1,1,60,0,0
69108,-111.111111111111,4,1,1,60,0,0
69267,-66.6666666666667,4,1,1,60,0,0
69584,-181.818181818181,4,1,1,60,0,0
69902,-50,4,1,1,60,0,0
70219,-100,4,1,1,60,0,0
71807,-44.4444444444445,4,1,1,60,0,1
72124,-64.5161290322581,4,1,1,60,0,1
72283,-50,4,1,1,60,0,1
72759,-133.333333333333,4,1,1,60,0,1
72918,-50,4,1,1,60,0,1
73870,-399.999999999997,4,1,1,60,0,1
74346,-55.5555555555556,4,1,1,60,0,1
75299,-666.666666666658,4,1,1,60,0,1
75457,-50,4,1,1,60,0,1
75616,-66.6666666666667,4,1,1,60,0,1
75934,-50,4,1,1,60,0,1
76251,-66.6666666666667,4,1,1,60,0,1
76410,-500,4,1,1,60,0,1
76569,-285.714285714284,4,1,1,60,0,1
76727,-100,4,1,1,60,0,1
76886,-52.6315789473684,4,1,1,60,0,1
77203,-66.6666666666667,4,1,1,60,0,1
77362,-50,4,1,1,60,0,1
77759,-74.074074074074,4,1,1,60,0,1
77997,-50,4,1,1,60,0,1
78949,-500,4,1,1,60,0,1
79267,-100,4,1,1,60,0,1
79584,-50,4,1,1,60,0,1
79743,-285.714285714284,4,1,1,60,0,1
79902,-76.9230769230769,4,1,1,60,0,1
80061,-55.5555555555556,4,1,1,60,0,1
81013,-45.4545454545455,4,1,1,60,0,1
81489,-76.9230769230769,4,1,1,60,0,1
81648,-333.333333333333,4,1,1,60,0,1
81965,-66.6666666666667,4,2,1,60,0,0
82283,-66.6666666666667,4,2,1,50,0,0
82759,-100,4,2,1,50,0,0
82918,-66.6666666666667,4,2,1,50,0,0
83076,-50,4,2,1,50,0,0
83394,-500,4,2,1,50,0,0
84505,-66.6666666666667,4,2,1,50,0,0
84822,-133.333333333333,4,2,1,50,0,0
85140,-399.999999999997,4,2,1,50,0,0
85616,-66.6666666666667,4,2,1,50,0,0
86092,-100,4,2,1,50,0,0
86251,-66.6666666666667,4,2,1,50,0,0
86410,-100,4,2,1,50,0,0
87362,-133.333333333333,4,2,1,50,0,0
87997,-66.6666666666667,4,2,1,50,0,0
88156,-50,4,2,1,50,0,0
88315,-100,4,2,1,50,0,0
88473,-181.818181818181,4,2,1,50,0,0
88949,-66.6666666666667,4,2,1,50,0,0
89108,-181.818181818181,4,2,1,50,0,0
89902,-100,4,2,1,50,0,0
90219,-66.6666666666667,4,2,1,50,0,0
90537,-100,4,2,1,50,0,0
90854,-133.333333333333,4,2,1,50,0,0
91172,-66.6666666666667,4,2,1,50,0,0
91489,-500,4,2,1,50,0,0
93394,-133.333333333333,4,2,1,50,0,0
94664,-133.333333333333,4,2,1,50,0,0
97203,-66.6666666666667,4,1,1,50,0,0
97521,-133.333333333333,4,1,1,50,0,0
97838,-66.6666666666667,4,1,1,50,0,0
97997,-133.333333333333,4,1,1,50,0,0
98473,-1000,4,1,1,50,0,0
98632,-66.6666666666667,4,1,1,50,0,0
99108,-50,4,1,1,50,0,0
99267,-100,4,1,1,50,0,0
100378,-76.9230769230769,4,1,1,50,0,0
101013,-66.6666666666667,4,1,1,50,0,0
101648,-200,4,1,1,50,0,0
102283,-47.6190476190476,4,1,1,60,0,1
102600,-50,4,1,1,60,0,1
102918,-50,4,1,1,60,0,1
103394,-58.8235294117647,4,1,1,60,0,1
103711,-50,4,1,1,60,0,1
103870,-58.8235294117647,4,1,1,60,0,1
104188,-58.8235294117647,4,1,1,60,0,0
104505,-117.647058823529,4,1,1,60,0,0
104822,-50,4,1,1,60,0,1
105140,-66.6666666666667,4,1,1,60,0,1
105934,-58.8235294117647,4,1,1,60,0,1
106251,-117.647058823529,4,1,1,60,0,1
106410,-48.780487804878,4,1,1,60,0,1
106727,-133.333333333333,4,1,1,60,0,0
107362,-50,4,1,1,60,0,1
108949,-62.5,4,1,1,60,0,1
109426,-50,4,1,1,60,0,1
109584,-47.6190476190476,4,1,1,60,0,1
111330,-133.333333333333,4,1,1,60,0,1
111489,-66.6666666666667,4,1,1,60,0,1
111807,-66.6666666666667,4,1,1,60,0,0
112124,-133.333333333333,4,1,1,60,0,0
112442,-50,4,1,1,60,0,1
112759,-399.999999999997,4,1,1,60,0,1
113076,-50,4,1,1,60,0,1
113235,-45.4545454545455,4,1,1,60,0,1
113394,-55.5555555555556,4,1,1,60,0,1
113553,-45.4545454545455,4,1,1,60,0,1
114346,-90.9090909090909,4,1,1,60,0,1
114386,-333.333333333333,4,1,1,60,0,1
114664,-333.333333333333,4,1,1,60,0,1
114822,-50,4,1,1,60,0,1
114981,-50,4,1,1,60,0,1
115299,-333.333333333333,4,1,1,60,0,1
115457,-142.857142857143,4,1,1,60,0,1
115616,-50,4,1,1,60,0,1
116886,-333.333333333333,4,1,1,60,0,1
117203,-66.6666666666667,4,1,1,60,0,1
117362,-45.4545454545455,4,1,1,60,0,1
118156,-100,4,1,1,60,0,1
118315,-100,4,1,1,60,0,1
118632,-333.333333333333,4,1,1,60,0,1
118791,-50,4,1,1,60,0,1
119108,-43.4782608695652,4,1,1,60,0,1
119426,-52.6315789473684,4,1,1,60,0,1
119743,-45.4545454545455,4,1,1,60,0,1
119902,-33.3333333333333,4,1,1,60,0,1
120061,-40,4,1,1,60,0,1
120537,-66.6666666666667,4,1,1,60,0,1
120695,-50,4,1,1,60,0,1
121172,-285.714285714284,4,1,1,60,0,1
121489,-100,4,1,1,60,0,1
121648,-66.6666666666667,4,1,1,60,0,1
121807,-100,4,1,1,60,0,1
122124,-250,4,1,1,60,0,1
122521,-250,4,1,1,5,0,1
122600,-250,4,1,1,60,0,0

[Colours]
Combo1 : 153,49,49
Combo2 : 128,0,3
Combo3 : 128,64,64
Combo4 : 179,0,0

[HitObjects]
0,78,383,6,0,P|31:171|37:215,1,77.5
0,326,542,2,0,P|41:228|60:203,1,77.5
74,0,696,6,0,P|152:50|109:194,1,232.5,6|0,0:0|0:0,0:0:0:0:
98,269,1013,6,0,P|146:255|200:249,1,85.2500026016236
352,327,1172,2,0,P|321:321|265:305,1,85.2500026016236
227,384,1330,6,0,P|244:282|276:161,1,201.499990776062,8|0,0:0|0:0,0:0:0:0:
512,0,1648,6,0,P|484:8|460:24,1,58.1250022172929
383,0,1807,2,0,P|374:37|379:75,1,77.5,8|0,0:0|0:0,0:0:0:0:
507,82,1965,5,0,0:0:0:0:
288,16,2124,1,8,0:0:0:0:
283,22,2203,1,0,0:0:0:0:
279,29,2283,2,0,B|169:23|248:72|83:73,1,155,2|0,0:0|0:0,0:0:0:0:
0,0,2600,6,0,P|55:13|95:25,1,77.5,8|0,0:0|0:0,0:0:0:0:
122,184,2759,2,0,P|160:170|215:155,1,77.5,2|0,0:0|0:0,0:0:0:0:
287,288,2918,6,0,P|272:215|250:162,1,92.9999971618653,2|0,0:0|0:0,0:0:0:0:
352,58,3076,2,0,P|326:122|318:166,1,92.9999971618653,2|0,0:0|0:0,0:0:0:0:
355,340,3235,6,0,P|223:320|70:306,1,232.5,2|0,0:0|0:0,0:0:0:0:
61,376,3553,1,0,0:0:0:0:
44,382,3632,1,0,0:0:0:0:
31,370,3711,2,0,P|41:308|52:268,1,92.9999971618653
11,46,3870,6,0,B|30:156|69:102|88:256,1,185.999994323731,8|0,0:0|0:0,0:0:0:0:
310,0,4188,6,0,P|248:56|234:82,1,69.749997871399
226,247,4346,2,0,P|206:204|195:159,1,92.9999971618653,8|0,0:0|0:0,0:0:0:0:
190,84,4505,5,0,0:0:0:0:
321,304,4664,1,8,0:0:0:0:
327,321,4743,1,0,0:0:0:0:
318,337,4822,2,0,P|183:318|116:288,1,185.999994323731
146,0,5140,6,0,P|95:117|94:172,1,108.499996688843,8|0,0:0|0:0,0:0:0:0:
51,343,5299,2,0,P|-9:194|-7:156,1,108.499996688843,2|0,0:0|0:0,0:0:0:0:
263,218,5457,6,0,P|223:203|159:184,1,69.749997871399
40,37,5616,1,0,0:0:0:0:
0,101,5695,1,0,0:0:0:0:
14,174,5775,6,0,B|186:268|156:76|332:154,1,325.499990066529,2|0,0:0|0:0,0:0:0:0:
426,230,6092,6,0,P|387:118|379:65,1,108.499996688843
492,0,6251,2,0,P|466:107|448:142,1,108.499996688843
330,40,6410,6,0,P|383:49|423:55,1,77.5,8|0,0:0|0:0,0:0:0:0:
507,214,6569,1,0,0:0:0:0:
512,228,6648,1,0,0:0:0:0:
505,241,6727,2,0,P|405:252|274:279,1,201.499990776062,0|8,0:0|0:0,0:0:0:0:
0,384,7045,6,0,P|47:371|99:360,1,73.6249980340005
140,190,7203,2,0,P|200:202|251:207,1,96.875,8|0,0:0|0:0,0:0:0:0:
305,271,7362,5,0,0:0:0:0:
345,38,7521,1,0,0:0:0:0:
336,37,7600,1,0,0:0:0:0:
330,40,7680,6,0,P|350:106|360:193,1,116.250004434586,8|0,0:0|0:0,0:0:0:0:
354,384,7838,2,0,P|368:315|401:238,1,116.250004434586,2|0,0:0|0:0,0:0:0:0:
507,214,7997,6,0,L|397:188,1,77.5,2|0,0:0|0:0,0:0:0:0:
229,288,8156,2,0,L|339:262,1,77.5,2|0,0:0|0:0,0:0:0:0:
501,80,8315,6,0,B|335:66|423:231|185:204,1,325.499990066529,2|0,0:0|0:0,0:0:0:0:
150,252,8632,1,0,0:0:0:0:
133,264,8711,1,0,0:0:0:0:
112,260,8791,2,0,P|94:201|92:120,1,108.499996688843
213,27,8949,6,0,L|189:162,1,108.499996688843,8|0,0:0|0:0,0:0:0:0:
155,340,9108,1,0,0:0:0:0:
0,320,9267,6,0,P|57:361|98:429,1,108.499996688843
299,209,9426,2,0,P|212:289|200:320,1,108.499996688843,8|0,0:0|0:0,0:0:0:0:
228,384,9584,6,0,B|388:388|277:314|465:324,1,216.999993377686,0|8,0:0|0:0,0:0:0:0:
443,217,9822,1,0,0:0:0:0:
441,208,9902,2,0,P|386:309|385:335,1,108.499996688843
512,384,10061,2,0,P|508:316|491:277,1,108.499996688843
362,170,10219,6,0,L|354:92,1,77.5,8|0,0:0|0:0,0:0:0:0:
504,1,10378,1,2,0:0:0:0:
509,16,10457,1,0,0:0:0:0:
500,29,10537,2,0,L|215:-8,1,232.500008869171
218,368,10854,6,0,B|362:370|280:219|446:227,1,255.750007804871,4|0,0:0|0:0,0:0:0:0:
424,236,11172,6,0,L|451:244,1,23.2499992904663
490,299,11330,2,0,L|517:291,1,23.2499992904663
400,309,11489,6,0,L|380:399,1,77.5,8|0,0:0|0:0,0:0:0:0:
496,185,11648,2,0,L|512:110,1,77.5
427,0,11807,5,0,0:0:0:0:
420,2,11886,1,0,0:0:0:0:
413,5,11965,6,0,L|435:138,1,116.250004434586,8|0,0:0|0:0,0:0:0:0:
357,139,12124,2,0,L|337:229,1,77.5
284,284,12283,6,0,L|245:273,1,23.2499992904663,8|0,0:0|0:0,0:0:0:0:
207,332,12442,2,0,L|184:338,1,23.2499992904663
123,384,12600,2,0,L|101:378,1,23.2499992904663
2,181,12759,5,8,0:0:0:0:
21,184,12838,1,0,0:0:0:0:
33,199,12918,1,0,0:0:0:0:
51,206,12997,1,0,0:0:0:0:
70,209,13076,2,0,L|63:175,1,23.2499992904663
86,23,13235,2,0,L|67:113,1,77.5
222,70,13394,6,0,P|255:83|143:146,1,302.249986164094
147,86,13711,6,0,L|54:102,1,77.5
153,9,13870,2,0,L|110:15,1,23.2499992904663
70,209,14029,6,0,L|94:296,1,69.749997871399,8|0,0:0|0:0,0:0:0:0:
0,384,14188,2,0,L|18:316,1,69.749997871399
145,160,14346,1,0,0:0:0:0:
148,166,14426,1,0,0:0:0:0:
150,173,14505,6,0,L|284:192,1,116.250004434586,8|0,0:0|0:0,0:0:0:0:
277,106,14664,2,0,L|464:75,1,116.250004434586
512,0,14822,6,0,L|497:98,1,77.5,8|0,0:0|0:0,0:0:0:0:
455,138,14981,2,0,L|471:229,1,77.5
512,277,15140,2,0,L|497:367,1,77.5
426,376,15299,6,0,L|392:369,1,23.2499992904663,8|0,0:0|0:0,0:0:0:0:
342,328,15457,2,0,L|308:335,1,23.2499992904663
265,384,15616,2,0,L|231:377,1,23.2499992904663
181,336,15774,2,0,L|147:343,1,23.2499992904663
78,314,15934,6,0,B|-42:260|-88:418|114:448|165:252,1,348.750013303757
124,209,16251,6,0,L|115:168,1,23.2499992904663
169,135,16410,2,0,L|177:106,1,23.2499992904663
0,0,16569,6,0,L|124:23,1,77.5,8|0,0:0|0:0,0:0:0:0:
144,45,16727,2,0,L|220:30,1,77.5
290,0,16886,1,0,0:0:0:0:
299,6,16965,1,0,0:0:0:0:
308,12,17045,6,0,L|261:208,1,116.250004434586,8|0,0:0|0:0,0:0:0:0:
384,266,17203,2,0,L|351:146,1,116.250004434586
512,0,17362,6,0,L|489:124,1,77.5,8|0,0:0|0:0,0:0:0:0:
442,144,17520,2,0,L|457:220,1,77.5
512,271,17680,2,0,L|497:347,1,77.5
364,369,17838,6,0,L|329:378,1,23.2499992904663,8|0,0:0|0:0,0:0:0:0:
59,297,17997,2,0,L|92:308,1,23.2499992904663
217,377,18156,1,0,0:0:0:0:
220,349,18235,1,0,0:0:0:0:
237,327,18315,1,0,0:0:0:0:
243,300,18394,1,0,0:0:0:0:
245,272,18473,6,0,L|247:231,1,23.2499992904663
209,22,18632,2,0,L|219:-11,1,23.2499992904663
185,185,18791,6,0,L|197:150,1,23.2499992904663
264,115,18949,2,0,L|257:82,1,23.2499992904663
76,109,19108,6,0,L|168:94,1,77.5,8|0,0:0|0:0,0:0:0:0:
378,202,19267,2,0,L|286:187,1,77.5
168,260,19426,2,0,L|191:154,1,77.5
251,0,19584,6,0,L|267:137,1,116.250004434586,8|0,0:0|0:0,0:0:0:0:
485,127,19743,6,0,L|460:221,1,77.5
406,272,19902,2,0,L|425:371,1,77.5,8|0,0:0|0:0,0:0:0:0:
220,374,20061,6,0,L|240:325,1,42.6250013008118
168,260,20219,2,0,L|155:213,1,42.6250013008118
0,303,20378,6,0,L|27:309,1,19.375,8|0,0:0|0:0,0:0:0:0:
128,330,20537,2,0,L|101:324,1,19.375
53,382,20695,5,0,0:0:0:0:
112,34,20854,2,0,L|88:176,1,116.250004434586
53,382,21013,6,0,B|98:192|295:239|313:317|195:464|149:340,1,348.750013303757,6|0,0:0|0:0,0:0:0:0:
25,253,21330,2,0,P|10:198|1:125,1,92.9999971618653
425,205,21489,1,0,0:0:0:0:
363,259,21569,1,0,0:0:0:0:
287,230,21648,6,0,P|312:106|323:-6,1,232.500008869171,8|0,0:0|0:0,0:0:0:0:
322,0,22124,1,8,0:0:0:0:
8,0,22283,5,0,0:0:0:0:
17,11,22389,2,0,L|28:59,1,30.9999990539551,0|8,0:0|0:0,0:0:0:0:
0,127,22494,1,0,0:0:0:0:
10,120,22600,6,0,B|100:108|73:159|122:170|215:122,1,155
322,0,22918,1,0,0:0:0:0:
271,182,23076,6,0,P|300:132|338:88,1,116.250004434586,2|0,0:0|0:0,0:0:0:0:
235,17,23235,6,0,L|259:9,1,15.5,2|0,0:0|0:0,0:0:0:0:
369,195,23394,2,0,L|345:187,1,15.5,2|0,0:0|0:0,0:0:0:0:
0,308,23553,5,6,0:0:0:0:
0,308,23632,1,0,0:0:0:0:
23,379,23711,2,0,B|188:433|131:237|277:210|379:304,1,348.750013303757
498,369,24029,2,0,P|429:378|447:281,1,116.250004434586
436,123,24188,5,8,0:0:0:0:
450,126,24267,1,0,0:0:0:0:
461,128,24346,1,0,0:0:0:0:
512,61,24426,1,0,0:0:0:0:
503,65,24505,6,0,L|458:326,1,232.500008869171,0|8,0:0|0:0,0:0:0:0:
234,150,24743,1,0,0:0:0:0:
231,144,24822,6,0,B|291:-26|568:40|370:248|325:123,1,348.750013303757
227,15,25140,6,0,L|122:-7,1,77.5,2|0,0:0|0:0,0:0:0:0:
0,281,25299,2,0,P|100:220|65:153,1,116.250004434586
52,98,25457,6,0,L|20:248,1,116.250004434586,8|0,0:0|0:0,0:0:0:0:
57,375,25616,6,0,L|50:356,3,15.5,2|0|0|0,2:0|2:0|2:0|2:0,2:0:0:0:
121,331,25934,5,0,3:0:0:0:
121,331,26013,1,0,3:0:0:0:
182,378,26092,6,0,P|139:288|128:240,1,116.250004434586,6|0,0:0|0:0,0:0:0:0:
227,15,26251,2,0,P|196:95|160:145,1,116.250004434586
0,197,26410,2,0,L|147:181,1,116.250004434586
512,150,26569,1,0,0:0:0:0:
512,150,26648,1,0,0:0:0:0:
512,150,26727,6,0,B|393:144|370:251|451:268|404:366|315:403|251:318|265:214,1,348.750013303757,8|0,0:0|0:0,0:0:0:0:
230,192,27045,2,0,P|309:214|293:304,1,116.250004434586
182,378,27203,2,0,L|213:229,1,116.250004434586,8|0,0:0|0:0,0:0:0:0:
242,96,27362,6,0,L|262:88,1,15.5
227,15,27521,2,0,L|207:7,1,15.5,8|0,0:0|0:0,0:0:0:0:
382,75,27680,6,0,L|82:41,1,232.500008869171
0,0,27918,1,0,0:0:0:0:
6,12,27997,1,8,0:0:0:0:
159,145,28156,6,0,L|169:117,1,15.5,2|0,0:0|0:0,0:0:0:0:
80,0,28315,2,0,L|85:14,1,15.5,2|0,0:0|0:0,0:0:0:0:
273,231,28473,6,0,P|230:66|207:17,1,139.499995742798,2|0,0:0|0:0,0:0:0:0:
512,0,28632,6,0,P|439:121|415:170,1,139.499995742798,2|0,0:0|0:0,0:0:0:0:
421,371,28791,6,0,P|489:371|490:304,1,116.250004434586
356,183,28949,2,0,L|384:292,1,77.5
512,216,29108,2,0,L|403:188,1,77.5
171,250,29267,6,0,B|79:173|19:272|97:345|177:326|240:276|308:186,1,348.750013303757,8|0,0:0|0:0,0:0:0:0:
275,213,29584,6,0,L|258:36,1,100.749995388031
256,0,29743,1,8,0:0:0:0:
360,261,29902,6,0,L|387:254,1,15.5
187,152,30061,2,0,L|159:146,1,15.5,8|0,0:0|0:0,0:0:0:0:
172,0,30219,6,0,L|190:99,1,77.5
129,290,30378,2,0,L|147:190,1,77.5
265,112,30537,5,10,0:0:0:0:
5,107,30695,1,2,0:0:0:0:
0,116,30775,1,0,0:0:0:0:
5,125,30854,6,0,L|134:103,1,108.499996688843
375,257,31013,2,0,L|230:232,1,131.750002512932
0,373,31172,6,0,B|167:381|67:264|274:230|316:373|206:495|98:346|103:339,1,395.250007538796,2|0,0:0|0:0,0:0:0:0:
40,286,31489,6,0,B|45:258|45:258|87:231,2,65.8750012564659
19,0,31648,2,0,B|24:83|78:29|92:144,1,131.750002512932
173,228,31807,6,0,B|191:152|223:198|239:120,1,131.750002512932,8|0,0:0|0:0,0:0:0:0:
189,11,31965,2,0,B|168:38|168:38|180:80,2,65.8750012564659
303,364,32124,6,0,P|287:312|262:265,1,108.499996688843
512,0,32283,2,0,P|497:28|472:76,1,108.499996688843,8|0,0:0|0:0,0:0:0:0:
499,256,32442,6,0,B|559:201|507:121|284:158|353:333,1,263.500005025864,0|8,0:0|0:0,0:0:0:0:
0,0,32759,2,0,L|109:20,1,77.5,2|0,0:0|0:0,0:0:0:0:
187,232,32918,2,0,P|179:157|127:30,1,185.999994323731,0|8,0:0|0:0,0:0:0:0:
395,68,33235,6,0,L|389:88,1,15.5,2|0,0:0|0:0,0:0:0:0:
339,152,33394,2,0,L|345:132,1,15.5,2|0,0:0|0:0,0:0:0:0:
368,1,33553,6,0,L|359:226,1,155
292,384,33711,6,0,B|222:412|155:372|88:323|235:255|67:166|0:244|8:296,1,348.750013303757,2|0,0:0|0:0,0:0:0:0:
4,329,34029,6,0,B|43:338|43:338|71:306,2,77.5
192,174,34188,2,0,B|200:77|234:157|244:3,1,131.750002512932
101,0,34346,5,8,0:0:0:0:
274,165,34505,2,0,L|357:147,1,65.8750012564659
67,309,34664,5,0,0:0:0:0:
140,71,34822,2,0,L|105:186,1,116.250004434586,8|0,0:0|0:0,0:0:0:0:
117,384,34981,6,0,B|289:359|160:268|322:240,1,263.500005025864,0|8,0:0|0:0,0:0:0:0:
512,329,35299,2,0,P|460:375|386:337,1,116.250004434586,2|0,0:0|0:0,0:0:0:0:
512,0,35457,2,0,L|458:306,1,278.999991485596,0|2,0:0|0:0,0:0:0:0:
315,3,35775,6,0,L|349:8,1,31,2|0,1:0|3:0,2:0:0:0:
439,32,36172,1,0,3:0:0:0:
433,36,36251,6,0,B|240:7|304:143|172:142|95:84,1,348.750013303757,6|0,0:0|0:0,0:0:0:0:
0,0,36569,6,0,B|39:15|39:15|50:77,2,77.5
237,284,36727,2,0,B|148:265|195:209|114:175,1,155
188,5,36886,6,0,L|207:8,1,19.375,8|0,0:0|0:0,0:0:0:0:
28,187,37045,2,0,L|8:190,1,19.375
111,95,37203,6,0,L|111:78,2,9.6875
144,375,37362,1,8,0:0:0:0:
133,384,37442,1,0,0:0:0:0:
121,381,37521,6,0,L|114:160,1,201.499990776062,0|8,0:0|0:0,0:0:0:0:
274,93,37838,2,0,P|250:55|265:-19,1,116.250004434586
494,249,37997,2,0,P|419:267|372:205,1,116.250004434586
223,251,38156,6,0,B|351:280|303:102|507:176,1,232.500008869171,10|0,0:0|0:0,0:0:0:0:
478,102,38394,1,0,0:0:0:0:
488,99,38473,6,0,L|495:72,1,23.2499992904663,2|0,0:0|0:0,0:0:0:0:
339,306,38632,2,0,L|346:330,1,23.2499992904663,2|0,0:0|0:0,0:0:0:0:
411,70,38791,6,0,L|206:104,1,139.499995742798,2|0,0:0|0:0,0:0:0:0:
0,0,38949,6,0,L|5:20,1,15.5
239,176,39108,2,0,L|242:160,2,15.5
0,228,39267,6,0,P|49:207|83:175,1,77.5
194,4,39426,2,0,P|170:66|153:151,1,116.250004434586,8|0,0:0|0:0,0:0:0:0:
187,347,39584,5,0,0:0:0:0:
385,325,39743,6,0,L|257:290,1,116.250004434586
0,384,39902,2,0,L|141:365,1,116.250004434586,8|0,0:0|0:0,0:0:0:0:
187,347,40061,6,0,B|220:234|169:112|169:112|206:216|263:233,1,372
329,215,40378,2,0,B|339:267|339:267|256:302,1,124,2|0,0:0|0:0,0:0:0:0:
0,181,40537,6,0,B|-22:23|-22:23|167:-7,1,310,0|2,0:0|0:0,0:0:0:0:
440,178,40854,2,0,B|494:206|561:155|479:7|405:83|397:128|384:178|277:153|262:58|262:58|281:117|353:118,1,465,2|0,0:0|0:0,0:0:0:0:
332,41,41172,6,0,L|339:-11,1,46.4999985809327
238,221,41330,5,6,0:0:0:0:
12,376,41489,6,0,L|0:378,1,7.75
94,359,41648,2,0,L|82:361,1,7.75
175,342,41807,2,0,L|163:344,1,7.75
0,160,41965,5,8,0:0:0:0:
70,192,42124,1,0,0:0:0:0:
83,268,42283,1,0,0:0:0:0:
94,258,42442,5,8,0:0:0:0:
169,241,42600,1,0,0:0:0:0:
178,253,42759,5,8,0:0:0:0:
253,270,42917,1,2,0:0:0:0:
320,231,43076,1,0,0:0:0:0:
330,238,43235,6,0,L|297:391,1,155,0|2,0:0|0:0,0:0:0:0:
412,316,43473,1,0,0:0:0:0:
422,324,43553,6,0,L|401:192,1,116.250004434586
512,0,43711,2,0,L|493:114,1,116.250004434586
481,187,43870,5,0,0:0:0:0:
425,61,44029,5,0,0:0:0:0:
352,34,44188,1,0,0:0:0:0:
304,96,44346,1,0,0:0:0:0:
317,104,44505,5,8,0:0:0:0:
361,168,44664,1,0,0:0:0:0:
330,239,44823,1,0,0:0:0:0:
319,248,44982,5,8,0:0:0:0:
241,244,45141,1,0,0:0:0:0:
230,233,45299,5,8,0:0:0:0:
161,268,45457,1,2,0:0:0:0:
166,345,45616,1,0,0:0:0:0:
177,356,45775,6,0,L|24:371,1,116.250004434586,2|0,0:0|0:0,0:0:0:0:
6,324,45934,6,0,L|19:257,1,38.75,2|0,0:0|0:0,0:0:0:0:
6,324,46092,1,0,0:0:0:0:
6,324,46251,1,0,0:0:0:0:
34,212,46410,5,2,0:0:0:0:
13,2,46727,5,0,0:0:0:0:
65,58,46886,1,0,0:0:0:0:
78,49,47045,5,0,0:0:0:0:
153,34,47203,1,0,0:0:0:0:
200,95,47362,1,0,0:0:0:0:
195,109,47521,5,0,0:0:0:0:
271,97,47680,1,0,0:0:0:0:
281,108,47838,5,8,0:0:0:0:
355,86,47997,1,2,0:0:0:0:
381,13,48156,1,0,0:0:0:0:
395,17,48315,6,0,L|410:203,1,155,8|2,0:0|0:0,0:0:0:0:
442,262,48553,1,0,0:0:0:0:
452,257,48632,6,0,L|320:221,1,116.250004434586
103,211,48791,2,0,L|263:187,1,116.250004434586
287,179,48949,5,2,0:0:0:0:
24,227,49108,5,0,0:0:0:0:
40,301,49267,1,0,0:0:0:0:
7,150,49426,1,0,0:0:0:0:
123,10,49584,5,8,0:0:0:0:
199,31,49743,1,0,0:0:0:0:
69,68,49902,1,0,0:0:0:0:
178,267,50061,5,8,0:0:0:0:
254,246,50220,1,0,0:0:0:0:
280,0,50378,5,8,0:0:0:0:
356,21,50537,1,2,0:0:0:0:
335,97,50695,1,0,0:0:0:0:
512,106,50854,6,0,L|392:134,1,116.250004434586,8|0,0:0|0:0,0:0:0:0:
343,184,51013,6,0,L|324:252,1,58.1250022172929
219,55,51172,2,0,L|203:0,1,58.1250022172929
259,166,51330,6,0,L|278:161,1,11.6249996452332
470,253,51489,5,2,0:0:0:0:
462,253,51568,1,0,0:0:0:0:
454,254,51647,1,0,0:0:0:0:
447,255,51727,1,0,0:0:0:0:
439,256,51806,1,0,0:0:0:0:
432,258,51885,1,0,0:0:0:0:
425,261,51965,1,0,0:0:0:0:
418,263,52044,1,0,0:0:0:0:
411,267,52123,1,0,0:0:0:0:
404,270,52203,1,0,0:0:0:0:
398,274,52282,1,0,0:0:0:0:
392,278,52362,1,0,0:0:0:0:
385,283,52441,1,0,0:0:0:0:
380,288,52520,1,0,0:0:0:0:
374,293,52600,1,0,0:0:0:0:
369,298,52679,1,0,0:0:0:0:
364,304,52758,1,0,0:0:0:0:
360,310,52838,1,0,0:0:0:0:
355,317,52917,1,0,0:0:0:0:
351,323,52996,1,0,0:0:0:0:
348,328,53076,6,0,L|241:340,1,77.5,2|0,0:0|0:0,0:0:0:0:
52,378,53235,1,0,0:0:0:0:
61,384,53315,1,0,0:0:0:0:
72,384,53394,6,0,L|99:264,1,77.5,2|0,0:0|0:0,0:0:0:0:
137,216,53553,1,2,0:0:0:0:
144,218,53632,1,0,0:0:0:0:
151,220,53711,1,0,0:0:0:0:
158,222,53791,1,0,0:0:0:0:
164,225,53870,2,0,L|181:307,1,77.5
0,0,54029,5,2,0:0:0:0:
8,1,54108,1,0,0:0:0:0:
16,3,54187,1,0,0:0:0:0:
24,5,54267,1,0,0:0:0:0:
31,9,54346,1,0,0:0:0:0:
39,12,54425,1,0,0:0:0:0:
45,17,54505,1,0,0:0:0:0:
51,23,54584,1,0,0:0:0:0:
56,30,54663,1,0,0:0:0:0:
60,37,54743,1,0,0:0:0:0:
63,43,54822,1,0,0:0:0:0:
68,51,54902,1,0,0:0:0:0:
73,58,54981,1,0,0:0:0:0:
78,64,55060,1,0,0:0:0:0:
84,69,55140,1,0,0:0:0:0:
91,72,55219,1,0,0:0:0:0:
99,76,55298,1,0,0:0:0:0:
106,78,55378,1,0,0:0:0:0:
114,81,55457,1,0,0:0:0:0:
122,82,55536,1,0,0:0:0:0:
129,82,55616,6,0,L|150:-1,1,77.5,2|0,0:0|0:0,0:0:0:0:
473,38,55775,1,0,0:0:0:0:
465,36,55854,1,0,0:0:0:0:
459,41,55934,6,0,L|481:144,1,77.5,2|0,0:0|0:0,0:0:0:0:
304,321,56092,1,2,0:0:0:0:
305,313,56172,1,0,0:0:0:0:
306,305,56251,1,0,0:0:0:0:
307,297,56330,1,0,0:0:0:0:
308,289,56410,1,0,0:0:0:0:
309,281,56489,1,0,0:0:0:0:
311,273,56569,6,0,L|326:157,1,77.5,2|0,0:1|0:1,0:1:0:0:
247,74,56727,2,0,L|256:150,1,77.5,0|0,0:1|0:1,0:1:0:0:
512,131,56886,6,0,L|374:160,1,131.750002512932,0|0,0:1|0:1,0:1:0:0:
104,233,57045,2,0,L|242:262,1,131.750002512932,0|0,0:1|0:1,0:1:0:0:
356,74,57203,6,0,L|333:-9,1,77.5,8|0,0:1|0:1,0:1:0:0:
512,209,57362,1,0,0:1:0:0:
504,212,57442,1,0,0:1:0:0:
497,215,57521,2,0,L|480:300,1,77.5,0|0,0:1|0:1,0:1:0:0:
66,384,57680,6,0,L|186:297,1,116.250004434586,8|0,0:1|0:1,0:1:0:0:
416,362,57838,2,0,L|280:301,1,116.250004434586,0|0,0:1|0:1,0:1:0:0:
207,66,57997,2,0,L|222:213,1,116.250004434586,8|0,0:1|0:1,0:1:0:0:
232,260,58156,6,0,L|337:237,1,77.5,2|0,0:1|0:1,0:1:0:0:
376,106,58315,2,0,L|287:86,1,77.5,0|0,0:1|0:1,0:1:0:0:
432,213,58473,6,0,L|442:214,1,7.75,8|0,0:1|0:1,0:1:0:0:
510,93,58632,6,0,L|494:118,1,15.5,2|0,0:1|0:1,0:1:0:0:
283,197,58790,2,0,L|309:205,1,15.5,2|0,0:1|0:1,0:1:0:0:
482,334,58949,2,0,L|470:308,1,15.5,2|0,0:1|0:1,0:1:0:0:
432,213,59108,6,0,L|404:315,1,77.5,2|0,0:0|0:0,0:0:0:0:
362,384,59267,2,0,L|334:282,1,77.5
283,197,59426,6,0,L|126:164,1,116.250004434586
0,383,59584,2,0,L|157:350,1,116.250004434586
205,308,59743,6,0,L|187:402,1,77.5,8|0,0:0|0:0,0:0:0:0:
283,91,59902,1,0,0:0:0:0:
275,88,59981,1,0,0:0:0:0:
267,85,60061,2,0,L|252:8,1,77.5
506,52,60219,2,0,L|343:25,1,116.250004434586,8|0,0:0|0:0,0:0:0:0:
30,219,60378,6,0,L|51:216,1,15.5
183,54,60537,2,0,L|156:43,1,15.5,8|0,0:0|0:0,0:0:0:0:
0,0,60695,6,0,B|149:41|36:138|121:242|209:213|241:129,1,348.750013303757,2|0,0:0|0:0,0:0:0:0:
268,31,61013,2,0,L|236:290,1,232.5,8|0,0:0|0:0,0:0:0:0:
246,345,61330,6,0,L|249:384,3,38.75
402,384,61648,6,0,B|465:337|465:337|474:336|474:336|474:333|474:333|528:289|528:289|400:307|400:307|395:303|395:303|389:308|389:308|381:306|381:306|377:311|377:311|166:342,1,465,6|0,0:0|0:0,0:0:0:0:
331,202,61965,2,0,B|379:230|379:230|492:184,1,131.750002512932
245,6,62124,5,0,0:0:0:0:
234,0,62203,1,0,0:0:0:0:
223,4,62283,6,0,L|256:267,1,232.500008869171,8|0,0:0|0:0,0:0:0:0:
232,332,62521,1,0,0:0:0:0:
225,344,62600,2,0,P|162:272|234:272,1,147.249996068001
452,140,62759,2,0,B|354:148|410:84|286:101,1,147.249996068001,8|0,0:0|0:0,0:0:0:0:
0,240,62918,6,0,L|22:235,1,15.5
142,7,63076,2,0,L|126:3,1,15.5,8|0,0:0|0:0,0:0:0:0:
35,384,63235,6,0,L|82:78,1,310,2|0,0:0|0:0,0:0:0:0:
316,98,63473,1,0,0:0:0:0:
312,105,63553,6,0,L|159:128,1,155,8|0,0:0|0:0,0:0:0:0:
20,27,63711,2,0,B|56:-9|56:-9|143:8,1,139.499995742798,2|0,0:0|0:0,0:0:0:0:
330,324,63870,6,0,B|283:270|283:270|321:193,1,139.499995742798,2|0,0:0|0:0,0:0:0:0:
512,0,64029,2,0,L|543:229,1,139.499995742798
511,383,64188,6,0,B|395:320|455:140|455:140|423:250|308:285,1,418.499987228394,6|0,0:0|0:0,0:0:0:0:
313,209,64505,2,0,L|151:239,1,139.499995742798
0,10,64664,1,0,0:0:0:0:
9,0,64743,1,0,0:0:0:0:
22,2,64822,6,0,B|81:232|-34:57|27:329,1,278.999991485596,8|0,0:0|0:0,0:0:0:0:
63,384,65061,1,0,0:0:0:0:
73,384,65140,6,0,L|121:176,1,139.499995742798
188,9,65299,2,0,L|210:159,1,139.499995742798,8|0,0:0|0:0,0:0:0:0:
188,373,65457,6,0,L|166:365,1,15.5
93,6,65616,2,0,L|107:0,1,15.5,8|0,0:0|0:0,0:0:0:0:
313,208,65775,6,0,L|-12:269,1,310
305,0,66092,6,0,L|272:162,1,108.499996688843,8|0,0:0|0:0,0:0:0:0:
241,326,66251,6,0,B|269:365|269:365|257:327,1,69.749997871399,2|0,0:0|0:0,0:0:0:0:
345,283,66569,1,0,0:0:0:0:
0,267,66727,6,0,B|23:358|23:358|308:293,1,348.750013303757,6|0,0:0|0:0,0:0:0:0:
468,341,67045,6,0,B|500:328|500:328|356:311,1,116.250004434586
242,117,67203,1,0,0:0:0:0:
230,115,67283,1,0,0:0:0:0:
223,119,67362,6,0,L|254:286,1,108.499996688843,8|0,0:0|0:0,0:0:0:0:
314,166,67521,2,0,L|333:59,1,108.499996688843
23,171,67680,6,0,L|191:189,1,131.750002512932
512,206,67838,2,0,L|344:224,1,131.750002512932,8|0,0:0|0:0,0:0:0:0:
0,353,67997,6,0,B|174:400|93:247|298:336,1,263.500005025864,0|8,0:0|0:0,0:0:0:0:
316,365,68235,1,0,0:0:0:0:
328,372,68315,6,0,L|303:215,1,131.750002512932,2|0,0:0|0:0,0:0:0:0:
413,15,68473,2,0,L|392:145,1,131.750002512932
222,235,68632,6,0,P|299:163|365:209,1,131.750002512932,8|0,0:0|0:0,0:0:0:0:
511,205,68791,6,0,L|491:367,1,162.749995033264,2|0,0:0|0:0,0:0:0:0:
423,341,68949,2,0,L|439:226,1,116.250004434586,2|0,0:0|0:0,0:0:0:0:
365,243,69108,2,0,L|356:313,1,69.749997871399,2|0,0:0|0:0,0:0:0:0:
0,157,69267,6,0,B|35:13|210:0|210:0|233:106,1,348.750013303757,2|0,0:0|0:0,0:0:0:0:
234,139,69584,6,0,P|219:164|227:134,1,85.2500026016236
269,357,69902,6,0,B|126:353|48:226|141:104|141:104|98:187|197:254,1,465,8|0,0:0|0:0,0:0:0:0:
234,139,70219,6,0,B|345:120|345:120|352:122|352:122|357:118|357:118|426:103,1,155,0|8,0:0|0:0,0:0:0:0:
512,0,70537,5,0,0:0:0:0:
473,241,70854,1,0,0:0:0:0:
500,11,71172,5,0,0:0:0:0:
465,226,71489,1,0,0:0:0:0:
489,19,71807,6,0,L|263:54,1,174.375006651879,6|0,0:0|0:0,0:0:0:0:
232,0,71965,2,0,B|219:42|219:42|266:91,2,87.1875033259393
0,300,72124,6,0,L|12:358,2,60.0625004582405
388,126,72283,2,0,L|210:156,1,155
0,187,72442,6,0,B|210:148|38:294|352:205,1,310,8|0,0:0|0:0,0:0:0:0:
424,0,72759,6,0,L|418:38,2,29.0625011086464
412,375,72918,1,8,0:0:0:0:
424,384,72997,1,0,0:0:0:0:
439,384,73076,6,0,L|482:65,1,310,0|8,0:0|0:0,0:0:0:0:
0,45,73394,2,8,B|210:-9|210:-9|250:133,1,310,2|0,3:0|0:0,0:0:0:0:
235,151,73632,1,0,0:0:0:0:
239,163,73711,6,0,B|239:210|197:227|197:227|194:162|275:146,1,155,8|0,0:0|0:0,0:0:0:0:
293,0,73870,2,0,L|316:4,1,19.375,2|0,0:0|0:0,0:0:0:0:
464,366,74029,6,0,L|460:348,1,19.375,2|0,0:0|0:0,0:0:0:0:
398,20,74188,2,0,L|394:2,1,19.375,2|0,0:0|0:0,0:0:0:0:
512,278,74346,6,0,B|437:212|413:102|413:102|427:214|381:313,1,418.499987228394,2|0,0:0|0:0,0:0:0:0:
322,356,74664,2,0,L|235:333,2,69.749997871399
0,381,74822,2,0,L|188:347,1,139.499995742798
236,80,74981,6,0,B|196:58|149:-34|149:-34|228:123|201:256,1,418.499987228394,8|0,0:0|0:0,0:0:0:0:
188,300,75299,2,0,L|189:308,2,5.81249982261658
309,109,75457,6,0,B|335:32|335:32|248:7,1,155,8|0,0:0|0:0,0:0:0:0:
6,274,75616,2,0,L|160:247,1,116.250004434586
374,213,75775,1,8,0:0:0:0:
7,114,75934,6,0,B|189:58|112:182|335:99,1,310,2|0,0:0|0:0,0:0:0:0:
418,0,76172,1,0,0:0:0:0:
425,9,76251,6,0,L|388:151,1,116.250004434586,10|0,0:0|0:0,0:0:0:0:
512,262,76410,6,0,L|492:267,1,15.5,2|0,0:0|0:0,0:0:0:0:
486,187,76569,2,0,L|455:173,1,27.1249991722107
425,353,76727,1,0,0:0:0:0:
425,353,76807,1,0,0:0:0:0:
425,353,76886,6,0,B|316:445|168:310|304:211|340:323,1,294.499992136002,2|0,0:0|0:0,0:0:0:0:
197,361,77124,1,0,0:0:0:0:
193,370,77203,6,0,B|137:384|137:384|88:329,1,116.250004434586
212,0,77362,2,0,L|185:158,1,155
5,204,77521,2,0,L|365:151,1,310,8|0,0:0|0:0,0:0:0:0:
495,108,77759,1,0,0:0:0:0:
490,114,77838,6,0,P|420:85|416:45,1,104.625000399113
343,94,77997,2,0,P|357:12|432:-9,1,155,8|0,0:0|0:0,0:0:0:0:
512,214,78156,6,0,B|318:175|454:337|192:278,1,310,0|8,0:0|0:0,0:0:0:0:
15,318,78473,2,0,B|88:282|144:129|144:129|107:295|162:375,1,465,2|0,0:0|0:0,0:0:0:0:
72,373,78791,5,10,0:0:0:0:
20,192,78949,6,0,L|0:198,1,15.5,2|0,0:0|0:0,0:0:0:0:
177,4,79108,2,0,L|162:0,1,15.5,2|0,0:0|0:0,0:0:0:0:
0,96,79267,6,0,L|91:113,1,77.5,2|0,0:0|0:0,0:0:0:0:
312,159,79426,5,2,0:0:0:0:
283,384,79584,6,0,L|323:206,1,155
447,59,79743,6,0,L|469:66,2,13.5624995861054
158,268,79902,2,0,P|224:232|248:205,1,100.749995388031
512,155,80061,6,0,L|359:195,1,139.499995742798,8|0,0:0|0:0,0:0:0:0:
121,55,80219,2,0,L|274:95,1,139.499995742798
312,159,80378,5,0,0:0:0:0:
354,29,80537,6,0,B|316:-5|316:-5|343:105,1,139.499995742798,8|0,0:0|0:0,0:0:0:0:
256,363,80695,6,0,B|342:378|342:378|384:152,1,278.999991485596,0|8,0:0|0:0,0:0:0:0:
0,149,81013,2,0,B|41:138|41:138|47:128|47:128|71:128|71:128|194:94|147:248|332:149,1,341.000010406494,2|0,0:0|0:0,0:0:0:0:
336,80,81251,1,0,0:0:0:0:
327,67,81330,6,0,B|314:40|320:4|320:4|315:67|234:128,1,170.500005203247,2|0,0:0|0:0,0:0:0:0:
135,0,81489,2,0,L|239:14,1,100.749995388031,2|0,0:0|0:0,0:0:0:0:
377,189,81648,6,0,L|384:160,1,23.2499992904663
454,147,81807,2,0,L|459:169,1,23.2499992904663
387,271,81965,6,0,P|343:96|458:158,1,406.87501552105,2|0,0:0|0:0,0:0:0:0:
510,96,82283,5,0,0:0:0:0:
508,82,82362,1,0,0:0:0:0:
497,67,82442,1,0,0:0:0:0:
494,53,82521,1,0,0:0:0:0:
484,41,82600,6,0,L|348:13,1,116.250004434586,8|0,0:0|0:0,0:0:0:0:
244,0,82759,2,0,L|225:98,1,77.5
213,150,82918,2,0,L|-11:114,1,116.250004434586
3,361,83076,6,0,L|185:335,1,155,8|0,0:0|0:0,0:0:0:0:
317,282,83235,2,0,L|143:246,1,155
72,232,83394,6,0,L|76:259,1,15.5,8|0,0:0|0:0,0:0:0:0:
237,367,83553,2,0,L|239:351,1,15.5,2|0,0:0|0:0,0:0:0:0:
308,200,83711,1,0,0:0:0:0:
320,199,83791,1,0,0:0:0:0:
332,197,83870,6,0,L|359:193,1,15.5,8|0,0:0|0:0,0:0:0:0:
398,140,84029,2,0,L|421:151,1,15.5,2|0,0:0|0:0,0:0:0:0:
429,8,84188,2,0,L|435:34,1,15.5,2|0,0:0|0:0,0:0:0:0:
492,67,84347,2,0,L|483:91,1,15.5,2|0,0:0|0:0,0:0:0:0:
432,384,84505,6,0,P|330:299|474:260,1,348.750013303757
473,259,84822,6,0,L|453:322,1,58.1250022172929
272,224,84981,2,0,L|260:154,1,58.1250022172929
303,44,85140,6,0,L|273:51,1,19.375,8|0,0:0|0:0,0:0:0:0:
229,4,85299,2,0,L|198:-3,1,19.375
157,47,85457,2,0,L|128:56,1,19.375
86,0,85616,6,0,L|105:126,1,116.250004434586,8|0,0:0|0:0,0:0:0:0:
17,147,85775,2,0,L|-2:273,1,116.250004434586
108,270,85934,2,0,L|127:396,1,116.250004434586,8|0,0:0|0:0,0:0:0:0:
202,348,86092,6,0,B|234:372|234:372|301:366,1,77.5,2|0,0:0|0:0,0:0:0:0:
301,111,86251,2,0,L|265:250,1,116.250004434586
336,278,86410,6,0,B|360:246|360:246|354:179,1,77.5,2|0,0:0|0:0,0:0:0:0:
205,170,86569,2,0,B|181:202|181:202|187:269,1,77.5,2|0,0:0|0:0,0:0:0:0:
379,134,86727,6,0,L|472:115,1,77.5
450,197,86886,2,0,L|527:214,1,77.5
510,13,87045,6,0,B|404:-15|430:116|238:4,1,232.5,2|0,0:0|0:0,0:0:0:0:
208,9,87362,5,0,0:0:0:0:
196,12,87442,1,0,0:0:0:0:
190,22,87521,1,0,0:0:0:0:
180,28,87600,1,0,0:0:0:0:
168,28,87680,6,0,L|66:10,1,58.1250022172929,8|0,0:0|0:0,0:0:0:0:
0,92,87838,2,0,L|81:70,1,58.1250022172929
103,139,87997,2,0,L|85:289,1,116.250004434586
193,384,88156,6,0,L|163:180,1,155,8|0,0:0|0:0,0:0:0:0:
254,209,88315,2,0,L|271:119,1,77.5
213,51,88473,6,0,L|205:-12,1,42.6250013008118,8|0,0:0|0:0,0:0:0:0:
353,76,88632,2,0,L|387:34,1,42.6250013008118,2|0,0:0|0:0,0:0:0:0:
502,209,88791,1,0,0:0:0:0:
502,209,88870,1,0,0:0:0:0:
502,209,88949,6,0,L|366:184,1,116.250004434586
283,372,89108,6,0,L|349:358,1,42.6250013008118
333,279,89267,2,0,L|383:293,1,42.6250013008118
420,382,89426,2,0,L|432:332,1,42.6250013008118
387,187,89584,6,0,L|330:174,1,42.6250013008118,2|0,0:0|0:0,0:0:0:0:
245,230,89743,2,0,L|302:217,1,42.6250013008118
437,126,89902,6,0,L|419:29,1,77.5
512,0,90061,2,0,L|498:91,1,77.5
366,0,90219,6,0,L|228:26,1,116.250004434586,8|0,0:0|0:0,0:0:0:0:
221,91,90378,2,0,L|77:56,1,116.250004434586
43,112,90537,2,0,L|64:205,1,77.5
12,240,90695,2,0,L|-9:325,1,77.5,8|0,0:0|0:0,0:0:0:0:
45,371,90854,6,0,L|120:358,1,58.1250022172929
471,297,91013,2,0,L|400:279,1,58.1250022172929,8|0,0:0|0:0,0:0:0:0:
186,384,91172,6,0,L|155:247,1,116.250004434586,2|0,0:0|0:0,0:0:0:0:
362,172,91330,2,0,L|333:315,1,116.250004434586
255,329,91489,6,0,L|259:302,1,15.5,10|0,0:0|0:0,0:0:0:0:
253,0,91648,2,0,L|256:22,1,15.5,2|0,0:0|0:0,0:0:0:0:
264,240,91807,5,0,0:0:0:0:
237,89,91965,1,0,0:0:0:0:
261,162,92124,5,0,0:0:0:0:
256,163,92203,1,0,0:0:0:0:
251,164,92283,1,0,0:0:0:0:
247,166,92362,1,0,0:0:0:0:
243,169,92442,1,0,0:0:0:0:
240,172,92521,1,0,0:0:0:0:
236,175,92600,1,0,0:0:0:0:
232,177,92680,1,0,0:0:0:0:
227,178,92759,1,0,0:0:0:0:
222,179,92838,1,0,0:0:0:0:
217,179,92918,1,0,0:0:0:0:
212,178,92997,1,0,0:0:0:0:
207,177,93076,1,0,0:0:0:0:
202,175,93156,1,0,0:0:0:0:
198,172,93235,1,0,0:0:0:0:
194,168,93315,1,0,0:0:0:0:
189,166,93394,6,0,L|122:182,3,58.1250022172929
85,240,93711,2,0,L|103:303,1,58.1250022172929
145,101,93870,2,0,L|160:45,1,58.1250022172929
69,144,94029,6,0,L|12:157,3,58.1250022172929
251,204,94346,2,0,L|307:217,3,58.1250022172929
431,279,94664,5,0,0:0:0:0:
421,264,94743,1,0,0:0:0:0:
417,247,94822,1,0,0:0:0:0:
421,229,94902,1,0,0:0:0:0:
431,214,94981,1,0,0:0:0:0:
444,203,95061,1,0,0:0:0:0:
454,189,95140,1,0,0:0:0:0:
460,173,95219,1,0,0:0:0:0:
462,155,95299,1,0,0:0:0:0:
457,138,95378,1,0,0:0:0:0:
447,123,95457,1,0,0:0:0:0:
433,111,95537,1,0,0:0:0:0:
417,103,95616,1,0,0:0:0:0:
400,99,95695,1,0,0:0:0:0:
383,103,95775,1,0,0:0:0:0:
368,112,95854,1,0,0:0:0:0:
357,126,95934,6,0,L|287:144,2,58.1250022172929
249,82,96172,2,0,L|235:26,2,58.1250022172929
165,0,96410,2,0,L|108:14,1,58.1250022172929
51,64,96569,5,0,0:0:0:0:
51,64,96648,1,0,0:0:0:0:
51,64,96727,2,0,L|35:135,1,58.1250022172929
118,167,96886,1,0,0:0:0:0:
118,167,96965,1,0,0:0:0:0:
118,167,97044,2,0,L|134:238,1,58.1250022172929
40,281,97203,6,0,L|223:309,1,116.250004434586,2|0,0:0|0:0,0:0:0:0:
423,325,97362,2,0,L|280:357,1,116.250004434586
239,384,97521,6,0,L|226:306,1,58.1250022172929
293,38,97680,1,0,0:0:0:0:
293,38,97759,1,0,0:0:0:0:
293,38,97838,6,0,B|313:70|313:70|280:169,1,116.250004434586,8|0,0:0|0:0,0:0:0:0:
290,270,97997,6,0,L|356:253,1,58.1250022172929
512,264,98156,2,0,L|464:215,1,58.1250022172929
395,74,98315,2,0,L|376:139,1,58.1250022172929,8|0,0:0|0:0,0:0:0:0:
400,201,98473,6,0,L|402:211,1,7.75
510,25,98632,1,8,0:0:0:0:
512,13,98711,1,0,0:0:0:0:
504,4,98791,6,0,L|361:25,1,116.250004434586
177,21,98949,2,0,L|320:42,1,116.250004434586
423,354,99108,6,0,L|397:182,1,155,8|0,0:0|0:0,0:0:0:0:
187,95,99267,6,0,P|191:151|159:196,1,77.5
245,210,99426,2,0,P|198:241|143:236,1,77.5,0|0,0:0|0:0,0:0:0:0:
174,317,99584,2,0,P|123:292|100:242,1,77.5,0|0,0:0|0:0,0:0:0:0:
15,384,99743,6,0,L|41:222,1,155,2|0,0:0|0:0,0:0:0:0:
1,4,99981,2,0,L|42:186,1,155
107,185,100220,2,0,L|199:166,1,77.5
226,110,100378,6,0,B|276:87|296:41|296:41|285:92|310:140,1,201.499990776062,8|0,0:0|0:0,0:0:0:0:
512,163,100616,2,0,B|461:185|441:231|441:231|452:180|427:132,1,201.499990776062
371,75,100854,2,0,L|403:-23,1,100.749995388031,8|0,0:0|0:0,0:0:0:0:
464,370,101013,6,0,B|311:338|311:338|330:237,1,232.500008869171,0|8,0:0|0:0,0:0:0:0:
369,192,101251,2,0,B|236:147|290:303|95:206,1,232.500008869171
90,182,101489,2,0,B|109:150|100:124|100:124|120:163|185:151,1,116.250004434586
153,230,101648,6,0,L|138:314,1,77.5,8|0,0:0|0:0,0:0:0:0:
42,76,101965,2,0,L|29:0,1,77.5
425,123,102283,6,0,B|497:133|530:57|530:57|470:-13|264:48|280:276,1,488.249985099793,6|0,0:0|0:0,0:0:0:0:
310,281,102600,6,0,B|276:298|276:298|238:274,2,77.5
189,0,102759,2,0,L|214:197,1,155
0,384,102918,6,0,B|70:311|74:188|74:188|75:258|128:279,1,310,8|0,0:0|0:0,0:0:0:0:
150,203,103156,1,0,0:0:0:0:
150,203,103235,2,0,L|323:172,1,155
510,0,103394,6,0,B|477:138|477:138|219:78,1,395.250007538796,8|0,0:0|0:0,0:0:0:0:
149,58,103711,6,0,B|163:107|131:132|131:132|114:94|150:54,1,155,8|0,0:0|0:0,0:0:0:0:
0,384,103870,6,0,B|94:391|184:344|150:204|150:204|169:280|105:310,1,395.250007538796,2|0,0:0|0:0,0:0:0:0:
80,240,104188,5,8,0:0:0:0:
80,240,104505,6,0,P|52:224|-2:223,1,65.8750012564659
28,142,104664,2,0,P|-2:146|-36:172,1,65.8750012564659
373,183,104822,6,0,B|277:232|235:363|235:363|268:236|219:112,1,465,6|0,0:0|0:0,0:0:0:0:
337,6,105140,6,0,L|299:151,1,116.250004434586
419,376,105299,2,0,L|392:246,1,116.250004434586
233,50,105457,6,0,B|116:32|160:153|15:113,1,232.500008869171,8|0,0:0|0:0,0:0:0:0:
4,44,105695,1,0,0:0:0:0:
4,44,105775,2,0,P|44:9|63:60,1,116.250004434586
194,367,105934,6,0,B|259:44|285:312|349:-56,1,395.250007538796,8|0,0:0|0:0,0:0:0:0:
217,0,106251,2,0,P|227:20|237:86,1,65.8750012564659,8|0,0:0|0:0,0:0:0:0:
274,364,106410,2,0,P|350:213|509:73,1,317.75000484848,2|0,0:0|0:0,0:0:0:0:
153,41,106727,5,8,0:0:0:0:
153,41,107045,6,0,L|82:54,1,58.1250022172929
0,5,107203,2,0,L|11:75,1,58.1250022172929
33,280,107362,6,0,B|11:331|11:331|5:334|5:334|6:353|6:353|-8:390|-8:390|208:324|112:99,1,465,6|0,0:0|0:0,0:0:0:0:
153,41,107680,6,0,B|192:34|233:-4|233:-4|199:38|215:112,1,155
512,0,107838,2,0,L|325:37,1,155
287,48,107997,6,0,B|303:181|303:181|298:191|298:191|319:370,1,310,8|0,0:0|0:0,0:0:0:0:
387,378,108235,1,0,0:0:0:0:
387,378,108315,2,0,B|473:395|473:395|441:392|403:357,1,155
10,265,108473,6,0,B|20:85|243:16|289:151|216:276|84:189,1,465,8|0,0:0|0:0,0:0:0:0:
117,194,108791,5,8,0:0:0:0:
339,12,108949,2,0,B|314:164|314:164|305:171|305:171|274:383,1,372,2|0,0:0|0:0,0:0:0:0:
193,371,109267,6,0,B|102:386|102:386|74:354,1,124,10|0,0:0|0:0,0:0:0:0:
0,77,109426,2,0,B|44:118|44:118|22:224,1,155,2|0,0:0|0:0,0:0:0:0:
5,295,109584,6,0,L|219:255,1,162.749995033264,2|0,0:0|0:0,0:0:0:0:
210,0,109743,2,0,L|228:182,1,162.749995033264,2|0,0:0|0:0,0:0:0:0:
365,377,109902,6,0,B|536:339|497:144|497:144|430:162|430:162|425:168|425:168|270:210,1,488.249985099793,6|0,0:0|0:0,0:0:0:0:
226,161,110219,2,0,B|320:136|323:57|282:42|251:88|284:113,1,162.749995033264
0,0,110378,2,0,B|25:94|104:97|119:56|73:25|48:58,1,162.749995033264
210,0,110537,6,0,P|117:172|73:351,1,325.499990066529,8|0,0:0|0:0,0:0:0:0:
111,366,110775,1,0,0:0:0:0:
111,366,110854,2,0,P|203:368|174:282,1,162.749995033264
512,133,111013,6,0,B|383:14|222:57|173:212|288:311|438:169|390:151,1,488.249985099793,8|0,0:0|0:0,0:0:0:0:
499,0,111330,6,0,P|461:-8|430:21,1,58.1250022172929,8|0,0:0|0:0,0:0:0:0:
362,384,111489,2,0,P|462:297|471:192,1,232.500008869171,2|0,0:0|0:0,0:0:0:0:
331,0,111807,5,8,0:0:0:0:
331,0,112124,6,0,L|263:15,1,58.1250022172929
222,66,112283,2,0,L|230:123,1,58.1250022172929
0,157,112442,6,0,B|184:154|59:293|314:271,1,310,6|0,0:0|0:0,0:0:0:0:
342,235,112680,1,0,0:0:0:0:
350,230,112759,6,0,L|354:216,2,9.6875
512,9,112918,2,0,L|509:0,2,9.6875
412,384,113076,6,0,B|433:234|433:234|438:228|438:228|461:54,1,310,8|0,0:0|0:0,0:0:0:0:
340,135,113315,1,0,0:0:0:0:
351,130,113394,6,0,P|371:64|349:0,1,139.499995742798
16,310,113553,2,0,P|107:354|172:333,1,170.500005203247,8|0,0:0|0:0,0:0:0:0:
40,153,113711,2,0,B|236:112|155:289|359:227,1,341.000010406494,0|8,0:0|0:0,0:0:0:0:
415,189,113949,1,0,0:0:0:0:
427,186,114029,6,0,L|462:6,1,170.500005203247,2|0,0:0|0:0,0:0:0:0:
493,364,114188,2,0,L|287:389,1,170.500005203247
248,353,114346,2,0,L|232:224,1,85.2500026016236,10|0,0:0|0:0,0:0:0:0:
168,221,114505,6,0,L|144:225,1,23.2499992904663,2|0,0:0|0:0,0:0:0:0:
93,298,114664,2,0,L|115:301,1,23.2499992904663,2|0,0:0|0:0,0:0:0:0:
222,154,114822,6,0,L|199:-10,1,155,2|0,0:0|0:0,0:0:0:0:
372,0,114981,6,0,B|337:157|337:157|341:166|341:166|299:337,1,310,6|0,0:0|0:0,0:0:0:0:
255,364,115219,1,0,0:0:0:0:
245,356,115299,2,0,L|221:350,1,23.2499992904663
170,203,115457,2,0,L|112:216,1,54.2499983444214
6,279,115616,6,0,L|175:296,1,155,8|0,0:0|0:0,0:0:0:0:
81,0,115775,2,0,L|59:180,1,155
452,212,115933,6,0,B|538:163|526:75|526:75|335:76|302:323,1,465
237,268,116251,2,0,B|258:343|258:343|168:373,1,155
160,294,116410,1,8,0:0:0:0:
160,294,116489,1,0,0:0:0:0:
160,294,116569,6,0,P|172:188|198:141,1,155,2|0,0:0|0:0,0:0:0:0:
156,34,116727,2,0,P|173:93|153:183,1,155
79,147,116886,6,0,L|51:155,1,23.2499992904663,10|0,0:0|0:0,0:0:0:0:
9,221,117045,2,0,L|32:228,1,23.2499992904663,2|0,0:0|0:0,0:0:0:0:
500,32,117203,6,0,P|488:87|443:122,1,116.250004434586
484,199,117362,2,0,P|402:197|356:129,1,170.500005203247
250,0,117521,6,0,B|316:166|248:356|248:356|285:258|373:222,1,511.500015609742,6|0,0:0|0:0,0:0:0:0:
508,311,117838,2,0,B|487:377|487:377|340:342,1,170.500005203247
12,136,117997,2,0,L|206:97,1,170.500005203247
53,300,118156,6,0,L|30:217,1,77.5,8|0,0:0|0:0,0:0:0:0:
114,18,118315,1,0,0:0:0:0:
114,18,118394,1,0,0:0:0:0:
114,18,118473,2,0,L|97:106,1,77.5
5,368,118632,2,0,L|20:366,2,11.6249996452332,8|0|0,0:0|0:0|0:0,0:0:0:0:
345,371,118791,6,0,L|178:341,1,155
0,78,118949,2,0,L|49:278,1,155,8|0,0:0|0:0,0:0:0:0:
87,384,119108,6,0,B|157:299|127:180|127:180|170:269|239:273,1,356.500006799698,2|0,0:0|0:0,0:0:0:0:
280,222,119346,1,0,0:0:0:0:
280,222,119426,6,0,L|450:193,1,147.249996068001,10|0,0:0|0:0,0:0:0:0:
483,0,119584,2,0,B|509:94|468:50|497:158,1,147.249996068001,2|0,0:0|0:0,0:0:0:0:
471,384,119743,6,0,L|505:180,1,170.500005203247,2|0,0:0|0:0,0:0:0:0:
197,0,119902,2,0,B|372:13|249:52|446:59,1,232.500008869171,2|0,0:0|0:0,0:0:0:0:
288,384,120061,6,0,B|22:327|65:63|127:40|261:123|209:259,1,581.250022172929,6|0,0:0|0:0,0:0:0:0:
90,359,120378,6,0,B|8:378|8:378|-25:231,1,193.75
241,0,120537,2,0,L|221:60,1,58.1250022172929
248,11,120616,2,0,L|221:83,1,58.1250022172929
262,8,120695,6,0,B|363:13|306:62|408:70,1,155,8|0,0:0|0:0,0:0:0:0:
506,51,120854,2,0,B|487:-20|487:-20|401:-5,1,155
339,133,121013,6,0,L|359:314,1,155
433,146,121172,2,0,L|411:139,2,13.5624995861054,8|0|0,0:0|0:0|0:0,0:0:0:0:
290,359,121330,2,0,L|312:352,2,13.5624995861054
499,310,121489,2,0,L|411:328,1,77.5,8|0,0:0|0:0,0:0:0:0:
0,297,121648,6,0,B|137:246|78:347|236:293,1,232.500008869171
263,233,121886,1,0,0:0:0:0:
269,229,121965,6,0,L|286:132,1,77.5,8|0,0:0|0:0,0:0:0:0:
253,0,122124,6,0,B|196:18|196:18|218:115,1,155
282,67,122600,5,0,0:0:0:0:
