osu file format v14

[General]
AudioFilename: audio.mp3
AudioLeadIn: 0
PreviewTime: 85087
Countdown: 0
SampleSet: Normal
StackLeniency: 0.7
Mode: 3
LetterboxInBreaks: 0
SpecialStyle: 0
WidescreenStoryboard: 1

[Editor]
Bookmarks: 11551,12627,17408,26252,27149,30137,32826,34320,39101,42328,43165,48973,49929,53127,56283,57598,58853,69490,72000,74152,77379,81323,85387,96144,102000,103793,111562,112638,119809,127219,128116,131104,133793,135287,140068,150586
DistanceSpacing: 0.8
BeatDivisor: 4
GridSize: 8
TimelineZoom: 3.099999

[Metadata]
Title:Choukousoku Henbyoushi no Alien
TitleUnicode:超高速変拍子のエイリアン
Artist:mu_akaru
ArtistUnicode:耀 むー
Creator:MJH
Version:Insane
Source:東方星蓮船 ~ Undefined Fantastic Object.
Tags:Akaru Moo Muu MJHs ニコニコ動画 Niconico Douga NND 東方project 東方 Touhou Project 星蓮船 Seirensen th12 UFO 封獣ぬえ Houjuu Nue theme 平安のエイリアン Heian no Alien ZUN 上海アリス幻樂団 Team Shanghai Alice video game electronic instrumental remix arrange D&B DnB D'n'B drum'n'bass drum and bass breakbeats drumstep breakcore
BeatmapID:2744039
BeatmapSetID:1324800

[Difficulty]
HPDrainRate:8.2
CircleSize:5
OverallDifficulty:8
ApproachRate:5
SliderMultiplier:1.4
SliderTickRate:1

[Events]
//Background and Video events
0,0,"henbyousi.jpg",0,0
//Break Periods
//Storyboard Layer 0 (Background)
//Storyboard Layer 1 (Fail)
//Storyboard Layer 2 (Pass)
//Storyboard Layer 3 (Foreground)
//Storyboard Layer 4 (Overlay)
//Storyboard Sound Samples

[TimingPoints]
1033,239.044,4,1,1,53,1,0
3782,239.044,4,1,1,53,1,0
7487,239.044,3,1,1,53,1,0
8204,239.044,4,1,1,53,1,0
9160,239.044,6,1,1,53,1,0
11551,239.044,5,1,1,53,1,0
12627,239.044,6,1,1,53,1,0
15376,239.044,4,1,1,53,1,0
16332,239.044,5,1,1,53,1,0
17408,239.044,6,1,1,53,1,0
18842,239.044,4,1,1,53,1,0
22427,239.044,7,1,1,53,1,0
23144,239.044,4,1,1,53,1,0
25056,239.044,3,1,1,53,1,0
26252,239.044,4,1,1,53,1,0
27149,239.044,4,1,1,53,1,0
28045,239.044,4,1,1,53,1,0
28941,239.044,3,1,1,53,1,0
30137,239.044,4,1,1,53,1,0
31033,239.044,4,1,1,53,1,0
31929,239.044,4,1,1,53,1,0
32826,239.044,5,1,1,53,1,0
33961,239.044,4,1,1,53,1,1
34320,239.044,4,1,1,53,1,1
37188,239.044,5,1,1,53,1,1
39101,239.044,4,1,1,53,1,1
41491,239.044,4,1,1,53,1,0
42328,239.044,4,1,1,53,1,0
43165,239.044,4,1,1,53,1,0
44001,251.046,4,1,1,53,1,0
44001,-95.21913303,4,1,1,53,0,0
44252,239.044,4,1,1,20,1,8
44969,239.044,4,1,1,20,1,0
45865,239.044,4,1,1,20,1,0
46821,239.044,5,1,1,20,1,0
48813,239.044,4,1,1,20,1,0
48973,239.044,4,1,1,20,1,8
49546,239.044,4,1,1,20,1,0
49929,239.044,4,1,1,20,1,8
50228,239.044,4,1,1,20,1,0
50856,239.044,3,1,1,20,1,0
53127,231.66,4,1,1,20,1,8
53127,-103.1873542,4,1,1,20,0,0
53474,239.044,3,1,1,40,1,0
56283,239.044,3,1,1,40,1,0
57598,239.044,3,1,1,40,1,0
58853,239.044,4,1,1,40,1,0
61721,-100,4,1,1,30,0,0
68414,239.044,3,1,1,30,1,0
69490,239.044,3,1,1,30,1,0
70685,239.044,3,1,1,30,1,0
72000,239.044,3,1,1,30,1,0
74152,239.044,4,1,1,30,1,0
74988,239.044,3,1,1,30,1,0
75705,239.044,4,1,1,30,1,0
76661,239.044,3,1,1,30,1,0
77379,239.044,5,1,1,30,1,0
78454,239.044,3,1,1,30,1,0
79171,239.044,5,1,1,30,1,0
81323,239.044,6,1,1,30,1,0
84191,239.044,4,1,1,30,1,0
85147,-100,4,1,1,53,0,0
85387,239.044,4,1,1,53,1,0
89331,239.044,4,1,1,53,1,0
93275,239.044,3,1,1,53,1,0
96144,239.044,4,1,1,53,1,0
97219,239.044,3,1,1,53,1,0
98414,239.044,3,1,1,53,1,0
102000,239.044,4,1,1,53,1,0
103793,239.044,4,1,1,53,1,0
107498,239.044,3,1,1,53,1,0
108215,239.044,4,1,1,53,1,0
109171,239.044,6,1,1,53,1,0
111562,239.044,5,1,1,53,1,0
112638,239.044,6,1,1,53,1,0
115387,239.044,4,1,1,53,1,0
116343,239.044,5,1,1,53,1,0
117418,239.044,5,1,1,53,1,0
119809,239.044,4,1,1,53,1,0
123394,239.044,4,1,1,53,1,0
124111,239.044,4,1,1,53,1,0
126023,239.044,3,1,1,53,1,0
127219,239.044,4,1,1,53,1,0
128116,239.044,4,1,1,53,1,0
129012,239.044,4,1,1,53,1,0
129908,239.044,3,1,1,53,1,0
131104,239.044,4,1,1,53,1,0
132000,239.044,4,1,1,53,1,0
132896,239.044,4,1,1,53,1,0
133793,239.044,5,1,1,53,1,0
134928,239.044,4,1,1,53,1,1
135287,239.044,4,1,1,53,1,1
138155,239.044,5,1,1,53,1,1
140068,239.044,4,1,1,53,1,1
142936,-100,4,1,1,60,0,0
150586,305.344,6,1,1,60,1,0
150586,-78.28672733,6,1,1,60,0,0
152418,239.044,4,1,1,60,1,0

[HitObjects]
358,192,1033,5,0,0:0:0:0:
358,192,1272,1,0,0:0:0:0:
358,192,1511,1,0,0:0:0:0:
256,192,1690,1,0,0:0:0:0:
51,192,1690,1,0,0:0:0:0:
358,192,1750,1,0,0:0:0:0:
256,192,1989,1,0,0:0:0:0:
460,192,1989,1,0,0:0:0:0:
51,192,2228,1,0,0:0:0:0:
153,192,2228,1,0,0:0:0:0:
358,192,2228,1,0,0:0:0:0:
460,192,2467,1,0,0:0:0:0:
51,192,2586,1,0,0:0:0:0:
256,192,2586,1,0,0:0:0:0:
153,192,2706,1,0,0:0:0:0:
358,192,2706,1,0,0:0:0:0:
460,192,2706,1,0,0:0:0:0:
256,192,2945,1,0,0:0:0:0:
460,192,2945,1,0,0:0:0:0:
51,192,3184,1,0,0:0:0:0:
153,192,3184,1,0,0:0:0:0:
358,192,3184,1,0,0:0:0:0:
51,192,3423,1,0,0:0:0:0:
256,192,3423,1,0,0:0:0:0:
153,192,3542,1,0,0:0:0:0:
358,192,3542,1,0,0:0:0:0:
460,192,3542,1,0,0:0:0:0:
51,192,3662,1,0,0:0:0:0:
256,192,3782,1,0,0:0:0:0:
460,192,3782,1,0,0:0:0:0:
51,192,4021,1,0,0:0:0:0:
153,192,4021,1,0,0:0:0:0:
358,192,4021,1,0,0:0:0:0:
460,192,4260,1,0,0:0:0:0:
51,192,4379,1,0,0:0:0:0:
256,192,4379,1,0,0:0:0:0:
153,192,4499,1,0,0:0:0:0:
358,192,4499,1,0,0:0:0:0:
460,192,4499,1,0,0:0:0:0:
51,192,4618,1,0,0:0:0:0:
460,192,4738,1,0,0:0:0:0:
256,192,4738,1,0,0:0:0:0:
358,192,4977,1,0,0:0:0:0:
153,192,4977,1,0,0:0:0:0:
51,192,4977,1,0,0:0:0:0:
460,192,5216,1,0,0:0:0:0:
51,192,5335,1,0,0:0:0:0:
256,192,5335,1,0,0:0:0:0:
460,192,5455,1,0,0:0:0:0:
358,192,5455,1,0,0:0:0:0:
153,192,5455,1,0,0:0:0:0:
256,192,5694,1,0,0:0:0:0:
460,192,5694,1,0,0:0:0:0:
51,192,5933,1,0,0:0:0:0:
153,192,5933,1,0,0:0:0:0:
358,192,5933,1,0,0:0:0:0:
460,192,6172,1,0,0:0:0:0:
51,192,6291,1,0,0:0:0:0:
256,192,6291,1,0,0:0:0:0:
153,192,6411,1,0,0:0:0:0:
358,192,6411,1,0,0:0:0:0:
460,192,6411,1,0,0:0:0:0:
256,192,6650,1,0,0:0:0:0:
460,192,6650,1,0,0:0:0:0:
51,192,6889,1,0,0:0:0:0:
153,192,6889,1,0,0:0:0:0:
358,192,6889,1,0,0:0:0:0:
460,192,7009,1,0,0:0:0:0:
51,192,7128,1,0,0:0:0:0:
153,192,7128,1,0,0:0:0:0:
358,192,7128,1,0,0:0:0:0:
460,192,7248,1,0,0:0:0:0:
256,192,7248,1,0,0:0:0:0:
153,192,7367,1,0,0:0:0:0:
51,192,7487,1,0,0:0:0:0:
256,192,7487,1,0,0:0:0:0:
460,192,7726,1,0,0:0:0:0:
358,192,7726,1,0,0:0:0:0:
153,192,7726,1,0,0:0:0:0:
256,192,7965,1,0,0:0:0:0:
460,192,7965,1,0,0:0:0:0:
153,192,8084,1,0,0:0:0:0:
358,192,8084,1,0,0:0:0:0:
256,192,8204,1,0,0:0:0:0:
460,192,8204,1,0,0:0:0:0:
51,192,8443,1,0,0:0:0:0:
153,192,8443,1,0,0:0:0:0:
358,192,8443,1,0,0:0:0:0:
256,192,8562,1,0,0:0:0:0:
460,192,8562,1,0,0:0:0:0:
358,192,8682,1,0,0:0:0:0:
51,192,8801,1,0,0:0:0:0:
256,192,8801,1,0,0:0:0:0:
153,192,8921,1,0,0:0:0:0:
358,192,8921,1,0,0:0:0:0:
460,192,8921,1,0,0:0:0:0:
256,192,9160,1,0,0:0:0:0:
460,192,9160,1,0,0:0:0:0:
51,192,9399,1,0,0:0:0:0:
153,192,9399,1,0,0:0:0:0:
358,192,9399,1,0,0:0:0:0:
51,192,9578,1,0,0:0:0:0:
460,192,9578,1,0,0:0:0:0:
358,192,9638,1,0,0:0:0:0:
153,192,9638,1,0,0:0:0:0:
51,192,9757,1,0,0:0:0:0:
256,192,9757,1,0,0:0:0:0:
153,192,9877,1,0,0:0:0:0:
358,192,9877,1,0,0:0:0:0:
460,192,9877,1,0,0:0:0:0:
256,192,9996,1,0,0:0:0:0:
460,192,10116,1,0,0:0:0:0:
256,192,10235,1,0,0:0:0:0:
51,192,10355,1,0,0:0:0:0:
153,192,10355,1,0,0:0:0:0:
358,192,10355,1,0,0:0:0:0:
256,192,10594,1,0,0:0:0:0:
460,192,10594,1,0,0:0:0:0:
51,192,10833,1,0,0:0:0:0:
153,192,10833,1,0,0:0:0:0:
358,192,10833,1,0,0:0:0:0:
256,192,10952,1,0,0:0:0:0:
358,192,11012,1,0,0:0:0:0:
153,192,11072,1,0,0:0:0:0:
51,192,11191,1,0,0:0:0:0:
256,192,11191,1,0,0:0:0:0:
153,192,11311,1,0,0:0:0:0:
358,192,11311,1,0,0:0:0:0:
460,192,11311,1,0,0:0:0:0:
256,192,11551,1,0,0:0:0:0:
460,192,11551,1,0,0:0:0:0:
256,192,11670,1,0,0:0:0:0:
460,192,11670,1,0,0:0:0:0:
51,192,11790,1,0,0:0:0:0:
153,192,11790,1,0,0:0:0:0:
358,192,11790,1,0,0:0:0:0:
51,192,11909,1,0,0:0:0:0:
153,192,11909,1,0,0:0:0:0:
358,192,11909,1,0,0:0:0:0:
460,192,12029,1,0,0:0:0:0:
153,192,12088,1,0,0:0:0:0:
256,192,12148,1,0,0:0:0:0:
358,192,12148,1,0,0:0:0:0:
153,192,12268,1,0,0:0:0:0:
358,192,12327,1,0,0:0:0:0:
51,192,12387,1,0,0:0:0:0:
256,192,12387,1,0,0:0:0:0:
153,192,12507,1,0,0:0:0:0:
460,192,12627,1,0,0:0:0:0:
256,192,12627,1,0,0:0:0:0:
358,192,12866,1,0,0:0:0:0:
153,192,12866,1,0,0:0:0:0:
51,192,12866,1,0,0:0:0:0:
256,192,12985,1,0,0:0:0:0:
358,192,13045,1,0,0:0:0:0:
153,192,13105,1,0,0:0:0:0:
256,192,13224,1,0,0:0:0:0:
51,192,13224,1,0,0:0:0:0:
460,192,13344,1,0,0:0:0:0:
358,192,13344,1,0,0:0:0:0:
153,192,13344,1,0,0:0:0:0:
460,192,13583,1,0,0:0:0:0:
256,192,13583,1,0,0:0:0:0:
358,192,13702,128,0,13941:0:0:0:0:
153,192,13702,1,0,0:0:0:0:
51,192,13702,1,0,0:0:0:0:
256,192,13941,1,0,0:0:0:0:
51,192,13941,1,0,0:0:0:0:
256,192,14061,1,0,0:0:0:0:
51,192,14061,1,0,0:0:0:0:
460,192,14300,1,0,0:0:0:0:
358,192,14300,1,0,0:0:0:0:
153,192,14300,1,0,0:0:0:0:
256,192,14419,1,0,0:0:0:0:
153,192,14479,1,0,0:0:0:0:
358,192,14539,1,0,0:0:0:0:
460,192,14658,1,0,0:0:0:0:
256,192,14658,1,0,0:0:0:0:
358,192,14778,1,0,0:0:0:0:
153,192,14778,1,0,0:0:0:0:
51,192,14778,1,0,0:0:0:0:
51,192,15017,1,0,0:0:0:0:
256,192,15017,1,0,0:0:0:0:
153,192,15136,1,0,0:0:0:0:
358,192,15136,1,0,0:0:0:0:
460,192,15136,1,0,0:0:0:0:
153,192,15256,1,0,0:0:0:0:
358,192,15256,1,0,0:0:0:0:
460,192,15256,1,0,0:0:0:0:
51,192,15376,1,0,0:0:0:0:
256,192,15376,1,0,0:0:0:0:
153,192,15615,1,0,0:0:0:0:
358,192,15615,1,0,0:0:0:0:
460,192,15615,1,0,0:0:0:0:
256,192,15734,1,0,0:0:0:0:
153,192,15794,1,0,0:0:0:0:
358,192,15854,1,0,0:0:0:0:
256,192,15973,1,0,0:0:0:0:
460,192,15973,1,0,0:0:0:0:
51,192,16093,1,0,0:0:0:0:
153,192,16093,1,0,0:0:0:0:
358,192,16093,1,0,0:0:0:0:
51,192,16332,1,0,0:0:0:0:
256,192,16332,1,0,0:0:0:0:
153,192,16571,1,0,0:0:0:0:
358,192,16571,1,0,0:0:0:0:
460,192,16571,1,0,0:0:0:0:
51,192,16690,1,0,0:0:0:0:
256,192,16690,1,0,0:0:0:0:
460,192,16810,1,0,0:0:0:0:
51,192,16929,1,0,0:0:0:0:
153,192,16929,1,0,0:0:0:0:
358,192,16929,1,0,0:0:0:0:
256,192,17049,1,0,0:0:0:0:
460,192,17049,1,0,0:0:0:0:
51,192,17168,1,0,0:0:0:0:
153,192,17288,1,0,0:0:0:0:
358,192,17288,1,0,0:0:0:0:
460,192,17288,1,0,0:0:0:0:
51,192,17408,1,0,0:0:0:0:
256,192,17408,1,0,0:0:0:0:
153,192,17527,1,0,0:0:0:0:
256,192,17527,1,0,0:0:0:0:
460,192,17527,1,0,0:0:0:0:
153,192,17647,1,0,0:0:0:0:
358,192,17647,1,0,0:0:0:0:
51,192,17766,1,0,0:0:0:0:
256,192,17766,1,0,0:0:0:0:
153,192,17886,1,0,0:0:0:0:
256,192,17886,1,0,0:0:0:0:
460,192,17886,1,0,0:0:0:0:
153,192,18005,1,0,0:0:0:0:
358,192,18005,1,0,0:0:0:0:
460,192,18125,1,0,0:0:0:0:
256,192,18125,1,0,0:0:0:0:
460,192,18244,1,0,0:0:0:0:
256,192,18244,1,0,0:0:0:0:
256,192,18364,1,0,0:0:0:0:
460,192,18364,1,0,0:0:0:0:
358,192,18483,1,0,0:0:0:0:
153,192,18483,1,0,0:0:0:0:
51,192,18543,1,0,0:0:0:0:
358,192,18603,1,0,0:0:0:0:
153,192,18662,1,0,0:0:0:0:
358,192,18722,1,0,0:0:0:0:
256,192,18782,1,0,0:0:0:0:
51,192,18842,128,0,18931:0:0:0:0:
460,192,18842,1,0,0:0:0:0:
358,192,19081,128,0,19170:0:0:0:0:
256,192,19320,128,0,19409:0:0:0:0:
153,192,19559,128,0,19648:0:0:0:0:
358,192,19798,128,0,19887:0:0:0:0:
256,192,20037,128,0,20126:0:0:0:0:
153,192,20276,128,0,20365:0:0:0:0:
51,192,20515,128,0,20604:0:0:0:0:
256,192,20754,128,0,20843:0:0:0:0:
358,192,20993,128,0,21083:0:0:0:0:
153,192,21232,128,0,21322:0:0:0:0:
460,192,21471,128,0,21561:0:0:0:0:
358,192,21710,128,0,21800:0:0:0:0:
51,192,21949,128,0,22039:0:0:0:0:
460,192,22069,1,0,0:0:0:0:
358,192,22188,1,0,0:0:0:0:
256,192,22188,1,0,0:0:0:0:
153,192,22188,1,0,0:0:0:0:
51,192,22427,1,0,0:0:0:0:
358,192,22427,1,0,0:0:0:0:
153,192,22546,1,0,0:0:0:0:
460,192,22666,1,0,0:0:0:0:
358,192,22785,1,0,0:0:0:0:
460,192,22905,1,0,0:0:0:0:
256,192,22905,1,0,0:0:0:0:
51,192,22905,1,0,0:0:0:0:
153,192,23024,1,0,0:0:0:0:
256,192,23084,1,0,0:0:0:0:
460,192,23144,1,0,0:0:0:0:
153,192,23203,1,0,0:0:0:0:
358,192,23263,1,0,0:0:0:0:
51,192,23383,1,0,0:0:0:0:
256,192,23383,1,0,0:0:0:0:
460,192,23383,1,0,0:0:0:0:
153,192,23502,1,0,0:0:0:0:
51,192,23622,1,0,0:0:0:0:
460,192,23622,1,0,0:0:0:0:
358,192,23741,1,0,0:0:0:0:
460,192,23861,1,0,0:0:0:0:
153,192,23980,1,0,0:0:0:0:
51,192,24100,1,0,0:0:0:0:
358,192,24100,1,0,0:0:0:0:
153,192,24219,1,0,0:0:0:0:
51,192,24339,1,0,0:0:0:0:
256,192,24339,1,0,0:0:0:0:
460,192,24339,1,0,0:0:0:0:
153,192,24458,1,0,0:0:0:0:
358,192,24458,1,0,0:0:0:0:
460,192,24458,1,0,0:0:0:0:
51,192,24578,1,0,0:0:0:0:
358,192,24697,1,0,0:0:0:0:
256,192,24817,1,0,0:0:0:0:
460,192,24817,1,0,0:0:0:0:
51,192,24936,1,0,0:0:0:0:
358,192,24936,1,0,0:0:0:0:
460,192,25056,1,0,0:0:0:0:
153,192,25056,1,0,0:0:0:0:
51,192,25175,1,0,0:0:0:0:
256,192,25175,1,0,0:0:0:0:
153,192,25295,1,0,0:0:0:0:
358,192,25295,1,0,0:0:0:0:
460,192,25374,1,0,0:0:0:0:
51,192,25414,1,0,0:0:0:0:
358,192,25454,1,0,0:0:0:0:
153,192,25534,1,0,0:0:0:0:
256,192,25534,1,0,0:0:0:0:
460,192,25593,1,0,0:0:0:0:
153,192,25653,1,0,0:0:0:0:
358,192,25713,1,0,0:0:0:0:
51,192,25773,1,0,0:0:0:0:
256,192,25773,1,0,0:0:0:0:
460,192,25773,1,0,0:0:0:0:
51,192,26012,1,0,0:0:0:0:
256,192,26012,1,0,0:0:0:0:
460,192,26012,1,0,0:0:0:0:
153,192,26252,1,0,0:0:0:0:
460,192,26252,1,0,0:0:0:0:
358,192,26371,1,0,0:0:0:0:
51,192,26491,1,0,0:0:0:0:
256,192,26491,1,0,0:0:0:0:
460,192,26491,1,0,0:0:0:0:
153,192,26610,1,0,0:0:0:0:
256,192,26789,128,0,26909:0:0:0:0:
358,192,26789,128,0,26909:0:0:0:0:
51,192,27028,1,0,0:0:0:0:
256,192,27028,1,0,0:0:0:0:
460,192,27028,1,0,0:0:0:0:
153,192,27149,1,0,0:0:0:0:
358,192,27149,1,0,0:0:0:0:
256,192,27268,1,0,0:0:0:0:
153,192,27388,1,0,0:0:0:0:
358,192,27388,1,0,0:0:0:0:
460,192,27388,1,0,0:0:0:0:
51,192,27507,1,0,0:0:0:0:
256,192,27507,1,0,0:0:0:0:
153,192,27686,128,0,27806:0:0:0:0:
256,192,27686,128,0,27806:0:0:0:0:
51,192,27866,1,0,0:0:0:0:
460,192,27866,1,0,0:0:0:0:
256,192,27925,1,0,0:0:0:0:
358,192,27925,1,0,0:0:0:0:
153,192,28045,1,0,0:0:0:0:
460,192,28045,1,0,0:0:0:0:
358,192,28164,1,0,0:0:0:0:
51,192,28284,1,0,0:0:0:0:
256,192,28284,1,0,0:0:0:0:
460,192,28284,1,0,0:0:0:0:
153,192,28403,1,0,0:0:0:0:
256,192,28582,128,0,28702:0:0:0:0:
358,192,28582,128,0,28702:0:0:0:0:
51,192,28821,1,0,0:0:0:0:
256,192,28821,1,0,0:0:0:0:
460,192,28821,1,0,0:0:0:0:
153,192,28941,1,0,0:0:0:0:
358,192,28941,1,0,0:0:0:0:
256,192,29060,1,0,0:0:0:0:
153,192,29180,1,0,0:0:0:0:
358,192,29180,1,0,0:0:0:0:
460,192,29180,1,0,0:0:0:0:
51,192,29299,1,0,0:0:0:0:
256,192,29359,1,0,0:0:0:0:
358,192,29419,1,0,0:0:0:0:
256,192,29538,1,0,0:0:0:0:
153,192,29658,1,0,0:0:0:0:
460,192,29658,1,0,0:0:0:0:
153,192,29897,1,0,0:0:0:0:
460,192,29897,1,0,0:0:0:0:
51,192,30137,1,0,0:0:0:0:
358,192,30137,1,0,0:0:0:0:
153,192,30256,1,0,0:0:0:0:
256,192,30376,1,0,0:0:0:0:
460,192,30376,1,0,0:0:0:0:
51,192,30376,1,0,0:0:0:0:
358,192,30495,1,0,0:0:0:0:
153,192,30674,128,0,30794:0:0:0:0:
256,192,30674,128,0,30794:0:0:0:0:
51,192,30913,1,0,0:0:0:0:
256,192,30913,1,0,0:0:0:0:
460,192,30913,1,0,0:0:0:0:
153,192,31033,1,0,0:0:0:0:
358,192,31033,1,0,0:0:0:0:
256,192,31152,1,0,0:0:0:0:
51,192,31272,1,0,0:0:0:0:
153,192,31272,1,0,0:0:0:0:
358,192,31272,1,0,0:0:0:0:
256,192,31391,1,0,0:0:0:0:
460,192,31391,1,0,0:0:0:0:
256,192,31570,128,0,31690:0:0:0:0:
358,192,31570,128,0,31690:0:0:0:0:
51,192,31750,1,0,0:0:0:0:
153,192,31750,1,0,0:0:0:0:
358,192,31809,1,0,0:0:0:0:
460,192,31809,1,0,0:0:0:0:
51,192,31869,1,0,0:0:0:0:
153,192,31929,1,0,0:0:0:0:
358,192,31929,1,0,0:0:0:0:
153,192,32168,1,0,0:0:0:0:
256,192,32168,1,0,0:0:0:0:
358,192,32168,1,0,0:0:0:0:
358,192,32407,1,0,0:0:0:0:
256,192,32466,1,0,0:0:0:0:
460,192,32466,1,0,0:0:0:0:
153,192,32705,1,0,0:0:0:0:
256,192,32705,1,0,0:0:0:0:
460,192,32705,1,0,0:0:0:0:
51,192,32826,1,0,0:0:0:0:
358,192,32826,1,0,0:0:0:0:
153,192,32945,1,0,0:0:0:0:
460,192,32945,1,0,0:0:0:0:
51,192,33065,1,0,0:0:0:0:
358,192,33065,1,0,0:0:0:0:
51,192,33184,1,0,0:0:0:0:
256,192,33184,1,0,0:0:0:0:
460,192,33244,1,0,0:0:0:0:
358,192,33304,1,0,0:0:0:0:
153,192,33363,1,0,0:0:0:0:
153,192,33483,1,0,0:0:0:0:
358,192,33483,1,0,0:0:0:0:
51,192,33543,1,0,0:0:0:0:
460,192,33543,1,0,0:0:0:0:
256,192,33602,1,0,0:0:0:0:
256,192,33841,128,0,33961:0:0:0:0:
51,192,33961,1,0,0:0:0:0:
460,192,33961,1,0,0:0:0:0:
51,192,34080,1,0,0:0:0:0:
358,192,34080,1,0,0:0:0:0:
153,192,34200,1,0,0:0:0:0:
460,192,34200,1,0,0:0:0:0:
358,192,34320,1,0,0:0:0:0:
51,192,34320,1,0,0:0:0:0:
256,192,34320,1,0,0:0:0:0:
358,192,34439,1,0,0:0:0:0:
51,192,34559,1,0,0:0:0:0:
460,192,34559,1,0,0:0:0:0:
153,192,34678,1,0,0:0:0:0:
460,192,34678,1,0,0:0:0:0:
51,192,34798,1,0,0:0:0:0:
358,192,34798,1,0,0:0:0:0:
153,192,34917,1,0,0:0:0:0:
256,192,34917,1,0,0:0:0:0:
51,192,35037,1,0,0:0:0:0:
358,192,35037,1,0,0:0:0:0:
153,192,35156,1,0,0:0:0:0:
460,192,35156,1,0,0:0:0:0:
153,192,35276,1,0,0:0:0:0:
256,192,35276,1,0,0:0:0:0:
51,192,35395,1,0,0:0:0:0:
358,192,35395,1,0,0:0:0:0:
51,192,35515,1,0,0:0:0:0:
460,192,35515,1,0,0:0:0:0:
153,192,35634,1,0,0:0:0:0:
460,192,35634,1,0,0:0:0:0:
358,192,35754,1,0,0:0:0:0:
256,192,35754,1,0,0:0:0:0:
153,192,35873,128,0,35993:0:0:0:0:
51,192,35993,1,0,0:0:0:0:
460,192,35993,1,0,0:0:0:0:
256,192,36112,1,0,0:0:0:0:
51,192,36232,1,0,0:0:0:0:
153,192,36232,1,0,0:0:0:0:
460,192,36232,1,0,0:0:0:0:
358,192,36351,1,0,0:0:0:0:
153,192,36471,1,0,0:0:0:0:
256,192,36471,1,0,0:0:0:0:
460,192,36590,1,0,0:0:0:0:
256,192,36650,1,0,0:0:0:0:
153,192,36710,1,0,0:0:0:0:
460,192,36710,1,0,0:0:0:0:
51,192,36829,1,0,0:0:0:0:
358,192,36829,1,0,0:0:0:0:
153,192,36949,1,0,0:0:0:0:
256,192,36949,1,0,0:0:0:0:
51,192,37069,1,0,0:0:0:0:
460,192,37069,1,0,0:0:0:0:
358,192,37128,1,0,0:0:0:0:
460,192,37188,1,0,0:0:0:0:
153,192,37307,1,0,0:0:0:0:
256,192,37307,1,0,0:0:0:0:
51,192,37427,1,0,0:0:0:0:
358,192,37427,1,0,0:0:0:0:
51,192,37546,1,0,0:0:0:0:
460,192,37546,1,0,0:0:0:0:
153,192,37666,1,0,0:0:0:0:
256,192,37666,1,0,0:0:0:0:
460,192,37725,1,0,0:0:0:0:
358,192,37785,1,0,0:0:0:0:
51,192,37905,1,0,0:0:0:0:
153,192,37905,1,0,0:0:0:0:
256,192,38024,1,0,0:0:0:0:
460,192,38024,1,0,0:0:0:0:
153,192,38144,1,0,0:0:0:0:
358,192,38144,1,0,0:0:0:0:
153,192,38263,1,0,0:0:0:0:
256,192,38323,1,0,0:0:0:0:
51,192,38383,1,0,0:0:0:0:
358,192,38383,1,0,0:0:0:0:
460,192,38383,1,0,0:0:0:0:
153,192,38502,1,0,0:0:0:0:
256,192,38622,1,0,0:0:0:0:
358,192,38622,1,0,0:0:0:0:
51,192,38741,1,0,0:0:0:0:
358,192,38801,1,0,0:0:0:0:
153,192,38861,1,0,0:0:0:0:
460,192,38861,1,0,0:0:0:0:
256,192,38980,1,0,0:0:0:0:
51,192,39101,1,0,0:0:0:0:
358,192,39101,1,0,0:0:0:0:
256,192,39220,1,0,0:0:0:0:
460,192,39220,1,0,0:0:0:0:
460,192,39340,1,0,0:0:0:0:
153,192,39340,1,0,0:0:0:0:
51,192,39459,1,0,0:0:0:0:
358,192,39459,1,0,0:0:0:0:
256,192,39579,1,0,0:0:0:0:
460,192,39579,1,0,0:0:0:0:
153,192,39698,1,0,0:0:0:0:
460,192,39698,1,0,0:0:0:0:
51,192,39818,1,0,0:0:0:0:
358,192,39818,1,0,0:0:0:0:
51,192,39937,1,0,0:0:0:0:
460,192,39937,1,0,0:0:0:0:
153,192,40057,1,0,0:0:0:0:
460,192,40057,1,0,0:0:0:0:
256,192,40057,1,0,0:0:0:0:
51,192,40176,1,0,0:0:0:0:
256,192,40296,1,0,0:0:0:0:
358,192,40296,1,0,0:0:0:0:
51,192,40415,1,0,0:0:0:0:
153,192,40475,1,0,0:0:0:0:
358,192,40535,1,0,0:0:0:0:
460,192,40535,1,0,0:0:0:0:
51,192,40654,1,0,0:0:0:0:
256,192,40654,1,0,0:0:0:0:
153,192,40774,1,0,0:0:0:0:
358,192,40774,1,0,0:0:0:0:
256,192,40893,1,0,0:0:0:0:
51,192,41013,1,0,0:0:0:0:
460,192,41013,1,0,0:0:0:0:
153,192,41132,1,0,0:0:0:0:
358,192,41132,1,0,0:0:0:0:
51,192,41252,1,0,0:0:0:0:
460,192,41252,1,0,0:0:0:0:
153,192,41371,1,0,0:0:0:0:
358,192,41371,1,0,0:0:0:0:
51,192,41491,1,0,0:0:0:0:
256,192,41491,1,0,0:0:0:0:
256,192,41610,1,0,0:0:0:0:
51,192,41730,1,0,0:0:0:0:
358,192,41730,1,0,0:0:0:0:
358,192,41849,1,0,0:0:0:0:
153,192,41969,1,0,0:0:0:0:
460,192,41969,1,0,0:0:0:0:
153,192,42088,1,0,0:0:0:0:
256,192,42088,1,0,0:0:0:0:
153,192,42208,1,0,0:0:0:0:
256,192,42208,1,0,0:0:0:0:
358,192,42328,1,0,0:0:0:0:
460,192,42328,1,0,0:0:0:0:
460,192,42447,1,0,0:0:0:0:
153,192,42567,1,0,0:0:0:0:
358,192,42567,1,0,0:0:0:0:
51,192,42686,1,0,0:0:0:0:
51,192,42806,1,0,0:0:0:0:
256,192,42925,1,0,0:0:0:0:
460,192,42925,1,0,0:0:0:0:
358,192,43045,1,0,0:0:0:0:
153,192,43165,1,0,0:0:0:0:
358,192,43165,1,0,0:0:0:0:
358,192,43284,1,0,0:0:0:0:
256,192,43404,1,0,0:0:0:0:
51,192,43404,1,0,0:0:0:0:
460,192,43523,1,0,0:0:0:0:
51,192,43523,1,0,0:0:0:0:
358,192,43643,1,0,0:0:0:0:
51,192,43643,1,0,0:0:0:0:
256,192,43762,1,0,0:0:0:0:
460,192,43762,1,0,0:0:0:0:
51,192,43882,1,0,0:0:0:0:
460,192,43882,1,0,0:0:0:0:
153,192,44001,1,0,0:0:0:0:
460,192,44001,1,0,0:0:0:0:
460,192,44252,1,0,0:0:0:0:
256,192,44252,1,0,0:0:0:0:
358,192,44491,1,0,0:0:0:0:
153,192,44491,1,0,0:0:0:0:
51,192,44730,1,0,0:0:0:0:
256,192,44730,1,0,0:0:0:0:
460,192,44969,1,0,0:0:0:0:
256,192,44969,1,0,0:0:0:0:
358,192,45208,1,0,0:0:0:0:
51,192,45208,1,0,0:0:0:0:
256,192,45447,1,0,0:0:0:0:
153,192,45447,1,0,0:0:0:0:
460,192,45686,1,0,0:0:0:0:
51,192,45686,1,0,0:0:0:0:
358,192,45865,1,0,0:0:0:0:
51,192,45865,1,0,0:0:0:0:
460,192,46104,1,0,0:0:0:0:
256,192,46104,1,0,0:0:0:0:
358,192,46343,1,0,0:0:0:0:
153,192,46343,1,0,0:0:0:0:
460,192,46582,1,0,0:0:0:0:
256,192,46582,1,0,0:0:0:0:
256,192,46821,1,0,0:0:0:0:
51,192,46821,1,0,0:0:0:0:
460,192,47060,1,0,0:0:0:0:
358,192,47060,1,0,0:0:0:0:
256,192,47299,1,0,0:0:0:0:
153,192,47299,1,0,0:0:0:0:
358,192,47538,1,0,0:0:0:0:
51,192,47538,1,0,0:0:0:0:
460,192,47777,1,0,0:0:0:0:
153,192,47777,1,0,0:0:0:0:
358,192,48016,1,0,0:0:0:0:
153,192,48016,1,0,0:0:0:0:
256,192,48323,1,0,0:0:0:0:
460,192,48323,1,0,0:0:0:0:
358,192,48494,1,0,0:0:0:0:
153,192,48494,1,0,0:0:0:0:
256,192,48653,1,0,0:0:0:0:
51,192,48653,1,0,0:0:0:0:
460,192,48813,1,0,0:0:0:0:
153,192,48813,1,0,0:0:0:0:
358,192,48973,1,0,0:0:0:0:
51,192,48973,1,0,0:0:0:0:
460,192,49164,1,0,0:0:0:0:
256,192,49164,1,0,0:0:0:0:
358,192,49355,1,0,0:0:0:0:
153,192,49355,1,0,0:0:0:0:
358,192,49546,1,0,0:0:0:0:
51,192,49546,1,0,0:0:0:0:
460,192,49737,1,0,0:0:0:0:
256,192,49737,1,0,0:0:0:0:
358,192,49929,1,0,0:0:0:0:
153,192,49929,1,0,0:0:0:0:
460,192,50078,1,0,0:0:0:0:
51,192,50078,1,0,0:0:0:0:
358,192,50228,1,0,0:0:0:0:
51,192,50228,1,0,0:0:0:0:
256,192,50347,1,0,0:0:0:0:
153,192,50347,1,0,0:0:0:0:
460,192,50467,1,0,0:0:0:0:
358,192,50467,1,0,0:0:0:0:
153,192,50616,1,0,0:0:0:0:
358,192,50856,1,0,0:0:0:0:
51,192,50856,1,0,0:0:0:0:
460,192,50975,1,0,0:0:0:0:
358,192,51095,1,0,0:0:0:0:
256,192,51214,1,0,0:0:0:0:
153,192,51214,1,0,0:0:0:0:
460,192,51334,1,0,0:0:0:0:
153,192,51453,1,0,0:0:0:0:
358,192,51573,1,0,0:0:0:0:
256,192,51573,1,0,0:0:0:0:
51,192,51692,1,0,0:0:0:0:
256,192,51812,1,0,0:0:0:0:
460,192,51931,1,0,0:0:0:0:
153,192,51931,1,0,0:0:0:0:
358,192,52051,1,0,0:0:0:0:
256,192,52170,1,0,0:0:0:0:
358,192,52290,1,0,0:0:0:0:
51,192,52290,1,0,0:0:0:0:
460,192,52409,1,0,0:0:0:0:
256,192,52529,1,0,0:0:0:0:
358,192,52648,1,0,0:0:0:0:
153,192,52648,1,0,0:0:0:0:
460,192,52768,1,0,0:0:0:0:
153,192,52887,1,0,0:0:0:0:
358,192,53007,1,0,0:0:0:0:
256,192,53007,1,0,0:0:0:0:
460,192,53127,1,0,0:0:0:0:
51,192,53127,1,0,0:0:0:0:
51,192,53474,1,0,0:0:0:0:
256,192,53474,1,0,0:0:0:0:
460,192,53474,1,0,0:0:0:0:
460,192,53593,1,0,0:0:0:0:
358,192,53713,1,0,0:0:0:0:
153,192,53832,1,0,0:0:0:0:
256,192,53832,1,0,0:0:0:0:
460,192,53952,1,0,0:0:0:0:
153,192,54071,1,0,0:0:0:0:
256,192,54191,1,0,0:0:0:0:
358,192,54191,1,0,0:0:0:0:
51,192,54310,1,0,0:0:0:0:
256,192,54430,1,0,0:0:0:0:
153,192,54549,1,0,0:0:0:0:
460,192,54549,1,0,0:0:0:0:
358,192,54669,1,0,0:0:0:0:
153,192,54788,1,0,0:0:0:0:
51,192,54908,1,0,0:0:0:0:
256,192,54908,1,0,0:0:0:0:
460,192,54908,1,0,0:0:0:0:
460,192,55027,1,0,0:0:0:0:
358,192,55147,1,0,0:0:0:0:
153,192,55266,1,0,0:0:0:0:
256,192,55266,1,0,0:0:0:0:
460,192,55386,1,0,0:0:0:0:
153,192,55505,1,0,0:0:0:0:
256,192,55625,1,0,0:0:0:0:
358,192,55625,1,0,0:0:0:0:
51,192,55744,1,0,0:0:0:0:
256,192,55864,1,0,0:0:0:0:
153,192,55983,1,0,0:0:0:0:
460,192,55983,1,0,0:0:0:0:
358,192,56103,1,0,0:0:0:0:
153,192,56223,1,0,0:0:0:0:
51,192,56283,1,0,0:0:0:0:
256,192,56283,1,0,0:0:0:0:
460,192,56283,1,0,0:0:0:0:
460,192,56402,1,0,0:0:0:0:
358,192,56522,1,0,0:0:0:0:
153,192,56641,1,0,0:0:0:0:
256,192,56641,1,0,0:0:0:0:
460,192,56761,1,0,0:0:0:0:
153,192,56880,1,0,0:0:0:0:
256,192,57000,1,0,0:0:0:0:
358,192,57000,1,0,0:0:0:0:
51,192,57119,1,0,0:0:0:0:
256,192,57239,1,0,0:0:0:0:
153,192,57358,1,0,0:0:0:0:
460,192,57358,1,0,0:0:0:0:
358,192,57478,1,0,0:0:0:0:
153,192,57537,1,0,0:0:0:0:
51,192,57598,1,0,0:0:0:0:
256,192,57598,1,0,0:0:0:0:
460,192,57598,1,0,0:0:0:0:
460,192,57717,1,0,0:0:0:0:
358,192,57837,1,0,0:0:0:0:
153,192,57956,1,0,0:0:0:0:
256,192,57956,1,0,0:0:0:0:
460,192,58076,1,0,0:0:0:0:
153,192,58195,1,0,0:0:0:0:
256,192,58315,1,0,0:0:0:0:
358,192,58315,1,0,0:0:0:0:
51,192,58434,1,0,0:0:0:0:
256,192,58554,1,0,0:0:0:0:
153,192,58673,1,0,0:0:0:0:
460,192,58673,1,0,0:0:0:0:
358,192,58733,1,0,0:0:0:0:
256,192,58793,1,0,0:0:0:0:
358,192,58853,1,0,0:0:0:0:
153,192,58853,1,0,0:0:0:0:
153,192,59092,1,0,0:0:0:0:
256,192,59092,1,0,0:0:0:0:
153,192,59331,1,0,0:0:0:0:
358,192,59331,1,0,0:0:0:0:
358,192,59570,1,0,0:0:0:0:
460,192,59570,1,0,0:0:0:0:
51,192,59809,1,0,0:0:0:0:
358,192,59809,1,0,0:0:0:0:
51,192,60048,1,0,0:0:0:0:
256,192,60048,1,0,0:0:0:0:
51,192,60287,1,0,0:0:0:0:
460,192,60287,1,0,0:0:0:0:
153,192,60526,1,0,0:0:0:0:
460,192,60526,1,0,0:0:0:0:
51,192,60765,128,0,62438:0:0:0:0:
256,192,60765,1,0,0:0:0:0:
460,192,60765,1,0,0:0:0:0:
460,192,61721,1,0,0:0:0:0:
358,192,62199,1,0,0:0:0:0:
256,192,62677,1,0,0:0:0:0:
51,192,62996,1,0,0:0:0:0:
153,192,63315,1,0,0:0:0:0:
256,192,63633,1,0,0:0:0:0:
460,192,63633,1,0,0:0:0:0:
51,192,63872,1,0,0:0:0:0:
358,192,63872,1,0,0:0:0:0:
153,192,64111,1,0,0:0:0:0:
460,192,64111,1,0,0:0:0:0:
256,192,64351,1,0,0:0:0:0:
358,192,64351,1,0,0:0:0:0:
51,192,64590,1,0,0:0:0:0:
460,192,64590,1,0,0:0:0:0:
153,192,64781,1,0,0:0:0:0:
358,192,64781,1,0,0:0:0:0:
51,192,64972,1,0,0:0:0:0:
256,192,64972,1,0,0:0:0:0:
153,192,65163,1,0,0:0:0:0:
358,192,65163,1,0,0:0:0:0:
256,192,65354,1,0,0:0:0:0:
460,192,65354,1,0,0:0:0:0:
153,192,65546,1,0,0:0:0:0:
460,192,65546,1,0,0:0:0:0:
256,192,65705,1,0,0:0:0:0:
358,192,65705,1,0,0:0:0:0:
153,192,65864,1,0,0:0:0:0:
358,192,65864,1,0,0:0:0:0:
256,192,66024,1,0,0:0:0:0:
460,192,66024,1,0,0:0:0:0:
153,192,66183,1,0,0:0:0:0:
358,192,66183,1,0,0:0:0:0:
51,192,66343,1,0,0:0:0:0:
256,192,66343,1,0,0:0:0:0:
153,192,66502,1,0,0:0:0:0:
460,192,66502,1,0,0:0:0:0:
51,192,66639,1,0,0:0:0:0:
358,192,66639,1,0,0:0:0:0:
256,192,66775,1,0,0:0:0:0:
460,192,66775,1,0,0:0:0:0:
51,192,66912,1,0,0:0:0:0:
358,192,66912,1,0,0:0:0:0:
256,192,67048,1,0,0:0:0:0:
460,192,67048,1,0,0:0:0:0:
153,192,67185,1,0,0:0:0:0:
358,192,67185,1,0,0:0:0:0:
51,192,67321,1,0,0:0:0:0:
256,192,67321,1,0,0:0:0:0:
153,192,67458,1,0,0:0:0:0:
460,192,67458,1,0,0:0:0:0:
51,192,67578,1,0,0:0:0:0:
358,192,67578,1,0,0:0:0:0:
460,192,67697,1,0,0:0:0:0:
256,192,67697,1,0,0:0:0:0:
153,192,67817,1,0,0:0:0:0:
358,192,67817,1,0,0:0:0:0:
153,192,67936,1,0,0:0:0:0:
460,192,67936,1,0,0:0:0:0:
51,192,68056,1,0,0:0:0:0:
358,192,68056,1,0,0:0:0:0:
51,192,68175,1,0,0:0:0:0:
256,192,68175,1,0,0:0:0:0:
153,192,68295,1,0,0:0:0:0:
358,192,68295,1,0,0:0:0:0:
256,192,68414,1,0,0:0:0:0:
460,192,68414,1,0,0:0:0:0:
460,192,68653,1,0,0:0:0:0:
256,192,68772,1,0,0:0:0:0:
358,192,68772,1,0,0:0:0:0:
460,192,68892,1,0,0:0:0:0:
358,192,69011,1,0,0:0:0:0:
256,192,69131,1,0,0:0:0:0:
460,192,69131,1,0,0:0:0:0:
153,192,69250,1,0,0:0:0:0:
256,192,69370,1,0,0:0:0:0:
358,192,69370,1,0,0:0:0:0:
51,192,69490,1,0,0:0:0:0:
256,192,69490,1,0,0:0:0:0:
51,192,69729,1,0,0:0:0:0:
153,192,69848,1,0,0:0:0:0:
256,192,69848,1,0,0:0:0:0:
51,192,69968,1,0,0:0:0:0:
153,192,70087,1,0,0:0:0:0:
51,192,70207,1,0,0:0:0:0:
256,192,70207,1,0,0:0:0:0:
256,192,70326,1,0,0:0:0:0:
460,192,70326,1,0,0:0:0:0:
153,192,70446,1,0,0:0:0:0:
460,192,70446,1,0,0:0:0:0:
51,192,70565,1,0,0:0:0:0:
358,192,70565,1,0,0:0:0:0:
256,192,70685,1,0,0:0:0:0:
460,192,70685,1,0,0:0:0:0:
460,192,70924,1,0,0:0:0:0:
256,192,71043,1,0,0:0:0:0:
358,192,71043,1,0,0:0:0:0:
460,192,71163,1,0,0:0:0:0:
358,192,71282,1,0,0:0:0:0:
256,192,71402,1,0,0:0:0:0:
460,192,71402,1,0,0:0:0:0:
51,192,71641,1,0,0:0:0:0:
256,192,71641,1,0,0:0:0:0:
256,192,71760,1,0,0:0:0:0:
358,192,71760,1,0,0:0:0:0:
358,192,71880,1,0,0:0:0:0:
51,192,72000,1,0,0:0:0:0:
256,192,72000,1,0,0:0:0:0:
51,192,72239,1,0,0:0:0:0:
153,192,72358,1,0,0:0:0:0:
256,192,72358,1,0,0:0:0:0:
51,192,72478,1,0,0:0:0:0:
358,192,72597,1,0,0:0:0:0:
256,192,72717,1,0,0:0:0:0:
460,192,72717,1,0,0:0:0:0:
153,192,72836,1,0,0:0:0:0:
153,192,72956,1,0,0:0:0:0:
51,192,73075,1,0,0:0:0:0:
256,192,73075,1,0,0:0:0:0:
460,192,73195,1,0,0:0:0:0:
256,192,73314,1,0,0:0:0:0:
358,192,73314,1,0,0:0:0:0:
153,192,73434,1,0,0:0:0:0:
256,192,73434,1,0,0:0:0:0:
460,192,73434,1,0,0:0:0:0:
153,192,73553,1,0,0:0:0:0:
153,192,73673,1,0,0:0:0:0:
153,192,73792,1,0,0:0:0:0:
256,192,73792,1,0,0:0:0:0:
460,192,74031,1,0,0:0:0:0:
153,192,74152,1,0,0:0:0:0:
256,192,74152,1,0,0:0:0:0:
460,192,74152,1,0,0:0:0:0:
358,192,74271,1,0,0:0:0:0:
256,192,74391,1,0,0:0:0:0:
460,192,74391,1,0,0:0:0:0:
153,192,74510,1,0,0:0:0:0:
256,192,74630,1,0,0:0:0:0:
358,192,74630,1,0,0:0:0:0:
51,192,74749,1,0,0:0:0:0:
153,192,74869,1,0,0:0:0:0:
51,192,74988,1,0,0:0:0:0:
256,192,74988,1,0,0:0:0:0:
358,192,74988,1,0,0:0:0:0:
358,192,75107,1,0,0:0:0:0:
358,192,75227,1,0,0:0:0:0:
256,192,75346,1,0,0:0:0:0:
358,192,75346,1,0,0:0:0:0:
51,192,75585,1,0,0:0:0:0:
51,192,75705,1,0,0:0:0:0:
256,192,75705,1,0,0:0:0:0:
358,192,75705,1,0,0:0:0:0:
153,192,75944,1,0,0:0:0:0:
256,192,75944,1,0,0:0:0:0:
51,192,76063,1,0,0:0:0:0:
256,192,76183,1,0,0:0:0:0:
358,192,76183,1,0,0:0:0:0:
153,192,76302,1,0,0:0:0:0:
256,192,76302,1,0,0:0:0:0:
460,192,76422,1,0,0:0:0:0:
256,192,76541,1,0,0:0:0:0:
358,192,76541,1,0,0:0:0:0:
153,192,76661,1,0,0:0:0:0:
256,192,76661,1,0,0:0:0:0:
460,192,76661,1,0,0:0:0:0:
153,192,76780,1,0,0:0:0:0:
153,192,76900,1,0,0:0:0:0:
153,192,77019,1,0,0:0:0:0:
256,192,77019,1,0,0:0:0:0:
460,192,77258,1,0,0:0:0:0:
460,192,77379,1,0,0:0:0:0:
256,192,77379,1,0,0:0:0:0:
153,192,77379,1,0,0:0:0:0:
51,192,77498,1,0,0:0:0:0:
153,192,77618,1,0,0:0:0:0:
256,192,77618,1,0,0:0:0:0:
51,192,77737,1,0,0:0:0:0:
256,192,77737,1,0,0:0:0:0:
358,192,77857,1,0,0:0:0:0:
358,192,77976,1,0,0:0:0:0:
153,192,78096,1,0,0:0:0:0:
256,192,78096,1,0,0:0:0:0:
460,192,78215,1,0,0:0:0:0:
460,192,78335,1,0,0:0:0:0:
51,192,78454,1,0,0:0:0:0:
256,192,78454,1,0,0:0:0:0:
358,192,78454,1,0,0:0:0:0:
153,192,78573,1,0,0:0:0:0:
51,192,78693,1,0,0:0:0:0:
153,192,78812,1,0,0:0:0:0:
460,192,78812,1,0,0:0:0:0:
51,192,79051,1,0,0:0:0:0:
153,192,79051,1,0,0:0:0:0:
358,192,79171,1,0,0:0:0:0:
460,192,79171,1,0,0:0:0:0:
256,192,79290,1,0,0:0:0:0:
51,192,79410,1,0,0:0:0:0:
358,192,79410,1,0,0:0:0:0:
153,192,79529,1,0,0:0:0:0:
256,192,79649,1,0,0:0:0:0:
460,192,79649,1,0,0:0:0:0:
51,192,79768,1,0,0:0:0:0:
153,192,79768,1,0,0:0:0:0:
358,192,79888,1,0,0:0:0:0:
460,192,79888,1,0,0:0:0:0:
51,192,80007,1,0,0:0:0:0:
153,192,80007,1,0,0:0:0:0:
460,192,80127,1,0,0:0:0:0:
51,192,80246,1,0,0:0:0:0:
153,192,80246,1,0,0:0:0:0:
256,192,80366,1,0,0:0:0:0:
460,192,80366,1,0,0:0:0:0:
358,192,80485,1,0,0:0:0:0:
51,192,80545,1,0,0:0:0:0:
153,192,80545,1,0,0:0:0:0:
256,192,80665,1,0,0:0:0:0:
460,192,80665,1,0,0:0:0:0:
358,192,80724,1,0,0:0:0:0:
51,192,80784,1,0,0:0:0:0:
153,192,80784,1,0,0:0:0:0:
460,192,80904,1,0,0:0:0:0:
256,192,80904,1,0,0:0:0:0:
153,192,80963,1,0,0:0:0:0:
358,192,81023,1,0,0:0:0:0:
460,192,81083,1,0,0:0:0:0:
51,192,81143,1,0,0:0:0:0:
153,192,81202,1,0,0:0:0:0:
358,192,81262,1,0,0:0:0:0:
51,192,81323,1,0,0:0:0:0:
460,192,81323,128,0,82757:0:0:0:0:
51,192,81442,1,0,0:0:0:0:
153,192,81681,1,0,0:0:0:0:
256,192,81801,1,0,0:0:0:0:
358,192,81920,1,0,0:0:0:0:
358,192,82159,1,0,0:0:0:0:
358,192,82398,1,0,0:0:0:0:
358,192,82518,1,0,0:0:0:0:
256,192,82637,1,0,0:0:0:0:
51,192,82757,128,0,84191:0:0:0:0:
153,192,82757,1,0,0:0:0:0:
153,192,82876,1,0,0:0:0:0:
256,192,83115,1,0,0:0:0:0:
358,192,83235,1,0,0:0:0:0:
460,192,83354,1,0,0:0:0:0:
460,192,83593,1,0,0:0:0:0:
460,192,83832,1,0,0:0:0:0:
358,192,83952,1,0,0:0:0:0:
153,192,84072,1,0,0:0:0:0:
460,192,84191,1,0,0:0:0:0:
358,192,84230,1,0,0:0:0:0:
256,192,84270,1,0,0:0:0:0:
153,192,84310,1,0,0:0:0:0:
51,192,84350,1,0,0:0:0:0:
460,192,84390,1,0,0:0:0:0:
358,192,84430,1,0,0:0:0:0:
256,192,84469,1,0,0:0:0:0:
153,192,84509,1,0,0:0:0:0:
51,192,84549,1,0,0:0:0:0:
358,192,84589,1,0,0:0:0:0:
460,192,84629,1,0,0:0:0:0:
153,192,84669,1,0,0:0:0:0:
256,192,84748,1,0,0:0:0:0:
358,192,84828,128,0,85067:0:0:0:0:
51,192,85147,1,0,0:0:0:0:
153,192,85147,1,0,0:0:0:0:
358,192,85147,1,0,0:0:0:0:
460,192,85147,1,0,0:0:0:0:
153,192,85387,1,0,0:0:0:0:
256,192,85387,1,0,0:0:0:0:
460,192,85446,1,0,0:0:0:0:
51,192,85626,1,0,0:0:0:0:
358,192,85626,1,0,0:0:0:0:
460,192,85626,1,0,0:0:0:0:
153,192,85805,1,0,0:0:0:0:
358,192,85865,1,0,0:0:0:0:
256,192,85924,1,0,0:0:0:0:
358,192,85984,1,0,0:0:0:0:
51,192,86104,1,0,0:0:0:0:
153,192,86104,1,0,0:0:0:0:
460,192,86104,1,0,0:0:0:0:
358,192,86223,1,0,0:0:0:0:
153,192,86343,1,0,0:0:0:0:
256,192,86343,1,0,0:0:0:0:
460,192,86402,1,0,0:0:0:0:
51,192,86582,1,0,0:0:0:0:
358,192,86582,1,0,0:0:0:0:
460,192,86582,1,0,0:0:0:0:
153,192,86761,1,0,0:0:0:0:
358,192,86821,1,0,0:0:0:0:
256,192,86881,1,0,0:0:0:0:
358,192,86940,1,0,0:0:0:0:
51,192,87060,1,0,0:0:0:0:
153,192,87060,1,0,0:0:0:0:
460,192,87060,1,0,0:0:0:0:
358,192,87179,1,0,0:0:0:0:
153,192,87299,1,0,0:0:0:0:
256,192,87299,1,0,0:0:0:0:
460,192,87359,1,0,0:0:0:0:
51,192,87538,1,0,0:0:0:0:
358,192,87538,1,0,0:0:0:0:
460,192,87538,1,0,0:0:0:0:
256,192,87717,1,0,0:0:0:0:
51,192,87777,1,0,0:0:0:0:
358,192,87837,1,0,0:0:0:0:
256,192,87896,1,0,0:0:0:0:
51,192,88016,1,0,0:0:0:0:
153,192,88016,1,0,0:0:0:0:
460,192,88016,1,0,0:0:0:0:
358,192,88136,1,0,0:0:0:0:
153,192,88255,1,0,0:0:0:0:
256,192,88255,1,0,0:0:0:0:
460,192,88315,1,0,0:0:0:0:
51,192,88494,1,0,0:0:0:0:
358,192,88494,1,0,0:0:0:0:
460,192,88494,1,0,0:0:0:0:
256,192,88673,1,0,0:0:0:0:
51,192,88733,1,0,0:0:0:0:
358,192,88793,1,0,0:0:0:0:
256,192,88853,1,0,0:0:0:0:
51,192,88972,1,0,0:0:0:0:
153,192,88972,1,0,0:0:0:0:
460,192,88972,1,0,0:0:0:0:
51,192,89211,1,0,0:0:0:0:
153,192,89211,1,0,0:0:0:0:
460,192,89211,1,0,0:0:0:0:
358,192,89211,1,0,0:0:0:0:
256,192,89331,1,0,0:0:0:0:
153,192,89390,1,0,0:0:0:0:
153,192,89570,1,0,0:0:0:0:
358,192,89570,1,0,0:0:0:0:
460,192,89570,1,0,0:0:0:0:
51,192,89749,1,0,0:0:0:0:
256,192,89809,1,0,0:0:0:0:
460,192,89868,1,0,0:0:0:0:
256,192,89928,1,0,0:0:0:0:
51,192,90048,1,0,0:0:0:0:
153,192,90048,1,0,0:0:0:0:
358,192,90048,1,0,0:0:0:0:
460,192,90167,1,0,0:0:0:0:
256,192,90287,1,0,0:0:0:0:
358,192,90287,1,0,0:0:0:0:
153,192,90346,1,0,0:0:0:0:
153,192,90526,1,0,0:0:0:0:
358,192,90526,1,0,0:0:0:0:
460,192,90526,1,0,0:0:0:0:
51,192,90705,1,0,0:0:0:0:
256,192,90765,1,0,0:0:0:0:
460,192,90825,1,0,0:0:0:0:
256,192,90884,1,0,0:0:0:0:
51,192,91004,1,0,0:0:0:0:
153,192,91004,1,0,0:0:0:0:
358,192,91004,1,0,0:0:0:0:
460,192,91123,1,0,0:0:0:0:
256,192,91243,1,0,0:0:0:0:
358,192,91243,1,0,0:0:0:0:
153,192,91303,1,0,0:0:0:0:
153,192,91482,1,0,0:0:0:0:
358,192,91482,1,0,0:0:0:0:
460,192,91482,1,0,0:0:0:0:
256,192,91661,1,0,0:0:0:0:
153,192,91721,1,0,0:0:0:0:
460,192,91781,1,0,0:0:0:0:
256,192,91840,1,0,0:0:0:0:
51,192,91960,1,0,0:0:0:0:
153,192,91960,1,0,0:0:0:0:
358,192,91960,1,0,0:0:0:0:
460,192,92080,1,0,0:0:0:0:
256,192,92199,1,0,0:0:0:0:
358,192,92199,1,0,0:0:0:0:
153,192,92259,1,0,0:0:0:0:
153,192,92438,1,0,0:0:0:0:
358,192,92438,1,0,0:0:0:0:
460,192,92438,1,0,0:0:0:0:
256,192,92617,1,0,0:0:0:0:
153,192,92677,1,0,0:0:0:0:
460,192,92737,1,0,0:0:0:0:
256,192,92797,1,0,0:0:0:0:
51,192,92916,1,0,0:0:0:0:
153,192,92916,1,0,0:0:0:0:
358,192,92916,1,0,0:0:0:0:
51,192,93155,1,0,0:0:0:0:
153,192,93155,1,0,0:0:0:0:
358,192,93155,1,0,0:0:0:0:
460,192,93155,1,0,0:0:0:0:
256,192,93275,1,0,0:0:0:0:
358,192,93334,1,0,0:0:0:0:
51,192,93514,1,0,0:0:0:0:
153,192,93514,1,0,0:0:0:0:
256,192,93514,1,0,0:0:0:0:
460,192,93633,1,0,0:0:0:0:
358,192,93693,1,0,0:0:0:0:
51,192,93753,1,0,0:0:0:0:
153,192,93753,1,0,0:0:0:0:
460,192,93872,1,0,0:0:0:0:
358,192,93932,1,0,0:0:0:0:
256,192,93992,1,0,0:0:0:0:
51,192,94051,1,0,0:0:0:0:
153,192,94111,1,0,0:0:0:0:
256,192,94231,1,0,0:0:0:0:
358,192,94231,1,0,0:0:0:0:
460,192,94231,1,0,0:0:0:0:
51,192,94350,1,0,0:0:0:0:
153,192,94410,1,0,0:0:0:0:
358,192,94470,1,0,0:0:0:0:
460,192,94470,1,0,0:0:0:0:
51,192,94589,1,0,0:0:0:0:
153,192,94649,1,0,0:0:0:0:
256,192,94709,1,0,0:0:0:0:
358,192,94709,1,0,0:0:0:0:
51,192,94769,1,0,0:0:0:0:
460,192,94828,1,0,0:0:0:0:
256,192,94948,1,0,0:0:0:0:
153,192,94948,1,0,0:0:0:0:
358,192,95008,1,0,0:0:0:0:
51,192,95187,1,0,0:0:0:0:
153,192,95187,1,0,0:0:0:0:
256,192,95187,1,0,0:0:0:0:
460,192,95306,1,0,0:0:0:0:
51,192,95426,1,0,0:0:0:0:
256,192,95426,1,0,0:0:0:0:
153,192,95486,1,0,0:0:0:0:
256,192,95665,1,0,0:0:0:0:
358,192,95665,1,0,0:0:0:0:
460,192,95665,1,0,0:0:0:0:
51,192,95784,1,0,0:0:0:0:
153,192,95844,1,0,0:0:0:0:
358,192,95904,1,0,0:0:0:0:
460,192,95904,1,0,0:0:0:0:
51,192,96024,1,0,0:0:0:0:
153,192,96083,1,0,0:0:0:0:
256,192,96144,1,0,0:0:0:0:
460,192,96203,1,0,0:0:0:0:
358,192,96263,1,0,0:0:0:0:
51,192,96383,1,0,0:0:0:0:
153,192,96383,1,0,0:0:0:0:
256,192,96383,1,0,0:0:0:0:
460,192,96502,1,0,0:0:0:0:
358,192,96562,1,0,0:0:0:0:
51,192,96622,1,0,0:0:0:0:
153,192,96622,1,0,0:0:0:0:
358,192,96741,1,0,0:0:0:0:
256,192,96801,1,0,0:0:0:0:
153,192,96861,1,0,0:0:0:0:
460,192,96861,1,0,0:0:0:0:
153,192,97100,1,0,0:0:0:0:
358,192,97100,1,0,0:0:0:0:
460,192,97100,1,0,0:0:0:0:
51,192,97100,1,0,0:0:0:0:
256,192,97219,1,0,0:0:0:0:
51,192,97278,1,0,0:0:0:0:
256,192,97458,1,0,0:0:0:0:
358,192,97458,1,0,0:0:0:0:
460,192,97458,1,0,0:0:0:0:
51,192,97577,1,0,0:0:0:0:
153,192,97637,1,0,0:0:0:0:
358,192,97697,1,0,0:0:0:0:
460,192,97697,1,0,0:0:0:0:
51,192,97816,1,0,0:0:0:0:
153,192,97876,1,0,0:0:0:0:
256,192,97936,1,0,0:0:0:0:
358,192,97936,1,0,0:0:0:0:
153,192,98175,1,0,0:0:0:0:
256,192,98175,1,0,0:0:0:0:
153,192,98414,1,0,0:0:0:0:
256,192,98414,1,0,0:0:0:0:
460,192,98473,1,0,0:0:0:0:
358,192,98533,1,0,0:0:0:0:
51,192,98653,1,0,0:0:0:0:
153,192,98653,1,0,0:0:0:0:
256,192,98653,1,0,0:0:0:0:
460,192,98772,1,0,0:0:0:0:
358,192,98832,1,0,0:0:0:0:
51,192,98892,1,0,0:0:0:0:
153,192,98892,1,0,0:0:0:0:
256,192,99011,1,0,0:0:0:0:
51,192,99071,1,0,0:0:0:0:
153,192,99131,1,0,0:0:0:0:
358,192,99131,1,0,0:0:0:0:
460,192,99131,1,0,0:0:0:0:
51,192,99370,1,0,0:0:0:0:
256,192,99370,128,0,99609:0:0:0:0:
358,192,99370,128,0,99609:0:0:0:0:
51,192,99609,1,0,0:0:0:0:
51,192,99848,1,0,0:0:0:0:
153,192,99848,1,0,0:0:0:0:
358,192,99848,1,0,0:0:0:0:
153,192,100087,128,0,100326:0:0:0:0:
256,192,100087,128,0,100326:0:0:0:0:
460,192,100087,1,0,0:0:0:0:
460,192,100326,1,0,0:0:0:0:
256,192,100565,1,0,0:0:0:0:
358,192,100565,1,0,0:0:0:0:
460,192,100565,1,0,0:0:0:0:
51,192,100804,128,0,101043:0:0:0:0:
153,192,100804,1,0,0:0:0:0:
358,192,100804,128,0,101043:0:0:0:0:
153,192,101043,1,0,0:0:0:0:
51,192,101282,1,0,0:0:0:0:
153,192,101282,1,0,0:0:0:0:
256,192,101282,1,0,0:0:0:0:
153,192,101521,128,0,101760:0:0:0:0:
358,192,101521,1,0,0:0:0:0:
460,192,101521,128,0,101760:0:0:0:0:
51,192,101760,1,0,0:0:0:0:
358,192,101760,1,0,0:0:0:0:
460,192,102000,1,0,0:0:0:0:
256,192,102000,1,0,0:0:0:0:
358,192,102239,1,0,0:0:0:0:
153,192,102239,1,0,0:0:0:0:
51,192,102239,1,0,0:0:0:0:
460,192,102478,1,0,0:0:0:0:
256,192,102597,1,0,0:0:0:0:
51,192,102597,1,0,0:0:0:0:
460,192,102717,1,0,0:0:0:0:
358,192,102717,1,0,0:0:0:0:
153,192,102717,1,0,0:0:0:0:
460,192,102956,1,0,0:0:0:0:
256,192,102956,1,0,0:0:0:0:
358,192,103195,1,0,0:0:0:0:
153,192,103195,1,0,0:0:0:0:
51,192,103195,1,0,0:0:0:0:
256,192,103434,1,0,0:0:0:0:
51,192,103434,1,0,0:0:0:0:
460,192,103553,1,0,0:0:0:0:
358,192,103553,1,0,0:0:0:0:
153,192,103553,1,0,0:0:0:0:
51,192,103673,1,0,0:0:0:0:
460,192,103793,1,0,0:0:0:0:
256,192,103793,1,0,0:0:0:0:
358,192,104032,1,0,0:0:0:0:
153,192,104032,1,0,0:0:0:0:
51,192,104032,1,0,0:0:0:0:
460,192,104271,1,0,0:0:0:0:
256,192,104390,1,0,0:0:0:0:
51,192,104390,1,0,0:0:0:0:
460,192,104510,1,0,0:0:0:0:
358,192,104510,1,0,0:0:0:0:
153,192,104510,1,0,0:0:0:0:
51,192,104629,1,0,0:0:0:0:
460,192,104749,1,0,0:0:0:0:
256,192,104749,1,0,0:0:0:0:
358,192,104988,1,0,0:0:0:0:
153,192,104988,1,0,0:0:0:0:
51,192,104988,1,0,0:0:0:0:
460,192,105227,1,0,0:0:0:0:
256,192,105346,1,0,0:0:0:0:
51,192,105346,1,0,0:0:0:0:
460,192,105466,1,0,0:0:0:0:
358,192,105466,1,0,0:0:0:0:
153,192,105466,1,0,0:0:0:0:
460,192,105705,1,0,0:0:0:0:
256,192,105705,1,0,0:0:0:0:
358,192,105944,1,0,0:0:0:0:
153,192,105944,1,0,0:0:0:0:
51,192,105944,1,0,0:0:0:0:
460,192,106183,1,0,0:0:0:0:
256,192,106302,1,0,0:0:0:0:
51,192,106302,1,0,0:0:0:0:
460,192,106422,1,0,0:0:0:0:
358,192,106422,1,0,0:0:0:0:
153,192,106422,1,0,0:0:0:0:
460,192,106661,1,0,0:0:0:0:
256,192,106661,1,0,0:0:0:0:
358,192,106900,1,0,0:0:0:0:
153,192,106900,1,0,0:0:0:0:
51,192,106900,1,0,0:0:0:0:
460,192,107020,1,0,0:0:0:0:
358,192,107139,1,0,0:0:0:0:
153,192,107139,1,0,0:0:0:0:
51,192,107139,1,0,0:0:0:0:
460,192,107259,1,0,0:0:0:0:
256,192,107259,1,0,0:0:0:0:
153,192,107378,1,0,0:0:0:0:
256,192,107498,1,0,0:0:0:0:
51,192,107498,1,0,0:0:0:0:
460,192,107737,1,0,0:0:0:0:
358,192,107737,1,0,0:0:0:0:
153,192,107737,1,0,0:0:0:0:
460,192,107976,1,0,0:0:0:0:
256,192,107976,1,0,0:0:0:0:
153,192,108095,1,0,0:0:0:0:
358,192,108095,1,0,0:0:0:0:
256,192,108215,1,0,0:0:0:0:
460,192,108215,1,0,0:0:0:0:
358,192,108454,1,0,0:0:0:0:
153,192,108454,1,0,0:0:0:0:
51,192,108454,1,0,0:0:0:0:
460,192,108573,1,0,0:0:0:0:
256,192,108573,1,0,0:0:0:0:
358,192,108693,1,0,0:0:0:0:
256,192,108812,1,0,0:0:0:0:
51,192,108812,1,0,0:0:0:0:
460,192,108932,1,0,0:0:0:0:
358,192,108932,1,0,0:0:0:0:
153,192,108932,1,0,0:0:0:0:
460,192,109171,1,0,0:0:0:0:
256,192,109171,1,0,0:0:0:0:
358,192,109410,1,0,0:0:0:0:
153,192,109410,1,0,0:0:0:0:
51,192,109410,1,0,0:0:0:0:
460,192,109589,1,0,0:0:0:0:
51,192,109589,1,0,0:0:0:0:
358,192,109649,1,0,0:0:0:0:
153,192,109649,1,0,0:0:0:0:
256,192,109768,1,0,0:0:0:0:
51,192,109768,1,0,0:0:0:0:
153,192,109888,1,0,0:0:0:0:
358,192,109888,1,0,0:0:0:0:
460,192,109888,1,0,0:0:0:0:
256,192,110007,1,0,0:0:0:0:
460,192,110127,1,0,0:0:0:0:
256,192,110246,1,0,0:0:0:0:
358,192,110366,1,0,0:0:0:0:
153,192,110366,1,0,0:0:0:0:
51,192,110366,1,0,0:0:0:0:
460,192,110605,1,0,0:0:0:0:
256,192,110605,1,0,0:0:0:0:
358,192,110844,1,0,0:0:0:0:
153,192,110844,1,0,0:0:0:0:
51,192,110844,1,0,0:0:0:0:
256,192,110963,1,0,0:0:0:0:
358,192,111023,1,0,0:0:0:0:
153,192,111083,1,0,0:0:0:0:
256,192,111202,1,0,0:0:0:0:
51,192,111202,1,0,0:0:0:0:
460,192,111322,1,0,0:0:0:0:
358,192,111322,1,0,0:0:0:0:
153,192,111322,1,0,0:0:0:0:
256,192,111562,1,0,0:0:0:0:
460,192,111562,1,0,0:0:0:0:
460,192,111681,1,0,0:0:0:0:
256,192,111681,1,0,0:0:0:0:
358,192,111801,1,0,0:0:0:0:
153,192,111801,1,0,0:0:0:0:
51,192,111801,1,0,0:0:0:0:
358,192,111920,1,0,0:0:0:0:
153,192,111920,1,0,0:0:0:0:
51,192,111920,1,0,0:0:0:0:
460,192,112040,1,0,0:0:0:0:
153,192,112099,1,0,0:0:0:0:
358,192,112159,1,0,0:0:0:0:
256,192,112159,1,0,0:0:0:0:
153,192,112279,1,0,0:0:0:0:
358,192,112338,1,0,0:0:0:0:
256,192,112398,1,0,0:0:0:0:
51,192,112398,1,0,0:0:0:0:
153,192,112518,1,0,0:0:0:0:
460,192,112638,1,0,0:0:0:0:
256,192,112638,1,0,0:0:0:0:
358,192,112877,1,0,0:0:0:0:
153,192,112877,1,0,0:0:0:0:
51,192,112877,1,0,0:0:0:0:
256,192,112996,1,0,0:0:0:0:
358,192,113056,1,0,0:0:0:0:
153,192,113116,1,0,0:0:0:0:
256,192,113235,1,0,0:0:0:0:
51,192,113235,1,0,0:0:0:0:
460,192,113355,1,0,0:0:0:0:
358,192,113355,1,0,0:0:0:0:
153,192,113355,1,0,0:0:0:0:
460,192,113594,1,0,0:0:0:0:
256,192,113594,1,0,0:0:0:0:
153,192,113713,1,0,0:0:0:0:
51,192,113713,1,0,0:0:0:0:
358,192,113713,128,0,113952:0:0:0:0:
256,192,113952,1,0,0:0:0:0:
51,192,113952,1,0,0:0:0:0:
256,192,114072,1,0,0:0:0:0:
51,192,114072,1,0,0:0:0:0:
460,192,114311,1,0,0:0:0:0:
358,192,114311,1,0,0:0:0:0:
153,192,114311,1,0,0:0:0:0:
256,192,114430,1,0,0:0:0:0:
153,192,114490,1,0,0:0:0:0:
358,192,114550,1,0,0:0:0:0:
460,192,114669,1,0,0:0:0:0:
256,192,114669,1,0,0:0:0:0:
358,192,114789,1,0,0:0:0:0:
153,192,114789,1,0,0:0:0:0:
51,192,114789,1,0,0:0:0:0:
51,192,115028,1,0,0:0:0:0:
256,192,115028,1,0,0:0:0:0:
358,192,115147,1,0,0:0:0:0:
460,192,115147,1,0,0:0:0:0:
153,192,115147,1,0,0:0:0:0:
153,192,115267,1,0,0:0:0:0:
358,192,115267,1,0,0:0:0:0:
460,192,115267,1,0,0:0:0:0:
51,192,115387,1,0,0:0:0:0:
256,192,115387,1,0,0:0:0:0:
153,192,115626,1,0,0:0:0:0:
358,192,115626,1,0,0:0:0:0:
460,192,115626,1,0,0:0:0:0:
256,192,115745,1,0,0:0:0:0:
153,192,115805,1,0,0:0:0:0:
358,192,115865,1,0,0:0:0:0:
256,192,115984,1,0,0:0:0:0:
460,192,115984,1,0,0:0:0:0:
51,192,116104,1,0,0:0:0:0:
153,192,116104,1,0,0:0:0:0:
358,192,116104,1,0,0:0:0:0:
51,192,116343,1,0,0:0:0:0:
256,192,116343,1,0,0:0:0:0:
153,192,116582,1,0,0:0:0:0:
358,192,116582,1,0,0:0:0:0:
460,192,116582,1,0,0:0:0:0:
51,192,116701,1,0,0:0:0:0:
153,192,116761,1,0,0:0:0:0:
256,192,116821,1,0,0:0:0:0:
460,192,116821,1,0,0:0:0:0:
51,192,116940,1,0,0:0:0:0:
153,192,116940,1,0,0:0:0:0:
358,192,116940,1,0,0:0:0:0:
460,192,117060,1,0,0:0:0:0:
358,192,117119,1,0,0:0:0:0:
256,192,117179,1,0,0:0:0:0:
153,192,117179,1,0,0:0:0:0:
358,192,117299,1,0,0:0:0:0:
153,192,117358,1,0,0:0:0:0:
256,192,117418,1,0,0:0:0:0:
460,192,117418,1,0,0:0:0:0:
51,192,117537,1,0,0:0:0:0:
153,192,117537,1,0,0:0:0:0:
358,192,117537,1,0,0:0:0:0:
256,192,117657,1,0,0:0:0:0:
460,192,117716,1,0,0:0:0:0:
358,192,117776,1,0,0:0:0:0:
153,192,117776,1,0,0:0:0:0:
460,192,117896,1,0,0:0:0:0:
153,192,117955,1,0,0:0:0:0:
256,192,118015,1,0,0:0:0:0:
153,192,118135,1,0,0:0:0:0:
358,192,118194,1,0,0:0:0:0:
51,192,118254,1,0,0:0:0:0:
256,192,118314,1,0,0:0:0:0:
460,192,118374,1,0,0:0:0:0:
153,192,118374,1,0,0:0:0:0:
358,192,118493,1,0,0:0:0:0:
153,192,118493,1,0,0:0:0:0:
256,192,118613,1,0,0:0:0:0:
460,192,118613,1,0,0:0:0:0:
358,192,118732,1,0,0:0:0:0:
153,192,118732,1,0,0:0:0:0:
51,192,118732,1,0,0:0:0:0:
256,192,118852,1,0,0:0:0:0:
460,192,118912,1,0,0:0:0:0:
153,192,118971,1,0,0:0:0:0:
358,192,118971,1,0,0:0:0:0:
460,192,119091,1,0,0:0:0:0:
153,192,119151,1,0,0:0:0:0:
256,192,119210,1,0,0:0:0:0:
153,192,119330,1,0,0:0:0:0:
358,192,119390,1,0,0:0:0:0:
51,192,119449,1,0,0:0:0:0:
256,192,119509,1,0,0:0:0:0:
153,192,119569,1,0,0:0:0:0:
358,192,119569,1,0,0:0:0:0:
460,192,119569,1,0,0:0:0:0:
358,192,119688,1,0,0:0:0:0:
460,192,119688,1,0,0:0:0:0:
153,192,119688,1,0,0:0:0:0:
51,192,119809,128,0,119898:0:0:0:0:
256,192,119809,1,0,0:0:0:0:
358,192,120048,128,0,120137:0:0:0:0:
256,192,120287,128,0,120376:0:0:0:0:
153,192,120526,128,0,120615:0:0:0:0:
358,192,120765,128,0,120854:0:0:0:0:
256,192,121004,128,0,121093:0:0:0:0:
153,192,121243,128,0,121332:0:0:0:0:
51,192,121482,128,0,121571:0:0:0:0:
256,192,121721,128,0,121810:0:0:0:0:
358,192,121960,128,0,122050:0:0:0:0:
153,192,122199,128,0,122289:0:0:0:0:
460,192,122438,128,0,122528:0:0:0:0:
358,192,122677,128,0,122767:0:0:0:0:
51,192,122916,128,0,123006:0:0:0:0:
460,192,123036,1,0,0:0:0:0:
153,192,123155,1,0,0:0:0:0:
256,192,123155,1,0,0:0:0:0:
358,192,123155,1,0,0:0:0:0:
358,192,123394,1,0,0:0:0:0:
51,192,123394,1,0,0:0:0:0:
153,192,123513,1,0,0:0:0:0:
460,192,123633,1,0,0:0:0:0:
358,192,123752,1,0,0:0:0:0:
460,192,123872,1,0,0:0:0:0:
256,192,123872,1,0,0:0:0:0:
51,192,123872,1,0,0:0:0:0:
153,192,123991,1,0,0:0:0:0:
256,192,124051,1,0,0:0:0:0:
460,192,124111,1,0,0:0:0:0:
153,192,124170,1,0,0:0:0:0:
358,192,124230,1,0,0:0:0:0:
460,192,124350,1,0,0:0:0:0:
256,192,124350,1,0,0:0:0:0:
51,192,124350,1,0,0:0:0:0:
153,192,124469,1,0,0:0:0:0:
51,192,124589,1,0,0:0:0:0:
460,192,124589,1,0,0:0:0:0:
358,192,124708,1,0,0:0:0:0:
460,192,124828,1,0,0:0:0:0:
153,192,124947,1,0,0:0:0:0:
51,192,125067,1,0,0:0:0:0:
358,192,125067,1,0,0:0:0:0:
153,192,125186,1,0,0:0:0:0:
460,192,125306,1,0,0:0:0:0:
256,192,125306,1,0,0:0:0:0:
51,192,125306,1,0,0:0:0:0:
460,192,125425,1,0,0:0:0:0:
358,192,125425,1,0,0:0:0:0:
153,192,125425,1,0,0:0:0:0:
51,192,125545,1,0,0:0:0:0:
358,192,125664,1,0,0:0:0:0:
460,192,125784,1,0,0:0:0:0:
256,192,125784,1,0,0:0:0:0:
358,192,125903,1,0,0:0:0:0:
51,192,125903,1,0,0:0:0:0:
460,192,126023,1,0,0:0:0:0:
153,192,126023,1,0,0:0:0:0:
256,192,126142,1,0,0:0:0:0:
51,192,126142,1,0,0:0:0:0:
358,192,126262,1,0,0:0:0:0:
153,192,126262,1,0,0:0:0:0:
460,192,126341,1,0,0:0:0:0:
51,192,126381,1,0,0:0:0:0:
358,192,126421,1,0,0:0:0:0:
256,192,126501,1,0,0:0:0:0:
153,192,126501,1,0,0:0:0:0:
460,192,126560,1,0,0:0:0:0:
153,192,126620,1,0,0:0:0:0:
358,192,126680,1,0,0:0:0:0:
460,192,126740,1,0,0:0:0:0:
256,192,126740,1,0,0:0:0:0:
51,192,126740,1,0,0:0:0:0:
460,192,126979,1,0,0:0:0:0:
256,192,126979,1,0,0:0:0:0:
51,192,126979,1,0,0:0:0:0:
460,192,127219,1,0,0:0:0:0:
153,192,127219,1,0,0:0:0:0:
358,192,127338,1,0,0:0:0:0:
460,192,127458,1,0,0:0:0:0:
256,192,127458,1,0,0:0:0:0:
51,192,127458,1,0,0:0:0:0:
153,192,127577,1,0,0:0:0:0:
358,192,127756,128,0,127876:0:0:0:0:
256,192,127756,128,0,127876:0:0:0:0:
460,192,127995,1,0,0:0:0:0:
256,192,127995,1,0,0:0:0:0:
51,192,127995,1,0,0:0:0:0:
358,192,128116,1,0,0:0:0:0:
153,192,128116,1,0,0:0:0:0:
256,192,128235,1,0,0:0:0:0:
460,192,128355,1,0,0:0:0:0:
358,192,128355,1,0,0:0:0:0:
153,192,128355,1,0,0:0:0:0:
51,192,128474,1,0,0:0:0:0:
256,192,128474,1,0,0:0:0:0:
256,192,128653,128,0,128773:0:0:0:0:
153,192,128653,128,0,128773:0:0:0:0:
460,192,128833,1,0,0:0:0:0:
51,192,128833,1,0,0:0:0:0:
358,192,128892,1,0,0:0:0:0:
256,192,128892,1,0,0:0:0:0:
460,192,129012,1,0,0:0:0:0:
153,192,129012,1,0,0:0:0:0:
358,192,129131,1,0,0:0:0:0:
460,192,129251,1,0,0:0:0:0:
256,192,129251,1,0,0:0:0:0:
51,192,129251,1,0,0:0:0:0:
153,192,129370,1,0,0:0:0:0:
358,192,129549,128,0,129669:0:0:0:0:
256,192,129549,128,0,129669:0:0:0:0:
460,192,129788,1,0,0:0:0:0:
256,192,129788,1,0,0:0:0:0:
51,192,129788,1,0,0:0:0:0:
358,192,129908,1,0,0:0:0:0:
153,192,129908,1,0,0:0:0:0:
256,192,130027,1,0,0:0:0:0:
460,192,130147,1,0,0:0:0:0:
358,192,130147,1,0,0:0:0:0:
153,192,130147,1,0,0:0:0:0:
51,192,130266,1,0,0:0:0:0:
256,192,130326,1,0,0:0:0:0:
358,192,130386,1,0,0:0:0:0:
256,192,130505,1,0,0:0:0:0:
460,192,130625,1,0,0:0:0:0:
153,192,130625,1,0,0:0:0:0:
460,192,130864,1,0,0:0:0:0:
153,192,130864,1,0,0:0:0:0:
358,192,131104,1,0,0:0:0:0:
51,192,131104,1,0,0:0:0:0:
153,192,131223,1,0,0:0:0:0:
256,192,131343,1,0,0:0:0:0:
460,192,131343,1,0,0:0:0:0:
51,192,131343,1,0,0:0:0:0:
358,192,131462,1,0,0:0:0:0:
256,192,131641,128,0,131761:0:0:0:0:
153,192,131641,128,0,131761:0:0:0:0:
460,192,131880,1,0,0:0:0:0:
256,192,131880,1,0,0:0:0:0:
51,192,131880,1,0,0:0:0:0:
358,192,132000,1,0,0:0:0:0:
153,192,132000,1,0,0:0:0:0:
256,192,132119,1,0,0:0:0:0:
358,192,132239,1,0,0:0:0:0:
153,192,132239,1,0,0:0:0:0:
51,192,132239,1,0,0:0:0:0:
256,192,132358,1,0,0:0:0:0:
460,192,132358,1,0,0:0:0:0:
358,192,132537,128,0,132657:0:0:0:0:
256,192,132537,128,0,132657:0:0:0:0:
153,192,132717,1,0,0:0:0:0:
51,192,132717,1,0,0:0:0:0:
460,192,132776,1,0,0:0:0:0:
358,192,132776,1,0,0:0:0:0:
51,192,132836,1,0,0:0:0:0:
358,192,132896,1,0,0:0:0:0:
153,192,132896,1,0,0:0:0:0:
358,192,133135,1,0,0:0:0:0:
256,192,133135,1,0,0:0:0:0:
153,192,133135,1,0,0:0:0:0:
358,192,133374,1,0,0:0:0:0:
460,192,133433,1,0,0:0:0:0:
256,192,133433,1,0,0:0:0:0:
460,192,133672,1,0,0:0:0:0:
256,192,133672,1,0,0:0:0:0:
153,192,133672,1,0,0:0:0:0:
51,192,133793,1,0,0:0:0:0:
358,192,133793,1,0,0:0:0:0:
460,192,133912,1,0,0:0:0:0:
153,192,133912,1,0,0:0:0:0:
358,192,134032,1,0,0:0:0:0:
51,192,134032,1,0,0:0:0:0:
256,192,134151,1,0,0:0:0:0:
51,192,134151,1,0,0:0:0:0:
460,192,134211,1,0,0:0:0:0:
358,192,134271,1,0,0:0:0:0:
153,192,134330,1,0,0:0:0:0:
358,192,134450,1,0,0:0:0:0:
153,192,134450,1,0,0:0:0:0:
51,192,134510,1,0,0:0:0:0:
460,192,134510,1,0,0:0:0:0:
256,192,134569,1,0,0:0:0:0:
256,192,134808,128,0,134928:0:0:0:0:
460,192,134928,1,0,0:0:0:0:
51,192,134928,1,0,0:0:0:0:
358,192,135047,1,0,0:0:0:0:
51,192,135047,1,0,0:0:0:0:
460,192,135167,1,0,0:0:0:0:
153,192,135167,1,0,0:0:0:0:
358,192,135287,1,0,0:0:0:0:
51,192,135287,1,0,0:0:0:0:
256,192,135287,1,0,0:0:0:0:
358,192,135406,1,0,0:0:0:0:
460,192,135526,1,0,0:0:0:0:
51,192,135526,1,0,0:0:0:0:
460,192,135645,1,0,0:0:0:0:
153,192,135645,1,0,0:0:0:0:
358,192,135765,1,0,0:0:0:0:
51,192,135765,1,0,0:0:0:0:
256,192,135884,1,0,0:0:0:0:
153,192,135884,1,0,0:0:0:0:
358,192,136004,1,0,0:0:0:0:
51,192,136004,1,0,0:0:0:0:
460,192,136123,1,0,0:0:0:0:
153,192,136123,1,0,0:0:0:0:
256,192,136243,1,0,0:0:0:0:
153,192,136243,1,0,0:0:0:0:
358,192,136362,1,0,0:0:0:0:
51,192,136362,1,0,0:0:0:0:
460,192,136482,1,0,0:0:0:0:
51,192,136482,1,0,0:0:0:0:
460,192,136601,1,0,0:0:0:0:
153,192,136601,1,0,0:0:0:0:
256,192,136721,1,0,0:0:0:0:
358,192,136721,1,0,0:0:0:0:
153,192,136840,128,0,136960:0:0:0:0:
460,192,136960,1,0,0:0:0:0:
51,192,136960,1,0,0:0:0:0:
256,192,137079,1,0,0:0:0:0:
460,192,137199,1,0,0:0:0:0:
153,192,137199,1,0,0:0:0:0:
51,192,137199,1,0,0:0:0:0:
358,192,137318,1,0,0:0:0:0:
256,192,137438,1,0,0:0:0:0:
153,192,137438,1,0,0:0:0:0:
460,192,137557,1,0,0:0:0:0:
256,192,137617,1,0,0:0:0:0:
460,192,137677,1,0,0:0:0:0:
153,192,137677,1,0,0:0:0:0:
358,192,137796,1,0,0:0:0:0:
51,192,137796,1,0,0:0:0:0:
256,192,137916,1,0,0:0:0:0:
153,192,137916,1,0,0:0:0:0:
51,192,138036,1,0,0:0:0:0:
460,192,138036,1,0,0:0:0:0:
358,192,138095,1,0,0:0:0:0:
460,192,138155,1,0,0:0:0:0:
256,192,138274,1,0,0:0:0:0:
153,192,138274,1,0,0:0:0:0:
358,192,138394,1,0,0:0:0:0:
51,192,138394,1,0,0:0:0:0:
460,192,138513,1,0,0:0:0:0:
51,192,138513,1,0,0:0:0:0:
256,192,138633,1,0,0:0:0:0:
153,192,138633,1,0,0:0:0:0:
460,192,138692,1,0,0:0:0:0:
358,192,138752,1,0,0:0:0:0:
153,192,138872,1,0,0:0:0:0:
51,192,138872,1,0,0:0:0:0:
460,192,138991,1,0,0:0:0:0:
256,192,138991,1,0,0:0:0:0:
358,192,139111,1,0,0:0:0:0:
153,192,139111,1,0,0:0:0:0:
153,192,139230,1,0,0:0:0:0:
256,192,139290,1,0,0:0:0:0:
358,192,139350,1,0,0:0:0:0:
460,192,139350,1,0,0:0:0:0:
51,192,139350,1,0,0:0:0:0:
153,192,139469,1,0,0:0:0:0:
358,192,139589,1,0,0:0:0:0:
256,192,139589,1,0,0:0:0:0:
51,192,139708,1,0,0:0:0:0:
358,192,139768,1,0,0:0:0:0:
460,192,139828,1,0,0:0:0:0:
153,192,139828,1,0,0:0:0:0:
256,192,139947,1,0,0:0:0:0:
358,192,140068,1,0,0:0:0:0:
51,192,140068,1,0,0:0:0:0:
460,192,140187,1,0,0:0:0:0:
256,192,140187,1,0,0:0:0:0:
460,192,140307,1,0,0:0:0:0:
153,192,140307,1,0,0:0:0:0:
358,192,140426,1,0,0:0:0:0:
51,192,140426,1,0,0:0:0:0:
460,192,140546,1,0,0:0:0:0:
256,192,140546,1,0,0:0:0:0:
153,192,140665,1,0,0:0:0:0:
460,192,140665,1,0,0:0:0:0:
358,192,140785,1,0,0:0:0:0:
51,192,140785,1,0,0:0:0:0:
460,192,140904,1,0,0:0:0:0:
51,192,140904,1,0,0:0:0:0:
460,192,141024,1,0,0:0:0:0:
153,192,141024,1,0,0:0:0:0:
256,192,141024,1,0,0:0:0:0:
51,192,141143,1,0,0:0:0:0:
358,192,141263,1,0,0:0:0:0:
256,192,141263,1,0,0:0:0:0:
51,192,141382,1,0,0:0:0:0:
153,192,141442,1,0,0:0:0:0:
358,192,141502,1,0,0:0:0:0:
460,192,141502,1,0,0:0:0:0:
256,192,141621,1,0,0:0:0:0:
51,192,141621,1,0,0:0:0:0:
358,192,141741,1,0,0:0:0:0:
153,192,141741,1,0,0:0:0:0:
256,192,141860,1,0,0:0:0:0:
460,192,141980,1,0,0:0:0:0:
358,192,142099,1,0,0:0:0:0:
51,192,142099,1,0,0:0:0:0:
153,192,142219,1,0,0:0:0:0:
256,192,142219,1,0,0:0:0:0:
51,192,142338,1,0,0:0:0:0:
256,192,142338,1,0,0:0:0:0:
153,192,142458,1,0,0:0:0:0:
358,192,142458,1,0,0:0:0:0:
256,192,142577,1,0,0:0:0:0:
460,192,142637,1,0,0:0:0:0:
51,192,142697,1,0,0:0:0:0:
256,192,142817,1,0,0:0:0:0:
460,192,142876,1,0,0:0:0:0:
51,192,142936,1,0,0:0:0:0:
153,192,142936,1,0,0:0:0:0:
256,192,143056,1,0,0:0:0:0:
153,192,143175,1,0,0:0:0:0:
358,192,143175,1,0,0:0:0:0:
460,192,143295,1,0,0:0:0:0:
51,192,143414,1,0,0:0:0:0:
153,192,143414,1,0,0:0:0:0:
256,192,143534,1,0,0:0:0:0:
51,192,143653,1,0,0:0:0:0:
358,192,143653,1,0,0:0:0:0:
460,192,143773,1,0,0:0:0:0:
256,192,143892,1,0,0:0:0:0:
358,192,143892,1,0,0:0:0:0:
153,192,144012,1,0,0:0:0:0:
51,192,144131,1,0,0:0:0:0:
256,192,144131,1,0,0:0:0:0:
460,192,144251,1,0,0:0:0:0:
153,192,144370,1,0,0:0:0:0:
358,192,144370,1,0,0:0:0:0:
256,192,144490,1,0,0:0:0:0:
358,192,144609,1,0,0:0:0:0:
51,192,144609,1,0,0:0:0:0:
460,192,144729,1,0,0:0:0:0:
51,192,144848,1,0,0:0:0:0:
153,192,144848,1,0,0:0:0:0:
256,192,144968,1,0,0:0:0:0:
153,192,145087,1,0,0:0:0:0:
358,192,145087,1,0,0:0:0:0:
460,192,145207,1,0,0:0:0:0:
51,192,145326,1,0,0:0:0:0:
153,192,145326,1,0,0:0:0:0:
256,192,145446,1,0,0:0:0:0:
51,192,145566,1,0,0:0:0:0:
358,192,145566,1,0,0:0:0:0:
460,192,145685,1,0,0:0:0:0:
256,192,145805,1,0,0:0:0:0:
358,192,145805,1,0,0:0:0:0:
153,192,145924,1,0,0:0:0:0:
51,192,146044,1,0,0:0:0:0:
256,192,146044,1,0,0:0:0:0:
460,192,146163,1,0,0:0:0:0:
153,192,146283,1,0,0:0:0:0:
358,192,146283,1,0,0:0:0:0:
256,192,146402,1,0,0:0:0:0:
358,192,146522,1,0,0:0:0:0:
51,192,146522,1,0,0:0:0:0:
460,192,146641,1,0,0:0:0:0:
153,192,146761,1,0,0:0:0:0:
256,192,146761,1,0,0:0:0:0:
358,192,146761,1,0,0:0:0:0:
51,192,146880,1,0,0:0:0:0:
153,192,147000,1,0,0:0:0:0:
460,192,147000,1,0,0:0:0:0:
256,192,147119,1,0,0:0:0:0:
358,192,147239,1,0,0:0:0:0:
460,192,147239,1,0,0:0:0:0:
51,192,147358,1,0,0:0:0:0:
256,192,147358,1,0,0:0:0:0:
358,192,147478,1,0,0:0:0:0:
153,192,147478,1,0,0:0:0:0:
51,192,147597,1,0,0:0:0:0:
256,192,147597,1,0,0:0:0:0:
358,192,147717,1,0,0:0:0:0:
460,192,147717,1,0,0:0:0:0:
153,192,147836,1,0,0:0:0:0:
51,192,147956,1,0,0:0:0:0:
256,192,147956,1,0,0:0:0:0:
460,192,148075,1,0,0:0:0:0:
153,192,148195,1,0,0:0:0:0:
358,192,148195,1,0,0:0:0:0:
256,192,148315,1,0,0:0:0:0:
51,192,148434,1,0,0:0:0:0:
358,192,148434,1,0,0:0:0:0:
460,192,148554,1,0,0:0:0:0:
153,192,148673,1,0,0:0:0:0:
256,192,148673,1,0,0:0:0:0:
358,192,148673,1,0,0:0:0:0:
51,192,148793,1,0,0:0:0:0:
153,192,148912,1,0,0:0:0:0:
460,192,148912,1,0,0:0:0:0:
256,192,149032,1,0,0:0:0:0:
153,192,149151,1,0,0:0:0:0:
358,192,149151,1,0,0:0:0:0:
460,192,149151,1,0,0:0:0:0:
51,192,149271,1,0,0:0:0:0:
153,192,149390,1,0,0:0:0:0:
358,192,149390,1,0,0:0:0:0:
256,192,149510,1,0,0:0:0:0:
358,192,149629,1,0,0:0:0:0:
460,192,149629,1,0,0:0:0:0:
51,192,149629,1,0,0:0:0:0:
153,192,149749,1,0,0:0:0:0:
51,192,149868,1,0,0:0:0:0:
256,192,149868,1,0,0:0:0:0:
460,192,149988,1,0,0:0:0:0:
153,192,150107,1,0,0:0:0:0:
256,192,150107,1,0,0:0:0:0:
358,192,150107,1,0,0:0:0:0:
51,192,150227,1,0,0:0:0:0:
153,192,150346,1,0,0:0:0:0:
460,192,150346,1,0,0:0:0:0:
256,192,150466,1,0,0:0:0:0:
51,192,150586,1,0,0:0:0:0:
153,192,150586,128,0,152497:0:0:0:0:
358,192,150891,128,0,152497:0:0:0:0:
256,192,151196,128,0,152497:0:0:0:0:
460,192,151502,128,0,152497:0:0:0:0:
51,192,152418,128,0,152497:0:0:0:0:
