osu file format v14

[General]
AudioFilename: audio.mp3
AudioLeadIn: 0
PreviewTime: 85087
Countdown: 0
SampleSet: Normal
StackLeniency: 0.7
Mode: 3
LetterboxInBreaks: 0
SpecialStyle: 0
WidescreenStoryboard: 1

[Editor]
Bookmarks: 11551,12627,17408,26252,27149,30137,32826,34320,39101,42328,43165,48973,49929,53127,56283,57598,58853,69490,72000,74152,77379,81323,85387,96144,102000,103793,111562,112638,119809,127219,128116,131104,133793,135287,140068,150586
DistanceSpacing: 0.8
BeatDivisor: 4
GridSize: 8
TimelineZoom: 1.899999

[Metadata]
Title:Choukousoku Henbyoushi no Alien
TitleUnicode:超高速変拍子のエイリアン
Artist:mu_akaru
ArtistUnicode:耀 むー
Creator:MJH
Version:Easy
Source:東方星蓮船 ~ Undefined Fantastic Object.
Tags:Akaru Moo Muu MJHs ニコニコ動画 Niconico Douga NND 東方project 東方 Touhou Project 星蓮船 Seirensen th12 UFO 封獣ぬえ Houjuu Nue theme 平安のエイリアン Heian no Alien ZUN 上海アリス幻樂団 Team Shanghai Alice video game electronic instrumental remix arrange D&B DnB D'n'B drum'n'bass drum and bass breakbeats drumstep breakcore
BeatmapID:2760099
BeatmapSetID:1324800

[Difficulty]
HPDrainRate:7
CircleSize:5
OverallDifficulty:6.5
ApproachRate:5
SliderMultiplier:1.4
SliderTickRate:1

[Events]
//Background and Video events
0,0,"henbyousi.jpg",0,0
//Break Periods
//Storyboard Layer 0 (Background)
//Storyboard Layer 1 (Fail)
//Storyboard Layer 2 (Pass)
//Storyboard Layer 3 (Foreground)
//Storyboard Layer 4 (Overlay)
//Storyboard Sound Samples

[TimingPoints]
1033,239.044,4,1,1,90,1,0
3782,239.044,4,1,1,90,1,0
7487,239.044,3,1,1,90,1,0
8204,239.044,4,1,1,90,1,0
9160,239.044,6,1,1,90,1,0
11551,239.044,5,1,1,90,1,0
12627,239.044,6,1,1,90,1,0
15376,239.044,4,1,1,90,1,0
16332,239.044,5,1,1,90,1,0
17408,239.044,6,1,1,90,1,0
18842,239.044,4,1,1,90,1,0
22427,239.044,7,1,1,90,1,0
23144,239.044,4,1,1,90,1,0
25056,239.044,3,1,1,90,1,0
26252,239.044,4,1,1,90,1,0
27149,239.044,4,1,1,90,1,0
28045,239.044,4,1,1,90,1,0
28941,239.044,3,1,1,90,1,0
30137,239.044,4,1,1,90,1,0
31033,239.044,4,1,1,90,1,0
31929,239.044,4,1,1,90,1,0
32826,239.044,5,1,1,90,1,0
33961,239.044,4,1,1,90,1,1
34320,239.044,4,1,1,90,1,1
37188,239.044,5,1,1,90,1,1
39101,239.044,4,1,1,90,1,1
41491,239.044,4,1,1,90,1,0
42328,239.044,4,1,1,90,1,0
43165,239.044,4,1,1,90,1,0
44001,251.046,4,1,1,90,1,0
44001,-95.21913303,4,1,1,90,0,0
44252,239.044,4,1,1,30,1,8
44969,239.044,4,1,1,30,1,0
45865,239.044,4,1,1,30,1,0
46821,239.044,5,1,1,30,1,0
48813,239.044,4,1,1,30,1,0
48973,239.044,4,1,1,30,1,8
49546,239.044,4,1,1,30,1,0
49929,239.044,4,1,1,30,1,8
50228,239.044,4,1,1,30,1,0
50856,239.044,3,1,1,30,1,0
53127,231.66,4,1,1,30,1,8
53127,-103.1873542,4,1,1,30,0,0
53474,239.044,3,1,1,50,1,0
56283,239.044,3,1,1,50,1,0
57598,239.044,3,1,1,50,1,0
58853,239.044,4,1,1,50,1,0
68414,239.044,3,1,1,50,1,0
69490,239.044,3,1,1,50,1,0
70685,239.044,3,1,1,50,1,0
72000,239.044,3,1,1,50,1,0
74152,239.044,4,1,1,50,1,0
74988,239.044,3,1,1,50,1,0
75705,239.044,4,1,1,50,1,0
76661,239.044,3,1,1,50,1,0
77379,239.044,5,1,1,50,1,0
78454,239.044,3,1,1,50,1,0
79171,239.044,5,1,1,50,1,0
81323,239.044,6,1,1,50,1,0
84191,239.044,4,1,1,90,1,0
85387,239.044,4,1,1,90,1,0
89331,239.044,4,1,1,90,1,0
93275,239.044,3,1,1,90,1,0
96144,239.044,4,1,1,90,1,0
97219,239.044,3,1,1,90,1,0
98414,239.044,3,1,1,90,1,0
102000,239.044,4,1,1,90,1,0
103793,239.044,4,1,1,90,1,0
107498,239.044,3,1,1,90,1,0
108215,239.044,4,1,1,90,1,0
109171,239.044,6,1,1,90,1,0
111562,239.044,5,1,1,90,1,0
112638,239.044,6,1,1,90,1,0
115387,239.044,4,1,1,90,1,0
116343,239.044,5,1,1,90,1,0
117418,239.044,5,1,1,90,1,0
119809,239.044,4,1,1,90,1,0
123394,239.044,4,1,1,90,1,0
124111,239.044,4,1,1,90,1,0
126023,239.044,3,1,1,90,1,0
127219,239.044,4,1,1,90,1,0
128116,239.044,4,1,1,90,1,0
129012,239.044,4,1,1,90,1,0
129908,239.044,3,1,1,90,1,0
131104,239.044,4,1,1,90,1,0
132000,239.044,4,1,1,90,1,0
132896,239.044,4,1,1,90,1,0
133793,239.044,5,1,1,90,1,0
134928,239.044,4,1,1,90,1,1
135287,239.044,4,1,1,90,1,1
138155,239.044,5,1,1,90,1,1
140068,239.044,4,1,1,90,1,1
142936,-100,4,1,1,90,0,0
150586,305.344,6,1,1,90,1,0
150586,-78.28672733,6,1,1,90,0,0
152418,239.044,4,1,1,90,1,0

[HitObjects]
256,192,1690,5,0,0:0:0:0:
51,192,1989,1,0,0:0:0:0:
460,192,1989,1,0,0:0:0:0:
153,192,2467,1,0,0:0:0:0:
460,192,2945,1,0,0:0:0:0:
358,192,3303,1,0,0:0:0:0:
51,192,3782,1,0,0:0:0:0:
460,192,3782,1,0,0:0:0:0:
153,192,4260,1,0,0:0:0:0:
460,192,4618,1,0,0:0:0:0:
358,192,4977,128,0,5455:0:0:0:0:
51,192,5694,1,0,0:0:0:0:
460,192,5694,1,0,0:0:0:0:
153,192,6172,1,0,0:0:0:0:
460,192,6650,128,0,7128:0:0:0:0:
358,192,7487,1,0,0:0:0:0:
51,192,7965,1,0,0:0:0:0:
51,192,8204,1,0,0:0:0:0:
460,192,8204,1,0,0:0:0:0:
153,192,8682,1,0,0:0:0:0:
460,192,9160,1,0,0:0:0:0:
358,192,9518,128,0,10355:0:0:0:0:
153,192,9877,128,0,10355:0:0:0:0:
51,192,10594,1,0,0:0:0:0:
460,192,10594,1,0,0:0:0:0:
358,192,10833,1,0,0:0:0:0:
153,192,11311,1,0,0:0:0:0:
51,192,11551,1,0,0:0:0:0:
358,192,11790,1,0,0:0:0:0:
256,192,12148,1,0,0:0:0:0:
460,192,12387,1,0,0:0:0:0:
460,192,12627,1,0,0:0:0:0:
51,192,12627,1,0,0:0:0:0:
358,192,12866,1,0,0:0:0:0:
153,192,13344,1,0,0:0:0:0:
51,192,13583,1,0,0:0:0:0:
358,192,13702,128,0,14061:0:0:0:0:
153,192,14061,1,0,0:0:0:0:
460,192,14300,1,0,0:0:0:0:
51,192,14778,1,0,0:0:0:0:
256,192,15017,1,0,0:0:0:0:
460,192,15376,1,0,0:0:0:0:
51,192,15376,1,0,0:0:0:0:
358,192,15615,1,0,0:0:0:0:
153,192,16093,1,0,0:0:0:0:
51,192,16332,1,0,0:0:0:0:
358,192,16571,1,0,0:0:0:0:
51,192,16690,1,0,0:0:0:0:
358,192,16929,1,0,0:0:0:0:
51,192,17049,1,0,0:0:0:0:
460,192,17288,1,0,0:0:0:0:
153,192,17408,1,0,0:0:0:0:
460,192,17647,1,0,0:0:0:0:
153,192,17766,1,0,0:0:0:0:
153,192,18125,128,0,18483:0:0:0:0:
358,192,18483,128,0,18842:0:0:0:0:
256,192,18842,1,0,0:0:0:0:
51,192,19320,1,0,0:0:0:0:
358,192,19798,1,0,0:0:0:0:
153,192,20276,1,0,0:0:0:0:
256,192,20754,1,0,0:0:0:0:
460,192,21232,1,0,0:0:0:0:
153,192,21710,1,0,0:0:0:0:
358,192,22188,1,0,0:0:0:0:
51,192,22427,1,0,0:0:0:0:
460,192,22666,1,0,0:0:0:0:
256,192,22905,1,0,0:0:0:0:
358,192,23144,1,0,0:0:0:0:
51,192,23622,1,0,0:0:0:0:
153,192,24100,1,0,0:0:0:0:
460,192,24339,1,0,0:0:0:0:
256,192,24578,1,0,0:0:0:0:
358,192,24936,1,0,0:0:0:0:
153,192,25175,1,0,0:0:0:0:
460,192,25534,1,0,0:0:0:0:
256,192,25773,1,0,0:0:0:0:
256,192,26012,1,0,0:0:0:0:
51,192,26252,1,0,0:0:0:0:
358,192,26252,1,0,0:0:0:0:
460,192,26491,1,0,0:0:0:0:
358,192,26789,1,0,0:0:0:0:
153,192,27028,1,0,0:0:0:0:
460,192,27149,1,0,0:0:0:0:
51,192,27388,1,0,0:0:0:0:
358,192,27686,1,0,0:0:0:0:
51,192,27925,1,0,0:0:0:0:
153,192,28045,1,0,0:0:0:0:
358,192,28284,1,0,0:0:0:0:
51,192,28582,1,0,0:0:0:0:
460,192,28821,1,0,0:0:0:0:
153,192,28941,1,0,0:0:0:0:
358,192,29180,1,0,0:0:0:0:
153,192,29419,1,0,0:0:0:0:
256,192,29658,1,0,0:0:0:0:
256,192,29897,1,0,0:0:0:0:
51,192,30137,1,0,0:0:0:0:
358,192,30137,1,0,0:0:0:0:
460,192,30376,1,0,0:0:0:0:
358,192,30674,1,0,0:0:0:0:
153,192,30913,1,0,0:0:0:0:
460,192,31033,1,0,0:0:0:0:
51,192,31272,1,0,0:0:0:0:
358,192,31570,1,0,0:0:0:0:
51,192,31809,1,0,0:0:0:0:
256,192,31929,1,0,0:0:0:0:
256,192,32168,1,0,0:0:0:0:
460,192,32466,1,0,0:0:0:0:
460,192,32705,1,0,0:0:0:0:
153,192,32826,1,0,0:0:0:0:
153,192,33065,1,0,0:0:0:0:
358,192,33363,1,0,0:0:0:0:
358,192,33602,1,0,0:0:0:0:
358,192,33841,1,0,0:0:0:0:
51,192,33961,1,0,0:0:0:0:
460,192,34200,1,0,0:0:0:0:
153,192,34320,1,0,0:0:0:0:
358,192,34559,1,0,0:0:0:0:
51,192,34798,1,0,0:0:0:0:
460,192,35037,1,0,0:0:0:0:
153,192,35276,1,0,0:0:0:0:
256,192,35515,1,0,0:0:0:0:
460,192,35754,1,0,0:0:0:0:
358,192,35993,1,0,0:0:0:0:
153,192,36232,1,0,0:0:0:0:
51,192,36232,1,0,0:0:0:0:
460,192,36471,1,0,0:0:0:0:
153,192,36710,1,0,0:0:0:0:
358,192,36949,1,0,0:0:0:0:
51,192,37069,1,0,0:0:0:0:
256,192,37307,1,0,0:0:0:0:
460,192,37546,1,0,0:0:0:0:
256,192,37666,128,0,38144:0:0:0:0:
358,192,38144,1,0,0:0:0:0:
51,192,38383,1,0,0:0:0:0:
256,192,38383,1,0,0:0:0:0:
460,192,38622,1,0,0:0:0:0:
153,192,38861,1,0,0:0:0:0:
358,192,39101,1,0,0:0:0:0:
51,192,39340,1,0,0:0:0:0:
358,192,39459,1,0,0:0:0:0:
358,192,39818,1,0,0:0:0:0:
153,192,40057,1,0,0:0:0:0:
256,192,40057,1,0,0:0:0:0:
460,192,40296,1,0,0:0:0:0:
256,192,40535,1,0,0:0:0:0:
358,192,40774,1,0,0:0:0:0:
51,192,41013,1,0,0:0:0:0:
256,192,41252,1,0,0:0:0:0:
358,192,41491,1,0,0:0:0:0:
153,192,41730,1,0,0:0:0:0:
153,192,41969,1,0,0:0:0:0:
460,192,42088,1,0,0:0:0:0:
358,192,42208,1,0,0:0:0:0:
51,192,42328,1,0,0:0:0:0:
460,192,42567,128,0,42925:0:0:0:0:
153,192,42925,1,0,0:0:0:0:
358,192,43165,1,0,0:0:0:0:
51,192,43404,128,0,43762:0:0:0:0:
358,192,43762,1,0,0:0:0:0:
256,192,43882,1,0,0:0:0:0:
153,192,44001,1,0,0:0:0:0:
51,192,44491,1,0,0:0:0:0:
358,192,44969,1,0,0:0:0:0:
153,192,45447,1,0,0:0:0:0:
51,192,45865,1,0,0:0:0:0:
256,192,46343,1,0,0:0:0:0:
153,192,46821,1,0,0:0:0:0:
460,192,47299,1,0,0:0:0:0:
256,192,47777,1,0,0:0:0:0:
51,192,48016,1,0,0:0:0:0:
460,192,48494,1,0,0:0:0:0:
358,192,48813,1,0,0:0:0:0:
51,192,49164,1,0,0:0:0:0:
153,192,49546,1,0,0:0:0:0:
460,192,49929,1,0,0:0:0:0:
256,192,50228,1,0,0:0:0:0:
358,192,50467,1,0,0:0:0:0:
153,192,50616,1,0,0:0:0:0:
460,192,50856,1,0,0:0:0:0:
358,192,51214,1,0,0:0:0:0:
256,192,51573,1,0,0:0:0:0:
51,192,51931,1,0,0:0:0:0:
460,192,52290,1,0,0:0:0:0:
153,192,52648,1,0,0:0:0:0:
358,192,53007,1,0,0:0:0:0:
51,192,53474,1,0,0:0:0:0:
460,192,53474,1,0,0:0:0:0:
256,192,54191,1,0,0:0:0:0:
153,192,54908,1,0,0:0:0:0:
358,192,54908,1,0,0:0:0:0:
256,192,55625,1,0,0:0:0:0:
51,192,56283,1,0,0:0:0:0:
460,192,56283,1,0,0:0:0:0:
256,192,57000,1,0,0:0:0:0:
153,192,57598,1,0,0:0:0:0:
358,192,57598,1,0,0:0:0:0:
256,192,58315,1,0,0:0:0:0:
460,192,58853,1,0,0:0:0:0:
358,192,59331,1,0,0:0:0:0:
153,192,59809,1,0,0:0:0:0:
51,192,60287,1,0,0:0:0:0:
358,192,60765,1,0,0:0:0:0:
460,192,60765,128,0,61721:0:0:0:0:
153,192,61721,128,0,62677:0:0:0:0:
358,192,62677,128,0,63633:0:0:0:0:
51,192,63633,128,0,64590:0:0:0:0:
256,192,64590,128,0,65546:0:0:0:0:
460,192,65546,128,0,66502:0:0:0:0:
358,192,66502,128,0,67458:0:0:0:0:
153,192,67458,128,0,68414:0:0:0:0:
256,192,68414,1,0,0:0:0:0:
460,192,68772,1,0,0:0:0:0:
460,192,69131,1,0,0:0:0:0:
256,192,69490,1,0,0:0:0:0:
460,192,69848,1,0,0:0:0:0:
460,192,70207,1,0,0:0:0:0:
460,192,70446,1,0,0:0:0:0:
256,192,70685,1,0,0:0:0:0:
51,192,71043,1,0,0:0:0:0:
51,192,71402,1,0,0:0:0:0:
51,192,71641,1,0,0:0:0:0:
256,192,72000,1,0,0:0:0:0:
51,192,72358,1,0,0:0:0:0:
51,192,72717,1,0,0:0:0:0:
51,192,73075,1,0,0:0:0:0:
256,192,73434,1,0,0:0:0:0:
358,192,73792,1,0,0:0:0:0:
358,192,74152,1,0,0:0:0:0:
256,192,74391,1,0,0:0:0:0:
358,192,74630,1,0,0:0:0:0:
256,192,74988,1,0,0:0:0:0:
358,192,75346,1,0,0:0:0:0:
358,192,75705,1,0,0:0:0:0:
256,192,75944,1,0,0:0:0:0:
358,192,76302,1,0,0:0:0:0:
256,192,76661,1,0,0:0:0:0:
153,192,77019,1,0,0:0:0:0:
153,192,77379,1,0,0:0:0:0:
256,192,77737,1,0,0:0:0:0:
153,192,78096,1,0,0:0:0:0:
256,192,78454,1,0,0:0:0:0:
460,192,78812,1,0,0:0:0:0:
460,192,79171,1,0,0:0:0:0:
256,192,79410,1,0,0:0:0:0:
153,192,79649,1,0,0:0:0:0:
358,192,79888,1,0,0:0:0:0:
358,192,80246,1,0,0:0:0:0:
153,192,80485,1,0,0:0:0:0:
153,192,80724,1,0,0:0:0:0:
153,192,80963,1,0,0:0:0:0:
256,192,81202,1,0,0:0:0:0:
51,192,81442,1,0,0:0:0:0:
358,192,81681,1,0,0:0:0:0:
460,192,81920,1,0,0:0:0:0:
460,192,82159,1,0,0:0:0:0:
460,192,82398,1,0,0:0:0:0:
256,192,82637,1,0,0:0:0:0:
51,192,82876,1,0,0:0:0:0:
153,192,83115,1,0,0:0:0:0:
358,192,83354,1,0,0:0:0:0:
358,192,83593,1,0,0:0:0:0:
358,192,83832,1,0,0:0:0:0:
256,192,84072,1,0,0:0:0:0:
51,192,84191,1,0,0:0:0:0:
51,192,85147,1,0,0:0:0:0:
460,192,85147,1,0,0:0:0:0:
358,192,85626,1,0,0:0:0:0:
51,192,85865,1,0,0:0:0:0:
358,192,86104,1,0,0:0:0:0:
460,192,86582,1,0,0:0:0:0:
153,192,86821,1,0,0:0:0:0:
460,192,87060,1,0,0:0:0:0:
358,192,87538,1,0,0:0:0:0:
51,192,87777,1,0,0:0:0:0:
358,192,88016,1,0,0:0:0:0:
460,192,88494,1,0,0:0:0:0:
51,192,88733,1,0,0:0:0:0:
460,192,88972,1,0,0:0:0:0:
153,192,89211,1,0,0:0:0:0:
358,192,89211,1,0,0:0:0:0:
51,192,89570,1,0,0:0:0:0:
358,192,89809,1,0,0:0:0:0:
51,192,90048,1,0,0:0:0:0:
153,192,90526,1,0,0:0:0:0:
460,192,90765,1,0,0:0:0:0:
153,192,91004,1,0,0:0:0:0:
51,192,91482,1,0,0:0:0:0:
358,192,91721,1,0,0:0:0:0:
51,192,91960,1,0,0:0:0:0:
153,192,92438,1,0,0:0:0:0:
460,192,92677,1,0,0:0:0:0:
153,192,92916,1,0,0:0:0:0:
51,192,93155,1,0,0:0:0:0:
460,192,93155,1,0,0:0:0:0:
358,192,93514,1,0,0:0:0:0:
358,192,93753,1,0,0:0:0:0:
51,192,93992,1,0,0:0:0:0:
256,192,94231,1,0,0:0:0:0:
256,192,94470,1,0,0:0:0:0:
153,192,94709,1,0,0:0:0:0:
153,192,94948,1,0,0:0:0:0:
460,192,95187,1,0,0:0:0:0:
256,192,95426,1,0,0:0:0:0:
358,192,95665,1,0,0:0:0:0:
358,192,95904,1,0,0:0:0:0:
51,192,96144,1,0,0:0:0:0:
256,192,96383,1,0,0:0:0:0:
256,192,96622,1,0,0:0:0:0:
153,192,97100,1,0,0:0:0:0:
358,192,97100,1,0,0:0:0:0:
460,192,97458,1,0,0:0:0:0:
460,192,97697,1,0,0:0:0:0:
153,192,97936,1,0,0:0:0:0:
153,192,98175,1,0,0:0:0:0:
358,192,98414,1,0,0:0:0:0:
51,192,98653,1,0,0:0:0:0:
51,192,98892,1,0,0:0:0:0:
460,192,99131,1,0,0:0:0:0:
460,192,99370,1,0,0:0:0:0:
358,192,99848,1,0,0:0:0:0:
358,192,100087,1,0,0:0:0:0:
51,192,100565,1,0,0:0:0:0:
51,192,100804,1,0,0:0:0:0:
153,192,101282,1,0,0:0:0:0:
153,192,101521,1,0,0:0:0:0:
51,192,102000,1,0,0:0:0:0:
460,192,102000,1,0,0:0:0:0:
153,192,102478,1,0,0:0:0:0:
460,192,102956,1,0,0:0:0:0:
358,192,103314,1,0,0:0:0:0:
51,192,103793,1,0,0:0:0:0:
460,192,103793,1,0,0:0:0:0:
153,192,104271,1,0,0:0:0:0:
460,192,104629,1,0,0:0:0:0:
358,192,104988,128,0,105466:0:0:0:0:
51,192,105705,1,0,0:0:0:0:
460,192,105705,1,0,0:0:0:0:
153,192,106183,1,0,0:0:0:0:
460,192,106661,128,0,107139:0:0:0:0:
358,192,107498,1,0,0:0:0:0:
51,192,107976,1,0,0:0:0:0:
51,192,108215,1,0,0:0:0:0:
460,192,108215,1,0,0:0:0:0:
153,192,108693,1,0,0:0:0:0:
460,192,109171,1,0,0:0:0:0:
358,192,109529,128,0,110366:0:0:0:0:
153,192,109888,128,0,110366:0:0:0:0:
51,192,110605,1,0,0:0:0:0:
460,192,110605,1,0,0:0:0:0:
358,192,110844,1,0,0:0:0:0:
153,192,111322,1,0,0:0:0:0:
51,192,111562,1,0,0:0:0:0:
358,192,111801,1,0,0:0:0:0:
256,192,112159,1,0,0:0:0:0:
460,192,112398,1,0,0:0:0:0:
460,192,112638,1,0,0:0:0:0:
51,192,112638,1,0,0:0:0:0:
358,192,112877,1,0,0:0:0:0:
153,192,113355,1,0,0:0:0:0:
51,192,113594,1,0,0:0:0:0:
358,192,113713,128,0,114072:0:0:0:0:
153,192,114072,1,0,0:0:0:0:
460,192,114311,1,0,0:0:0:0:
51,192,114789,1,0,0:0:0:0:
256,192,115028,1,0,0:0:0:0:
51,192,115387,1,0,0:0:0:0:
460,192,115387,1,0,0:0:0:0:
358,192,115626,1,0,0:0:0:0:
153,192,116104,1,0,0:0:0:0:
51,192,116343,1,0,0:0:0:0:
358,192,116582,1,0,0:0:0:0:
460,192,116821,1,0,0:0:0:0:
153,192,116940,1,0,0:0:0:0:
256,192,117179,1,0,0:0:0:0:
51,192,117418,1,0,0:0:0:0:
358,192,117537,1,0,0:0:0:0:
256,192,117776,1,0,0:0:0:0:
460,192,118254,1,0,0:0:0:0:
51,192,118613,1,0,0:0:0:0:
358,192,118732,1,0,0:0:0:0:
256,192,118971,1,0,0:0:0:0:
460,192,119449,1,0,0:0:0:0:
153,192,119569,1,0,0:0:0:0:
358,192,119688,1,0,0:0:0:0:
256,192,119809,1,0,0:0:0:0:
51,192,120287,1,0,0:0:0:0:
358,192,120765,1,0,0:0:0:0:
153,192,121243,1,0,0:0:0:0:
256,192,121721,1,0,0:0:0:0:
460,192,122199,1,0,0:0:0:0:
153,192,122677,1,0,0:0:0:0:
358,192,123155,1,0,0:0:0:0:
51,192,123394,1,0,0:0:0:0:
460,192,123633,1,0,0:0:0:0:
256,192,123872,1,0,0:0:0:0:
358,192,124111,1,0,0:0:0:0:
51,192,124589,1,0,0:0:0:0:
153,192,125067,1,0,0:0:0:0:
460,192,125306,1,0,0:0:0:0:
256,192,125545,1,0,0:0:0:0:
358,192,125903,1,0,0:0:0:0:
153,192,126142,1,0,0:0:0:0:
460,192,126501,1,0,0:0:0:0:
256,192,126740,1,0,0:0:0:0:
256,192,126979,1,0,0:0:0:0:
51,192,127219,1,0,0:0:0:0:
358,192,127219,1,0,0:0:0:0:
460,192,127458,1,0,0:0:0:0:
358,192,127756,1,0,0:0:0:0:
153,192,127995,1,0,0:0:0:0:
460,192,128116,1,0,0:0:0:0:
51,192,128355,1,0,0:0:0:0:
358,192,128653,1,0,0:0:0:0:
51,192,128892,1,0,0:0:0:0:
153,192,129012,1,0,0:0:0:0:
358,192,129251,1,0,0:0:0:0:
51,192,129549,1,0,0:0:0:0:
460,192,129788,1,0,0:0:0:0:
153,192,129908,1,0,0:0:0:0:
358,192,130147,1,0,0:0:0:0:
153,192,130386,1,0,0:0:0:0:
256,192,130625,1,0,0:0:0:0:
256,192,130864,1,0,0:0:0:0:
51,192,131104,1,0,0:0:0:0:
358,192,131104,1,0,0:0:0:0:
460,192,131343,1,0,0:0:0:0:
358,192,131641,1,0,0:0:0:0:
153,192,131880,1,0,0:0:0:0:
460,192,132000,1,0,0:0:0:0:
51,192,132239,1,0,0:0:0:0:
358,192,132537,1,0,0:0:0:0:
51,192,132776,1,0,0:0:0:0:
256,192,132896,1,0,0:0:0:0:
256,192,133135,1,0,0:0:0:0:
460,192,133433,1,0,0:0:0:0:
460,192,133672,1,0,0:0:0:0:
153,192,133793,1,0,0:0:0:0:
153,192,134032,1,0,0:0:0:0:
358,192,134330,1,0,0:0:0:0:
358,192,134569,1,0,0:0:0:0:
358,192,134808,1,0,0:0:0:0:
51,192,134928,1,0,0:0:0:0:
460,192,135167,1,0,0:0:0:0:
153,192,135287,1,0,0:0:0:0:
358,192,135526,1,0,0:0:0:0:
51,192,135765,1,0,0:0:0:0:
460,192,136004,1,0,0:0:0:0:
153,192,136243,1,0,0:0:0:0:
256,192,136482,1,0,0:0:0:0:
460,192,136721,1,0,0:0:0:0:
358,192,136960,1,0,0:0:0:0:
153,192,137199,1,0,0:0:0:0:
51,192,137199,1,0,0:0:0:0:
460,192,137438,1,0,0:0:0:0:
153,192,137677,1,0,0:0:0:0:
358,192,137916,1,0,0:0:0:0:
51,192,138036,1,0,0:0:0:0:
256,192,138274,1,0,0:0:0:0:
460,192,138513,1,0,0:0:0:0:
256,192,138633,128,0,139111:0:0:0:0:
358,192,139111,1,0,0:0:0:0:
51,192,139350,1,0,0:0:0:0:
256,192,139350,1,0,0:0:0:0:
460,192,139589,1,0,0:0:0:0:
153,192,139828,1,0,0:0:0:0:
358,192,140068,1,0,0:0:0:0:
51,192,140307,1,0,0:0:0:0:
358,192,140426,1,0,0:0:0:0:
358,192,140785,1,0,0:0:0:0:
153,192,141024,1,0,0:0:0:0:
256,192,141024,1,0,0:0:0:0:
460,192,141263,1,0,0:0:0:0:
256,192,141502,1,0,0:0:0:0:
358,192,141741,1,0,0:0:0:0:
51,192,141980,1,0,0:0:0:0:
153,192,142219,1,0,0:0:0:0:
256,192,142458,1,0,0:0:0:0:
460,192,142936,1,0,0:0:0:0:
256,192,143175,1,0,0:0:0:0:
460,192,143414,1,0,0:0:0:0:
256,192,143653,1,0,0:0:0:0:
358,192,143892,1,0,0:0:0:0:
51,192,144131,1,0,0:0:0:0:
358,192,144370,1,0,0:0:0:0:
51,192,144609,1,0,0:0:0:0:
460,192,144848,1,0,0:0:0:0:
256,192,145087,1,0,0:0:0:0:
460,192,145326,1,0,0:0:0:0:
256,192,145566,1,0,0:0:0:0:
358,192,145805,1,0,0:0:0:0:
153,192,146044,1,0,0:0:0:0:
358,192,146283,1,0,0:0:0:0:
153,192,146522,1,0,0:0:0:0:
256,192,146761,1,0,0:0:0:0:
51,192,147000,1,0,0:0:0:0:
256,192,147239,1,0,0:0:0:0:
51,192,147478,1,0,0:0:0:0:
460,192,147717,1,0,0:0:0:0:
153,192,147956,1,0,0:0:0:0:
460,192,148195,1,0,0:0:0:0:
153,192,148434,1,0,0:0:0:0:
256,192,148673,1,0,0:0:0:0:
51,192,148912,1,0,0:0:0:0:
256,192,149151,1,0,0:0:0:0:
51,192,149390,1,0,0:0:0:0:
358,192,149629,1,0,0:0:0:0:
153,192,149868,1,0,0:0:0:0:
358,192,150107,1,0,0:0:0:0:
153,192,150346,1,0,0:0:0:0:
358,192,150586,128,0,150891:0:0:0:0:
51,192,150891,128,0,151196:0:0:0:0:
153,192,151196,128,0,151502:0:0:0:0:
460,192,151502,128,0,152418:0:0:0:0:
256,192,152418,1,0,0:0:0:0:
