osu file format v14

[General]
AudioFilename: audio.mp3
AudioLeadIn: 0
PreviewTime: 133923
Countdown: 0
SampleSet: Soft
StackLeniency: 0.6
Mode: 0
LetterboxInBreaks: 0
WidescreenStoryboard: 1

[Editor]
Bookmarks: 12237,23400,34563,45726,56888,101540,168516,179679
DistanceSpacing: 1.2
BeatDivisor: 3
GridSize: 4
TimelineZoom: 1.2

[Metadata]
Title:Pow
TitleUnicode:Pow
Artist:mrsimon
ArtistUnicode:mrsimon
Creator:Skidooskei
Version:Normal
Source:
Tags:2001 nickelodeon electronic remix The Fairly OddParents fairy cartoon magic
BeatmapID:2015957
BeatmapSetID:938440

[Difficulty]
HPDrainRate:4
CircleSize:3.2
OverallDifficulty:4
ApproachRate:5.5
SliderMultiplier:1.2
SliderTickRate:1

[Events]
//Background and Video events
0,0,"POW.jpeg",0,0
//Break Periods
//Storyboard Layer 0 (Background)
//Storyboard Layer 1 (Fail)
//Storyboard Layer 2 (Pass)
//Storyboard Layer 3 (Foreground)
//Storyboard Layer 4 (Overlay)
//Storyboard Sound Samples

[TimingPoints]
1075,348.837209302326,4,2,1,15,1,0
5784,-100,4,2,1,5,0,0
6656,-100,4,2,1,15,0,0
11365,-100,4,2,1,5,0,0
12237,-111.111111111111,4,2,1,50,0,0
23400,-125,4,2,1,50,0,0
34563,-125,4,2,1,60,0,0
43981,-125,4,2,1,50,0,0
45290,-125,4,2,1,5,0,0
45377,-125,4,2,1,50,0,0
45726,-125,4,2,1,50,0,0
56888,-111.111111111111,4,2,1,55,0,0
68051,-100,4,2,1,70,0,1
78516,-100,4,2,1,50,0,0
79214,-100,4,2,1,70,0,1
89679,-111.111111111111,4,2,1,60,0,0
100144,-111.111111111111,4,2,1,50,0,0
101540,-111.111111111111,4,2,1,60,0,1
101598,-111.111111111111,4,2,1,60,0,0
111307,-111.111111111111,4,2,1,50,0,0
112702,-100,4,2,1,70,0,1
123168,-100,4,2,1,50,0,0
123865,-100,4,2,1,70,0,1
134330,-100,4,2,1,50,0,0
135028,-90.9090909090909,4,2,1,80,0,1
145493,-100,4,2,1,50,0,0
146191,-90.9090909090909,4,2,1,80,0,1
155958,-111.111111111111,4,2,1,60,0,0
168633,-111.111111111111,4,2,1,60,0,0
178284,-111.111111111111,4,2,1,40,0,0

[Colours]
Combo1 : 255,255,128
Combo2 : 255,128,128
Combo3 : 159,255,207
Combo4 : 255,197,168

[HitObjects]
256,192,1075,5,4,0:3:0:0:
256,192,1249,12,0,5784,0:0:0:0:
256,192,6656,5,4,0:3:0:0:
256,192,6830,12,0,11365,0:0:0:0:
77,302,12237,6,0,P|107:295|167:297,1,71.9999978027344,4|2,0:0|0:0,0:0:0:0:
182,321,12586,2,0,L|269:313,1,71.9999978027344,2|0,0:3|0:0,0:0:0:0:
286,286,12935,2,0,L|357:292,1,71.9999978027344,2|4,0:0|0:3,0:0:0:0:
389,321,13284,1,2,0:3:0:0:
480,229,13633,2,0,P|446:168|445:111,2,107.999996704102,4|2|4,0:3|0:3|0:3,0:0:0:0:
272,73,15028,6,0,P|287:113|289:163,1,71.9999978027344,4|2,0:3|0:0,0:0:0:0:
265,177,15377,2,0,L|272:258,1,71.9999978027344,2|0,0:3|0:0,0:0:0:0:
301,279,15726,2,0,L|293:360,1,71.9999978027344,2|4,0:0|0:3,0:0:0:0:
265,382,16075,1,2,0:3:0:0:
385,335,16423,2,0,P|436:337|500:365,2,107.999996704102,4|2|4,0:3|0:3|0:3,0:0:0:0:
392,75,17819,6,0,P|347:76|311:94,1,71.9999978027344,4|2,0:3|0:0,0:0:0:0:
299,123,18168,2,0,L|214:115,1,71.9999978027344,2|0,0:3|0:0,0:0:0:0:
197,84,18516,2,0,L|112:91,1,71.9999978027344,2|4,0:0|0:3,0:0:0:0:
91,116,18865,1,2,0:3:0:0:
171,217,19214,2,0,P|155:278|159:337,2,107.999996704102,4|2|4,0:3|0:3|0:3,0:0:0:0:
347,26,20609,6,0,P|357:76|352:111,1,71.9999978027344,4|2,0:3|0:0,0:0:0:0:
321,124,20958,2,0,L|315:199,1,71.9999978027344,2|0,0:3|0:0,0:0:0:0:
339,232,21307,2,0,L|346:307,1,71.9999978027344,2|4,0:0|0:3,0:0:0:0:
317,336,21656,1,2,0:3:0:0:
441,299,22005,6,0,L|450:187,2,107.999996704102,4|4|4,0:3|0:3|0:3,0:0:0:0:
228,210,23400,6,0,L|237:319,1,96,4|10,0:0|0:1,0:0:0:0:
140,240,24098,2,0,L|145:181,1,48,2|4,0:0|0:3,0:0:0:0:
173,142,24447,2,0,L|167:83,1,48,8|2,0:1|0:0,0:0:0:0:
197,44,24795,2,0,P|248:48|291:71,1,96,4|10,0:3|0:1,0:0:0:0:
286,183,25493,1,0,0:0:0:0:
436,209,26191,6,0,L|427:309,1,96,4|8,0:3|0:1,0:0:0:0:
324,356,26888,2,0,L|274:351,1,48,0|4,0:0|0:3,0:0:0:0:
230,316,27237,2,0,P|227:266|244:223,1,96,10|4,0:1|0:3,0:0:0:0:
287,185,27761,1,2,0:0:0:0:
287,185,27935,2,0,L|278:82,2,96,10|0|8,0:1|0:0|0:1,0:0:0:0:
186,129,28981,6,0,L|195:233,1,96,4|10,0:0|0:1,0:0:0:0:
110,303,29679,2,0,L|156:307,1,48,2|4,0:0|0:3,0:0:0:0:
204,340,30028,2,0,L|250:335,1,48,8|2,0:1|0:0,0:0:0:0:
294,296,30377,2,0,P|347:293|391:313,1,96,4|10,0:3|0:1,0:0:0:0:
480,375,31075,1,0,0:0:0:0:
333,197,31772,6,0,L|341:95,1,96,4|8,0:3|0:1,0:0:0:0:
227,123,32470,2,0,L|231:172,2,48,0|4|8,0:0|0:3|0:1,0:0:0:0:
143,43,33168,1,4,0:3:0:0:
59,121,33516,6,0,B|71:223|16:206|37:317,1,192,0|0,0:0|0:0,0:0:0:0:
141,355,34563,6,0,P|192:350|252:379,1,96,4|8,0:1|0:1,0:0:0:0:
340,321,35261,2,0,L|335:266,1,48,0|4,0:0|0:3,0:0:0:0:
368,226,35609,2,0,L|377:115,1,96,10|4,0:1|0:3,0:0:0:0:
334,89,36133,1,2,0:0:0:0:
334,89,36307,2,0,P|292:129|254:138,1,96,10|2,0:1|0:0,0:0:0:0:
25,123,37354,6,0,P|47:168|50:223,1,96,4|8,0:3|0:1,0:0:0:0:
103,315,38051,2,0,L|154:310,1,48,0|4,0:0|0:3,0:0:0:0:
187,265,38400,2,0,L|289:273,1,96,10|4,0:1|0:3,0:0:0:0:
323,312,38923,1,2,0:0:0:0:
323,312,39098,1,10,0:1:0:0:
387,216,39447,2,0,L|378:117,1,96,2|8,0:0|0:1,0:0:0:0:
487,81,40144,6,0,P|485:128|512:192,1,96,4|8,0:0|0:1,0:0:0:0:
431,266,40842,2,0,L|380:261,1,48,0|4,0:0|0:3,0:0:0:0:
341,221,41191,2,0,L|240:229,1,96,10|4,0:1|0:3,0:0:0:0:
188,236,41714,1,2,0:0:0:0:
188,236,41888,1,10,0:1:0:0:
258,144,42237,1,2,0:0:0:0:
35,84,42935,6,0,P|28:137|47:193,1,96,4|8,0:3|0:1,0:0:0:0:
134,241,43633,2,0,L|125:340,1,96,2|8,0:0|0:1,0:0:0:0:
232,295,44330,1,4,0:3:0:0:
291,196,44679,2,0,B|272:261|272:261|291:395,1,192,0|2,0:0|0:0,0:0:0:0:
194,317,45726,6,0,P|154:320|114:335,1,64,4|2,0:0|0:0,0:0:0:0:
96,343,46075,2,0,L|87:243,1,96,8|2,0:1|0:0,0:0:0:0:
19,154,46772,1,8,0:1:0:0:
78,55,47121,2,0,P|134:53|187:81,2,96,4|8|0,0:3|0:1|0:0,0:0:0:0:
303,55,48516,6,0,L|312:163,1,96,4|8,0:3|0:1,0:0:0:0:
377,245,49214,2,0,L|370:314,1,64,2|4,0:0|0:3,0:0:0:0:
339,331,49563,1,8,0:1:0:0:
256,250,49912,2,0,P|227:239|186:242,1,64,4|2,0:3|0:0,0:0:0:0:
159,257,50261,2,0,L|166:337,1,64,10|2,0:1|0:0,0:0:0:0:
141,351,50609,2,0,L|46:342,1,96,0|10,0:0|0:1,0:0:0:0:
41,227,51307,6,0,P|46:193|68:155,1,64,4|2,0:0|0:0,0:0:0:0:
89,142,51656,2,0,L|186:150,1,96,8|2,0:1|0:0,0:0:0:0:
295,117,52354,1,8,0:1:0:0:
233,19,52702,2,0,P|187:11|130:27,2,96,4|10|0,0:3|0:1|0:0,0:0:0:0:
237,249,54098,6,0,L|227:355,1,96,4|8,0:3|0:1,0:0:0:0:
321,276,54795,2,0,P|363:280|388:294,1,64,2|4,0:0|0:3,0:0:0:0:
402,322,55144,1,8,0:1:0:0:
482,240,55493,2,0,L|475:168,1,64,4|2,0:3|0:0,0:0:0:0:
447,150,55842,1,8,0:1:0:0:
464,36,56191,1,0,0:0:0:0:
207,67,56888,6,0,L|200:139,1,71.9999978027344,4|2,0:1|0:0,0:0:0:0:
167,167,57237,2,0,L|172:241,1,71.9999978027344,10|0,0:0|0:0,0:0:0:0:
191,277,57586,1,2,0:0:0:0:
286,189,57935,1,8,0:0:0:0:
378,270,58284,6,0,P|380:312|371:356,1,71.9999978027344,4|2,0:3|0:0,0:0:0:0:
341,369,58633,2,0,L|264:361,1,71.9999978027344,10|0,0:0|0:0,0:0:0:0:
237,332,58981,1,2,0:0:0:0:
11,203,59679,6,0,L|96:195,1,71.9999978027344,4|2,0:3|0:0,0:0:0:0:
119,171,60028,2,0,L|204:178,1,71.9999978027344,10|0,0:0|0:0,0:0:0:0:
224,207,60377,1,2,0:0:0:0:
343,156,60726,1,8,0:0:0:0:
354,26,61075,6,0,P|308:32|281:48,1,71.9999978027344,4|2,0:3|0:0,0:0:0:0:
265,82,61423,2,0,L|191:74,1,71.9999978027344,10|0,0:0|0:0,0:0:0:0:
165,41,61772,1,2,0:0:0:0:
406,134,62470,6,0,L|412:208,1,71.9999978027344,4|2,0:3|0:0,0:0:0:0:
437,240,62819,2,0,L|430:314,1,71.9999978027344,10|0,0:0|0:0,0:0:0:0:
400,343,63168,1,2,0:0:0:0:
297,264,63516,1,8,0:0:0:0:
183,327,63865,6,0,P|178:288|165:251,1,71.9999978027344,4|2,0:3|0:0,0:0:0:0:
141,222,64214,2,0,L|67:228,1,71.9999978027344,10|0,0:0|0:0,0:0:0:0:
44,263,64563,1,2,0:0:0:0:
217,70,65261,6,0,L|295:63,1,71.9999978027344,4|2,0:3|0:0,0:0:0:0:
326,84,65609,2,0,L|404:90,1,71.9999978027344,10|0,0:0|0:0,0:0:0:0:
431,65,65958,1,2,0:0:0:0:
355,170,66307,1,8,0:0:0:0:
468,233,66656,6,0,P|479:282|475:320,1,71.9999978027344,4|2,0:3|0:0,0:0:0:0:
451,337,67005,2,0,L|376:330,1,71.9999978027344,10|0,0:0|0:0,0:0:0:0:
339,346,67354,2,0,L|285:350,1,35.9999989013672,0|0,0:0|0:0,0:0:0:0:
113,202,68051,6,0,P|155:180|202:178,1,80,4|0,0:1|0:0,0:0:0:0:
224,206,68400,2,0,L|305:198,1,80,10|0,0:0|0:0,0:0:0:0:
325,240,68749,1,2,0:0:0:0:
262,370,69098,1,8,0:0:0:0:
404,346,69447,6,0,P|396:294|403:252,1,80,4|0,0:3|0:0,0:0:0:0:
436,237,69795,2,0,L|476:240,2,40,10|0|0,0:0|0:0|0:0,0:0:0:0:
418,192,70144,2,0,L|428:71,1,120,2|8,0:0|0:0,0:0:0:0:
283,82,70842,6,0,P|243:86|207:103,1,80,4|0,0:3|0:0,0:0:0:0:
187,146,71191,2,0,L|195:232,1,80,10|0,0:0|0:0,0:0:0:0:
172,268,71540,1,2,0:0:0:0:
33,229,71888,1,8,0:0:0:0:
55,86,72237,6,0,P|97:72|138:76,1,80,4|0,0:3|0:0,0:0:0:0:
169,104,72586,2,0,L|250:96,1,80,10|0,0:0|0:0,0:0:0:0:
287,69,72935,2,0,L|332:73,2,40,2|0|4,0:0|0:0|0:3,0:0:0:0:
327,257,73633,6,0,P|324:299|336:345,1,80,4|0,0:3|0:0,0:0:0:0:
365,369,73981,2,0,L|448:361,1,80,10|0,0:0|0:0,0:0:0:0:
479,327,74330,1,2,0:0:0:0:
458,184,74679,1,8,0:0:0:0:
332,112,75028,6,0,P|278:138|252:169,1,80,4|0,0:3|0:0,0:0:0:0:
244,195,75377,2,0,L|248:240,2,40,10|0|0,0:0|0:0|0:0,0:0:0:0:
200,174,75726,2,0,L|212:45,1,120,2|8,0:0|0:0,0:0:0:0:
67,59,76423,6,0,P|76:97|73:137,1,80,4|0,0:3|0:0,0:0:0:0:
95,180,76772,2,0,L|89:259,1,80,10|0,0:0|0:0,0:0:0:0:
117,298,77121,1,2,0:0:0:0:
206,185,77470,1,8,0:0:0:0:
307,286,77819,6,0,P|348:280|387:257,1,80,4|0,0:3|0:0,0:0:0:0:
404,219,78168,2,0,L|393:90,1,120,10|0,0:0|0:0,0:0:0:0:
233,339,79214,6,0,P|188:343|111:309,1,120,4|10,0:1|0:0,0:0:0:0:
221,213,79912,2,0,L|264:208,2,40,2|0|4,0:0|0:0|0:3,0:0:0:0:
206,165,80261,2,0,L|167:161,2,40,10|2|2,0:0|0:0|0:0,0:0:0:0:
232,124,80609,5,0,0:0:0:0:
88,115,80958,2,0,L|37:110,2,40,10|0|0,0:0|0:0|0:0,0:0:0:0:
84,163,81307,2,0,L|73:287,1,120,2|8,0:0|0:0,0:0:0:0:
201,244,82005,6,0,P|249:243|302:297,1,120,4|10,0:3|0:0,0:0:0:0:
418,208,82702,2,0,L|462:211,2,40,2|0|4,0:0|0:0|0:3,0:0:0:0:
394,165,83051,2,0,L|349:168,2,40,10|2|2,0:0|0:0|0:0,0:0:0:0:
419,123,83400,5,0,0:0:0:0:
292,45,83749,2,0,L|195:53,1,80,10|0,0:0|0:0,0:0:0:0:
175,82,84098,2,0,L|135:78,2,40,2|0|4,0:0|0:0|0:3,0:0:0:0:
387,192,84795,6,0,P|405:252|381:319,1,120,4|10,0:3|0:0,0:0:0:0:
246,278,85493,2,0,L|196:282,2,40,2|0|4,0:0|0:0|0:3,0:0:0:0:
282,245,85842,2,0,L|331:249,2,40,10|2|2,0:0|0:0|0:0,0:0:0:0:
239,222,86191,5,0,0:0:0:0:
145,112,86540,2,0,L|105:115,2,40,10|0|0,0:0|0:0|0:0,0:0:0:0:
184,84,86888,2,0,L|303:94,1,120,2|8,0:0|0:0,0:0:0:0:
429,22,87586,6,0,P|466:66|469:141,1,120,4|10,0:3|0:0,0:0:0:0:
403,253,88284,2,0,L|399:295,2,40,2|0|4,0:0|0:0|0:3,0:0:0:0:
364,223,88633,2,0,L|276:230,1,80,10|0,0:0|0:0,0:0:0:0:
236,231,88981,5,4,0:3:0:0:
102,307,89330,1,10,0:0:0:0:
93,201,90377,6,0,P|125:185|160:181,1,71.9999978027344,4|2,0:1|0:0,0:0:0:0:
203,190,90726,1,8,0:1:0:0:
315,253,91075,2,0,L|307:338,1,71.9999978027344,0|4,0:0|0:3,0:0:0:0:
278,356,91423,1,10,0:1:0:0:
168,286,91772,5,4,0:3:0:0:
45,327,92121,2,0,L|35:220,2,107.999996704102,8|0|8,0:1|0:0|0:1,0:0:0:0:
160,266,93168,6,0,P|195:263|229:250,1,71.9999978027344,4|2,0:3|0:0,0:0:0:0:
247,210,93516,1,8,0:1:0:0:
273,83,93865,2,0,L|347:76,1,71.9999978027344,0|4,0:0|0:3,0:0:0:0:
372,42,94214,1,10,0:1:0:0:
465,132,94563,5,4,0:3:0:0:
396,240,94912,2,0,L|388:320,1,71.9999978027344,8|0,0:1|0:0,0:0:0:0:
418,342,95261,2,0,L|421:386,2,35.9999989013672,2|2|4,0:0|0:0|0:3,0:0:0:0:
247,367,95958,6,0,P|260:333|263:298,1,71.9999978027344,4|2,0:0|0:0,0:0:0:0:
235,264,96307,1,8,0:1:0:0:
118,320,96656,2,0,L|28:312,1,71.9999978027344,0|4,0:0|0:3,0:0:0:0:
17,280,97005,1,10,0:1:0:0:
91,185,97354,5,4,0:3:0:0:
39,66,97702,2,0,L|154:76,2,107.999996704102,8|0|10,0:1|0:0|0:1,0:0:0:0:
127,161,98749,6,0,P|121:193|126:248,1,71.9999978027344,4|0,0:3|0:0,0:0:0:0:
154,262,99098,1,8,0:1:0:0:
278,227,99447,1,0,0:0:0:0:
381,304,99795,1,8,0:1:0:0:
261,353,100144,5,2,0:0:0:0:
137,313,100493,1,2,0:0:0:0:
12,275,100842,2,0,L|21:388,1,107.999996704102,2|2,0:0|0:0,0:0:0:0:
113,291,101540,6,0,P|118:243|136:210,1,71.9999978027344,4|0,0:1|0:0,0:0:0:0:
161,194,101888,1,10,0:0:0:0:
287,209,102237,2,0,L|291:259,2,35.9999989013672,2|0|4,0:0|0:0|0:3,0:0:0:0:
313,174,102586,2,0,L|317:123,2,35.9999989013672,10|2|2,0:0|0:0|0:0,0:0:0:0:
344,203,102935,1,4,0:3:0:0:
467,243,103284,1,8,0:0:0:0:
433,368,103633,1,0,0:0:0:0:
196,262,104330,6,0,P|151:260|110:273,1,71.9999978027344,4|0,0:3|0:0,0:0:0:0:
94,297,104679,1,10,0:0:0:0:
47,176,105028,2,0,L|-2:180,2,35.9999989013672,2|0|4,0:0|0:0|0:3,0:0:0:0:
67,137,105377,2,0,L|116:141,2,35.9999989013672,10|2|2,0:0|0:0|0:0,0:0:0:0:
47,98,105726,1,4,0:3:0:0:
157,30,106075,1,8,0:0:0:0:
250,119,106423,1,2,0:0:0:0:
506,82,107121,6,0,P|506:120|495:156,1,71.9999978027344,4|0,0:0|0:0,0:0:0:0:
464,182,107470,1,10,0:0:0:0:
336,161,107819,2,0,L|339:122,2,35.9999989013672,2|0|4,0:0|0:0|0:3,0:0:0:0:
301,187,108168,2,0,L|304:225,2,35.9999989013672,10|2|2,0:0|0:0|0:0,0:0:0:0:
261,169,108516,1,4,0:3:0:0:
133,194,108865,1,10,0:0:0:0:
161,320,109214,1,2,0:0:0:0:
287,289,109563,1,8,0:0:0:0:
280,159,109912,6,0,L|362:167,1,71.9999978027344,4|0,0:3|0:0,0:0:0:0:
378,200,110261,1,10,0:0:0:0:
489,269,110609,2,0,L|485:234,2,35.9999989013672,2|0|4,0:0|0:0|0:3,0:0:0:0:
510,306,110958,2,0,L|503:377,1,71.9999978027344,10|0,0:0|0:0,0:0:0:0:
459,377,111307,6,0,P|409:354|344:352,2,107.999996704102,4|2|2,0:3|0:0|0:0,0:0:0:0:
185,286,112702,6,0,P|221:256|272:246,1,80,4|0,0:1|0:0,0:0:0:0:
288,214,113051,2,0,L|371:206,1,80,10|0,0:0|0:0,0:0:0:0:
385,161,113400,1,2,0:0:0:0:
338,24,113749,1,8,0:0:0:0:
214,98,114098,6,0,P|203:139|202:177,1,80,4|0,0:3|0:0,0:0:0:0:
170,215,114447,2,0,L|124:210,2,40,10|0|0,0:0|0:0|0:0,0:0:0:0:
205,247,114795,2,0,L|328:236,1,120,2|8,0:0|0:0,0:0:0:0:
297,378,115493,6,0,P|248:364|204:366,1,80,4|0,0:3|0:0,0:0:0:0:
177,339,115842,2,0,L|89:346,1,80,10|0,0:0|0:0,0:0:0:0:
60,314,116191,2,0,L|67:231,1,80,2|4,0:0|0:3,0:0:0:0:
101,200,116540,1,8,0:0:0:0:
180,80,116888,6,0,P|173:128|179:170,1,80,4|0,0:3|0:0,0:0:0:0:
218,183,117237,2,0,L|214:225,2,40,10|0|0,0:0|0:0|0:0,0:0:0:0:
255,152,117586,2,0,L|251:109,2,40,2|0|4,0:0|0:0|0:3,0:0:0:0:
293,181,117935,1,10,0:0:0:0:
353,311,118284,6,0,P|353:265|367:221,1,80,4|0,0:3|0:0,0:0:0:0:
402,206,118633,2,0,L|394:118,1,80,10|0,0:0|0:0,0:0:0:0:
360,93,118981,1,2,0:0:0:0:
225,144,119330,1,8,0:0:0:0:
104,223,119679,6,0,P|151:231|186:250,1,80,4|0,0:3|0:0,0:0:0:0:
209,283,120028,2,0,L|205:327,2,40,10|0|0,0:0|0:0|0:0,0:0:0:0:
249,257,120377,2,0,L|237:124,1,120,2|8,0:0|0:0,0:0:0:0:
382,134,121075,6,0,P|336:155|317:183,1,80,4|0,0:3|0:0,0:0:0:0:
292,217,121423,2,0,L|212:224,1,80,10|0,0:0|0:0,0:0:0:0:
168,203,121772,1,2,0:0:0:0:
36,261,122121,1,8,0:0:0:0:
73,121,122470,6,0,P|115:131|165:120,1,80,4|0,0:3|0:0,0:0:0:0:
183,90,122819,1,10,0:0:0:0:
52,34,123168,1,0,0:0:0:0:
256,236,123865,6,0,P|264:284|258:320,1,80,4|0,0:1|0:0,0:0:0:0:
221,344,124214,2,0,L|226:390,2,40,10|0|0,0:0|0:0|0:0,0:0:0:0:
182,314,124563,1,2,0:0:0:0:
278,207,124912,1,8,0:0:0:0:
358,326,125261,6,0,P|349:280|352:245,1,80,4|0,0:3|0:0,0:0:0:0:
391,220,125609,2,0,L|431:223,2,40,10|0|0,0:0|0:0|0:0,0:0:0:0:
362,181,125958,2,0,L|373:51,1,120,2|8,0:0|0:0,0:0:0:0:
264,124,126656,6,0,P|216:122|179:101,1,80,4|0,0:3|0:0,0:0:0:0:
162,67,127005,2,0,L|165:23,2,40,10|0|0,0:0|0:0|0:0,0:0:0:0:
132,105,127354,1,2,0:0:0:0:
10,182,127702,1,8,0:0:0:0:
81,307,128051,6,0,P|126:292|176:300,1,80,4|0,0:3|0:0,0:0:0:0:
193,326,128400,2,0,L|189:369,2,40,10|0|0,0:0|0:0|0:0,0:0:0:0:
226,290,128749,2,0,L|222:246,2,40,2|0|4,0:0|0:0|0:3,0:0:0:0:
264,319,129098,1,10,0:0:0:0:
373,225,129447,6,0,P|375:170|366:136,1,80,4|0,0:3|0:0,0:0:0:0:
327,122,129795,2,0,L|285:125,2,40,10|0|0,0:0|0:0|0:0,0:0:0:0:
362,89,130144,1,2,0:0:0:0:
496,139,130493,1,8,0:0:0:0:
355,217,130842,6,0,P|335:269|334:314,1,80,4|0,0:3|0:0,0:0:0:0:
301,329,131191,2,0,L|305:374,2,40,10|0|0,0:0|0:0|0:0,0:0:0:0:
257,307,131540,2,0,L|126:317,1,120,2|8,0:0|0:0,0:0:0:0:
24,226,132237,6,0,P|68:236|103:231,1,80,4|0,0:3|0:0,0:0:0:0:
141,202,132586,2,0,L|180:205,2,40,10|0|0,0:0|0:0|0:0,0:0:0:0:
118,159,132935,1,2,0:0:0:0:
172,25,133284,1,8,0:0:0:0:
306,77,133633,5,4,0:3:0:0:
262,214,133982,1,10,0:0:0:0:
398,259,134331,1,0,0:0:0:0:
90,334,135028,6,0,L|178:326,1,88.000002685547,4|0,0:1|0:0,0:0:0:0:
212,285,135377,1,10,0:0:0:0:
370,290,135726,2,0,P|378:240|362:190,1,88.000002685547,2|4,0:0|0:3,0:0:0:0:
324,175,136075,1,10,0:0:0:0:
448,77,136423,5,4,0:3:0:0:
291,54,136772,2,0,L|287:10,2,44.0000013427735,10|0|0,0:0|0:0|0:0,0:0:0:0:
246,83,137121,2,0,L|106:70,1,132.00000402832,2|8,0:0|0:0,0:0:0:0:
57,224,137819,6,0,L|150:215,1,88.000002685547,4|0,0:3|0:0,0:0:0:0:
185,181,138168,1,10,0:0:0:0:
330,246,138516,2,0,P|353:298|352:334,1,88.000002685547,2|4,0:0|0:3,0:0:0:0:
314,364,138865,1,10,0:0:0:0:
447,279,139214,5,4,0:3:0:0:
370,140,139563,2,0,L|414:143,2,44.0000013427735,10|0|0,0:0|0:0|0:0,0:0:0:0:
328,107,139912,2,0,L|283:110,2,44.0000013427735,2|0|4,0:0|0:0|0:3,0:0:0:0:
355,61,140261,2,0,L|399:64,2,44.0000013427735,10|2|2,0:0|0:0|0:0,0:0:0:0:
311,31,140609,6,0,L|215:39,1,88.000002685547,4|0,0:3|0:0,0:0:0:0:
188,78,140958,1,10,0:0:0:0:
31,52,141307,2,0,P|22:106|29:144,1,88.000002685547,2|4,0:0|0:3,0:0:0:0:
64,175,141656,1,10,0:0:0:0:
43,290,142005,5,4,0:3:0:0:
194,335,142354,2,0,L|198:289,2,44.0000013427735,10|0|0,0:0|0:0|0:0,0:0:0:0:
231,372,142702,2,0,L|365:360,1,132.00000402832,2|8,0:0|0:0,0:0:0:0:
447,225,143400,6,0,L|356:217,1,88.000002685547,4|0,0:3|0:0,0:0:0:0:
329,173,143749,1,10,0:0:0:0:
170,163,144098,2,0,P|161:112|176:62,1,88.000002685547,2|4,0:0|0:3,0:0:0:0:
205,39,144447,1,10,0:0:0:0:
49,64,144795,6,0,L|60:200,1,132.00000402832,4|10,0:3|0:0,0:0:0:0:
28,54,145493,1,0,0:0:0:0:
222,304,146191,5,4,0:1:0:0:
203,146,146540,2,0,L|159:149,2,44.0000013427735,10|0|0,0:0|0:0|0:0,0:0:0:0:
238,106,146888,2,0,P|278:70|323:64,1,88.000002685547,2|4,0:0|0:3,0:0:0:0:
349,98,147237,1,10,0:0:0:0:
446,250,147586,5,4,0:3:0:0:
301,316,147935,2,0,L|297:272,2,44.0000013427735,10|2|2,0:0|0:0|0:0,0:0:0:0:
261,352,148284,2,0,L|164:343,1,88.000002685547,2|4,0:0|0:3,0:0:0:0:
120,335,148633,1,10,0:0:0:0:
58,192,148981,6,0,L|66:98,1,88.000002685547,4|0,0:3|0:0,0:0:0:0:
43,55,149330,2,0,L|-8:59,2,44.0000013427735,10|0|0,0:0|0:0|0:0,0:0:0:0:
84,21,149679,2,0,P|125:25|166:50,1,88.000002685547,2|4,0:0|0:3,0:0:0:0:
176,100,150028,1,10,0:0:0:0:
141,260,150377,5,4,0:3:0:0:
265,162,150726,2,0,L|262:118,2,44.0000013427735,10|2|2,0:0|0:0|0:0,0:0:0:0:
301,201,151075,2,0,L|298:246,2,44.0000013427735,2|2|4,0:0|0:0|0:3,0:0:0:0:
348,174,151424,2,0,L|345:130,2,44.0000013427735,10|0|0,0:0|0:0|0:0,0:0:0:0:
396,193,151772,5,4,0:3:0:0:
450,341,152121,2,0,L|493:337,2,44.0000013427735,10|0|0,0:0|0:0|0:0,0:0:0:0:
410,376,152470,2,0,P|357:370|324:350,1,88.000002685547,2|4,0:0|0:3,0:0:0:0:
293,312,152819,1,10,0:0:0:0:
190,190,153168,5,4,0:3:0:0:
315,93,153516,2,0,L|319:41,2,44.0000013427735,10|2|2,0:0|0:0|0:0,0:0:0:0:
347,135,153865,2,0,L|444:126,1,88.000002685547,2|4,0:0|0:3,0:0:0:0:
487,120,154214,1,10,0:0:0:0:
360,214,154563,6,0,L|367:304,1,88.000002685547,4|0,0:3|0:0,0:0:0:0:
388,350,154912,2,0,L|432:353,2,44.0000013427735,10|0|0,0:0|0:0|0:0,0:0:0:0:
341,375,155261,2,0,P|287:371|256:356,1,88.000002685547,2|4,0:0|0:3,0:0:0:0:
224,315,155609,1,10,0:0:0:0:
256,190,155958,5,0,0:0:0:0:
377,165,157354,6,0,P|375:204|384:251,1,71.9999978027344,4|0,0:1|0:0,0:0:0:0:
412,264,157702,2,0,P|413:299|404:350,1,71.9999978027344,10|0,0:0|0:0,0:0:0:0:
373,362,158051,1,2,0:0:0:0:
262,294,158400,2,0,L|265:258,2,35.9999989013672,10|2|2,0:0|0:0|0:0,0:0:0:0:
228,321,158749,5,4,0:3:0:0:
159,210,159098,1,8,0:0:0:0:
76,309,159447,1,0,0:0:0:0:
64,50,160144,6,0,P|101:61|143:59,1,71.9999978027344,4|0,0:3|0:0,0:0:0:0:
170,36,160493,2,0,P|207:25|249:27,1,71.9999978027344,10|0,0:0|0:0,0:0:0:0:
272,54,160842,1,2,0:0:0:0:
234,178,161191,2,0,L|188:182,2,35.9999989013672,10|2|2,0:0|0:0|0:0,0:0:0:0:
271,200,161540,5,4,0:3:0:0:
378,271,161888,1,8,0:0:0:0:
484,196,162237,2,0,L|473:81,1,107.999996704102,0|8,0:0|0:0,0:0:0:0:
360,25,162935,6,0,P|316:28|278:49,1,71.9999978027344,4|0,0:3|0:0,0:0:0:0:
269,77,163284,2,0,P|225:74|187:53,1,71.9999978027344,10|0,0:0|0:0,0:0:0:0:
167,33,163633,1,2,0:0:0:0:
61,108,163981,2,0,L|12:103,2,35.9999989013672,10|2|2,0:0|0:0|0:0,0:0:0:0:
88,141,164330,5,4,0:3:0:0:
188,222,164679,1,8,0:0:0:0:
97,314,165028,1,0,0:0:0:0:
355,292,165726,6,0,P|347:244|351:210,1,71.9999978027344,4|0,0:3|0:0,0:0:0:0:
373,185,166075,2,0,P|374:149|366:113,1,71.9999978027344,10|0,0:0|0:0,0:0:0:0:
338,80,166423,1,2,0:0:0:0:
216,124,166772,2,0,L|219:167,2,35.9999989013672,10|2|2,0:0|0:0|0:0,0:0:0:0:
202,82,167121,5,4,0:3:0:0:
91,151,167470,1,8,0:0:0:0:
98,280,167819,1,2,0:0:0:0:
220,322,168168,1,10,0:0:0:0:
256,192,168516,5,4,0:1:0:0:
256,192,168633,12,2,171307,0:0:0:0:
256,192,171423,12,2,174097,0:0:0:0:
256,192,174214,12,2,176888,0:0:0:0:
256,192,177005,12,4,178284,0:3:0:0:
395,279,178981,6,0,L|321:285,1,71.9999978027344,2|0,0:0|0:0,0:0:0:0:
293,317,179330,2,0,L|250:313,2,35.9999989013672
