osu file format v14

[General]
AudioFilename: audio.mp3
AudioLeadIn: 0
PreviewTime: 133923
Countdown: 0
SampleSet: Soft
StackLeniency: 0.4
Mode: 0
LetterboxInBreaks: 0
WidescreenStoryboard: 0

[Editor]
Bookmarks: 12237,23400,34563,45726,56888,101540,168516,179679
DistanceSpacing: 0.6
BeatDivisor: 3
GridSize: 4
TimelineZoom: 1

[Metadata]
Title:Pow
TitleUnicode:Pow
Artist:mrsimon
ArtistUnicode:mrsimon
Creator:Skidooskei
Version:Best Day Ever
Source:
Tags:2001 nickelodeon electronic remix The Fairly OddParents fairy cartoon magic
BeatmapID:1960307
BeatmapSetID:938440

[Difficulty]
HPDrainRate:6
CircleSize:3.5
OverallDifficulty:8.5
ApproachRate:9.5
SliderMultiplier:2.2
SliderTickRate:1

[Events]
//Background and Video events
0,0,"POW.jpeg",0,0
//Break Periods
//Storyboard Layer 0 (Background)
//Storyboard Layer 1 (Fail)
//Storyboard Layer 2 (Pass)
//Storyboard Layer 3 (Foreground)
//Storyboard Layer 4 (Overlay)
//Storyboard Sound Samples

[TimingPoints]
1075,348.837209302326,4,2,1,15,1,0
1075,-250,4,2,1,15,0,0
3520,-250,4,2,1,5,0,0
3865,-250,4,2,1,15,0,0
6307,-250,4,2,1,5,0,0
6656,-250,4,2,1,15,0,0
9098,-250,4,2,1,5,0,0
9447,-250,4,2,1,15,0,0
9563,-250,4,2,1,10,0,0
10144,-250,4,2,1,20,0,0
10842,-250,4,2,1,30,0,0
11540,-250,4,2,1,50,0,0
12121,-250,4,2,1,5,0,0
12237,-133.333333333333,4,2,1,50,0,0
23051,-200,4,2,1,50,0,0
23400,-111.111111111111,4,2,1,50,0,0
23749,-125,4,2,1,50,0,0
25842,-100,4,2,1,50,0,0
26016,-125,4,2,1,50,0,0
28284,-166.666666666667,4,2,1,50,0,0
28633,-100,4,2,1,50,0,0
28981,-111.111111111111,4,2,1,50,0,0
29330,-125,4,2,1,50,0,0
31423,-100,4,2,1,50,0,0
31772,-125,4,2,1,50,0,0
33168,-166.666666666667,4,2,1,50,0,0
34563,-100,4,2,1,60,0,0
34912,-111.111111111111,4,2,1,60,0,0
37005,-90.9090909090909,4,2,1,60,0,0
37354,-111.111111111111,4,2,1,60,0,0
39795,-166.666666666666,4,2,1,60,0,0
40144,-100,4,2,1,60,0,0
40493,-111.111111111111,4,2,1,60,0,0
42586,-90.9090909090909,4,2,1,60,0,0
42935,-111.111111111111,4,2,1,60,0,0
43284,-133.333333333333,4,2,1,60,0,0
43981,-166.666666666667,4,2,1,50,0,0
44679,-250,4,2,1,50,0,0
45290,-250,4,2,1,5,0,0
45377,-133.333333333333,4,2,1,50,0,0
45726,-90.9090909090909,4,2,1,50,0,0
45958,-111.111111111111,4,2,1,50,0,0
48168,-166.666666666667,4,2,1,50,0,0
48516,-111.111111111111,4,2,1,50,0,0
49563,-90.9090909090909,4,2,1,50,0,0
49912,-111.111111111111,4,2,1,50,0,0
50958,-200,4,2,1,50,0,0
51307,-90.9090909090909,4,2,1,50,0,0
51540,-111.111111111111,4,2,1,50,0,0
53749,-166.666666666666,4,2,1,50,0,0
54098,-111.111111111111,4,2,1,50,0,0
55144,-90.9090909090908,4,2,1,50,0,0
55493,-111.111111111111,4,2,1,50,0,0
56888,-83.3333333333333,4,2,1,55,0,0
57237,-100,4,2,1,55,0,0
59330,-333.333333333333,4,2,1,55,0,0
59679,-90.9090909090909,4,2,1,55,0,0
60028,-100,4,2,1,55,0,0
62470,-90.9090909090909,4,2,1,55,0,0
62819,-100,4,2,1,55,0,0
64912,-333.333333333333,4,2,1,55,0,0
65261,-90.9090909090909,4,2,1,55,0,0
65609,-100,4,2,1,55,0,0
67354,-133.333333333333,4,2,1,55,0,0
68051,-76.9230769230769,4,2,1,70,0,1
68400,-90.9090909090909,4,2,1,70,0,1
69098,-200,4,2,1,70,0,1
69447,-83.3333333333333,4,2,1,70,0,1
69795,-90.9090909090909,4,2,1,70,0,1
70493,-500,4,2,1,70,0,1
70842,-83.3333333333333,4,2,1,70,0,1
71191,-90.9090909090909,4,2,1,70,0,1
71888,-200,4,2,1,70,0,1
72237,-83.3333333333333,4,2,1,70,0,1
72586,-90.9090909090909,4,2,1,70,0,1
73284,-200,4,2,1,70,0,1
73633,-83.3333333333333,4,2,1,70,0,1
73981,-90.9090909090909,4,2,1,70,0,1
74679,-200,4,2,1,70,0,1
75028,-83.3333333333333,4,2,1,70,0,1
75377,-90.9090909090909,4,2,1,70,0,1
76075,-333.333333333333,4,2,1,70,0,1
76423,-83.3333333333333,4,2,1,70,0,1
76772,-90.9090909090909,4,2,1,70,0,1
77470,-200,4,2,1,70,0,1
77819,-83.3333333333333,4,2,1,70,0,1
78168,-111.111111111111,4,2,1,70,0,1
78516,-100,4,2,1,50,0,0
79214,-76.9230769230769,4,2,1,70,0,1
79563,-90.9090909090909,4,2,1,70,0,1
79912,-133.333333333333,4,2,1,70,0,1
80609,-83.3333333333333,4,2,1,70,0,1
80958,-90.9090909090909,4,2,1,70,0,1
81656,-250,4,2,1,70,0,1
82005,-83.3333333333333,4,2,1,70,0,1
82354,-90.9090909090909,4,2,1,70,0,1
82702,-133.333333333333,4,2,1,70,0,1
83400,-83.3333333333333,4,2,1,70,0,1
83749,-90.9090909090909,4,2,1,70,0,1
84795,-83.3333333333333,4,2,1,70,0,1
85144,-90.9090909090909,4,2,1,70,0,1
85493,-133.333333333333,4,2,1,70,0,1
86191,-83.3333333333333,4,2,1,70,0,1
86540,-90.9090909090909,4,2,1,70,0,1
87237,-250,4,2,1,70,0,1
87586,-83.3333333333333,4,2,1,70,0,1
87935,-90.9090909090909,4,2,1,70,0,1
88284,-133.333333333333,4,2,1,70,0,1
88981,-100,4,2,1,70,0,1
89330,-200,4,2,1,70,0,1
89679,-100,4,2,1,60,0,0
90377,-90.9090909090909,4,2,1,60,0,0
90726,-111.111111111111,4,2,1,60,0,0
92819,-90.9090909090909,4,2,1,60,0,0
93168,-100,4,2,1,60,0,0
93516,-111.111111111111,4,2,1,60,0,0
95261,-100,4,2,1,60,0,0
95609,-133.333333333333,4,2,1,60,0,0
95958,-90.9090909090909,4,2,1,60,0,0
96307,-111.111111111111,4,2,1,60,0,0
98400,-250,4,2,1,60,0,0
98749,-111.111111111111,4,2,1,60,0,0
100144,-111.111111111111,4,2,1,50,0,0
100493,-125,4,2,1,50,0,0
100842,-142.857142857143,4,2,1,50,0,0
101191,-111.111111111111,4,2,1,50,0,0
101540,-76.9230769230769,4,2,1,60,0,1
101598,-100,4,2,1,60,0,0
102237,-133.333333333333,4,2,1,60,0,0
102935,-111.111111111111,4,2,1,60,0,0
103981,-133.333333333333,4,2,1,60,0,0
104330,-83.3333333333333,4,2,1,60,0,0
104679,-100,4,2,1,60,0,0
105028,-133.333333333333,4,2,1,60,0,0
105726,-111.111111111111,4,2,1,60,0,0
106772,-133.333333333333,4,2,1,60,0,0
107121,-83.3333333333333,4,2,1,60,0,0
107470,-100,4,2,1,60,0,0
107819,-133.333333333333,4,2,1,60,0,0
108516,-111.111111111111,4,2,1,60,0,0
108865,-133.333333333333,4,2,1,60,0,0
111307,-250,4,2,1,50,0,0
112354,-666.666666666667,4,2,1,50,0,0
112702,-76.9230769230769,4,2,1,70,0,1
113051,-90.9090909090909,4,2,1,70,0,1
113749,-200,4,2,1,70,0,1
114098,-83.3333333333333,4,2,1,70,0,1
114447,-90.9090909090909,4,2,1,70,0,1
115493,-83.3333333333333,4,2,1,70,0,1
115842,-90.9090909090909,4,2,1,70,0,1
116540,-200,4,2,1,70,0,1
116888,-83.3333333333333,4,2,1,70,0,1
118633,-90.9090909090909,4,2,1,70,0,1
119330,-200,4,2,1,70,0,1
119679,-83.3333333333333,4,2,1,70,0,1
120028,-90.9090909090909,4,2,1,70,0,1
121075,-83.3333333333333,4,2,1,70,0,1
121423,-90.9090909090909,4,2,1,70,0,1
122121,-200,4,2,1,70,0,1
122470,-83.3333333333333,4,2,1,70,0,1
122819,-111.111111111111,4,2,1,70,0,1
123168,-250,4,2,1,50,0,0
123865,-76.9230769230769,4,2,1,70,0,1
124214,-90.9090909090909,4,2,1,70,0,1
124912,-76.9230769230769,4,2,1,70,0,1
125261,-83.3333333333333,4,2,1,70,0,1
125609,-90.9090909090909,4,2,1,70,0,1
126307,-250,4,2,1,70,0,1
126656,-83.3333333333333,4,2,1,70,0,1
127005,-90.9090909090909,4,2,1,70,0,1
127702,-76.9230769230769,4,2,1,70,0,1
128051,-83.3333333333333,4,2,1,70,0,1
129447,-76.9230769230769,4,2,1,70,0,1
129795,-90.9090909090909,4,2,1,70,0,1
130493,-76.9230769230769,4,2,1,70,0,1
130842,-83.3333333333333,4,2,1,70,0,1
131191,-90.9090909090909,4,2,1,70,0,1
131888,-250,4,2,1,70,0,1
132237,-83.3333333333333,4,2,1,70,0,1
132586,-90.9090909090909,4,2,1,70,0,1
133284,-76.9230769230769,4,2,1,70,0,1
133633,-83.3333333333333,4,2,1,70,0,1
133981,-111.111111111111,4,2,1,70,0,1
134330,-133.333333333333,4,2,1,50,0,0
135028,-66.6666666666667,4,2,1,80,0,1
135377,-83.3333333333334,4,2,1,80,0,1
136075,-133.333333333333,4,2,1,80,0,1
136423,-71.4285714285715,4,2,1,80,0,1
136772,-83.3333333333334,4,2,1,80,0,1
137819,-71.4285714285715,4,2,1,80,0,1
138168,-83.3333333333334,4,2,1,80,0,1
138865,-133.333333333333,4,2,1,80,0,1
139214,-71.4285714285715,4,2,1,80,0,1
139563,-83.3333333333334,4,2,1,80,0,1
140609,-71.4285714285715,4,2,1,80,0,1
140958,-83.3333333333334,4,2,1,80,0,1
141656,-133.333333333333,4,2,1,80,0,1
142005,-71.4285714285714,4,2,1,80,0,1
142354,-83.3333333333333,4,2,1,80,0,1
143051,-333.333333333333,4,2,1,80,0,1
143400,-71.4285714285714,4,2,1,80,0,1
143749,-83.3333333333333,4,2,1,80,0,1
144447,-133.333333333333,4,2,1,80,0,1
144795,-71.4285714285714,4,2,1,80,0,1
145144,-83.3333333333333,4,2,1,80,0,1
145493,-250,4,2,1,50,0,0
146191,-66.6666666666667,4,2,1,80,0,1
146540,-83.3333333333333,4,2,1,80,0,1
147237,-133.333333333333,4,2,1,80,0,1
147586,-71.4285714285714,4,2,1,80,0,1
147935,-90.9090909090909,4,2,1,80,0,1
148284,-76.9230769230769,4,2,1,80,0,1
148981,-71.4285714285714,4,2,1,80,0,1
149330,-83.3333333333333,4,2,1,80,0,1
150028,-133.333333333333,4,2,1,80,0,1
150377,-71.4285714285714,4,2,1,80,0,1
150726,-90.9090909090909,4,2,1,80,0,1
151075,-76.9230769230769,4,2,1,80,0,1
151772,-71.4285714285714,4,2,1,80,0,1
152121,-83.3333333333333,4,2,1,80,0,1
152819,-133.333333333333,4,2,1,80,0,1
153168,-71.4285714285714,4,2,1,80,0,1
153516,-90.9090909090909,4,2,1,80,0,1
153865,-76.9230769230769,4,2,1,80,0,1
154563,-71.4285714285714,4,2,1,80,0,1
154912,-83.3333333333333,4,2,1,80,0,1
155609,-133.333333333333,4,2,1,80,0,1
155958,-200,4,2,1,60,0,0
157354,-90.9090909090909,4,2,1,60,0,0
157702,-111.111111111111,4,2,1,60,0,0
160144,-100,4,2,1,60,0,0
160493,-111.111111111111,4,2,1,60,0,0
162586,-166.666666666667,4,2,1,60,0,0
162935,-100,4,2,1,60,0,0
163284,-111.111111111111,4,2,1,60,0,0
165726,-100,4,2,1,60,0,0
166075,-111.111111111111,4,2,1,60,0,0
167819,-133.333333333333,4,2,1,60,0,0
168168,-200,4,2,1,60,0,0
168516,-133.333333333333,4,2,1,60,0,0
168865,-200,4,2,1,60,0,0
169214,-250,4,2,1,60,0,0
169563,-200,4,2,1,60,0,0
169912,-166.666666666667,4,2,1,60,0,0
171656,-200,4,2,1,60,0,0
172005,-250,4,2,1,60,0,0
172354,-200,4,2,1,60,0,0
172702,-166.666666666667,4,2,1,60,0,0
174098,-133.333333333333,4,2,1,60,0,0
174447,-200,4,2,1,60,0,0
174795,-250,4,2,1,60,0,0
175144,-200,4,2,1,60,0,0
175493,-166.666666666667,4,2,1,60,0,0
176888,-133.333333333333,4,2,1,60,0,0
177237,-200,4,2,1,60,0,0
177586,-250,4,2,1,60,0,0
177935,-200,4,2,1,60,0,0
178284,-133.333333333333,4,2,1,40,0,0
179330,-200,4,2,1,40,0,0

[Colours]
Combo1 : 255,255,128
Combo2 : 255,128,128
Combo3 : 159,255,207
Combo4 : 255,197,168

[HitObjects]
68,347,1075,6,0,B|147:316|238:364|238:364|255:313|219:259|219:259|167:262|136:242|136:242|148:192|133:138|133:138|172:140|203:159|203:159|225:136|270:129,1,616,4|0,0:3|0:0,0:0:0:0:
353,110,3865,2,0,B|357:56|388:25|388:25|429:122|381:204|381:204|411:237|412:283|412:283|461:260|510:277|510:277|468:368|391:363,1,616
298,319,6656,6,0,B|270:272|217:249|156:284|143:330|143:330|170:246|135:181|135:181|197:153|245:192|245:192|236:148|247:113|247:113|268:144|321:150,1,616,4|0,0:3|0:0,0:0:0:0:
408,113,9447,1,0,0:0:0:0:
256,192,9563,12,2,12121,0:0:0:0:
197,259,12237,6,0,B|208:224|208:224|197:135,1,110.000004196167,4|2,0:0|0:0,0:0:0:0:
118,59,12586,2,0,P|87:111|85:167,1,110.000004196167,2|0,0:3|0:0,0:0:0:0:
54,288,12935,6,0,P|19:285|-6:281,1,55.0000020980836,2|0,0:0|0:0,0:0:0:0:
140,366,13168,1,4,0:3:0:0:
140,366,13284,2,0,P|194:349|252:358,1,110.000004196167,2|0,0:3|0:0,0:0:0:0:
300,249,13633,6,0,L|295:193,2,55.0000020980836,4|0|2,0:3|0:0|0:0,0:0:0:0:
340,377,13981,2,0,B|327:346|327:346|330:263,1,110.000004196167,2|0,0:3|0:0,0:0:0:0:
469,154,14330,2,0,L|472:99,2,55.0000020980836,4|0|2,0:3|0:0|0:0,0:0:0:0:
459,293,14679,1,2,0:3:0:0:
189,133,15028,6,0,B|224:144|224:144|313:133,1,110.000004196167,4|2,0:3|0:0,0:0:0:0:
379,39,15377,2,0,P|422:105|426:151,1,110.000004196167,2|0,0:3|0:0,0:0:0:0:
240,189,15726,6,0,P|241:151|238:128,1,55.0000020980836,2|0,0:0|0:0,0:0:0:0:
324,278,15958,1,4,0:3:0:0:
324,278,16075,2,0,P|317:343|332:384,1,110.000004196167,2|0,0:3|0:0,0:0:0:0:
155,286,16423,6,0,L|100:290,2,55.0000020980836,4|0|2,0:3|0:0|0:0,0:0:0:0:
0,302,16772,2,0,P|16:353|61:385,1,110.000004196167,2|0,0:3|0:0,0:0:0:0:
142,182,17121,2,0,L|196:186,2,55.0000020980836,4|0|2,0:3|0:0|0:0,0:0:0:0:
0,174,17470,1,2,0:3:0:0:
270,29,17819,6,0,B|259:64|259:64|270:153,1,110.000004196167,4|2,0:3|0:0,0:0:0:0:
396,203,18168,2,0,P|336:232|321:279,1,110.000004196167,2|0,0:3|0:0,0:0:0:0:
459,345,18516,6,0,P|492:336|518:335,1,55.0000020980836,2|0,0:0|0:0,0:0:0:0:
352,384,18749,1,4,0:3:0:0:
352,384,18865,2,0,P|281:362|231:370,1,110.000004196167,2|0,0:3|0:0,0:0:0:0:
86,294,19214,6,0,L|141:298,2,55.0000020980836,4|0|2,0:3|0:0|0:0,0:0:0:0:
279,280,19563,2,0,B|249:287|249:287|161:269,1,110.000004196167,2|0,0:3|0:0,0:0:0:0:
220,130,19912,2,0,L|275:126,2,55.0000020980836,4|0|2,0:3|0:0|0:0,0:0:0:0:
44,144,20261,1,2,0:3:0:0:
312,41,20609,6,0,B|323:76|323:76|312:165,1,110.000004196167,4|2,0:3|0:0,0:0:0:0:
373,289,20958,2,0,P|309:259|259:267,1,110.000004196167,2|0,0:3|0:0,0:0:0:0:
119,303,21307,6,0,P|123:345|119:372,1,55.0000020980836,2|0,0:0|0:0,0:0:0:0:
184,216,21540,1,4,0:3:0:0:
184,216,21656,2,0,P|166:144|172:94,1,110.000004196167,2|0,0:3|0:0,0:0:0:0:
361,52,22005,6,0,L|238:41,1,110.000004196167,4|2,0:3|0:0,0:0:0:0:
382,179,22354,2,0,L|436:174,1,55.0000020980836,4|0,0:3|0:0,0:0:0:0:
326,340,22702,1,4,0:3:0:0:
326,340,23051,6,0,L|329:302,1,36.6666666666667
86,183,23400,6,0,B|208:160|156:232|287:205,1,197.99999395752,4|10,0:0|0:1,0:0:0:0:
367,6,23923,1,2,0:0:0:0:
259,44,24098,2,0,P|238:89|235:138,1,88,2|4,0:0|0:3,0:0:0:0:
398,220,24447,1,8,0:1:0:0:
304,316,24621,1,2,0:0:0:0:
415,243,24795,6,0,L|314:234,1,88,4|0,0:3|0:0,0:0:0:0:
127,116,25144,2,0,P|171:134|231:134,1,88,10|0,0:1|0:0,0:0:0:0:
14,346,25493,2,0,L|22:251,1,88,0|4,0:0|0:3,0:0:0:0:
205,357,25842,2,0,B|228:337|228:337|143:344,1,110,8|0,0:1|0:0,0:0:0:0:
324,295,26191,6,0,P|284:267|232:252,1,88,4|0,0:3|0:0,0:0:0:0:
343,379,26540,2,0,P|391:289|456:304,1,176,8|0,0:1|0:0,0:0:0:0:
233,272,27063,1,4,0:3:0:0:
428,174,27237,2,0,L|419:269,1,88,10|0,0:1|0:0,0:0:0:0:
206,121,27586,5,4,0:3:0:0:
323,107,27761,1,2,0:0:0:0:
440,93,27935,2,0,B|416:98|416:98|342:78,1,88,10|0,0:1|0:0,0:0:0:0:
188,159,28284,2,0,P|226:156|262:162,1,65.9999979858399,0|4,0:0|0:3,0:0:0:0:
80,62,28633,2,0,B|103:80|103:80|110:-2,1,110,8|0,0:1|0:0,0:0:0:0:
126,208,28981,6,0,B|245:232|194:161|319:182,1,197.99999395752,4|10,0:0|0:1,0:0:0:0:
485,309,29505,1,2,0:0:0:0:
274,340,29679,2,0,P|273:290|290:237,1,88,2|4,0:0|0:3,0:0:0:0:
429,116,30028,1,8,0:1:0:0:
381,240,30202,1,2,0:0:0:0:
268,120,30377,6,0,L|169:128,1,88,4|0,0:3|0:0,0:0:0:0:
0,269,30726,2,0,P|44:257|95:263,1,88,10|0,0:1|0:0,0:0:0:0:
222,373,31075,2,0,B|213:271,1,88,0|4,0:0|0:3,0:0:0:0:
401,301,31423,2,0,B|426:324|426:324|344:329,1,110,8|0,0:1|0:0,0:0:0:0:
446,174,31772,6,0,P|401:166|351:172,1,88,4|0,0:3|0:0,0:0:0:0:
193,57,32121,2,0,P|232:79|281:91,1,88,8|0,0:1|0:0,0:0:0:0:
385,38,32470,1,0,0:0:0:0:
270,205,32644,1,4,0:3:0:0:
270,205,32819,2,0,B|278:305,1,88,8|0,0:1|0:0,0:0:0:0:
89,292,33168,6,0,P|127:301|159:316,1,65.9999979858399,4|0,0:3|0:0,0:0:0:0:
24,340,33516,2,0,B|38:304|63:284|63:284|55:195|55:195|105:193|147:156|135:78|86:60|41:72,1,351.999989257813
239,160,34563,6,0,B|130:151|130:151|151:195,1,146.666666666667,4|2,0:1|0:0,0:0:0:0:
207,277,34912,2,0,P|205:313|184:374,1,98.9999969787599,8|0,0:1|0:0,0:0:0:0:
423,219,35261,1,0,0:0:0:0:
308,384,35435,2,0,L|300:285,1,98.9999969787599,4|10,0:3|0:1,0:0:0:0:
471,384,35784,1,0,0:0:0:0:
455,217,35958,6,0,L|405:212,1,49.4999984893799,4|0,0:3|0:0,0:0:0:0:
430,240,36133,2,0,L|381:245,1,49.4999984893799,2|0,0:0|0:0,0:0:0:0:
459,54,36307,2,0,B|431:85|427:130|427:130|406:119|374:117,1,131.99999597168,10|0,0:1|0:0,0:0:0:0:
265,55,36656,2,0,P|201:67|173:94,1,98.9999969787599,2|4,0:0|0:3,0:0:0:0:
93,313,37005,6,0,P|104:255|129:334,1,201.666672821045,8|0,0:1|0:0,0:0:0:0:
170,347,37354,6,0,P|233:321|305:343,1,131.99999597168,4|2,0:3|0:0,0:0:0:0:
379,208,37702,2,0,P|332:213|284:243,1,98.9999969787599,8|0,0:1|0:0,0:0:0:0:
459,303,38051,1,0,0:0:0:0:
393,128,38226,2,0,L|401:29,1,98.9999969787599,4|10,0:3|0:1,0:0:0:0:
267,248,38575,1,0,0:0:0:0:
181,62,38749,6,0,L|176:114,1,49.4999984893799,4|0,0:3|0:0,0:0:0:0:
152,84,38923,2,0,L|156:136,1,49.4999984893799,2|0,0:0|0:0,0:0:0:0:
29,47,39098,2,0,B|47:74|47:74|54:126|26:183,1,131.99999597168,10|0,0:1|0:0,0:0:0:0:
0,265,39447,2,0,P|3:312|27:366,1,98.9999969787599,2|4,0:0|0:3,0:0:0:0:
171,340,39795,6,0,L|102:333,1,65.9999979858399,8|0,0:1|0:0,0:0:0:0:
261,174,40144,6,0,B|338:165|318:210|412:196,1,146.666666666667,4|2,0:0|0:0,0:0:0:0:
401,25,40493,2,0,P|383:61|377:124,1,98.9999969787599,8|0,0:1|0:0,0:0:0:0:
468,243,40842,1,0,0:0:0:0:
267,130,41016,2,0,L|369:138,1,98.9999969787599,4|10,0:3|0:1,0:0:0:0:
188,216,41365,1,0,0:0:0:0:
109,85,41540,6,0,L|157:80,1,49.4999984893799,4|0,0:3|0:0,0:0:0:0:
86,113,41714,2,0,L|134:117,1,49.4999984893799,2|0,0:0|0:0,0:0:0:0:
204,281,41888,2,0,B|174:267|174:267|77:303,1,131.99999597168,10|0,0:1|0:0,0:0:0:0:
200,360,42237,2,0,B|223:362|243:352|243:352|264:368|296:371,1,98.9999969787599,2|4,0:0|0:3,0:0:0:0:
402,220,42586,6,0,P|388:160|351:237,1,201.666672821045,8|0,0:1|0:0,0:0:0:0:
319,252,42935,6,0,P|276:210|199:187,1,131.99999597168,4|2,0:3|0:0,0:0:0:0:
129,107,43284,2,0,L|218:99,1,82.5000031471254,8|0,0:1|0:0,0:0:0:0:
4,209,43633,2,0,L|93:216,1,82.5000031471254,2|4,0:0|0:3,0:0:0:0:
150,352,43981,6,0,P|154:325|152:287,1,65.9999979858399,8|0,0:1|0:0,0:0:0:0:
243,215,44330,2,0,P|239:242|241:280,1,65.9999979858399,4|0,0:3|0:0,0:0:0:0:
437,353,44679,6,0,P|374:324|281:341,1,154
308,354,45377,6,0,B|320:325|320:325|304:243,1,110.000004196167,2|0,0:0|0:0,0:0:0:0:
138,183,45726,6,0,B|182:175|217:204|217:204|237:163|283:150,1,161.333338256836,4|2,0:0|0:0,0:0:0:0:
352,191,46075,1,8,0:1:0:0:
320,344,46249,1,0,0:0:0:0:
428,223,46423,2,0,L|497:228,2,65.9999979858399,2|0|4,0:0|0:0|0:3,0:0:0:0:
354,150,46772,1,8,0:1:0:0:
512,96,46947,1,2,0:0:0:0:
256,172,47121,6,0,P|298:177|328:192,1,65.9999979858399,4|0,0:3|0:0,0:0:0:0:
235,71,47354,1,2,0:0:0:0:
235,71,47470,2,0,B|210:100|210:100|237:206,1,131.99999597168,8|0,0:1|0:0,0:0:0:0:
100,312,47935,5,4,0:3:0:0:
123,220,48051,1,2,0:0:0:0:
123,220,48168,2,0,L|36:227,1,87.9999973144532,8|0,0:1|0:0,0:0:0:0:
192,135,48516,6,0,P|220:178|216:279,1,131.99999597168,4|2,0:3|0:0,0:0:0:0:
302,361,48865,2,0,B|284:321|284:321|376:331,1,131.99999597168,8|0,0:1|0:0,0:0:0:0:
484,233,49214,5,2,0:0:0:0:
394,237,49330,1,2,0:0:0:0:
309,244,49447,1,4,0:3:0:0:
309,244,49563,6,0,B|298:125|298:125|321:140|337:164,1,161.333338256836,8|0,0:1|0:0,0:0:0:0:
248,54,49912,6,0,P|268:77|267:187,1,131.99999597168,4|2,0:3|0:0,0:0:0:0:
124,242,50261,2,0,P|151:243|195:253,1,65.9999979858399,10|0,0:1|0:0,0:0:0:0:
333,328,50493,2,0,P|308:338|270:363,1,65.9999979858399,2|0,0:0|0:0,0:0:0:0:
441,183,50726,1,2,0:0:0:0:
451,215,50842,1,4,0:3:0:0:
412,288,50958,6,0,L|418:211,1,73.3333333333333,10|0,0:1|0:0,0:0:0:0:
358,140,51307,6,0,B|263:128|314:192|204:176,1,161.333338256836,4|2,0:0|0:0,0:0:0:0:
159,104,51656,1,8,0:1:0:0:
70,287,51830,1,0,0:0:0:0:
81,72,52004,2,0,L|86:137,2,65.9999979858399,2|0|4,0:0|0:0|0:3,0:0:0:0:
189,147,52353,1,8,0:1:0:0:
3,229,52528,1,2,0:0:0:0:
167,299,52702,6,0,P|134:295|33:348,1,131.99999597168,4|2,0:3|0:0,0:0:0:0:
130,384,53051,5,10,0:1:0:0:
220,378,53167,1,2,0:0:0:0:
310,372,53284,1,2,0:0:0:0:
452,167,53516,5,4,0:3:0:0:
485,258,53633,1,2,0:0:0:0:
485,258,53749,2,0,L|397:251,1,87.9999973144532,8|0,0:1|0:0,0:0:0:0:
287,333,54098,6,0,P|261:265|266:196,1,131.99999597168,4|2,0:3|0:0,0:0:0:0:
215,91,54447,2,0,B|240:118|240:118|228:219,1,131.99999597168,8|0,0:1|0:0,0:0:0:0:
136,352,54795,2,0,L|141:286,1,65.9999979858399,2|0,0:0|0:0,0:0:0:0:
45,177,55028,1,4,0:3:0:0:
45,177,55144,6,0,B|98:212|98:212|-7:230,1,161.333338256836,8|0,0:1|0:0,0:0:0:0:
168,268,55493,6,0,P|183:204|159:145,1,131.99999597168,4|2,0:3|0:0,0:0:0:0:
80,94,55842,1,8,0:1:0:0:
278,92,56191,5,0,0:0:0:0:
275,123,56307,1,2,0:0:0:0:
272,155,56423,1,0,0:0:0:0:
302,146,56540,5,0,0:0:0:0:
304,228,56656,1,2,0:0:0:0:
306,310,56772,1,0,0:0:0:0:
218,256,56888,6,0,B|325:244|296:289|408:275,1,175.999994628906,4|2,0:1|0:0,0:0:0:0:
441,156,57237,1,10,0:0:0:0:
449,191,57354,1,0,0:0:0:0:
366,120,57470,1,0,0:0:0:0:
370,98,57586,2,0,B|408:127|408:127|387:236,1,146.666666666667,2|4,0:0|0:3,0:0:0:0:
283,134,57935,1,8,0:0:0:0:
120,240,58284,6,0,B|153:216|153:216|269:232,1,146.666666666667,4|2,0:3|0:0,0:0:0:0:
329,302,58633,1,10,0:0:0:0:
245,316,58749,1,2,0:0:0:0:
161,332,58865,1,0,0:0:0:0:
161,332,58981,2,0,P|217:324|296:373,1,146.666666666667,2|4,0:0|0:3,0:0:0:0:
41,264,59330,6,0,L|89:259,1,43.9999986572266,8|0,0:0|0:0,0:0:0:0:
78,352,59679,6,0,P|116:289|83:215,1,161.333338256836,4|2,0:3|0:0,0:0:0:0:
149,92,60028,1,10,0:0:0:0:
154,123,60144,1,2,0:0:0:0:
30,157,60261,1,0,0:0:0:0:
48,143,60377,2,0,B|79:119|79:119|178:181,1,146.666666666667,2|4,0:0|0:3,0:0:0:0:
288,105,60726,1,8,0:0:0:0:
313,269,61075,6,0,B|287:232|287:232|301:129,1,146.666666666667,4|2,0:3|0:0,0:0:0:0:
396,159,61423,1,10,0:0:0:0:
402,243,61539,1,2,0:0:0:0:
413,328,61655,1,0,0:0:0:0:
413,328,61772,2,0,P|415:281|425:246,1,73.3333333333333,2|0,0:0|0:0,0:0:0:0:
294,351,62005,1,4,0:3:0:0:
266,263,62121,1,8,0:0:0:0:
488,179,62470,6,0,P|406:222|328:197,1,161.333338256836,4|2,0:3|0:0,0:0:0:0:
259,93,62819,1,10,0:0:0:0:
268,122,62935,1,2,0:0:0:0:
179,226,63051,1,0,0:0:0:0:
191,196,63168,2,0,B|145:171|145:171|46:208,1,146.666666666667,2|4,0:0|0:3,0:0:0:0:
173,89,63516,1,8,0:0:0:0:
353,68,63865,6,0,B|326:103|326:103|333:211,1,146.666666666667,4|2,0:3|0:0,0:0:0:0:
210,346,64214,1,10,0:0:0:0:
216,262,64330,1,2,0:0:0:0:
226,176,64446,1,0,0:0:0:0:
226,176,64563,2,0,P|205:235|136:287,1,146.666666666667,2|4,0:0|0:3,0:0:0:0:
173,111,64912,6,0,L|115:116,1,43.9999986572266,8|0,0:0|0:0,0:0:0:0:
257,221,65261,6,0,P|253:141|289:69,1,161.333338256836,4|2,0:3|0:0,0:0:0:0:
371,233,65609,1,10,0:0:0:0:
340,247,65726,1,2,0:0:0:0:
397,147,65842,1,0,0:0:0:0:
429,162,65958,2,0,B|453:115|453:115|420:20,1,146.666666666667,2|4,0:0|0:3,0:0:0:0:
505,187,66307,1,8,0:0:0:0:
312,271,66656,6,0,B|349:242|349:242|459:269,1,146.666666666667,4|2,0:3|0:0,0:0:0:0:
343,353,67005,1,10,0:0:0:0:
259,339,67121,1,2,0:0:0:0:
175,323,67237,1,0,0:0:0:0:
148,346,67354,2,0,L|217:339,1,55.0000020980836
76,44,68051,6,0,B|87:161|25:122|34:241,1,190.66665793864,4|0,0:1|0:0,0:0:0:0:
181,115,68400,2,0,P|140:114|95:135,1,80.6666691284181,10|0,0:0|0:0,0:0:0:0:
267,193,68633,1,0,0:0:0:0:
205,266,68749,2,0,B|221:215|221:215|210:100,1,161.333338256836,2|4,0:0|0:3,0:0:0:0:
347,266,69098,6,0,L|354:354,1,73.3333333333333,8|0,0:0|0:0,0:0:0:0:
463,194,69447,6,0,B|432:198|416:215|416:215|360:162|284:196,1,175.999994628906,4|0,0:3|0:0,0:0:0:0:
164,344,69795,1,10,0:0:0:0:
226,257,69912,1,0,0:0:0:0:
268,355,70028,1,0,0:0:0:0:
111,282,70144,6,0,P|63:287|32:296,1,80.6666691284181,2|0,0:0|0:0,0:0:0:0:
140,169,70377,1,4,0:3:0:0:
140,169,70493,6,0,L|173:179,1,29.3333333333333,8|0,0:0|0:0,0:0:0:0:
264,133,70842,6,0,B|141:148|201:94|82:107,1,175.999994628906,4|0,0:3|0:0,0:0:0:0:
266,40,71191,2,0,P|303:47|350:79,1,80.6666691284181,10|0,0:0|0:0,0:0:0:0:
345,206,71423,1,0,0:0:0:0:
457,146,71540,2,0,B|431:177|431:177|311:158,1,161.333338256836,2|4,0:0|0:3,0:0:0:0:
512,281,71888,6,0,L|433:287,1,73.3333333333333,8|0,0:0|0:0,0:0:0:0:
248,235,72237,6,0,B|265:208|264:176|264:176|397:199,1,175.999994628906,4|0,0:3|0:0,0:0:0:0:
286,337,72586,1,10,0:0:0:0:
225,195,72702,1,0,0:0:0:0:
152,321,72819,1,0,0:0:0:0:
303,247,72935,5,2,0:0:0:0:
195,179,73051,2,0,P|152:176|108:188,1,80.6666691284181,0|4,0:0|0:3,0:0:0:0:
321,98,73284,6,0,L|317:62,2,36.6666666666667,8|0|0,0:0|0:0|0:0,0:0:0:0:
401,129,73633,6,0,B|285:149|337:91|222:108,1,175.999994628906,4|0,0:3|0:0,0:0:0:0:
50,7,73981,2,0,P|90:16|132:51,1,80.6666691284181,10|0,0:0|0:0,0:0:0:0:
13,128,74214,1,0,0:0:0:0:
63,240,74330,2,0,B|35:193|35:193|59:83,1,161.333338256836,2|4,0:0|0:3,0:0:0:0:
7,366,74679,6,0,L|0:280,1,73.3333333333333,8|0,0:0|0:0,0:0:0:0:
66,188,75028,6,0,B|101:218|116:256|116:256|155:234|204:230,1,175.999994628906,4|0,0:3|0:0,0:0:0:0:
289,356,75377,1,10,0:0:0:0:
268,185,75493,1,0,0:0:0:0:
184,315,75609,1,0,0:0:0:0:
364,248,75726,6,0,P|307:259|281:274,1,80.6666691284181,2|0,0:0|0:0,0:0:0:0:
440,161,75958,1,4,0:3:0:0:
440,160,76075,6,0,L|450:215,1,43.9999986572266,8|0,0:0|0:0,0:0:0:0:
476,71,76423,6,0,B|363:66|408:113|301:109,1,175.999994628906,4|0,0:3|0:0,0:0:0:0:
188,201,76772,2,0,P|225:204|265:223,1,80.6666691284181,10|0,0:0|0:0,0:0:0:0:
159,105,77005,1,0,0:0:0:0:
227,36,77121,2,0,B|207:3|207:3|73:14,1,161.333338256836,2|4,0:0|0:3,0:0:0:0:
0,160,77470,6,0,L|81:167,1,73.3333333333333,8|0,0:0|0:0,0:0:0:0:
229,254,77819,6,0,B|188:239|164:197|164:197|143:244|97:262,1,175.999994628906,4|0,0:3|0:0,0:0:0:0:
245,168,78168,2,0,L|231:318,1,131.99999597168,10|0,0:0|0:0,0:0:0:0:
260,334,78516,5,0,0:0:0:0:
216,314,78633,1,2,0:0:0:0:
172,322,78749,1,0,0:0:0:0:
252,306,78865,5,0,0:0:0:0:
207,301,78980,1,2,0:0:0:0:
172,322,79098,1,0,0:0:0:0:
305,262,79214,6,0,B|237:239|269:344|295:243|429:289,1,190.66665793864,4|0,0:1|0:0,0:0:0:0:
450,174,79563,1,10,0:0:0:0:
333,246,79679,2,0,P|325:201|327:155,1,80.6666691284181
458,148,79912,6,0,L|515:143,2,55.0000020980836,2|0|4,0:0|0:0|0:3,0:0:0:0:
388,100,80261,1,10,0:0:0:0:
301,174,80377,1,2,0:0:0:0:
193,80,80493,1,2,0:0:0:0:
96,213,80609,6,0,B|116:192|122:159|122:159|134:285,1,175.999994628906,4|0,0:3|0:0,0:0:0:0:
285,331,80958,1,10,0:0:0:0:
215,271,81074,1,0,0:0:0:0:
179,364,81190,1,0,0:0:0:0:
312,245,81307,6,0,P|272:245|227:260,1,80.6666691284181,2|0,0:0|0:0,0:0:0:0:
376,184,81540,1,4,0:3:0:0:
376,184,81656,6,0,L|445:208,1,58.6666666666667,8|0,0:0|0:0,0:0:0:0:
291,92,82005,6,0,B|359:69|327:174|295:83|187:112,1,175.999994628906,4|0,0:3|0:0,0:0:0:0:
93,205,82354,2,0,P|127:202|173:213,1,80.6666691284181,10|0,0:0|0:0,0:0:0:0:
25,129,82586,1,0,0:0:0:0:
0,315,82702,6,0,L|5:369,2,55.0000020980836,2|0|4,0:0|0:0|0:3,0:0:0:0:
59,223,83051,1,10,0:0:0:0:
159,302,83168,1,2,0:0:0:0:
223,146,83284,1,2,0:0:0:0:
326,276,83400,6,0,B|305:261|297:233|297:233|305:372,1,175.999994628906,4|0,0:3|0:0,0:0:0:0:
466,268,83749,1,10,0:0:0:0:
327,209,83865,1,0,0:0:0:0:
376,336,83981,1,0,0:0:0:0:
452,246,84098,5,2,0:0:0:0:
299,206,84214,2,0,P|257:217|227:241,1,80.6666691284181,0|4,0:0|0:3,0:0:0:0:
488,164,84447,1,8,0:0:0:0:
278,60,84795,6,0,B|210:37|242:142|274:51|382:80,1,175.999994628906,4|0,0:3|0:0,0:0:0:0:
196,200,85144,1,10,0:0:0:0:
332,155,85261,2,0,P|375:163|412:183,1,80.6666691284181,0|0,0:0|0:0,0:0:0:0:
271,317,85493,6,0,L|276:376,2,55.0000020980836,2|0|4,0:0|0:0|0:3,0:0:0:0:
344,240,85842,1,10,0:0:0:0:
209,174,85958,1,2,0:0:0:0:
341,66,86075,1,2,0:0:0:0:
171,30,86191,6,0,B|88:35|88:35|97:48|97:48|17:52,1,175.999994628906,4|0,0:3|0:0,0:0:0:0:
132,164,86540,1,10,0:0:0:0:
61,88,86656,1,0,0:0:0:0:
37,196,86772,1,0,0:0:0:0:
232,102,86888,6,0,P|187:89|150:89,1,80.6666691284181,2|0,0:0|0:0,0:0:0:0:
292,181,87121,1,4,0:3:0:0:
292,181,87237,6,0,L|353:163,1,58.6666666666667,8|0,0:0|0:0,0:0:0:0:
441,239,87586,6,0,B|509:216|477:321|445:230|337:259,1,175.999994628906,4|0,0:3|0:0,0:0:0:0:
199,339,87935,2,0,P|236:342|281:359,1,80.6666691284181,10|0,0:0|0:0,0:0:0:0:
166,236,88168,1,0,0:0:0:0:
37,324,88284,6,0,L|32:378,2,55.0000020980836,2|0|4,0:0|0:0|0:3,0:0:0:0:
0,235,88633,1,10,0:0:0:0:
70,150,88748,1,0,0:0:0:0:
0,69,88864,1,0,0:0:0:0:
98,8,88981,6,0,B|186:4|153:38|250:34,1,146.666666666667,4|0,0:3|0:0,0:0:0:0:
346,109,89330,2,0,L|338:194,1,73.3333333333333,10|0,0:0|0:0,0:0:0:0:
328,283,89679,1,0,0:0:0:0:
205,116,90028,1,2,0:0:0:0:
436,277,90377,6,0,B|406:276|383:297|383:297|345:246|271:260,1,161.333338256836,4|2,0:1|0:0,0:0:0:0:
156,357,90726,2,0,P|199:343|288:363,1,131.99999597168,8|0,0:1|0:0,0:0:0:0:
171,252,91075,2,0,L|176:319,1,65.9999979858399,0|0,0:0|0:0,0:0:0:0:
78,221,91307,1,4,0:3:0:0:
78,221,91423,2,0,P|105:149|94:87,1,131.99999597168,10|0,0:1|0:0,0:0:0:0:
245,174,91772,6,0,L|189:178,1,49.4999984893799,4|0,0:3|0:0,0:0:0:0:
267,150,91947,2,0,L|211:145,1,49.4999984893799,2|0,0:0|0:0,0:0:0:0:
326,40,92121,2,0,B|314:128|365:82|347:184,1,131.99999597168,8|0,0:1|0:0,0:0:0:0:
452,242,92470,2,0,P|418:214|316:214,1,131.99999597168,0|4,0:0|0:3,0:0:0:0:
231,338,92819,6,0,P|256:268|282:353,1,201.666672821045,8|0,0:1|0:0,0:0:0:0:
307,361,93168,6,0,B|352:348|352:348|460:365,1,146.666666666667,4|2,0:3|0:0,0:0:0:0:
503,235,93516,2,0,P|439:273|373:264,1,131.99999597168,8|0,0:1|0:0,0:0:0:0:
507,85,93865,2,0,L|512:151,1,65.9999979858399,0|0,0:0|0:0,0:0:0:0:
459,10,94098,1,4,0:3:0:0:
459,10,94214,2,0,P|458:89|424:139,1,131.99999597168,10|0,0:1|0:0,0:0:0:0:
283,76,94563,6,0,L|333:71,1,49.4999984893799,4|0,0:3|0:0,0:0:0:0:
266,99,94737,2,0,L|316:103,1,49.4999984893799,2|0,0:0|0:0,0:0:0:0:
96,189,94912,2,0,B|159:182|159:182|160:190|160:190|229:182,1,131.99999597168,8|0,0:1|0:0,0:0:0:0:
337,273,95261,5,2,0:0:0:0:
244,214,95377,2,0,P|212:221|170:242,1,73.3333333333333,2|4,0:0|0:3,0:0:0:0:
401,177,95609,6,0,L|405:232,2,55.0000020980836,8|0|0,0:1|0:0|0:0,0:0:0:0:
271,89,95958,6,0,B|301:88|324:109|324:109|360:66|436:72,1,161.333338256836,4|2,0:0|0:0,0:0:0:0:
512,198,96307,2,0,P|467:160|390:157,1,131.99999597168,8|0,0:1|0:0,0:0:0:0:
281,255,96656,2,0,L|287:320,1,65.9999979858399,0|0,0:0|0:0,0:0:0:0:
210,189,96888,1,4,0:3:0:0:
210,189,97005,2,0,P|233:115|208:51,1,131.99999597168,10|0,0:1|0:0,0:0:0:0:
429,148,97354,6,0,L|367:153,1,49.4999984893799,4|0,0:3|0:0,0:0:0:0:
445,123,97528,2,0,L|383:117,1,49.4999984893799,2|0,0:0|0:0,0:0:0:0:
253,257,97702,2,0,B|335:253|308:292|396:287,1,131.99999597168,8|0,0:1|0:0,0:0:0:0:
156,301,98051,2,0,P|206:282|288:292,1,131.99999597168,0|4,0:0|0:3,0:0:0:0:
94,176,98400,6,0,L|88:233,1,58.6666666666667,10|0,0:1|0:0,0:0:0:0:
119,174,98749,6,0,B|106:137|106:137|143:25,1,131.99999597168,4|0,0:3|0:0,0:0:0:0:
248,209,99098,2,0,L|242:282,2,65.9999979858399,8|0|0,0:1|0:0|0:0,0:0:0:0:
229,185,99447,2,0,P|171:191|111:237,1,131.99999597168,0|4,0:0|0:3,0:0:0:0:
249,90,99795,2,0,L|383:101,1,131.99999597168,8|0,0:1|0:0,0:0:0:0:
449,205,100144,6,0,P|482:194|517:191,2,65.9999979858399,2|2|2,0:0|0:0|0:0,0:0:0:0:
354,297,100493,2,0,P|321:286|286:283,2,58.6666666666667,2|2|2,0:0|0:0|0:0,0:0:0:0:
512,332,100842,6,0,P|465:335|411:366,1,102.666663533529,2|2,0:0|0:0,0:0:0:0:
393,384,101191,6,0,B|393:358|405:338|405:338|383:344|383:344|338:337|338:337|313:340,1,131.99999597168,2|0,0:0|0:0,0:0:0:0:
64,353,101540,6,0,B|186:340|123:399|261:383,1,190.66665793864,4|0,0:1|0:0,0:0:0:0:
144,247,101888,2,0,P|117:292|115:384,1,146.666666666667,10|0,0:0|0:0,0:0:0:0:
304,245,102237,6,0,L|366:239,2,55.0000020980836,2|0|4,0:0|0:0|0:3,0:0:0:0:
236,300,102586,1,10,0:0:0:0:
160,231,102702,1,2,0:0:0:0:
70,315,102818,1,2,0:0:0:0:
87,174,102935,6,0,P|81:129|82:90,2,65.9999979858399,4|0|0,0:3|0:0|0:0,0:0:0:0:
174,209,103284,2,0,P|198:170|224:141,2,65.9999979858399,8|0|0,0:0|0:0|0:0,0:0:0:0:
255,314,103633,2,0,P|249:359|250:398,2,65.9999979858399,0|0|4,0:0|0:0|0:3,0:0:0:0:
333,260,103981,2,0,B|450:270,1,110.000004196167,10|0,0:0|0:0,0:0:0:0:
360,168,104330,6,0,B|261:164|288:211|189:206,1,175.999994628906,4|0,0:3|0:0,0:0:0:0:
103,53,104679,2,0,P|205:93|226:140,1,146.666666666667,10|0,0:0|0:0,0:0:0:0:
302,285,105028,6,0,L|297:339,2,55.0000020980836,2|0|4,0:0|0:0|0:3,0:0:0:0:
252,213,105377,1,10,0:0:0:0:
320,137,105493,1,2,0:0:0:0:
245,40,105609,1,2,0:0:0:0:
389,75,105726,6,0,P|434:76|472:84,2,65.9999979858399,4|0|0,0:3|0:0|0:0,0:0:0:0:
337,154,106075,2,0,P|375:178|404:204,2,65.9999979858399,8|0|0,0:0|0:0|0:0,0:0:0:0:
233,245,106423,5,2,0:0:0:0:
315,237,106539,1,2,0:0:0:0:
397,229,106655,1,4,0:3:0:0:
280,310,106772,2,0,B|252:300|252:300|165:309,1,110.000004196167,8|0,0:0|0:0,0:0:0:0:
25,194,107121,6,0,B|133:181|78:236|200:221,1,175.999994628906,4|0,0:0|0:0,0:0:0:0:
49,359,107470,2,0,P|52:276|98:224,1,146.666666666667,10|0,0:0|0:0,0:0:0:0:
270,295,107819,6,0,L|324:290,2,55.0000020980836,2|0|4,0:0|0:0|0:3,0:0:0:0:
197,249,108168,1,10,0:0:0:0:
120,314,108284,1,2,0:0:0:0:
32,221,108400,1,2,0:0:0:0:
4,364,108516,6,0,P|27:291|11:230,1,131.99999597168,4|0,0:3|0:0,0:0:0:0:
109,73,108865,2,0,P|106:135|131:179,1,110.000004196167,10|0,0:0|0:0,0:0:0:0:
217,268,109214,2,0,P|154:260|107:281,1,110.000004196167,2|4,0:0|0:3,0:0:0:0:
55,348,109563,1,8,0:0:0:0:
292,102,109912,6,0,P|240:116|179:104,1,110.000004196167,4|0,0:3|0:0,0:0:0:0:
237,273,110261,2,0,P|276:235|334:215,1,110.000004196167,10|0,0:0|0:0,0:0:0:0:
394,119,110609,6,0,L|398:62,2,55.0000020980836,2|0|4,0:0|0:0|0:3,0:0:0:0:
440,194,110958,1,10,0:0:0:0:
387,268,111075,1,0,0:0:0:0:
469,329,111191,1,0,0:0:0:0:
405,384,111307,6,0,L|347:380,1,58.6666666666667,4|2,0:3|0:0,0:0:0:0:
325,348,111656,2,0,P|303:355|281:375,1,44,2|0,0:0|0:0,0:0:0:0:
151,255,112005,1,2,0:0:0:0:
168,256,112092,1,2,0:0:0:0:
185,258,112179,1,2,0:0:0:0:
202,259,112266,1,2,0:0:0:0:
220,261,112354,6,0,L|217:290,1,21.9999993286133,2|0,0:0|0:0,0:0:0:0:
333,165,112702,6,0,B|290:189|297:240|297:240|314:351,1,190.66665793864,4|0,0:1|0:0,0:0:0:0:
454,250,113051,2,0,P|412:234|367:234,1,80.6666691284181,10|0,0:0|0:0,0:0:0:0:
510,167,113284,1,0,0:0:0:0:
401,49,113400,2,0,B|432:88|432:88|422:211,1,161.333338256836,2|4,0:0|0:3,0:0:0:0:
351,351,113749,6,0,L|344:275,1,73.3333333333333,8|0,0:0|0:0,0:0:0:0:
284,131,114098,6,0,B|294:235|230:191|242:300,1,175.999994628906,4|0,0:3|0:0,0:0:0:0:
156,151,114447,1,10,0:0:0:0:
98,241,114563,1,0,0:0:0:0:
214,263,114679,1,0,0:0:0:0:
133,127,114795,6,0,P|98:131|51:154,1,80.6666691284181,2|0,0:0|0:0,0:0:0:0:
242,119,115028,1,4,0:3:0:0:
39,15,115144,1,8,0:0:0:0:
288,126,115493,6,0,B|265:165|219:159|219:159|116:143,1,175.999994628906,4|0,0:3|0:0,0:0:0:0:
33,242,115842,2,0,P|78:229|116:231,1,80.6666691284181,10|0,0:0|0:0,0:0:0:0:
190,332,116075,1,0,0:0:0:0:
307,159,116191,2,0,B|272:192|272:192|283:315,1,161.333338256836,2|4,0:0|0:3,0:0:0:0:
475,180,116540,6,0,L|393:172,1,73.3333333333333,8|0,0:0|0:0,0:0:0:0:
180,129,116888,6,0,B|217:121|240:94|240:94|283:130|348:124,1,175.999994628906,4|0,0:3|0:0,0:0:0:0:
205,289,117237,1,10,0:0:0:0:
242,143,117354,1,0,0:0:0:0:
295,280,117470,1,0,0:0:0:0:
151,129,117586,6,0,L|159:27,2,87.9999973144532,2|0|4,0:0|0:0|0:3,0:0:0:0:
190,264,117935,5,10,0:0:0:0:
63,117,118051,1,2,0:0:0:0:
242,143,118168,1,2,0:0:0:0:
65,207,118284,6,0,B|25:184|31:138|31:138|47:35,1,175.999994628906,4|0,0:3|0:0,0:0:0:0:
0,341,118633,2,0,P|6:290|-8:244,1,80.6666691284181,10|0,0:0|0:0,0:0:0:0:
91,383,118865,1,0,0:0:0:0:
232,307,118981,2,0,B|204:273|204:273|87:283,1,161.333338256836,2|4,0:0|0:3,0:0:0:0:
329,165,119330,6,0,L|321:249,1,73.3333333333333,8|0,0:0|0:0,0:0:0:0:
420,372,119679,6,0,B|413:296|413:296|426:264|426:264|419:184,1,175.999994628906,4|0,0:3|0:0,0:0:0:0:
342,21,120028,1,10,0:0:0:0:
360,147,120144,1,0,0:0:0:0:
455,70,120261,1,0,0:0:0:0:
309,36,120377,6,0,P|261:43|231:62,1,80.6666691284181,2|0,0:0|0:0,0:0:0:0:
177,153,120609,1,4,0:3:0:0:
49,15,120726,1,8,0:0:0:0:
29,248,121075,6,0,B|51:287|98:281|98:281|200:265,1,175.999994628906,4|0,0:3|0:0,0:0:0:0:
305,137,121423,2,0,P|268:159|246:196,1,80.6666691284181,10|0,0:0|0:0,0:0:0:0:
289,305,121656,1,0,0:0:0:0:
110,167,121772,2,0,B|139:136|139:136|257:152,1,161.333338256836,2|4,0:0|0:3,0:0:0:0:
368,280,122121,6,0,L|287:287,1,73.3333333333333,8|0,0:0|0:0,0:0:0:0:
512,174,122470,6,0,B|459:173|432:209|432:209|396:178|338:186,1,175.999994628906,4|0,0:3|0:0,0:0:0:0:
451,103,122819,2,0,L|439:239,1,131.99999597168,10|0,0:0|0:0,0:0:0:0:
419,264,123168,5,0,0:0:0:0:
463,261,123284,1,2,0:0:0:0:
500,288,123400,1,0,0:0:0:0:
395,240,123516,6,0,L|434:236,2,29.3333333333333,0|0|0,0:0|0:0|0:0,0:0:0:0:
226,139,123865,6,0,B|251:199|243:255|180:265|150:234|148:203,1,190.66665793864,4|0,0:1|0:0,0:0:0:0:
91,6,124214,2,0,P|96:51|89:96,1,80.6666691284181,10|0,0:0|0:0,0:0:0:0:
15,199,124447,1,0,0:0:0:0:
189,196,124563,2,0,B|72:215|127:160|13:177,1,161.333338256836,2|4,0:0|0:3,0:0:0:0:
23,363,124912,6,0,P|44:291|80:366,1,190.66665793864,8|0,0:0|0:0,0:0:0:0:
56,255,125261,6,0,P|117:291|102:385,1,175.999994628906,4|0,0:3|0:0,0:0:0:0:
279,235,125609,1,10,0:0:0:0:
147,290,125726,1,0,0:0:0:0:
259,357,125842,1,0,0:0:0:0:
302,217,125958,6,0,P|301:248|313:297,1,80.6666691284181,2|0,0:0|0:0,0:0:0:0:
442,174,126191,1,4,0:3:0:0:
291,136,126307,6,0,L|285:202,1,58.6666666666667,8|0,0:0|0:0,0:0:0:0:
139,29,126656,6,0,B|114:86|122:140|183:150|212:120|214:90,1,175.999994628906,4|0,0:3|0:0,0:0:0:0:
47,235,127005,2,0,P|91:221|135:222,1,80.6666691284181,10|0,0:0|0:0,0:0:0:0:
221,280,127237,1,0,0:0:0:0:
171,95,127354,2,0,B|158:195|216:144|203:254,1,161.333338256836,2|4,0:0|0:3,0:0:0:0:
425,155,127702,6,0,P|371:173|442:221,1,190.66665793864,8|0,0:0|0:0,0:0:0:0:
335,214,128051,6,0,P|396:269|473:233,1,175.999994628906,4|0,0:3|0:0,0:0:0:0:
237,41,128400,1,10,0:0:0:0:
249,174,128516,1,0,0:0:0:0:
352,85,128633,1,0,0:0:0:0:
176,129,128749,6,0,L|87:121,2,87.9999973144532,2|0|4,0:0|0:0|0:3,0:0:0:0:
265,194,129098,5,10,0:0:0:0:
158,32,129214,1,2,0:0:0:0:
99,228,129330,1,2,0:0:0:0:
342,236,129447,6,0,B|367:179|359:125|298:115|269:145|266:181,1,190.66665793864,4|0,0:3|0:0,0:0:0:0:
222,338,129795,2,0,P|226:288|216:252,1,80.6666691284181,10|0,0:0|0:0,0:0:0:0:
124,154,130028,1,0,0:0:0:0:
60,280,130144,2,0,B|148:267|122:313|231:299,1,161.333338256836,2|4,0:0|0:3,0:0:0:0:
355,145,130493,6,0,P|362:199|306:138,1,190.66665793864,8|0,0:0|0:0,0:0:0:0:
321,253,130842,6,0,P|254:207|281:124,1,175.999994628906,4|0,0:3|0:0,0:0:0:0:
462,243,131191,1,10,0:0:0:0:
343,175,131307,1,0,0:0:0:0:
388,311,131423,1,0,0:0:0:0:
452,134,131540,6,0,P|403:139|367:156,1,80.6666691284181,2|0,0:0|0:0,0:0:0:0:
305,284,131772,1,4,0:3:0:0:
237,122,131888,6,0,L|231:183,1,58.6666666666667,8|0,0:0|0:0,0:0:0:0:
103,325,132237,6,0,B|78:268|86:214|147:204|176:234|178:264,1,175.999994628906,4|0,0:3|0:0,0:0:0:0:
322,217,132586,2,0,P|281:215|237:193,1,80.6666691284181,10|0,0:0|0:0,0:0:0:0:
206,70,132819,1,0,0:0:0:0:
363,143,132935,2,0,B|380:254|321:195|337:315,1,161.333338256836,2|4,0:0|0:3,0:0:0:0:
164,168,133284,6,0,P|240:203|169:223,1,190.66665793864,8|0,0:0|0:0,0:0:0:0:
274,182,133633,6,0,P|239:257|151:240,1,175.999994628906,4|0,0:3|0:0,0:0:0:0:
51,102,133981,2,0,B|67:124|67:124|53:242,1,131.99999597168,10|0,0:0|0:0,0:0:0:0:
41,346,134330,1,0,0:0:0:0:
208,293,134679,1,2,0:0:0:0:
22,105,135028,6,0,B|57:101|92:122|92:122|116:26|228:37,1,220.000008392334,4|0,0:1|0:0,0:0:0:0:
291,212,135377,2,0,L|282:119,1,87.9999973144532,10|0,0:0|0:0,0:0:0:0:
186,172,135609,1,0,0:0:0:0:
335,283,135726,2,0,B|295:247|295:247|161:260,1,175.999994628906,2|4,0:0|0:3,0:0:0:0:
441,342,136075,6,0,P|420:282|418:224,1,110.000004196167,10|0,0:0|0:0,0:0:0:0:
224,368,136423,6,0,B|348:404|308:333|434:380,1,205.333327067058,4|0,0:3|0:0,0:0:0:0:
154,226,136772,1,10,0:0:0:0:
207,364,136888,1,0,0:0:0:0:
298,243,137005,1,0,0:0:0:0:
82,315,137121,6,0,P|121:282|170:266,1,87.9999973144532,2|0,0:0|0:0,0:0:0:0:
287,366,137354,1,4,0:3:0:0:
237,181,137470,1,8,0:0:0:0:
391,333,137819,6,0,B|360:329|329:347|329:347|301:262|210:273,1,205.333327067058,4|0,0:3|0:0,0:0:0:0:
117,154,138168,2,0,L|204:161,1,87.9999973144532,10|0,0:0|0:0,0:0:0:0:
40,226,138400,1,0,0:0:0:0:
194,45,138516,2,0,B|157:77|157:77|172:213,1,175.999994628906,2|4,0:0|0:3,0:0:0:0:
400,284,138865,6,0,P|338:268|291:235,1,110.000004196167,10|0,0:0|0:0,0:0:0:0:
126,379,139214,6,0,B|253:334|178:302|304:256,1,205.333327067058,4|0,0:3|0:0,0:0:0:0:
277,40,139563,1,10,0:0:0:0:
357,166,139679,1,0,0:0:0:0:
229,135,139795,1,0,0:0:0:0:
364,62,139912,6,0,L|461:70,2,87.9999973144532,2|0|4,0:0|0:0|0:3,0:0:0:0:
196,18,140261,5,10,0:0:0:0:
296,202,140377,1,2,0:0:0:0:
111,147,140493,1,2,0:0:0:0:
215,292,140609,6,0,B|246:296|277:278|277:278|305:363|396:352,1,205.333327067058,4|0,0:3|0:0,0:0:0:0:
91,368,140958,2,0,L|180:375,1,87.9999973144532,10|0,0:0|0:0,0:0:0:0:
31,223,141191,1,0,0:0:0:0:
0,318,141307,2,0,B|42:359|42:359|180:342,1,175.999994628906,2|4,0:0|0:3,0:0:0:0:
354,183,141656,6,0,P|307:191|237:178,1,110.000004196167,10|0,0:0|0:0,0:0:0:0:
318,340,142005,6,0,B|443:340|392:281|522:290,1,205.333327067058,4|0,0:3|0:0,0:0:0:0:
298,234,142354,1,10,0:0:0:0:
401,350,142470,1,0,0:0:0:0:
438,203,142586,1,0,0:0:0:0:
225,325,142702,6,0,P|268:311|311:312,1,87.9999973144532,2|0,0:0|0:0,0:0:0:0:
151,246,142935,1,4,0:3:0:0:
333,182,143051,6,0,L|328:227,1,43.9999986572266,8|0,0:0|0:0,0:0:0:0:
259,103,143400,6,0,B|228:107|197:89|197:89|169:174|78:163,1,205.333327067058,4|0,0:3|0:0,0:0:0:0:
33,9,143749,2,0,L|24:106,1,87.9999973144532,10|0,0:0|0:0,0:0:0:0:
92,194,143981,1,0,0:0:0:0:
159,92,144098,2,0,B|128:138|128:138|150:267,1,175.999994628906,2|4,0:0|0:3,0:0:0:0:
325,157,144447,6,0,P|277:149|217:174,1,110.000004196167,10|0,0:0|0:0,0:0:0:0:
478,163,144795,6,0,B|353:136|404:218|282:189,1,205.333327067058,4|0,0:3|0:0,0:0:0:0:
455,126,145144,2,0,L|439:306,1,175.999994628906,10|0,0:0|0:0,0:0:0:0:
331,350,145493,5,0,0:0:0:0:
375,347,145609,1,2,0:0:0:0:
412,374,145725,1,0,0:0:0:0:
307,326,145842,6,0,L|343:322,2,29.3333333333333
82,376,146191,6,0,B|55:331|72:271|72:271|61:277|61:277|82:225|63:179,1,220.000008392334,4|0,0:1|0:0,0:0:0:0:
152,73,146540,2,0,P|196:82|243:81,2,87.9999973144532,10|0|0,0:0|0:0|0:0,0:0:0:0:
44,228,146888,2,0,B|148:212|116:258|232:238,1,175.999994628906,2|4,0:0|0:3,0:0:0:0:
322,91,147237,6,0,L|286:196,1,110.000004196167,10|0,0:0|0:0,0:0:0:0:
411,305,147586,6,0,B|363:244|363:244|407:109,1,205.333327067058,4|0,0:3|0:0,0:0:0:0:
239,335,147935,2,0,L|155:342,2,80.6666691284181,10|2|2,0:0|0:0|0:0,0:0:0:0:
342,248,148284,2,0,L|442:256,2,95.3333289693199,2|0|4,0:0|0:0|0:3,0:0:0:0:
246,158,148633,1,10,0:0:0:0:
143,274,148749,1,2,0:0:0:0:
41,112,148865,1,2,0:0:0:0:
39,301,148981,6,0,B|86:283|137:303|137:303|131:292|131:292|191:309|241:280,1,205.333327067058,4|0,0:3|0:0,0:0:0:0:
365,218,149330,2,0,P|402:220|452:236,2,87.9999973144532,10|0|0,0:0|0:0|0:0,0:0:0:0:
127,140,149679,2,0,B|227:122|192:173|317:147,1,175.999994628906,2|4,0:0|0:3,0:0:0:0:
219,316,150028,6,0,L|169:214,1,110.000004196167,10|0,0:0|0:0,0:0:0:0:
42,304,150377,6,0,B|85:268|85:268|104:106,1,205.333327067058,4|0,0:3|0:0,0:0:0:0:
190,228,150726,2,0,L|103:235,2,80.6666691284181,10|2|2,0:0|0:0|0:0,0:0:0:0:
295,155,151075,2,0,L|390:163,2,95.3333289693199,2|2|4,0:0|0:0|0:3,0:0:0:0:
174,81,151423,5,10,0:0:0:0:
317,290,151539,1,2,0:0:0:0:
375,49,151655,1,2,0:0:0:0:
512,193,151772,6,0,B|465:175|414:195|414:195|420:184|420:184|360:201|310:172,1,205.333327067058,4|0,0:3|0:0,0:0:0:0:
252,244,152121,2,0,P|260:288|260:348,2,87.9999973144532,10|0|0,0:0|0:0|0:0,0:0:0:0:
162,75,152470,2,0,B|177:167|123:143|139:262,1,175.999994628906,2|4,0:0|0:3,0:0:0:0:
263,94,152819,6,0,L|383:119,1,110.000004196167,10|0,0:0|0:0,0:0:0:0:
489,250,153168,6,0,B|455:208|455:208|293:222,1,205.333327067058,4|0,0:3|0:0,0:0:0:0:
136,322,153516,2,0,L|43:313,2,80.6666691284181,10|2|2,0:0|0:0|0:0,0:0:0:0:
251,266,153865,2,0,L|352:257,2,95.3333289693199,2|0|4,0:0|0:0|0:3,0:0:0:0:
118,181,154214,1,10,0:0:0:0:
267,116,154330,1,2,0:0:0:0:
65,34,154447,1,2,0:0:0:0:
293,0,154563,6,0,B|311:47|291:98|291:98|302:92|302:92|285:152|314:202,1,205.333327067058,4|0,0:3|0:0,0:0:0:0:
389,286,154912,2,0,P|397:324|393:375,2,87.9999973144532,10|0|0,0:0|0:0|0:0,0:0:0:0:
443,58,155261,2,0,B|435:169|481:121|477:233,1,175.999994628906,2|4,0:0|0:3,0:0:0:0:
256,145,155609,6,0,L|370:125,1,110.000004196167,10|0,0:0|0:0,0:0:0:0:
169,225,155958,6,0,L|252:238,1,73.3333333333333
90,283,156307,1,2,0:0:0:0:
90,305,156656,1,0,0:0:0:0:
5,173,157005,1,2,0:0:0:0:
117,52,157354,6,0,B|105:156|153:116|143:214,1,161.333338256836,4|0,0:1|0:0,0:0:0:0:
0,229,157702,2,0,P|45:187|129:172,1,131.99999597168,10|0,0:0|0:0,0:0:0:0:
179,277,158051,2,0,L|185:346,2,65.9999979858399,2|2|4,0:0|0:0|0:3,0:0:0:0:
205,156,158400,1,10,0:0:0:0:
315,239,158516,1,2,0:0:0:0:
285,67,158632,1,2,0:0:0:0:
422,157,158749,6,0,P|463:159|498:169,2,65.9999979858399,4|0|0,0:3|0:0|0:0,0:0:0:0:
366,78,159098,2,0,P|388:43|414:18,2,65.9999979858399,8|0|0,0:0|0:0|0:0,0:0:0:0:
269,86,159447,2,0,P|250:49|241:14,2,65.9999979858399,0|0|4,0:0|0:0|0:3,0:0:0:0:
227,174,159795,2,0,P|185:172|150:161,2,65.9999979858399,8|0|0,0:0|0:0|0:0,0:0:0:0:
362,250,160144,6,0,B|269:242|314:287|208:276,1,146.666666666667,4|0,0:3|0:0,0:0:0:0:
117,317,160493,2,0,P|171:265|230:256,1,131.99999597168,10|0,0:0|0:0,0:0:0:0:
328,149,160842,2,0,L|394:154,2,65.9999979858399,2|2|4,0:0|0:0|0:3,0:0:0:0:
247,238,161191,1,10,0:0:0:0:
190,88,161307,1,2,0:0:0:0:
147,267,161423,1,2,0:0:0:0:
91,70,161540,6,0,P|50:72|15:82,2,65.9999979858399,4|0|0,0:3|0:0|0:0,0:0:0:0:
171,199,161888,2,0,P|203:209|247:211,2,65.9999979858399,8|0|0,0:0|0:0|0:0,0:0:0:0:
69,111,162237,2,0,P|29:98|-6:96,2,65.9999979858399,0|0|4,0:0|0:0|0:3,0:0:0:0:
144,215,162586,2,0,L|138:274,2,43.9999986572266,8|0|0,0:0|0:0|0:0,0:0:0:0:
212,96,162935,6,0,B|300:88|264:138|361:128,1,146.666666666667,4|0,0:3|0:0,0:0:0:0:
461,13,163284,2,0,P|404:41|373:104,1,131.99999597168,10|0,0:0|0:0,0:0:0:0:
445,245,163633,2,0,L|512:239,2,65.9999979858399,2|2|4,0:0|0:0|0:3,0:0:0:0:
373,326,163981,1,10,0:0:0:0:
308,180,164097,1,2,0:0:0:0:
284,384,164213,1,2,0:0:0:0:
168,274,164330,6,0,P|127:276|92:286,2,65.9999979858399,4|0|0,0:3|0:0|0:0,0:0:0:0:
89,181,164679,2,0,P|51:196|21:218,2,65.9999979858399,8|0|0,0:0|0:0|0:0,0:0:0:0:
274,131,165028,2,0,P|234:118|198:116,2,65.9999979858399,0|0|4,0:0|0:0|0:3,0:0:0:0:
231,16,165377,2,0,P|190:18|155:28,2,65.9999979858399,8|0|0,0:0|0:0|0:0,0:0:0:0:
159,299,165726,6,0,B|163:208|122:240|129:148,1,146.666666666667,4|0,0:3|0:0,0:0:0:0:
205,25,166075,2,0,P|167:64|157:143,1,131.99999597168,10|0,0:0|0:0,0:0:0:0:
293,254,166423,2,0,L|287:327,2,65.9999979858399,2|2|4,0:0|0:0|0:3,0:0:0:0:
207,211,166772,1,10,0:0:0:0:
365,168,166888,1,2,0:0:0:0:
142,136,167004,1,2,0:0:0:0:
247,0,167121,6,0,P|254:32|255:65,2,65.9999979858399,4|0|0,0:3|0:0|0:0,0:0:0:0:
334,159,167470,2,0,P|321:198|319:234,2,65.9999979858399,8|0|0,0:0|0:0|0:0,0:0:0:0:
440,64,167819,6,0,P|426:127|442:185,1,110.000004196167,2|4,0:0|0:3,0:0:0:0:
482,243,168168,2,0,P|489:290|478:329,1,73.3333333333333,10|0,0:0|0:0,0:0:0:0:
296,251,168516,6,0,L|412:240,1,110.000004196167,4|0,0:1|0:0,0:0:0:0:
306,274,168865,2,0,L|230:267,1,73.3333333333333
185,177,169214,2,0,L|152:179,2,29.3333333333333,2|2|2,0:0|0:0|0:0,0:0:0:0:
250,99,169563,2,0,L|304:103,2,36.6666666666667,2|2|2,0:0|0:0|0:0,0:0:0:0:
77,155,169912,6,0,L|81:201,2,43.9999986572266,2|2|2,0:0|0:0|0:0,0:0:0:0:
121,65,170261,2,0,L|125:18,2,43.9999986572266,2|2|2,0:0|0:0|0:0,0:0:0:0:
46,151,170609,2,0,L|50:197,2,43.9999986572266,2|2|2,0:0|0:0|0:0,0:0:0:0:
90,61,170958,2,0,L|94:14,2,43.9999986572266,2|2|2,0:0|0:0|0:0,0:0:0:0:
20,211,171307,6,0,L|28:305,1,87.9999973144532
132,367,171656,2,0,L|138:292,1,73.3333333333333
217,223,172005,2,0,L|247:226,2,29.3333333333333,2|2|2,0:0|0:0|0:0,0:0:0:0:
153,136,172354,2,0,L|113:138,2,36.6666666666667,2|2|2,0:0|0:0|0:0,0:0:0:0:
254,54,172702,6,0,L|249:112,2,43.9999986572266,2|2|2,0:0|0:0|0:0,0:0:0:0:
283,85,173051,2,0,L|277:143,2,43.9999986572266,2|2|2,0:0|0:0|0:0,0:0:0:0:
375,167,173400,2,0,L|380:225,2,43.9999986572266,2|2|2,0:0|0:0|0:0,0:0:0:0:
346,198,173749,2,0,L|352:256,2,43.9999986572266,2|2|2,0:0|0:0|0:0,0:0:0:0:
241,260,174098,6,0,L|121:270,1,110.000004196167,4|0,0:3|0:0,0:0:0:0:
254,230,174447,2,0,L|335:237,1,73.3333333333333
420,314,174795,2,0,L|415:360,2,29.3333333333333,2|2|2,0:0|0:0|0:0,0:0:0:0:
346,216,175144,2,0,L|341:169,2,36.6666666666667,2|2|2,0:0|0:0|0:0,0:0:0:0:
248,329,175493,6,0,L|201:324,2,43.9999986572266,2|2|2,0:0|0:0|0:0,0:0:0:0:
349,272,175842,2,0,L|395:267,2,43.9999986572266,2|2|2,0:0|0:0|0:0,0:0:0:0:
245,296,176191,2,0,L|198:291,2,43.9999986572266,2|2|2,0:0|0:0|0:0,0:0:0:0:
346,239,176540,2,0,L|392:234,2,43.9999986572266,2|2|2,0:0|0:0|0:0,0:0:0:0:
252,166,176888,6,0,L|261:52,1,110.000004196167
139,0,177237,2,0,L|145:79,1,73.3333333333333
57,198,177586,2,0,L|60:150,2,29.3333333333333
160,259,177935,2,0,P|122:267|90:296,1,73.3333333333333,2|0,0:0|0:0,0:0:0:0:
213,324,178284,1,4,0:3:0:0:
361,241,178981,5,2,0:0:0:0:
281,285,179097,1,2,0:0:0:0:
227,224,179213,1,0,0:0:0:0:
255,192,179330,6,0,L|302:196,2,36.6666666666667
