osu file format v14

[General]
AudioFilename: audio.mp3
AudioLeadIn: 0
PreviewTime: 116950
Countdown: 0
SampleSet: Soft
StackLeniency: 0.7
Mode: 0
LetterboxInBreaks: 0
WidescreenStoryboard: 1

[Editor]
Bookmarks: 12382,49305,53536,80075,83151,113921,116998,166036
DistanceSpacing: 0.9
BeatDivisor: 8
GridSize: 4
TimelineZoom: 1

[Metadata]
Title:Disruptor
TitleUnicode:Disruptor
Artist:mrsimon
ArtistUnicode:mrsimon
Creator:Skidooskei
Version:lewski's Easy
Source:Dexter's Laboratory
Tags:tech electronic 1995 remix english myxomatosis lewski
BeatmapID:1918825
BeatmapSetID:899772

[Difficulty]
HPDrainRate:2.5
CircleSize:3
OverallDifficulty:2.8
ApproachRate:4
SliderMultiplier:1
SliderTickRate:1

[Events]
//Background and Video events
0,0,"Disruptor1.jpg",0,0
//Break Periods
2,49698,52216
//Storyboard Layer 0 (Background)
//Storyboard Layer 1 (Fail)
//Storyboard Layer 2 (Pass)
//Storyboard Layer 3 (Foreground)
//Storyboard Sound Samples

[TimingPoints]
75,384.615384615385,4,2,1,50,1,0
23825,-100,4,2,1,30,0,0
25075,-100,4,2,1,55,0,0
26421,-100,4,2,1,55,0,0
30267,-100,4,2,1,60,0,0
30844,-100,4,2,1,40,0,0
33344,-100,4,2,1,50,0,0
33921,-100,4,2,1,60,0,0
49498,-100,4,2,1,45,0,0
53536,-100,4,2,1,25,0,0
53921,-100,4,2,1,45,0,0
55459,-100,4,2,1,60,0,0
73152,-100,4,2,1,60,0,0
73921,-100,4,2,1,60,0,0
83151,-100,4,2,1,50,0,0
85075,-100,4,2,1,45,0,0
86613,-100,4,2,1,60,0,0
89306,-100,4,2,1,60,0,0
92383,-95.2380952380952,4,2,1,50,0,0
104690,-95.2380952380952,4,2,1,55,0,0
110844,-95.2380952380952,4,2,1,60,0,0
116998,-90.9090909090909,4,2,1,65,0,1
122382,-90.9090909090909,4,2,1,60,0,0
123151,-90.9090909090909,4,2,1,70,0,1
128921,-90.9090909090909,4,2,1,60,0,0
129305,-90.9090909090909,4,2,1,65,0,1
134690,-90.9090909090909,4,2,1,60,0,0
135459,-90.9090909090909,4,2,1,70,0,1
140075,-90.9090909090909,4,2,1,60,0,0
147767,-90.9090909090909,4,2,1,70,0,1
153152,-90.9090909090909,4,2,1,60,0,1
153921,-90.9090909090909,4,2,1,60,0,0
160075,-90.9090909090909,4,2,1,70,0,1
163151,-90.9090909090909,4,2,1,55,0,0
164690,-95.2380952380952,4,2,1,50,0,0

[Colours]
Combo1 : 255,128,128
Combo2 : 110,183,255
Combo3 : 128,255,128
Combo4 : 128,128,255

[HitObjects]
148,230,12382,6,0,B|138:206|122:189|122:189|129:112|114:35,2,200,4|2|0,0:0|0:3|0:0,0:0:0:0:
187,317,14305,1,2,0:3:0:0:
437,351,15459,5,0,0:0:0:0:
448,160,16228,2,0,L|522:171,2,75,12|8|8,0:0|0:0|0:0,0:0:0:0:
419,20,17382,1,8,0:0:0:0:
185,66,18536,5,2,0:0:0:0:
107,10,18921,2,0,B|7:41,1,100,12|0,0:0|0:0,0:0:0:0:
1,134,19690,1,8,0:0:0:0:
61,209,20075,2,0,P|72:251|71:291,1,75,2|0,0:0|0:0,0:0:0:0:
75,378,20748,2,0,B|106:382|120:365|151:373,1,75,12|0,0:0|0:0,0:0:0:0:
299,381,21613,5,2,0:0:0:0:
312,286,21998,2,0,B|288:221|288:221|326:198|326:147|326:94,1,200,12|8,0:0|0:0,0:0:0:0:
351,8,23151,6,0,L|430:14,1,75,2|0,0:0|0:0,0:0:0:0:
499,81,23825,2,0,B|523:252|523:252|506:328|416:340|403:285,1,325,0|0,0:0|0:0,0:0:0:0:
295,149,25844,2,0,P|246:109|171:151,1,150,8|0,0:0|0:0,0:0:0:0:
154,188,26613,1,8,0:0:0:0:
88,370,27382,6,0,L|191:369,2,100,8|0|8,0:0|0:0|0:0,0:0:0:0:
12,310,28536,1,0,0:0:0:0:
41,221,28921,1,8,0:0:0:0:
0,137,29305,2,0,B|3:100|16:65|16:65|41:34|75:18,1,150,2|8,0:0|0:0,0:0:0:0:
222,8,30459,1,12,0:0:0:0:
319,6,30844,6,0,B|327:108|327:108|313:210,1,200,2|0,0:0|0:0,0:0:0:0:
295,297,31998,1,8,0:0:0:0:
392,302,32382,2,0,P|447:366|531:364,2,150,0|8|8,0:0|0:0|0:0,0:0:0:0:
423,212,33921,6,0,B|433:188|448:171|448:171|438:124|446:67|446:67|424:46|416:27,2,200,4|8|4,0:0|0:0|0:3,0:0:0:0:
236,198,36228,2,0,B|240:170|240:170|236:147|236:147|243:123|243:123|240:100,1,100,2|2,0:0|0:0,0:0:0:0:
190,21,36998,6,0,P|151:37|87:36,1,100,2|8,0:3|0:0,0:0:0:0:
0,31,37767,2,0,P|0:80|16:127,1,100,0|8,0:0|0:0,0:0:0:0:
74,202,38536,2,0,B|80:284|80:284|119:345|119:345|165:364,1,200,2|0,0:3|0:0,0:0:0:0:
255,375,39690,1,2,0:3:0:0:
333,319,40075,1,4,0:3:0:0:
468,358,40651,2,0,B|475:335|496:323|496:323|517:244|517:244|503:174|503:174|480:155|468:129,1,250,4|4,0:3|0:3,0:0:0:0:
475,39,41998,6,0,L|322:25,1,150,12|0,0:0|0:0,0:0:0:0:
217,134,43151,1,2,0:0:0:0:
211,231,43536,6,0,B|301:205|335:260|410:227|410:227,1,200,12|8,0:0|0:0,0:0:0:0:
496,281,44690,2,0,B|484:327|436:369|360:373|360:373|320:317|249:320,1,300,4|8,0:0|0:0,0:0:0:0:
157,313,46228,5,2,0:0:0:0:
61,330,46613,2,0,P|21:298|15:243,1,100,12|0,0:0|0:0,0:0:0:0:
35,157,47382,1,8,0:0:0:0:
256,192,47767,12,2,49498,0:0:0:0:
341,196,53536,6,0,B|207:173|157:303|24:250|19:118|104:110,1,400,0|0,0:0|0:0,0:0:0:0:
192,110,55459,6,0,B|292:101|292:101|316:48,1,150,4|0,0:3|0:0,0:0:0:0:
399,13,56421,1,4,0:3:0:0:
485,56,56805,2,0,B|494:108|473:154|473:154|499:205|488:260,1,200,0|0,0:0|0:0,0:0:0:0:
460,343,57959,1,4,0:3:0:0:
371,380,58344,6,0,L|266:384,1,100,0|2,0:0|0:0,0:0:0:0:
126,354,59305,2,0,B|70:303|70:303|68:227|68:227|108:199|108:199|158:220|207:202|207:202|246:238,1,350,12|4,0:0|0:3,0:0:0:0:
314,302,61036,1,2,0:0:0:0:
421,201,61613,6,0,B|412:102|412:102|369:69,1,150,4|0,0:3|0:0,0:0:0:0:
283,29,62575,1,4,0:3:0:0:
202,83,62959,2,0,B|146:87|107:60|107:60|51:62|12:90,1,200,0|0,0:0|0:0,0:0:0:0:
1,187,64113,1,4,0:3:0:0:
16,283,64498,6,0,L|119:302,1,100,0|2,0:0|0:0,0:0:0:0:
243,379,65459,2,0,B|286:315|286:315|346:357|346:357|396:355|396:355|396:266|487:257|487:257|501:147|401:152|401:152,1,500,12|0,0:0|0:0,0:0:0:0:
313,167,67767,5,4,0:3:0:0:
215,154,68151,1,8,0:0:0:0:
201,57,68536,2,0,P|257:57|309:41,1,100,4|12,0:3|0:0,0:0:0:0:
393,11,69305,2,0,B|446:2|492:12|492:12|509:31|511:58,1,150,4|4,0:3|0:0,0:0:0:0:
492,152,70267,1,0,0:0:0:0:
507,248,70651,6,0,B|531:290|508:357|451:368|451:368|427:363|405:364,1,200,2|4,0:3|0:3,0:0:0:0:
192,340,72382,2,0,B|161:332|126:333|126:333|109:302|107:268|107:268|78:255|44:256|44:256|10:236|31:55,1,400,8|2,0:0|0:0,0:0:0:0:
120,22,74305,5,2,0:3:0:0:
195,85,74690,2,0,P|243:101|291:81,1,100,2|2,0:0|0:3,0:0:0:0:
375,29,75459,2,0,B|386:130|386:130|352:177,1,150,2|12,0:0|0:0,0:0:0:0:
336,378,76998,6,0,P|369:363|437:355,1,100,0|2,0:0|0:3,0:0:0:0:
508,294,77767,1,0,0:0:0:0:
500,199,78151,1,2,0:3:0:0:
423,139,78536,1,4,0:3:0:0:
478,57,78921,2,0,B|459:42|448:16|448:16|361:2|277:72|304:183,1,300,0|0,0:0|0:0,0:0:0:0:
301,167,83151,5,0,0:0:0:0:
239,10,83921,2,0,B|178:50|178:50|115:8|115:8|69:37,1,200,2|0,0:3|0:0,0:0:0:0:
0,97,85075,5,2,0:3:0:0:
77,349,86613,6,0,B|127:340|176:355|176:355|206:342|206:342|237:355|237:355|273:343,1,200,12|8,0:0|0:0,0:0:0:0:
364,322,87767,2,0,P|406:320|466:333,2,100,0|0|0,0:0|0:0|0:0,0:0:0:0:
256,192,89305,12,0,91132,0:0:0:0:
394,259,92382,5,2,0:3:0:0:
296,248,92767,1,8,0:0:0:0:
230,322,93151,2,0,L|121:331,1,104.999996795654,2|8,0:0|0:0,0:0:0:0:
33,294,93921,2,0,B|42:187|42:187|21:141,1,157.499995193482,2|2,0:3|0:3,0:0:0:0:
54,7,95075,1,8,0:0:0:0:
148,36,95459,5,2,0:3:0:0:
246,16,95844,1,8,0:0:0:0:
324,78,96228,2,0,L|432:85,1,104.999996795654,2|8,0:0|0:0,0:0:0:0:
512,148,96998,2,0,B|525:252|525:252|489:290|489:290|488:344|488:344|465:356|437:354|437:354|411:347|385:350,1,314.999990386963,2|8,0:3|0:0,0:0:0:0:
289,368,98536,6,0,B|263:266|263:266|266:210,1,157.499995193482,2|2,0:3|0:3,0:0:0:0:
290,66,99690,1,8,0:0:0:0:
208,8,100075,1,2,0:3:0:0:
114,33,100459,1,8,0:0:0:0:
16,13,100844,2,0,L|28:132,1,104.999996795654,2|8,0:0|0:0,0:0:0:0:
10,215,101613,6,0,B|3:320|3:320|35:361,1,157.499995193482,2|2,0:3|0:3,0:0:0:0:
189,384,102767,1,8,0:0:0:0:
266,323,103151,2,0,B|250:271|260:221|260:221|259:194|238:173,2,157.499995193482,2|2|0,0:0|0:0|0:0,0:0:0:0:
355,365,104690,5,2,0:3:0:0:
400,278,105075,1,8,0:0:0:0:
498,269,105459,2,0,L|490:162,1,104.999996795654,2|8,0:0|0:0,0:0:0:0:
478,68,106228,2,0,B|373:81|373:81|318:63,1,157.499995193482,2|2,0:3|0:3,0:0:0:0:
184,10,107382,1,8,0:0:0:0:
126,90,107767,5,2,0:3:0:0:
170,178,108151,1,8,0:0:0:0:
267,156,108536,2,0,L|282:265,1,104.999996795654,2|8,0:0|0:0,0:0:0:0:
252,353,109305,2,0,B|200:342|149:360|149:360|100:343|100:343|45:355|45:355,1,209.999993591309,2|0,0:3|0:0,0:0:0:0:
3,171,110844,6,0,B|18:68|18:68|63:30,1,157.499995193482,2|2,0:3|0:3,0:0:0:0:
196,8,111998,1,8,0:0:0:0:
231,102,112382,5,2,0:3:0:0:
331,101,112767,1,8,0:0:0:0:
382,186,113151,2,0,L|377:293,1,104.999996795654,2|8,0:0|0:0,0:0:0:0:
256,192,113921,12,0,115459,0:0:0:0:
113,157,116998,6,0,L|120:268,1,110.000003356934,4|10,0:0|0:0,0:0:0:0:
126,322,117575,2,0,B|234:355|234:355|292:350,1,165.000005035401,2|8,0:3|0:0,0:0:0:0:
363,287,118536,2,0,L|479:297,1,110.000003356934,2|10,0:3|0:0,0:0:0:0:
512,267,119113,1,2,0:3:0:0:
512,104,119690,1,8,0:0:0:0:
505,3,120075,6,0,L|394:13,1,110.000003356934,2|10,0:3|0:0,0:0:0:0:
375,59,120651,2,0,B|266:52|266:52|214:75,1,165.000005035401,2|8,0:3|0:0,0:0:0:0:
170,166,121613,2,0,B|59:177|59:177|15:146|15:146|6:92,1,220.000006713867,2|2,0:3|0:0,0:0:0:0:
190,7,123151,6,0,B|248:19|300:12|300:12|331:57|331:57|385:71|439:57|439:57|476:102,1,330.000010070801,4|8,0:0|0:0,0:0:0:0:
505,194,124690,2,0,B|492:244|506:305|506:305|474:347|474:347|417:342|366:356|366:356|324:314,1,330.000010070801,2|8,0:3|0:0,0:0:0:0:
233,271,126228,6,0,B|186:305|165:356|165:356|114:368|114:368|64:335|10:332|10:332|-5:271,1,330.000010070801,2|8,0:3|0:0,0:0:0:0:
14,180,127767,2,0,B|24:127|15:71|15:71|34:52|65:41,1,165.000005035401,2|2,0:3|0:3,0:0:0:0:
210,32,128921,1,10,0:0:0:0:
269,111,129305,6,0,L|259:226,1,110.000003356934,4|10,0:0|0:0,0:0:0:0:
276,267,129882,2,0,B|388:257|388:257|432:219,1,165.000005035401,2|8,0:3|0:0,0:0:0:0:
498,152,130844,2,0,L|481:42,1,110.000003356934,2|10,0:3|0:0,0:0:0:0:
432,32,131421,1,2,0:3:0:0:
284,45,131998,1,8,0:0:0:0:
201,125,132382,6,0,L|84:135,1,110.000003356934,2|10,0:3|0:0,0:0:0:0:
42,137,132959,2,0,B|32:247|32:247|44:307,1,165.000005035401,2|8,0:3|0:0,0:0:0:0:
122,367,133921,2,0,B|230:382|230:382|270:343|270:343|329:358,1,220.000006713867,2|2,0:3|0:0,0:0:0:0:
511,260,135459,6,0,B|530:212|523:152|523:152|478:118|478:118|414:127|369:109|369:109|348:56,1,330.000010070801,4|8,0:0|0:0,0:0:0:0:
253,15,136998,2,0,B|250:78|229:119|229:119|260:168|260:168|253:228|270:278|270:278|238:324,1,330.000010070801,2|8,0:3|0:0,0:0:0:0:
146,357,138536,6,0,B|91:341|38:358|38:358|0:316|0:316|15:256|61:231|61:231|44:164,1,330.000010070801,2|8,0:3|0:0,0:0:0:0:
18,83,140075,5,2,0:3:0:0:
155,12,140651,1,2,0:3:0:0:
408,87,141613,6,0,P|435:45|488:19,2,110.000003356934,4|10|2,0:3|0:0|0:0,0:0:0:0:
415,186,142767,1,10,0:0:0:0:
494,249,143151,2,0,P|488:313|441:361,1,110.000003356934,4|10,0:3|0:0,0:0:0:0:
367,381,143921,2,0,P|333:320|291:297,1,110.000003356934,2|10,0:0|0:0,0:0:0:0:
204,271,144690,6,0,P|211:227|189:157,2,110.000003356934,4|10|2,0:3|0:0|0:0,0:0:0:0:
161,360,145844,1,10,0:0:0:0:
59,358,146228,2,0,P|12:333|-12:282,2,110.000003356934,4|10|2,0:3|0:0|0:0,0:0:0:0:
25,158,147767,6,0,B|6:104|11:52|11:52|60:95|108:110|108:110|113:53|137:6|137:6|165:59|204:91|204:91|231:47|277:9|277:9|284:90|301:116|301:116|336:69|386:48,1,770.000023498536,4|8,0:0|0:0,0:0:0:0:
482,91,150844,6,0,B|516:136|525:192|525:192|473:178|417:184|417:184|436:241|424:293|424:293|377:261|326:244|326:244|316:306|283:343|283:343|260:294|220:253|220:253|188:308|144:331|144:331,1,770.000023498536,2|8,0:3|0:0,0:0:0:0:
41,331,153921,6,0,P|29:284|34:214,1,110.000003356934,4|8,0:3|0:0,0:0:0:0:
106,42,155075,1,10,0:0:0:0:
206,25,155459,2,0,P|247:22|333:36,1,110.000003356934,4|10,0:3|0:0,0:0:0:0:
466,160,156613,1,10,0:0:0:0:
451,262,156998,6,0,P|489:277|526:337,2,110.000003356934,4|10|2,0:3|0:0|0:0,0:0:0:0:
341,274,158151,1,10,0:0:0:0:
307,358,158536,2,0,P|247:364|181:351,1,110.000003356934,4|8,0:3|0:0,0:0:0:0:
103,317,159305,1,2,0:0:0:0:
0,131,160075,6,0,B|8:72|44:30|44:30|67:83|111:117|111:117|131:62|163:23|163:23|188:69|233:106|233:106|250:49|288:13|288:13|317:64|357:98|357:98|377:46|424:10,1,770.000023498536,4|8,0:0|0:0,0:0:0:0:
511,64,163151,5,4,0:3:0:0:
500,165,163536,1,8,0:0:0:0:
424,232,163921,2,0,L|310:242,1,110.000003356934,2|8,0:0|0:0,0:0:0:0:
234,183,164690,5,4,0:3:0:0:
60,207,165459,2,0,L|81:364,1,157.499995193482,0|8,0:0|0:0,0:0:0:0:
