osu file format v14

[General]
AudioFilename: audio.mp3
AudioLeadIn: 0
PreviewTime: 74454
Countdown: 0
SampleSet: Normal
StackLeniency: 0.5
Mode: 0
LetterboxInBreaks: 0
WidescreenStoryboard: 0

[Editor]
Bookmarks: 109779,127747,147259
DistanceSpacing: 3.2
BeatDivisor: 8
GridSize: 32
TimelineZoom: 1.1

[Metadata]
Title:2, 5 - dimethoxy - 4 - (n) - propylthiophenethylamine qebrus version
TitleUnicode:⍎2,5-dimethoxy-4-(n)-propylthiophenethylamine ⍎ uoᴉsɹǝʌ snɹqǝb
Artist:mr Bill & qebrus
ArtistUnicode:mr Bill & qebrµs
Creator:kingdom5500
Version:2C-T-7 / C12H19NO2
Source:
Tags:electronic experimental idm braindance breakcore glitchpop idm mr bill qebrus Micronesia
BeatmapID:1238018
BeatmapSetID:584987

[Difficulty]
HPDrainRate:5.2
CircleSize:4.2
OverallDifficulty:7.8
ApproachRate:9.2
SliderMultiplier:1.4
SliderTickRate:1

[Events]
//Background and Video events
0,0,"0007344816_130.jpg",0,0
//Break Periods
//Storyboard Layer 0 (Background)
//Storyboard Layer 1 (Fail)
//Storyboard Layer 2 (Pass)
//Storyboard Layer 3 (Foreground)
//Storyboard Sound Samples

[TimingPoints]
61,750,4,1,0,100,1,0
11752,468.75,4,1,0,100,1,0
12689,375,4,1,0,40,1,0
13064,659.340659340659,4,1,0,40,1,0
20976,759.493670886076,4,1,0,100,1,0
21925,349.854227405248,4,1,0,70,1,0
24723,-100,4,1,0,65,0,0
25773,-188.679245283019,4,1,0,100,0,0
26735,-188.679245283019,4,1,0,5,0,0
26822,-161.290322580645,4,1,0,100,0,0
27085,-161.290322580645,4,1,0,5,0,0
27172,-135.135135135135,4,1,0,100,0,0
27610,-135.135135135135,4,1,0,5,0,0
27697,699.708454810496,4,1,0,100,1,0
27697,-138.888888888889,4,1,0,100,0,0
28863,-138.888888888889,4,1,0,50,0,0
29096,349.854227405248,4,1,0,100,1,0
34577,487.803110419907,4,1,0,100,1,0
109779,487.803110419907,4,1,0,100,1,0
117949,487.803110419907,4,1,0,100,1,0
122217,487.803110419907,4,1,0,100,1,0
125387,481.927710843374,4,1,0,100,1,0
132153,487.80487804878,4,1,0,100,1,0
147905,487.80487804878,4,1,0,100,1,0
167872,487.80487804878,4,1,0,100,1,1
169741,-100,4,1,0,100,0,0
170311,-100,4,1,0,100,0,1
172262,-100,4,1,0,100,0,0
172750,-100,4,1,0,100,0,1
173237,-100,4,1,0,100,0,0
173603,-100,4,1,0,100,0,1
175676,-100,4,1,0,100,0,0
176042,-100,4,1,0,100,0,1
179091,-100,4,1,0,100,0,0
179579,-100,4,1,0,100,0,1
180067,-100,4,1,0,100,0,0
180432,-100,4,1,0,100,0,1
189823,-100,4,1,0,100,0,0
190189,-100,4,1,0,100,0,1
197628,-100,4,1,0,100,0,0
198420,-100,4,1,0,100,0,1
199579,-100,4,1,0,100,0,0
200798,-100,4,1,0,100,0,1
222506,-100,4,1,0,100,0,0

[Colours]
Combo1 : 82,0,164
Combo2 : 168,0,84
Combo3 : 80,0,128
Combo4 : 43,43,132

[HitObjects]
326,276,811,6,0,P|412:268|468:342,1,140
370,92,2311,2,0,B|362:143|362:143|370:191|370:191|359:235,1,140
324,139,3811,2,0,B|285:160|244:139|244:139|212:154|212:154|168:152,1,140
149,81,5311,2,0,B|166:122|139:154|139:154|156:192|140:228,1,140
78,268,6811,2,0,B|129:255|129:255|175:264|175:264|238:252,1,140
279,306,8311,2,0,P|314:277|411:292,1,140
405,202,9811,2,0,B|392:165|392:165|400:127|400:127|366:92|376:57,1,140
323,143,11311,2,0,B|296:152|268:142|268:142|225:165,1,105
256,192,11927,12,0,12689,0:0:0:0:
146,113,12876,5,0,0:0:0:0:
191,174,13064,2,0,P|236:159|278:169,2,70
256,192,13888,12,0,17184,0:0:0:0:
278,178,20976,6,0,P|263:114|182:86,1,140
160,100,21830,1,0,0:0:0:0:
156,130,21925,5,0,0:0:0:0:
133,156,22012,1,0,0:0:0:0:
100,165,22099,1,0,0:0:0:0:
67,153,22187,1,0,0:0:0:0:
48,125,22274,1,0,0:0:0:0:
47,91,22362,1,0,0:0:0:0:
66,62,22449,1,0,0:0:0:0:
98,50,22537,1,0,0:0:0:0:
132,58,22624,5,0,0:0:0:0:
168,36,22712,1,0,0:0:0:0:
216,17,22799,1,0,0:0:0:0:
267,26,22887,1,0,0:0:0:0:
305,61,22974,1,0,0:0:0:0:
319,111,23062,1,0,0:0:0:0:
304,161,23149,1,0,0:0:0:0:
266,195,23236,1,0,0:0:0:0:
215,210,23324,5,0,0:0:0:0:
197,213,23411,1,0,0:0:0:0:
182,221,23499,1,0,0:0:0:0:
170,233,23586,1,0,0:0:0:0:
161,248,23674,1,0,0:0:0:0:
158,265,23761,1,0,0:0:0:0:
159,283,23849,1,0,0:0:0:0:
166,299,23936,1,0,0:0:0:0:
177,312,24024,1,0,0:0:0:0:
191,322,24111,1,0,0:0:0:0:
208,327,24199,1,0,0:0:0:0:
225,327,24286,1,0,0:0:0:0:
242,322,24373,1,0,0:0:0:0:
257,313,24461,1,0,0:0:0:0:
268,299,24548,1,0,0:0:0:0:
274,283,24636,1,0,0:0:0:0:
275,266,24723,6,0,L|321:257,11,35
355,199,25773,6,0,B|338:154|338:154|346:113|346:113|325:89|330:45|330:45|304:90,1,204.050000311356
265,141,26822,2,0,P|240:128|187:136,1,65.0999974172975
146,176,27172,2,0,B|158:231|158:231|146:262|151:287|151:287|161:268,1,129.500003161621
228,250,27697,6,0,B|268:265|296:263|296:263|330:296|330:296|352:308|385:299,1,168.000004101563
403,292,29008,1,0,0:0:0:0:
446,212,29096,6,0,P|426:179|424:132,1,70
434,75,29358,2,0,L|393:86,2,35
336,106,29620,2,0,L|330:133,1,23.3333333333333
264,122,29708,2,0,L|258:149,1,23.3333333333333
192,137,29883,2,0,L|186:164,1,23.3333333333333
120,149,29970,2,0,L|114:176,1,23.3333333333333
47,179,30145,2,0,L|41:206,1,23.3333333333333
90,252,30320,2,0,L|78:299,1,35
170,247,30582,6,0,P|205:237|231:242,1,52.5
240,314,30932,2,0,P|222:313|206:307,1,35
310,301,31195,6,0,P|345:291|388:304,1,70
381,369,31544,2,0,P|363:368|347:362,1,35
377,297,32069,6,0,P|360:291|346:281,1,35
395,231,32856,6,0,P|380:221|369:208,1,35
256,192,33644,12,0,34431,0:0:0:0:
117,74,34577,5,0,0:0:0:0:
193,51,34698,2,0,L|235:68,2,35
254,158,35064,1,0,0:0:0:0:
301,116,35186,1,0,0:0:0:0:
362,103,35308,1,0,0:0:0:0:
448,174,35430,1,0,0:0:0:0:
416,265,35552,2,0,L|433:307,1,35
362,103,35796,1,0,0:0:0:0:
343,226,35918,2,0,L|330:194,2,35
250,183,36284,2,0,L|254:218,1,35
277,103,36528,5,0,0:0:0:0:
178,133,36650,2,0,L|174:168,2,35
110,217,37016,1,0,0:0:0:0:
256,153,37137,2,0,L|269:120,1,35
210,235,37381,1,0,0:0:0:0:
303,216,37503,2,0,L|324:188,1,35
400,166,37747,2,0,P|437:178|461:175,1,52.5
489,72,37991,2,0,L|502:137,1,52.5
375,94,38235,2,0,L|385:50,2,35
320,153,38601,6,0,L|324:188,2,35
266,97,38967,1,0,0:0:0:0:
251,187,39089,2,0,L|247:222,1,35
171,194,39333,1,0,0:0:0:0:
327,220,39455,2,0,L|331:255,1,35
408,231,39698,1,0,0:0:0:0:
237,291,39820,2,0,L|233:326,2,35
156,291,40186,1,0,0:0:0:0:
180,224,40308,1,0,0:0:0:0:
274,101,40430,5,0,0:0:0:0:
188,71,40552,2,0,L|184:106,2,35
112,129,40918,1,0,0:0:0:0:
127,234,41040,2,0,L|123:199,1,35
50,230,41284,1,0,0:0:0:0:
187,282,41406,1,0,0:0:0:0:
461,257,41650,1,0,0:0:0:0:
386,291,41772,1,0,0:0:0:0:
307,268,41894,2,0,P|282:275|260:274,2,35
255,351,42259,2,0,P|238:352|222:358,1,35
79,212,42625,6,0,L|75:255,1,35
7,155,42869,1,0,0:0:0:0:
72,122,42991,1,0,0:0:0:0:
107,59,43113,1,0,0:0:0:0:
127,171,43235,2,0,L|131:214,2,35
179,70,43601,2,0,L|175:27,1,35
199,277,43845,2,0,L|195:234,1,35
185,140,44089,2,0,L|189:174,1,35
207,346,44333,1,0,0:0:0:0:
104,316,44455,6,0,L|139:319,2,35
275,273,44820,1,0,0:0:0:0:
328,211,44942,2,0,P|317:190|318:150,2,35
254,107,45308,2,0,B|215:120|207:159|207:159|213:130|195:99,1,122.5
158,40,45796,2,0,B|138:10|103:4|103:4|80:36|93:65,1,122.5
96,75,46284,5,0,0:0:0:0:
102,149,46406,2,0,L|138:143,2,35
206,186,46772,1,0,0:0:0:0:
200,101,46894,2,0,L|236:107,1,35
229,18,47137,1,0,0:0:0:0:
286,165,47259,2,0,L|322:159,1,35
399,147,47503,1,0,0:0:0:0:
62,88,47747,5,0,0:0:0:0:
78,204,47869,1,0,0:0:0:0:
94,320,47991,1,0,0:0:0:0:
348,89,48235,5,0,0:0:0:0:
467,121,48357,2,0,L|473:157,2,35
377,207,48723,2,0,P|395:229|399:290,1,87.5
389,316,49089,2,0,P|371:294|365:244,1,70
378,166,49454,2,0,P|342:176|305:171,2,70
255,112,50186,5,0,0:0:0:0:
309,172,50308,2,0,P|315:198|311:222,2,35
365,262,50674,1,0,0:0:0:0:
386,110,50796,2,0,L|378:159,1,35
282,275,51040,1,0,0:0:0:0:
260,140,51162,2,0,L|268:189,1,35
447,248,51406,1,0,0:0:0:0:
469,137,51528,2,0,L|461:186,1,35
422,359,51772,2,0,L|430:310,1,35
463,171,52015,2,0,L|455:220,1,35
427,324,52259,2,0,L|435:275,2,35
388,231,52625,1,0,0:0:0:0:
356,131,52747,2,0,L|348:180,1,35
336,56,52991,1,0,0:0:0:0:
425,81,53113,2,0,L|433:130,1,35
283,136,53357,6,0,P|258:127|232:127,1,52.5
204,144,53601,2,0,P|242:144|285:223,1,122.5
281,242,54089,5,0,0:0:0:0:
232,307,54211,2,0,L|240:356,2,35
161,338,54576,1,0,0:0:0:0:
281,242,54698,2,0,L|286:207,1,35
365,245,54942,1,0,0:0:0:0:
213,206,55064,2,0,L|207:171,1,35
308,100,55308,2,0,L|302:134,1,35
357,192,55552,6,0,P|390:201|433:193,2,70
322,266,56162,2,0,L|327:300,2,35
282,369,56528,1,0,0:0:0:0:
397,260,56650,2,0,L|403:226,1,35
396,343,56893,1,0,0:0:0:0:
246,256,57015,6,0,L|252:222,1,35
267,143,57259,1,0,0:0:0:0:
281,61,57381,1,0,0:0:0:0:
161,310,57503,1,0,0:0:0:0:
175,228,57625,1,0,0:0:0:0:
190,149,57747,2,0,L|196:115,1,35
324,195,57991,5,0,0:0:0:0:
287,95,58113,2,0,L|281:61,2,35
247,217,58479,1,0,0:0:0:0:
372,92,58601,2,0,L|366:126,1,35
324,195,58845,1,0,0:0:0:0:
130,101,58967,5,0,0:0:0:0:
141,168,59089,1,0,0:0:0:0:
134,235,59211,1,0,0:0:0:0:
107,296,59333,1,0,0:0:0:0:
183,293,59454,6,0,L|190:327,3,23.3333333333333
399,57,59942,5,0,0:0:0:0:
383,143,60064,1,0,0:0:0:0:
367,229,60186,1,0,0:0:0:0:
351,315,60308,2,0,L|361:258,1,35
282,256,60552,1,0,0:0:0:0:
298,170,60674,1,0,0:0:0:0:
314,84,60796,1,0,0:0:0:0:
383,143,60918,1,0,0:0:0:0:
256,192,61040,12,0,61893,0:0:0:0:
114,94,62015,6,0,L|99:152,2,35
34,87,62381,1,0,0:0:0:0:
179,134,62503,6,0,L|194:192,1,35
83,198,62747,1,0,0:0:0:0:
256,143,62869,6,0,L|297:185,1,35
206,246,63113,2,0,P|260:247|290:263,1,70
233,329,63479,1,0,0:0:0:0:
249,157,63601,1,0,0:0:0:0:
8,251,63845,5,0,0:0:0:0:
77,290,63967,6,0,L|92:348,2,35
30,358,64332,2,0,P|69:329|149:334,1,105
212,311,64820,6,0,L|197:369,2,35
237,236,65064,2,0,L|257:251,3,17.5
256,192,65308,12,0,66650,0:0:0:0:
256,192,66772,12,0,68723,0:0:0:0:
256,192,68845,12,0,74454,0:0:0:0:
198,236,74576,6,0,P|173:254|152:327,1,105
289,253,75064,2,0,P|239:264|197:235,1,105
363,197,75552,2,0,P|331:199|291:269,1,105
337,95,76040,2,0,L|364:201,1,105
378,278,76528,5,0,0:0:0:0:
344,269,76650,1,0,0:0:0:0:
310,260,76771,1,0,0:0:0:0:
276,252,76893,1,0,0:0:0:0:
271,181,77015,6,0,L|278:142,1,35
188,108,77259,2,0,L|195:147,1,35
212,220,77503,1,0,0:0:0:0:
236,332,77747,2,0,L|229:293,1,35
212,220,77991,1,0,0:0:0:0:
287,246,78113,2,0,L|308:257,2,17.5
355,192,78235,2,0,L|369:218,2,17.5
442,176,78479,6,0,P|425:121|431:95,1,70
381,48,78845,2,0,L|344:68,1,35
248,88,79089,2,0,L|285:108,1,35
426,109,79332,2,0,L|389:129,1,35
191,140,79576,2,0,L|228:160,1,35
368,217,79942,1,0,0:0:0:0:
355,298,80186,2,0,L|349:325,3,17.5
301,246,80430,6,0,P|274:254|228:247,1,70
266,170,80796,1,0,0:0:0:0:
168,220,80918,2,0,L|157:264,1,35
91,216,81162,1,0,0:0:0:0:
203,313,81284,2,0,L|214:357,1,35
282,321,81528,2,0,P|299:317|331:323,1,35
162,147,81893,2,0,L|151:192,1,35
212,60,82137,2,0,L|223:105,1,35
251,202,82381,6,0,L|243:169,3,35
291,112,82869,1,0,0:0:0:0:
351,139,82991,1,0,0:0:0:0:
411,166,83113,1,0,0:0:0:0:
470,194,83235,2,0,L|478:227,1,35
454,122,83479,2,0,L|445:88,1,35
403,229,83723,2,0,P|379:224|354:230,1,35
297,244,84089,6,0,L|308:275,3,17.5
235,301,84332,2,0,L|248:343,1,35
153,281,84576,2,0,L|166:323,1,35
70,279,84820,1,0,0:0:0:0:
86,248,84942,1,0,0:0:0:0:
90,213,85064,1,0,0:0:0:0:
81,180,85186,2,0,L|120:183,1,35
222,163,85430,2,0,L|146:157,1,70
99,110,85796,1,0,0:0:0:0:
303,128,85918,2,0,L|198:119,1,105
230,199,86406,6,0,P|262:221|341:222,1,105
303,128,86893,2,0,L|300:89,1,35
326,226,87137,2,0,L|329:265,1,35
374,154,87381,2,0,L|371:125,2,17.5
434,244,87625,2,0,L|437:283,1,35
512,259,87869,1,0,0:0:0:0:
363,270,87991,2,0,P|325:280|290:268,1,70
206,110,88723,5,0,0:0:0:0:
273,142,88845,1,0,0:0:0:0:
344,159,88845,2,0,L|344:128,3,17.5
415,161,89210,2,0,L|415:210,2,35
348,250,89576,2,0,L|348:201,1,35
289,159,89820,1,0,0:0:0:0:
287,302,89942,1,0,0:0:0:0:
113,210,90064,2,0,L|107:243,2,17.5
167,160,90308,6,0,P|205:181|267:170,1,105
326,211,90796,2,0,L|339:255,2,35
358,138,91162,1,0,0:0:0:0:
423,186,91284,2,0,L|436:230,2,35
358,138,91649,2,0,P|320:117|258:128,1,105
235,150,92137,6,0,P|287:179|298:228,1,105
224,251,92625,6,0,L|232:217,1,35
166,146,92869,2,0,L|173:180,1,35
249,283,93113,2,0,L|256:248,1,35
124,88,93357,1,0,0:0:0:0:
131,122,93479,1,0,0:0:0:0:
139,157,93601,2,0,L|146:191,1,35
211,301,93845,2,0,L|217:278,2,17.5
279,243,94088,6,0,P|307:262|395:209,1,140
454,180,94698,2,0,L|422:152,2,35
463,95,95064,2,0,L|418:81,1,35
333,128,95308,2,0,L|378:114,1,35
286,191,95552,2,0,P|292:219|275:265,1,70
259,286,95918,1,0,0:0:0:0:
198,239,96040,6,0,P|161:230|76:283,3,140
125,88,97869,5,0,0:0:0:0:
184,139,97991,2,0,L|253:116,1,70
322,140,98357,1,0,0:0:0:0:
341,33,98479,2,0,L|336:71,1,35
412,85,98723,1,0,0:0:0:0:
482,136,98845,2,0,L|480:184,1,35
405,209,99088,2,0,L|407:161,1,35
412,85,99332,1,0,0:0:0:0:
332,212,99454,2,0,L|330:244,7,17.5
285,149,99942,6,0,P|232:165|181:139,1,105
125,190,100430,2,0,L|131:239,2,35
190,274,100796,2,0,P|225:256|268:255,2,70
247,339,101406,1,0,0:0:0:0:
370,208,101893,5,0,0:0:0:0:
403,51,102259,2,0,L|418:160,2,105
273,264,103235,6,0,L|279:304,1,35
330,175,103479,2,0,L|324:215,1,35
348,278,103723,1,0,0:0:0:0:
220,210,103845,2,0,B|232:136|232:136|269:77,1,140
330,175,104454,2,0,L|336:215,1,35
270,299,104698,2,0,L|276:265,1,35
315,58,104942,1,0,0:0:0:0:
370,110,105064,1,0,0:0:0:0:
304,129,105186,2,0,L|298:163,1,35
225,133,105430,1,0,0:0:0:0:
382,181,105552,2,0,L|386:203,3,17.5
396,157,105796,6,0,P|445:150|488:113,2,105
404,36,106649,2,0,L|413:77,2,35
459,253,107015,2,0,L|468:212,1,35
387,231,107259,2,0,P|340:207|280:217,1,105
261,226,107747,6,0,B|294:250|294:250|335:244|335:244|366:259|366:259|397:252,1,140
466,232,108357,1,0,0:0:0:0:
410,185,108479,2,0,B|402:161|402:161|405:134|405:134|398:107,2,70
327,134,109210,2,0,L|323:162,1,23.3333333333333
253,151,109332,2,0,L|249:179,1,23.3333333333333
182,167,109576,2,0,L|176:217,1,46.6666666666667
170,245,109779,6,0,P|204:243|272:275,1,105
329,320,110266,2,0,L|344:277,1,35
406,330,110510,1,0,0:0:0:0:
317,221,110632,2,0,L|332:178,2,35
242,342,110998,1,0,0:0:0:0:
233,268,111120,1,0,0:0:0:0:
186,208,111242,2,0,B|177:167|177:167|188:175|188:175|142:144|152:74,1,140
257,288,111974,6,0,L|247:239,1,35
287,190,112218,1,0,0:0:0:0:
245,123,112339,2,0,P|204:142|169:141,2,70
307,73,112949,2,0,P|321:104|322:139,1,70
376,36,113315,2,0,B|395:31|395:31|418:34,2,35
300,206,113681,6,0,P|293:254|314:330,1,105
233,331,114169,2,0,L|184:344,2,35
106,278,114535,2,0,L|155:291,1,35
431,304,114900,1,0,0:0:0:0:
350,313,115022,2,0,L|357:268,1,35
299,228,115266,2,0,P|253:233|224:220,1,70
260,307,115632,5,0,0:0:0:0:
269,161,115754,2,0,B|275:143|275:143|276:116,2,35
199,126,116120,1,0,0:0:0:0:
339,172,116242,2,0,L|344:206,1,35
175,230,116486,2,0,L|180:195,1,35
359,275,116730,2,0,L|364:309,1,35
437,283,116974,5,0,0:0:0:0:
289,287,117096,2,0,L|294:252,1,35
348,201,117339,1,0,0:0:0:0:
334,129,117461,2,0,L|328:94,1,35
83,236,117949,6,0,L|67:343,1,105
12,192,118436,2,0,L|4:242,1,35
136,225,118680,1,0,0:0:0:0:
34,290,118924,2,0,L|29:322,1,17.5
124,158,119046,2,0,L|132:208,1,35
34,104,119290,2,0,L|29:136,1,17.5
42,149,119412,1,0,0:0:0:0:
120,132,119534,6,0,P|164:145|195:137,1,70
220,77,119900,1,0,0:0:0:0:
246,183,120022,1,0,0:0:0:0:
288,105,120144,2,0,L|283:137,5,17.5
460,267,120631,1,0,0:0:0:0:
392,255,120753,1,0,0:0:0:0:
323,262,120875,2,0,P|321:235|312:216,1,35
370,133,121119,6,0,L|363:173,1,35
328,333,121363,1,0,0:0:0:0:
410,299,122217,6,0,L|417:259,2,35
488,297,122582,1,0,0:0:0:0:
433,189,122704,1,0,0:0:0:0:
344,264,122826,6,0,L|337:224,1,35
459,80,123192,6,0,L|452:120,1,35
435,189,123436,2,0,P|408:177|377:183,1,52.5
335,230,123680,2,0,L|343:262,2,23.3333333333333
282,175,123924,2,0,P|211:181|293:293,1,280
155,89,125387,2,0,L|129:215,1,105
157,230,125868,2,0,L|183:104,1,105
204,154,126350,2,0,L|178:280,1,105
206,295,126832,2,0,L|232:169,1,105
252,238,127314,1,0,0:0:0:0:
256,192,127796,12,0,131893,0:0:0:0:
476,38,132153,6,0,L|465:81,1,35
444,141,132396,2,0,P|402:126|367:128,2,70
475,212,132945,2,0,L|465:243,1,17.5
393,211,133128,1,0,0:0:0:0:
311,220,133250,2,0,L|320:259,2,35
239,256,133616,6,0,P|198:233|144:255,1,105
122,351,134104,2,0,L|117:307,1,35
99,160,134348,2,0,L|104:204,2,35
89,53,134713,2,0,P|116:64|136:64,1,35
191,44,134957,2,0,L|194:71,2,17.5
265,72,135201,2,0,L|260:116,2,35
246,216,135567,6,0,P|289:205|351:240,1,105
373,295,136055,1,0,0:0:0:0:
166,227,136360,2,0,P|197:208|251:219,2,87.5
152,254,137031,2,0,P|151:209|108:163,1,105
156,84,137518,6,0,P|171:122|258:108,1,140
276,192,138128,2,0,L|281:236,2,35
66,160,138616,2,0,P|58:184|60:209,1,35
90,64,138860,2,0,P|98:88|96:113,1,35
92,255,139104,2,0,L|97:302,2,43.75
147,207,139470,2,0,P|187:214|234:202,1,70
284,176,139835,5,0,0:0:0:0:
106,145,139957,2,0,L|100:110,1,35
221,317,140201,1,0,0:0:0:0:
191,72,140323,2,0,L|185:106,1,35
90,254,140567,1,0,0:0:0:0:
284,176,140689,2,0,L|249:181,1,35
71,149,140933,2,0,L|106:144,1,35
370,74,141299,5,0,0:0:0:0:
384,98,141421,2,0,P|371:154|387:192,1,70
387,197,141787,1,0,0:0:0:0:
411,222,141909,2,0,L|363:239,1,35
263,271,142153,2,0,L|311:288,1,35
366,328,142396,2,0,P|379:272|363:234,1,70
360,229,142762,1,0,0:0:0:0:
343,156,142884,2,0,L|361:132,2,17.5
266,124,143128,2,0,L|257:171,1,35
232,283,143372,6,0,P|190:264|141:277,1,87.5
136,281,143738,2,0,L|128:238,1,35
183,160,143982,2,0,L|175:203,1,35
181,338,144226,1,0,0:0:0:0:
82,330,144348,1,0,0:0:0:0:
268,295,144470,2,0,L|260:252,1,35
245,173,144713,2,0,L|240:142,1,17.5
238,138,144835,2,0,P|279:148|344:124,1,105
342,164,145323,6,0,L|332:223,1,52.5
407,256,145567,2,0,L|401:221,2,23.3333333333333
420,337,145811,2,0,P|380:324|355:325,1,46.6666666666667
309,342,146055,2,0,L|306:319,2,23.3333333333333
235,337,146299,2,0,L|186:331,1,35
256,264,146543,2,0,P|246:217|259:173,2,70
276,292,147152,1,0,0:0:0:0:
256,192,147905,12,0,156197,0:0:0:0:
256,192,157112,12,0,159124,0:0:0:0:
293,270,159368,6,0,L|281:313,1,35
421,327,159734,2,0,L|423:349,1,17.5
256,192,160039,12,0,166929,0:0:0:0:
176,107,167112,6,0,L|170:160,1,52.5
246,158,167376,2,0,L|249:187,1,23.3333333333333
325,172,167539,6,0,L|319:225,1,52.5
309,294,167783,1,0,0:0:0:0:
464,296,167872,6,0,P|412:304|375:263,1,105
385,161,168359,2,0,L|381:212,1,35
321,321,168603,2,0,P|295:315|248:332,2,70
350,339,169213,1,0,0:0:0:0:
371,366,169335,2,0,P|384:330|387:305,1,52.5
452,282,169579,2,0,L|457:309,2,23.3333333333333
92,59,170311,6,0,L|98:105,1,35
23,89,170554,1,0,0:0:0:0:
151,146,170676,2,0,P|170:139|194:139,1,35
251,164,170920,2,0,P|270:171|294:171,1,35
113,210,171286,2,0,P|121:243|113:278,1,70
168,327,171591,2,0,L|185:308,2,17.5
233,368,171774,2,0,P|273:355|343:373,1,105
363,349,172262,1,0,0:0:0:0:
381,119,172750,6,0,L|392:192,1,70
308,160,173115,2,0,L|313:201,1,35
86,94,173603,2,0,L|86:119,1,17.5
79,188,173725,2,0,P|108:194|149:259,1,105
213,201,174213,2,0,P|238:193|261:194,2,35
251,278,174579,2,0,P|276:286|299:285,2,35
316,221,174945,1,0,0:0:0:0:
420,210,175067,2,0,P|395:202|372:203,1,35
328,131,175311,2,0,L|335:161,4,26.25
148,129,176042,6,0,P|174:124|201:126,1,35
257,136,176286,1,0,0:0:0:0:
116,201,176408,2,0,P|142:206|169:204,2,35
84,57,176774,2,0,P|110:62|137:60,1,35
194,51,177018,1,0,0:0:0:0:
248,107,177140,2,0,L|254:147,2,35
299,199,177465,2,0,L|297:216,3,11.6666666666667
326,174,177628,6,0,P|362:158|429:173,1,105
274,242,178115,2,0,P|310:258|377:243,1,105
226,180,178603,2,0,P|262:164|309:172,1,70
274,242,178908,2,0,L|269:274,2,23.3333333333333
59,128,179579,6,0,L|71:19,1,105
41,44,180067,1,0,0:0:0:0:
245,162,180432,6,0,L|189:171,1,35
135,183,180676,1,0,0:0:0:0:
355,183,180798,2,0,L|299:174,1,35
245,162,181042,1,0,0:0:0:0:
465,162,181164,2,0,L|409:171,1,35
355,183,181408,2,0,L|352:213,2,17.5
327,269,181591,6,0,P|359:294|335:335,1,87.5
269,317,182018,2,0,P|243:305|225:305,1,35
169,243,182262,1,0,0:0:0:0:
95,184,182384,2,0,L|86:225,1,35
8,148,182628,2,0,L|17:189,2,35
62,100,182993,2,0,L|66:69,2,17.5
114,155,183237,2,0,P|140:150|163:152,1,35
201,209,183481,6,0,P|188:246|265:301,1,140
320,264,184091,2,0,P|337:253|366:247,1,35
427,253,184274,2,0,L|425:278,3,17.5
402,181,184579,2,0,P|396:156|405:133,1,35
351,90,184823,2,0,L|316:82,1,35
303,158,185067,2,0,L|232:177,1,70
165,194,185432,1,0,0:0:0:0:
220,244,185554,2,0,P|222:270|217:292,1,35
215,108,185798,5,0,0:0:0:0:
300,21,185920,2,0,L|345:8,1,35
237,176,186164,1,0,0:0:0:0:
322,89,186286,2,0,L|367:76,1,35
285,228,186530,1,0,0:0:0:0:
370,141,186652,2,0,L|415:128,2,35
237,176,187018,2,0,L|192:163,2,35
275,241,187384,6,0,P|239:275|145:269,1,140
105,214,187993,2,0,L|118:172,1,35
74,115,188176,2,0,L|50:124,2,17.5
171,121,188359,2,0,L|161:83,1,35
208,26,188603,1,0,0:0:0:0:
243,152,188847,2,0,P|272:165|280:239,1,105
320,197,189335,2,0,P|344:190|419:261,1,140
176,204,190189,5,0,0:0:0:0:
144,269,190311,2,0,L|153:305,1,35
113,172,190554,2,0,L|104:208,1,35
171,132,190798,2,0,P|214:145|256:119,1,93.3333333333333
135,201,191286,6,0,P|162:209|190:257,1,70
256,211,191652,1,0,0:0:0:0:
289,202,191773,1,0,0:0:0:0:
324,203,191895,1,0,0:0:0:0:
374,150,192017,1,0,0:0:0:0:
444,120,192140,2,0,L|454:164,1,35
409,291,192384,2,0,L|399:247,1,35
357,70,192750,1,0,0:0:0:0:
82,58,193115,6,0,L|71:104,1,35
108,160,193603,6,0,B|167:146|167:146|219:166|219:166|276:136|319:187|319:187|308:258,1,291.666666666667
323,277,194670,2,0,P|350:262|373:259,1,52.5
402,264,194945,2,0,L|398:220,1,35
380,110,195189,6,0,P|427:97|482:163,1,140
427,221,195798,2,0,L|436:259,1,35
354,179,196042,2,0,L|345:217,1,35
269,178,196286,1,0,0:0:0:0:
232,207,196408,1,0,0:0:0:0:
187,220,196530,2,0,L|175:174,1,35
109,119,196774,1,0,0:0:0:0:
71,147,196896,2,0,L|83:193,1,35
112,271,197140,6,0,P|159:262|215:297,1,105
225,318,197628,1,0,0:0:0:0:
397,59,198420,6,0,L|403:83,2,17.5
346,124,198603,2,0,P|309:103|247:124,1,105
198,169,199091,2,0,B|226:237|226:237|219:312,1,140
82,304,200798,6,0,L|77:274,3,17.5
107,215,201042,2,0,P|139:227|187:219,2,70
82,190,201652,1,0,0:0:0:0:
100,77,201774,2,0,L|108:114,2,35
178,115,202140,2,0,L|186:152,2,35
217,51,202506,1,0,0:0:0:0:
256,192,202567,12,0,203481,0:0:0:0:
393,236,203603,6,0,L|388:205,1,17.5
380,143,203725,2,0,L|332:138,1,35
238,108,203969,2,0,L|286:103,1,35
281,177,204213,2,0,P|294:217|290:250,1,70
204,224,204579,2,0,L|168:235,2,35
170,158,204945,6,0,P|172:123|131:65,1,105
101,54,205432,1,0,0:0:0:0:
47,108,205554,2,0,L|53:155,1,35
74,169,205798,1,0,0:0:0:0:
128,223,205920,2,0,L|122:270,1,35
82,351,206164,2,0,L|76:304,2,35
206,268,206652,6,0,L|213:237,1,17.5
274,168,206774,2,0,L|281:199,1,17.5
299,258,206896,2,0,P|329:240|374:244,1,70
414,291,207262,2,0,L|404:328,2,35
466,230,207628,1,0,0:0:0:0:
487,202,207750,2,0,P|468:157|469:122,1,70
440,113,208115,1,0,0:0:0:0:
346,108,208237,1,0,0:0:0:0:
321,83,208359,1,0,0:0:0:0:
210,89,208481,2,0,L|169:98,2,35
93,93,209213,6,0,P|119:104|146:104,1,52.5
167,120,209457,2,0,L|164:159,1,35
205,240,209701,1,0,0:0:0:0:
195,273,209823,1,0,0:0:0:0:
268,202,209945,2,0,P|294:213|341:209,1,70
361,229,210250,1,0,0:0:0:0:
400,296,210311,1,0,0:0:0:0:
390,329,210433,1,0,0:0:0:0:
436,164,210554,1,0,0:0:0:0:
384,105,210676,1,0,0:0:0:0:
391,70,210798,6,0,P|322:96|264:61,1,140
212,116,211408,2,0,L|216:161,1,35
268,249,211652,2,0,L|272:204,1,35
320,142,211896,1,0,0:0:0:0:
350,159,212018,1,0,0:0:0:0:
385,158,212140,2,0,L|397:113,1,35
428,223,212384,1,0,0:0:0:0:
462,292,212506,2,0,L|455:318,3,17.5
386,298,212750,6,0,B|312:287|312:287|234:325,1,157.5
227,308,213359,2,0,B|199:251|199:251|216:181,1,122.5
222,174,213847,2,0,B|265:182|265:182|312:175|312:175|351:182,1,122.5
365,189,214335,2,0,L|348:92,1,87.5
345,74,214701,6,0,L|291:109,1,52.5
273,119,214945,2,0,L|219:87,1,52.5
198,71,215189,2,0,L|155:95,1,35
134,107,215371,2,0,L|91:85,1,43.75
55,70,215585,2,0,L|66:119,1,43.75
72,157,215798,2,0,L|62:205,1,35
60,224,215961,2,0,L|75:260,1,35
92,296,216134,2,0,L|143:302,1,46.6666666666667
166,302,216327,2,0,L|205:293,1,35
235,281,216489,5,0,0:0:0:0:
319,312,216611,1,0,0:0:0:0:
256,192,216743,12,0,218603,0:0:0:0:
119,129,218969,5,0,0:0:0:0:
133,160,219091,2,0,L|189:148,1,35
223,196,219335,2,0,L|213:242,2,35
273,109,219701,2,0,L|283:155,2,35
356,122,220067,1,0,0:0:0:0:
338,195,220189,1,0,0:0:0:0:
88,172,220432,1,0,0:0:0:0:
116,241,220554,6,0,P|161:228|217:261,1,105
234,272,221042,2,0,L|229:229,1,35
217,161,221286,2,0,P|238:144|265:103,1,70
341,152,221652,2,0,L|334:100,1,35
88,172,222018,1,0,0:0:0:0:
507,353,222384,2,0,L|502:325,1,17.5
256,192,222506,12,0,224579,0:0:0:0:
256,192,224945,12,0,226042,0:0:0:0:
256,192,226408,12,0,240839,0:0:0:0:
