osu file format v14

[General]
AudioFilename: audio.mp3
AudioLeadIn: 0
PreviewTime: 1197
Countdown: 0
SampleSet: Soft
StackLeniency: 0.3
Mode: 0
LetterboxInBreaks: 0
WidescreenStoryboard: 1

[Editor]
Bookmarks: 20856
DistanceSpacing: 1.1
BeatDivisor: 4
GridSize: 4
TimelineZoom: 1.7

[Metadata]
Title:Too Late Snow
TitleUnicode:Too Late Snow
Artist:movies (moimoi x Xceon x Dai.)
ArtistUnicode:movies (moimoi × Xceon × Dai.)
Creator:Lunala
Version:Snowdream
Source:jubeat prop
Tags:mayumi morinaga 冬椿 konami 森永真由美 papapa213 papple104 pappl_e_104 Rin_Sa Japanese Video Game pop
BeatmapID:2243631
BeatmapSetID:919226

[Difficulty]
HPDrainRate:6
CircleSize:4.2
OverallDifficulty:8
ApproachRate:8.7
SliderMultiplier:1.4
SliderTickRate:1

[Events]
//Background and Video events
0,0,"snow.png",0,0
//Break Periods
//Storyboard Layer 0 (Background)
//Storyboard Layer 1 (Fail)
//Storyboard Layer 2 (Pass)
//Storyboard Layer 3 (Foreground)
//Storyboard Layer 4 (Overlay)
//Storyboard Sound Samples

[TimingPoints]
1845,434.782608695652,4,2,1,50,1,0
8801,-83.3333333333333,4,2,1,65,0,0
13475,-83.3333333333333,4,2,1,5,0,0
13584,-83.3333333333333,4,2,1,65,0,0
13910,-83.3333333333333,4,2,1,5,0,0
14018,-83.3333333333333,4,2,1,65,0,0
14344,-83.3333333333333,4,2,1,5,0,0
14453,-83.3333333333333,4,2,1,65,0,0
14779,-83.3333333333333,4,2,1,5,0,0
14888,-83.3333333333333,4,2,1,65,0,0
15758,-71.4285714285714,4,2,1,65,0,0
22279,-55.5555555555556,4,2,1,70,0,0
22714,-66.6666666666667,4,2,1,75,0,1
28366,-62.5,4,2,1,75,0,1
33149,-76.9230769230769,4,2,1,75,0,1
35214,-76.9230769230769,4,2,1,5,0,1
35323,-76.9230769230769,4,2,1,75,0,1
35649,-76.9230769230769,4,2,1,5,0,1
35758,-76.9230769230769,4,2,1,75,0,1
38366,-90.9090909090909,4,2,1,55,0,0
43040,-90.9090909090909,4,2,1,5,0,0
43149,-90.9090909090909,4,2,1,55,0,0
43475,-90.9090909090909,4,2,1,5,0,0
43584,-90.9090909090909,4,2,1,55,0,0
52279,-76.9230769230769,4,2,1,65,0,0
66192,-133.333333333333,4,2,1,65,0,0
67497,-76.9230769230769,4,2,1,65,0,0
67931,-62.5,4,2,1,75,0,1
78366,-76.9230769230769,4,2,1,75,0,1
79562,-76.9230769230769,4,2,1,5,0,1
79671,-76.9230769230769,4,2,1,75,0,1
79997,-76.9230769230769,4,2,1,5,0,1
80105,-76.9230769230769,4,2,1,75,0,1
81844,-76.9230769230769,4,2,1,65,0,0
90540,-76.9230769230769,4,2,1,55,0,0
97497,-76.9230769230769,4,2,1,65,0,0
106953,-133.333333333333,4,2,1,75,0,0
107062,434.782608695652,4,2,1,75,1,0
107496,-62.5,4,2,1,80,0,1
121083,-62.5,4,2,1,80,0,0
126844,-62.5,4,2,1,5,0,0

[Colours]
Combo1 : 184,66,126
Combo2 : 247,203,185
Combo3 : 255,177,203
Combo4 : 219,100,120

[HitObjects]
159,73,1410,5,0,0:0:0:0:
74,206,1627,1,0,0:0:0:0:
50,127,1845,6,0,B|139:110|96:182|211:147,1,140,2|0,0:0|0:0,0:0:0:0:
289,142,2497,1,0,0:0:0:0:
407,181,2714,2,0,P|406:219|378:252,1,70,2|0,0:0|0:0,0:0:0:0:
307,66,3149,2,0,P|307:27|335:-5,1,70,0|0,0:0|0:0,0:0:0:0:
448,102,3584,5,2,0:0:0:0:
407,181,3801,1,0,0:0:0:0:
301,82,4018,1,0,0:0:0:0:
381,36,4236,1,0,0:0:0:0:
318,169,4453,2,0,L|341:320,1,140,2|0,0:0|0:0,0:0:0:0:
262,384,5105,1,0,0:0:0:0:
180,273,5323,6,0,P|119:245|48:279,1,140,2|0,0:0|0:0,0:0:0:0:
116,340,5975,1,0,0:0:0:0:
250,341,6192,2,0,L|408:321,1,140,2|0,0:0|0:0,0:0:0:0:
455,246,6844,1,0,0:0:0:0:
389,87,7062,6,0,L|373:175,1,70,2|0,0:0|0:0,0:0:0:0:
261,29,7497,2,0,L|279:123,1,70
191,194,7931,2,0,P|156:171|110:176,1,70,2|0,0:0|0:0,0:0:0:0:
5,252,8366,5,0,0:0:0:0:
25,283,8475,1,0,0:0:0:0:
62,276,8584,1,0,0:0:0:0:
65,236,8692,1,0,0:0:0:0:
30,217,8801,5,0,3:0:0:0:
120,349,9018,1,0,0:0:0:0:
120,349,9127,2,0,L|207:333,1,83.9999974365235,0|0,0:0|0:0,0:0:0:0:
246,324,9453,1,0,0:0:0:0:
359,235,9671,2,0,P|374:184|343:137,1,83.9999974365235,2|0,0:0|0:0,0:0:0:0:
274,116,9997,1,0,0:0:0:0:
274,116,10105,2,0,L|282:167,2,41.9999987182618,0|0|0,0:0|0:0|0:0,0:0:0:0:
327,42,10540,5,2,0:0:0:0:
411,171,10758,1,0,0:0:0:0:
274,116,10975,1,0,0:0:0:0:
417,76,11192,1,0,0:0:0:0:
321,196,11410,2,0,P|270:202|222:221,1,83.9999974365235,2|0,0:0|0:0,0:0:0:0:
102,330,11844,5,0,0:0:0:0:
100,309,11953,1,0,0:0:0:0:
96,288,12062,1,0,0:0:0:0:
87,266,12171,1,0,0:0:0:0:
73,244,12279,6,0,P|139:240|201:157,1,167.999994873047,6|0,3:2|0:0,0:0:0:0:
94,136,12931,1,0,0:0:0:0:
267,55,13149,2,0,P|266:120|282:208,1,125.999996154785,6|0,3:2|0:0,0:0:0:0:
290,267,13584,2,0,P|306:190|376:164,1,125.999996154785,2|0,0:0|0:0,0:0:0:0:
451,214,14018,6,0,P|437:292|384:331,1,125.999996154785,6|0,3:2|0:0,0:0:0:0:
305,135,14453,6,0,P|342:188|332:259,1,125.999996154785,6|0,3:2|0:0,0:0:0:0:
147,177,14888,5,8,0:0:0:0:
171,158,14997,1,8,0:0:0:0:
207,162,15105,1,8,0:0:0:0:
234,177,15214,1,8,0:0:0:0:
247,213,15323,1,0,3:0:0:0:
461,336,15758,6,0,P|504:337|536:353,1,48.9999985046387,2|0,0:0|0:0,0:0:0:0:
418,257,15975,2,0,P|450:227|483:215,1,48.9999985046387,2|0,0:0|0:0,0:0:0:0:
323,232,16192,2,0,P|324:188|340:156,1,48.9999985046387,8|0,0:0|0:0,0:0:0:0:
244,287,16410,2,0,P|214:254|202:221,1,48.9999985046387,2|0,0:0|0:0,0:0:0:0:
234,375,16627,1,0,0:0:0:0:
234,375,16736,2,0,P|187:356|112:349,1,97.9999970092774,2|0,0:0|0:0,0:0:0:0:
50,279,17062,5,8,0:0:0:0:
6,294,17171,1,0,0:0:0:0:
10,339,17279,1,0,0:0:0:0:
53,353,17388,1,0,0:0:0:0:
79,316,17497,6,0,B|89:292|89:292|79:193,1,97.9999970092774,2|0,0:0|0:0,0:0:0:0:
49,86,17932,1,8,0:0:0:0:
49,86,18040,2,0,L|3:103,2,48.9999985046387
145,19,18366,1,0,0:0:0:0:
145,19,18475,2,0,P|150:42|149:67,1,48.9999985046387,2|0,0:0|0:0,0:0:0:0:
215,138,18692,2,0,P|257:165|322:116,1,97.9999970092774,8|0,0:0|0:0,0:0:0:0:
405,83,19018,5,0,0:0:0:0:
405,83,19127,1,0,0:0:0:0:
405,83,19236,2,0,P|419:51|418:10,1,48.9999985046387,2|0,0:0|0:0,0:0:0:0:
464,156,19453,2,0,P|498:160|537:146,1,48.9999985046387,2|0,0:0|0:0,0:0:0:0:
409,228,19671,2,0,P|415:261|440:294,1,48.9999985046387,8|0,0:0|0:0,0:0:0:0:
318,194,19888,2,0,P|287:210|264:244,1,48.9999985046387,2|0,0:0|0:0,0:0:0:0:
313,102,20105,1,2,0:0:0:0:
313,102,20214,2,0,P|271:74|198:76,1,97.9999970092774
100,98,20540,5,8,0:0:0:0:
56,88,20649,1,0,0:0:0:0:
49,44,20758,1,0,0:0:0:0:
92,19,20866,1,0,0:0:0:0:
127,55,20975,6,0,B|137:92|137:92|115:161,1,97.9999970092774,2|0,0:0|0:0,0:0:0:0:
24,261,21410,1,8,0:0:0:0:
24,261,21518,2,0,L|3:194,2,48.9999985046387
83,384,21844,1,0,0:0:0:0:
83,384,21953,2,0,L|96:309,1,48.9999985046387
146,262,22171,1,8,0:0:0:0:
146,262,22279,2,0,P|182:269|254:234,1,62.9999980773926,0|0,3:0|0:0,0:0:0:0:
285,207,22497,2,0,P|323:202|363:228,1,62.9999980773926
434,228,22714,6,0,L|414:99,1,105.000004005432,2|0,0:0|0:0,0:0:0:0:
443,51,23040,1,0,0:0:0:0:
443,51,23149,2,0,P|405:88|341:70,1,105.000004005432,2|0,0:0|0:0,0:0:0:0:
165,92,23584,2,0,P|146:32|184:-5,1,105.000004005432,2|0,0:0|0:0,0:0:0:0:
236,57,23910,1,0,0:0:0:0:
236,57,24018,2,0,B|252:76|252:76|239:192,1,105.000004005432,2|0,0:0|0:0,0:0:0:0:
372,218,24453,6,0,P|344:222|306:209,1,52.5000020027161,2|0,0:0|0:0,0:0:0:0:
244,156,24671,2,0,P|173:186|167:201,1,52.5000020027161
94,134,24888,2,0,P|108:194|102:226,1,52.5000020027161,2|0,0:0|0:0,0:0:0:0:
161,251,25105,2,0,P|142:310|148:336,1,52.5000020027161
83,360,25323,2,0,P|145:385|195:348,1,105.000004005432,2|0,0:0|0:0,0:0:0:0:
245,306,25649,1,0,0:0:0:0:
245,306,25758,1,2,0:0:0:0:
348,384,25975,1,0,0:0:0:0:
446,271,26192,6,0,L|451:139,1,105.000004005432,2|0,0:0|0:0,0:0:0:0:
487,95,26518,1,0,0:0:0:0:
487,95,26627,2,0,P|438:85|371:155,1,105.000004005432,2|0,0:0|0:0,0:0:0:0:
209,50,27062,2,0,L|224:0,3,52.5000020027161,2|0|0|0,0:0|0:0|0:0|0:0,0:0:0:0:
123,128,27497,2,0,L|142:178,3,52.5000020027161,2|0|0|0,0:0|0:0|0:0|0:0,0:0:0:0:
184,264,27931,6,0,P|106:313|101:315,3,52.5000020027161,6|0|0|0,0:2|0:0|0:0|0:0,0:0:0:0:
295,209,28366,1,2,0:0:0:0:
333,218,28475,1,0,0:0:0:0:
364,246,28584,1,0,0:0:0:0:
372,287,28692,1,0,0:0:0:0:
365,328,28801,5,6,0:0:0:0:
362,287,28910,1,0,0:0:0:0:
392,253,29018,1,0,0:0:0:0:
430,246,29127,1,0,0:0:0:0:
473,246,29236,2,0,P|471:220|473:182,1,56,2|0,0:0|0:0,0:0:0:0:
486,22,29453,2,0,P|494:67|505:105,1,56,2|0,0:0|0:0,0:0:0:0:
385,119,29671,6,0,P|325:136|276:87,1,112,2|0,0:0|0:0,0:0:0:0:
242,38,29997,1,0,0:0:0:0:
242,38,30105,2,0,P|302:21|351:70,1,112,2|0,0:0|0:0,0:0:0:0:
107,121,30540,2,0,B|69:90|69:90|86:16,1,112,2|0,0:0|0:0,0:0:0:0:
192,102,30866,1,0,0:0:0:0:
192,102,30975,2,0,L|174:224,1,112,2|0,0:0|0:0,0:0:0:0:
60,286,31410,6,0,L|-20:266,1,56,2|0,0:0|0:0,0:0:0:0:
138,384,31627,2,0,L|65:369,1,56,0|0,0:0|0:0,0:0:0:0:
204,294,31844,2,0,L|187:212,1,56,2|0,0:0|0:0,0:0:0:0:
305,346,32062,2,0,L|289:267,1,56,0|0,0:0|0:0,0:0:0:0:
406,192,32279,2,0,B|439:245|439:245|411:306,1,112,2|0,0:0|0:0,0:0:0:0:
402,326,32605,1,0,0:0:0:0:
402,326,32714,1,2,0:0:0:0:
282,231,32931,1,2,0:0:0:0:
340,94,33149,6,0,P|395:115|471:28,1,181.999991668702,6|0,3:2|0:0,0:0:0:0:
391,35,33801,1,0,0:0:0:0:
302,161,34018,2,0,L|173:171,1,90.9999958343508,6|0,3:2|0:0,0:0:0:0:
15,126,34453,2,0,L|143:113,1,90.9999958343508,2|0,0:0|0:0,0:0:0:0:
194,6,34888,6,0,B|224:71|224:71|178:150,1,136.499993751526,6|0,3:2|0:0,0:0:0:0:
100,195,35323,2,0,P|165:152|228:190,1,136.499993751526,6|0,3:2|0:0,0:0:0:0:
302,276,35758,6,0,L|181:254,1,90.9999958343508,6|0,3:2|0:0,0:0:0:0:
139,273,36084,1,0,0:0:0:0:
139,273,36192,2,0,P|144:301|149:338,3,45.4999979171754,2|0|0|0,0:0|0:0|0:0|0:0,0:0:0:0:
12,182,36627,6,0,L|110:161,1,90.9999958343508,4|0,3:2|0:0,0:0:0:0:
167,126,36953,1,0,0:0:0:0:
167,126,37062,2,0,P|163:107|156:62,3,45.4999979171754,2|0|0|0,0:0|0:0|0:0|0:0,0:0:0:0:
226,255,37497,5,4,3:2:0:0:
267,252,37605,1,0,0:0:0:0:
300,224,37714,1,0,0:0:0:0:
310,179,37823,1,0,0:0:0:0:
290,136,37931,5,2,0:0:0:0:
292,178,38040,1,0,0:0:0:0:
320,209,38149,1,2,0:0:0:0:
363,217,38258,1,0,0:0:0:0:
404,199,38366,1,6,0:0:0:0:
383,46,38801,6,0,P|462:63|467:133,2,154.000004699707,0|2|2,0:3|0:0|0:0,0:0:0:0:
275,122,39888,1,0,0:0:0:0:
275,122,39997,1,0,0:0:0:0:
275,122,40105,2,0,B|216:120|216:120|184:144|184:144|104:142,1,154.000004699707,2|2,0:0|0:0,0:0:0:0:
0,100,40758,1,0,0:0:0:0:
135,55,40975,5,2,0:0:0:0:
132,143,41192,1,0,0:0:0:0:
0,100,41410,1,2,0:0:0:0:
54,30,41627,1,0,0:0:0:0:
49,168,41844,6,0,L|48:271,1,77.0000023498536,2|0,0:0|0:0,0:0:0:0:
113,303,42171,1,0,0:0:0:0:
113,303,42279,2,0,P|157:272|203:289,1,77.0000023498536,2|0,0:0|0:0,0:0:0:0:
298,366,42714,2,0,L|165:346,1,115.50000352478,2|0,0:0|0:0,0:0:0:0:
236,174,43149,2,0,B|267:200|267:200|253:300,1,115.50000352478,2|0,0:0|0:0,0:0:0:0:
153,216,43584,6,0,P|139:183|205:91,1,154.000004699707,2|2,0:0|0:0,0:0:0:0:
306,185,44236,1,0,0:0:0:0:
306,185,44344,1,0,0:0:0:0:
306,185,44453,1,2,0:0:0:0:
235,309,44671,1,0,0:0:0:0:
221,170,44888,1,2,0:0:0:0:
316,275,45105,1,0,0:0:0:0:
170,238,45323,2,0,L|61:227,1,77.0000023498536,2|0,0:0|0:0,0:0:0:0:
0,82,45758,6,0,P|62:77|110:163,2,154.000004699707,0|2|2,0:0|0:0|0:0,0:0:0:0:
23,174,46844,1,0,0:0:0:0:
23,174,46953,1,0,0:0:0:0:
23,174,47062,2,0,P|65:229|167:196,1,154.000004699707,2|2,0:0|0:0,0:0:0:0:
325,140,47714,1,0,0:0:0:0:
248,259,47931,5,2,0:0:0:0:
195,189,48148,1,0,0:0:0:0:
325,140,48366,1,2,0:0:0:0:
327,228,48583,1,0,0:0:0:0:
244,117,48800,6,0,P|241:72|272:31,1,77.0000023498536,2|0,0:0|0:0,0:0:0:0:
290,22,49127,1,0,0:0:0:0:
290,22,49236,1,2,0:0:0:0:
415,95,49453,1,0,0:0:0:0:
322,199,49671,2,0,B|341:158|341:158|320:108,1,77.0000023498536,2|0,0:0|0:0,0:0:0:0:
450,261,50105,2,0,B|437:225|437:225|468:169,1,77.0000023498536,2|0,0:0|0:0,0:0:0:0:
512,320,50431,5,0,0:0:0:0:
512,320,50540,2,0,P|443:301|400:350,1,115.50000352478,2|0,0:0|0:0,0:0:0:0:
315,370,50975,2,0,L|266:358,3,38.5000011749268,2|0|0|0,0:0|0:0|0:0|0:0,0:0:0:0:
219,260,51410,2,0,L|235:202,3,38.5000011749268,2|0|0|0,0:0|0:0|0:0|0:0,0:0:0:0:
96,331,51844,5,2,0:0:0:0:
61,318,51953,1,0,0:0:0:0:
32,289,52063,1,2,0:0:0:0:
26,245,52171,1,0,0:0:0:0:
39,210,52279,6,0,P|108:221|150:164,1,136.499993751526,2|0,0:0|0:0,0:0:0:0:
156,82,52714,2,0,L|259:99,1,90.9999958343508,2|0,0:0|0:0,0:0:0:0:
448,19,53149,2,0,P|416:110|415:113,1,90.9999958343508,2|0,0:0|0:0,0:0:0:0:
491,192,53475,2,0,P|437:205|389:161,1,90.9999958343508
330,124,53801,1,0,0:0:0:0:
187,42,54018,6,0,P|211:143|229:216,1,136.499993751526,2|0,0:0|0:0,0:0:0:0:
324,217,54453,2,0,P|314:310|311:332,1,90.9999958343508,2|0,0:0|0:0,0:0:0:0:
183,384,54888,2,0,P|145:339|185:281,2,136.499993751526,2|0|0,0:0|0:0|0:0,0:0:0:0:
181,195,55758,6,0,B|125:208|125:208|46:200,1,136.499993751526,2|0,0:0|0:0,0:0:0:0:
275,197,56192,2,0,L|265:306,1,90.9999958343508,2|0,0:0|0:0,0:0:0:0:
184,42,56627,2,0,P|221:127|219:138,1,90.9999958343508,2|0,0:0|0:0,0:0:0:0:
323,140,56953,2,0,P|310:198|261:240,1,90.9999958343508
175,221,57279,1,0,0:0:0:0:
270,345,57497,6,0,L|372:322,1,90.9999958343508,2|0,0:0|0:0,0:0:0:0:
442,292,57823,1,0,0:0:0:0:
442,292,57931,2,0,P|381:309|313:236,1,136.499993751526,2|0,0:0|0:0,0:0:0:0:
209,89,58366,2,0,P|262:189|244:237,1,136.499993751526,2|0,0:0|0:0,0:0:0:0:
117,329,58801,2,0,P|158:283|232:287,1,136.499993751526,6|0,0:0|0:0,0:0:0:0:
193,352,59236,6,0,L|54:325,1,136.499993751526,2|0,0:0|0:0,0:0:0:0:
15,235,59671,2,0,P|57:205|58:131,1,90.9999958343508,2|0,0:0|0:0,0:0:0:0:
132,26,60105,2,0,P|131:88|170:128,1,90.9999958343508,2|0,0:0|0:0,0:0:0:0:
270,163,60431,2,0,P|231:163|172:210,1,90.9999958343508
133,269,60758,1,0,0:0:0:0:
323,225,60975,6,0,P|344:130|286:86,1,136.499993751526,2|0,0:0|0:0,0:0:0:0:
245,251,61410,2,0,P|261:296|261:350,1,90.9999958343508,2|0,0:0|0:0,0:0:0:0:
388,324,61844,2,0,P|451:291|523:309,2,136.499993751526,2|0|0,0:0|0:0|0:0,0:0:0:0:
251,202,62714,6,0,P|273:123|302:97,1,90.9999958343508,2|0,0:0|0:0,0:0:0:0:
178,96,63040,2,0,P|143:57|141:-18,1,90.9999958343508
249,9,63366,1,0,0:0:0:0:
393,69,63584,6,0,L|385:172,1,90.9999958343508,2|0,0:0|0:0,0:0:0:0:
260,151,63910,2,0,L|292:271,1,90.9999958343508
308,368,64236,1,0,0:0:0:0:
424,230,64453,5,2,0:0:0:0:
393,351,64671,1,2,0:0:0:0:
276,165,64888,2,0,P|299:229|298:249,1,45.4999979171754,2|0,0:0|0:0,0:0:0:0:
308,299,65105,1,2,0:0:0:0:
166,234,65323,5,2,0:0:0:0:
127,211,65432,1,0,0:0:0:0:
110,176,65541,1,0,0:0:0:0:
115,132,65650,1,0,0:0:0:0:
142,100,65758,5,2,0:0:0:0:
126,144,65866,1,0,0:0:0:0:
91,174,65975,1,2,0:0:0:0:
46,177,66084,1,0,0:0:0:0:
1,161,66192,6,0,B|89:144|101:188|114:229|198:208,1,210.000008010865,6|2,0:0|0:0,0:0:0:0:
112,77,67497,6,0,L|108:21,1,45.4999979171754,0|0,0:0|0:0,0:0:0:0:
205,121,67714,2,0,L|205:61,1,45.4999979171754,0|0,0:0|0:0,0:0:0:0:
46,149,67931,6,0,B|10:109|10:109|31:35,1,112,2|0,0:0|0:0,0:0:0:0:
112,77,68258,1,0,0:0:0:0:
127,166,68366,2,0,L|116:301,1,112,2|0,0:0|0:0,0:0:0:0:
234,313,68801,2,0,B|315:273|315:273|391:320,1,168,2|0,0:0|0:0,0:0:0:0:
353,383,69236,2,0,P|326:303|388:248,1,168,2|0,0:0|0:0,0:0:0:0:
473,239,69671,5,2,0:0:0:0:
406,324,69888,1,0,0:0:0:0:
303,197,70105,1,2,0:0:0:0:
455,121,70323,1,0,0:0:0:0:
455,121,70431,1,0,0:0:0:0:
455,121,70540,1,2,0:0:0:0:
276,247,70758,5,0,0:0:0:0:
276,247,70866,1,0,0:0:0:0:
276,247,70975,2,0,L|200:244,1,56,2|0,0:0|0:0,0:0:0:0:
323,327,71192,2,0,L|245:334,1,56,0|0,0:0|0:0,0:0:0:0:
381,227,71410,6,0,B|408:191|408:191|383:83,1,112,2|0,0:0|0:0,0:0:0:0:
309,55,71736,1,0,0:0:0:0:
346,147,71844,2,0,P|421:142|443:71,1,112,2|0,0:0|0:0,0:0:0:0:
198,67,72279,2,0,B|176:27|126:31|126:31|88:63|102:134,1,168,2|0,0:0|0:0,0:0:0:0:
252,168,72714,2,0,L|264:295,1,112,2|0,0:0|0:0,0:0:0:0:
363,40,73149,5,2,0:0:0:0:
363,40,73258,1,0,0:0:0:0:
363,40,73366,2,0,L|352:112,1,56,0|0,0:0|0:0,0:0:0:0:
252,168,73584,1,2,0:0:0:0:
252,168,73692,1,0,0:0:0:0:
252,168,73801,2,0,L|236:73,1,56,0|0,0:0|0:0,0:0:0:0:
189,221,74018,5,2,0:0:0:0:
221,250,74127,1,0,0:0:0:0:
261,256,74236,1,0,0:0:0:0:
302,240,74344,1,0,0:0:0:0:
324,207,74453,2,0,L|328:306,1,56,2|0,0:0|0:0,0:0:0:0:
424,322,74671,2,0,L|414:404,1,56,2|0,0:0|0:0,0:0:0:0:
511,224,74888,6,0,P|512:129|463:96,1,112,2|0,0:0|0:0,0:0:0:0:
434,65,75214,1,0,0:0:0:0:
357,8,75323,2,0,B|331:40|331:40|354:142,1,112,2|0,0:0|0:0,0:0:0:0:
246,215,75758,2,0,P|159:190|119:258,1,168,2|0,0:0|0:0,0:0:0:0:
34,314,76192,2,0,B|89:256|89:256|202:256,1,168,2|0,0:0|0:0,0:0:0:0:
259,298,76627,5,2,0:0:0:0:
351,211,76844,1,0,0:0:0:0:
325,375,77062,1,2,0:0:0:0:
245,198,77279,1,0,0:0:0:0:
429,260,77497,6,0,P|438:178|388:129,1,112,2|0,0:0|0:0,0:0:0:0:
383,64,77823,1,0,0:0:0:0:
383,64,77931,2,0,L|396:-10,1,56,2|0,0:0|0:0,0:0:0:0:
278,107,78149,2,0,L|290:19,1,56,2|0,0:0|0:0,0:0:0:0:
188,167,78366,6,0,B|258:135|258:135|347:189,1,181.999991668702,6|0,3:2|0:0,0:0:0:0:
360,305,79018,1,0,0:0:0:0:
175,249,79236,2,0,P|104:196|125:122,1,136.499993751526,6|0,3:2|0:0,0:0:0:0:
185,51,79671,2,0,B|222:110|222:110|176:185,1,136.499993751526,2|0,0:0|0:0,0:0:0:0:
311,164,80105,6,0,L|435:121,1,90.9999958343508,6|0,3:2|0:0,0:0:0:0:
175,249,80540,2,0,L|72:276,1,90.9999958343508,6|0,3:2|0:0,0:0:0:0:
256,318,80975,2,0,P|291:218|211:159,1,181.999991668702,6|0,3:2|0:0,0:0:0:0:
125,104,81627,5,0,0:0:0:0:
125,104,81736,1,0,0:0:0:0:
125,104,81844,1,2,0:0:0:0:
296,92,82062,1,0,0:0:0:0:
178,4,82279,2,0,L|192:71,1,45.4999979171754,8|0,0:0|0:0,0:0:0:0:
213,149,82497,1,0,0:0:0:0:
354,251,82714,5,2,0:0:0:0:
399,251,82823,1,0,0:0:0:0:
417,207,82932,1,0,0:0:0:0:
378,176,83041,1,0,0:0:0:0:
338,204,83149,2,0,L|272:226,2,45.4999979171754,8|0|0,0:0|0:0|0:0,0:0:0:0:
257,332,83584,5,2,0:0:0:0:
187,208,83801,1,0,0:0:0:0:
118,327,84018,2,0,L|166:300,1,45.4999979171754,8|0,0:0|0:0,0:0:0:0:
265,248,84236,1,0,0:0:0:0:
89,179,84453,5,2,0:0:0:0:
89,179,84562,1,0,0:0:0:0:
89,179,84671,2,0,L|95:236,1,45.4999979171754,0|0,0:0|0:0,0:0:0:0:
175,108,84888,1,8,0:0:0:0:
205,70,84997,1,0,0:0:0:0:
181,32,85105,1,0,0:0:0:0:
132,43,85214,1,0,0:0:0:0:
130,90,85323,5,6,0:0:0:0:
240,180,85540,1,0,0:0:0:0:
342,5,85758,2,0,L|336:59,1,45.4999979171754,8|0,0:0|0:0,0:0:0:0:
328,130,85975,1,0,0:0:0:0:
169,206,86192,5,2,0:0:0:0:
165,160,86301,1,0,0:0:0:0:
209,141,86410,1,0,0:0:0:0:
240,180,86518,1,0,0:0:0:0:
212,218,86627,2,0,L|203:270,1,45.4999979171754,8|0,0:0|0:0,0:0:0:0:
287,311,86844,2,0,L|276:380,1,45.4999979171754,0|0,0:0|0:0,0:0:0:0:
182,384,87062,5,2,0:0:0:0:
355,279,87279,1,0,0:0:0:0:
145,207,87497,2,0,L|213:219,1,45.4999979171754,8|0,0:0|0:0,0:0:0:0:
269,217,87714,1,2,0:0:0:0:
418,184,87931,5,2,0:0:0:0:
402,143,88040,1,0,0:0:0:0:
362,125,88148,1,0,0:0:0:0:
315,125,88257,1,0,0:0:0:0:
282,149,88366,5,8,0:0:0:0:
299,108,88474,1,0,0:0:0:0:
292,62,88583,1,2,0:0:0:0:
260,33,88692,1,0,0:0:0:0:
214,28,88801,1,2,0:0:0:0:
256,192,88910,12,0,90105,0:0:0:0:
400,115,90540,6,0,L|410:177,3,45.4999979171754,2|0|0|0,0:0|0:0|0:0|0:0,0:0:0:0:
324,168,90975,2,0,L|334:230,3,45.4999979171754
257,103,91410,5,2,0:0:0:0:
227,88,91518,1,0,0:0:0:0:
191,87,91627,1,0,0:0:0:0:
156,101,91736,1,0,0:0:0:0:
138,132,91844,1,0,0:0:0:0:
145,98,91953,1,0,0:0:0:0:
130,65,92062,1,0,0:0:0:0:
100,46,92171,1,0,0:0:0:0:
27,103,92279,6,0,L|39:162,3,45.4999979171754,2|0|0|0,0:0|0:0|0:0|0:0,0:0:0:0:
90,207,92714,2,0,L|84:275,3,45.4999979171754
156,295,93149,5,2,0:0:0:0:
183,274,93258,1,0,0:0:0:0:
221,270,93366,1,0,0:0:0:0:
252,294,93475,1,0,0:0:0:0:
273,320,93584,1,0,0:0:0:0:
308,334,93692,1,0,0:0:0:0:
343,332,93801,1,0,0:0:0:0:
371,307,93910,1,0,0:0:0:0:
445,261,94018,6,0,L|501:272,3,45.4999979171754,2|0|0|0,0:0|0:0|0:0|0:0,0:0:0:0:
418,180,94453,2,0,L|483:165,3,45.4999979171754
326,208,94888,5,2,0:0:0:0:
295,226,94997,1,0,0:0:0:0:
261,231,95105,1,0,0:0:0:0:
226,218,95214,1,0,0:0:0:0:
243,190,95323,1,0,0:0:0:0:
272,171,95431,1,0,0:0:0:0:
308,165,95540,1,0,0:0:0:0:
342,179,95649,1,0,0:0:0:0:
388,254,95758,6,0,L|383:301,3,45.4999979171754,2|0|0|0,0:0|0:0|0:0|0:0,0:0:0:0:
296,328,96192,2,0,L|309:401,3,45.4999979171754
239,248,96627,5,2,0:0:0:0:
214,204,96735,1,0,0:0:0:0:
172,216,96844,1,0,0:0:0:0:
167,260,96953,1,0,0:0:0:0:
211,282,97061,5,2,0:0:0:0:
260,261,97170,1,0,0:0:0:0:
261,204,97278,1,0,0:0:0:0:
210,179,97387,1,0,0:0:0:0:
172,216,97497,6,0,L|277:226,1,90.9999958343508,2|0,0:0|0:0,0:0:0:0:
353,266,97823,1,0,0:0:0:0:
353,266,97931,1,2,0:0:0:0:
463,139,98149,1,0,0:0:0:0:
387,18,98366,2,0,P|323:107|349:154,1,136.499993751526,2|0,0:0|0:0,0:0:0:0:
240,169,98801,2,0,B|283:133|283:133|401:141,1,136.499993751526,2|0,0:0|0:0,0:0:0:0:
501,199,99236,5,2,0:0:0:0:
512,79,99453,1,0,0:0:0:0:
382,65,99671,1,2,0:0:0:0:
418,206,99888,1,0,0:0:0:0:
424,219,99997,1,0,0:0:0:0:
431,237,100105,2,0,P|366:216|282:305,1,181.999991668702,2|2,0:0|0:0,0:0:0:0:
383,323,100758,1,0,0:0:0:0:
216,384,100975,6,0,B|167:352|167:352|181:206,1,181.999991668702,6|2,3:2|0:0,0:0:0:0:
224,98,101627,1,0,0:0:0:0:
93,187,101844,2,0,P|72:230|96:289,1,90.9999958343508,6|0,3:2|0:0,0:0:0:0:
90,92,102279,2,0,P|42:84|-6:126,1,90.9999958343508,2|0,0:0|0:0,0:0:0:0:
226,77,102714,6,0,P|218:29|163:-4,1,90.9999958343508,6|0,3:2|0:0,0:0:0:0:
311,174,103149,2,0,P|354:151|369:89,1,90.9999958343508,6|0,3:2|0:0,0:0:0:0:
199,259,103584,2,0,P|233:293|297:288,1,90.9999958343508,6|0,3:2|0:0,0:0:0:0:
426,336,104018,6,0,L|437:401,3,45.4999979171754,2|0|0|0,0:0|0:0|0:0|0:0,0:0:0:0:
512,225,104453,2,0,L|507:294,3,45.4999979171754,6|0|0|0,0:0|0:0|0:0|0:0,0:0:0:0:
426,128,104888,2,0,L|407:75,3,45.4999979171754
350,251,105323,5,2,0:0:0:0:
322,280,105431,1,0,0:0:0:0:
276,290,105540,1,0,0:0:0:0:
235,274,105649,1,0,0:0:0:0:
217,232,105758,1,2,0:0:0:0:
245,243,105866,1,2,0:0:0:0:
260,264,105975,1,2,0:0:0:0:
263,288,106084,1,2,0:0:0:0:
257,313,106192,1,2,0:0:0:0:
27,132,106518,6,0,B|101:152|137:88|137:88|153:177|153:177|187:128|241:151,1,318.499985420228
378,135,107496,6,0,L|360:274,1,112,6|0,0:0|0:0,0:0:0:0:
459,167,107931,2,0,P|377:230|310:188,1,168,2|0,0:0|0:0,0:0:0:0:
222,87,108366,2,0,B|283:38|283:38|297:161,1,168,2|0,0:0|0:0,0:0:0:0:
261,211,108801,5,2,0:0:0:0:
127,255,109018,1,0,0:0:0:0:
84,118,109235,1,2,0:0:0:0:
222,87,109453,1,0,0:0:0:0:
222,87,109562,1,0,0:0:0:0:
222,87,109670,1,2,0:0:0:0:
86,198,109888,5,0,0:0:0:0:
86,198,109996,1,0,0:0:0:0:
86,198,110105,2,0,P|29:165|24:158,1,56,2|0,0:0|0:0,0:0:0:0:
82,299,110322,2,0,P|32:327|21:327,1,56,0|0,0:0|0:0,0:0:0:0:
195,247,110540,6,0,B|214:222|214:222|204:106,1,112,2|0,0:0|0:0,0:0:0:0:
155,51,110866,1,0,0:0:0:0:
260,69,110975,2,0,P|341:55|347:2,1,112,2|0,0:0|0:0,0:0:0:0:
446,129,111409,2,0,B|413:152|367:154|367:154|390:197|459:224,1,168,2|0,0:0|0:0,0:0:0:0:
429,332,111844,2,0,B|454:297|454:297|436:184,1,112,2|0,0:0|0:0,0:0:0:0:
272,114,112280,5,2,0:0:0:0:
234,98,112387,1,0,0:0:0:0:
195,102,112496,1,0,0:0:0:0:
167,124,112605,1,0,0:0:0:0:
153,157,112714,5,2,0:0:0:0:
135,203,112822,1,0,0:0:0:0:
100,236,112931,1,0,0:0:0:0:
58,250,113040,1,0,0:0:0:0:
12,229,113148,5,2,0:0:0:0:
44,191,113257,1,2,0:0:0:0:
92,182,113366,1,2,0:0:0:0:
135,203,113474,1,2,0:0:0:0:
171,236,113583,6,0,L|161:291,1,56,2|0,0:0|0:0,0:0:0:0:
264,326,113801,2,0,L|253:394,1,56,2|0,0:0|0:0,0:0:0:0:
343,262,114018,6,0,P|401:254|432:201,1,112,2|0,0:0|0:0,0:0:0:0:
349,173,114344,1,0,0:0:0:0:
261,108,114453,2,0,B|215:89|215:89|165:164,1,112,2|0,0:0|0:0,0:0:0:0:
349,173,114888,2,0,B|445:145|424:222|530:170,1,168,2|0,0:0|0:0,0:0:0:0:
474,102,115322,2,0,P|417:177|478:254,1,168,2|0,0:0|0:0,0:0:0:0:
512,316,115757,5,2,0:0:0:0:
511,178,115975,1,0,0:0:0:0:
376,229,116192,1,2,0:0:0:0:
437,384,116409,1,0,0:0:0:0:
299,277,116627,6,0,P|252:280|156:316,1,112,2|0,0:0|0:0,0:0:0:0:
135,212,116953,1,0,0:0:0:0:
135,212,117062,2,0,P|167:159|163:145,1,56,2|0,0:0|0:0,0:0:0:0:
63,125,117279,2,0,P|46:57|43:53,1,56
2,218,117496,6,0,B|-14:262|-14:262|18:349,1,112,6|0,3:2|0:0,0:0:0:0:
87,384,117822,1,0,0:0:0:0:
87,384,117931,1,2,0:0:0:0:
227,337,118148,1,0,0:0:0:0:
135,212,118366,5,6,3:2:0:0:
175,180,118475,1,0,0:0:0:0:
219,183,118583,1,0,0:0:0:0:
259,205,118692,1,0,0:0:0:0:
277,249,118801,1,2,0:0:0:0:
274,208,118909,1,0,0:0:0:0:
300,168,119018,1,0,0:0:0:0:
342,153,119127,1,0,0:0:0:0:
386,155,119235,6,0,L|467:178,3,56,6|0|0|0,3:2|0:0|0:0|0:0,0:0:0:0:
250,54,119670,2,0,L|229:-27,3,56,6|0|0|0,3:2|0:0|0:0|0:0,0:0:0:0:
216,221,120105,2,0,L|154:279,3,56,6|0|0|0,3:2|0:0|0:0|0:0,0:0:0:0:
345,146,120540,5,2,0:0:0:0:
389,160,120648,1,0,0:0:0:0:
396,207,120757,1,2,0:0:0:0:
350,227,120866,1,0,0:0:0:0:
319,186,120975,1,6,3:2:0:0:
256,192,121083,12,0,126844,0:0:0:0:
