osu file format v14

[General]
AudioFilename: audio.mp3
AudioLeadIn: 0
PreviewTime: 40369
Countdown: 0
SampleSet: Soft
StackLeniency: 0.7
Mode: 0
LetterboxInBreaks: 0
WidescreenStoryboard: 0

[Editor]
DistanceSpacing: 1.4
BeatDivisor: 4
GridSize: 4
TimelineZoom: 2.899999

[Metadata]
Title:Afureru Hikari (TV Size)
TitleUnicode:あふれる光 (TV Size)
Artist:moumoon
ArtistUnicode:moumoon
Creator:Sarawatlism
Version:kanor's Insane
Source:夢王国と眠れる100人の王子様
Tags:Yume Oukoku to Nemureru 100-nin no Ouji-sama 100 Sleeping Princes & the Kingdom of Dreams opening op japanese anime [_lost_] conner c_o_n_n_e_r kanor Grindle j-pop jpop pop
BeatmapID:2161561
BeatmapSetID:845117

[Difficulty]
HPDrainRate:6
CircleSize:4.2
OverallDifficulty:8
ApproachRate:9
SliderMultiplier:1.6
SliderTickRate:1

[Events]
//Background and Video events
0,0,"BG.jpg",0,0
Video,-500,"VD.mp4"
//Break Periods
//Storyboard Layer 0 (Background)
//Storyboard Layer 1 (Fail)
//Storyboard Layer 2 (Pass)
//Storyboard Layer 3 (Foreground)
//Storyboard Layer 4 (Overlay)
//Storyboard Sound Samples

[TimingPoints]
462,370.37037037037,4,2,1,40,1,0
5647,-133.333333333333,4,2,1,40,0,0
16758,-100,4,2,2,50,0,0
18516,-100,4,2,2,5,0,0
18609,-100,4,2,2,50,0,0
28610,-100,4,2,2,60,0,0
37499,-100,4,2,2,65,0,0
40277,-100,4,2,2,5,0,0
40461,-100,4,2,2,75,0,1
40647,-100,4,2,3,75,0,1
41202,-83.3333333333333,4,2,3,75,0,1
43701,-83.3333333333333,4,2,3,5,0,1
43794,-83.3333333333333,4,2,3,75,0,1
46295,-83.3333333333333,4,2,3,75,0,0
46387,-83.3333333333333,4,2,3,75,0,1
51248,-83.3333333333333,4,2,3,40,0,1
51573,-133.333333333333,4,2,3,60,0,0
51850,-133.333333333333,4,2,3,5,0,0
51943,-133.333333333333,4,2,3,60,0,0
52313,-100,4,2,3,70,0,1
52684,-100,4,2,2,70,0,1
58147,-100,4,2,2,70,0,0
58239,-100,4,2,2,70,0,1
64073,-100,4,2,2,70,0,0
64165,-100,4,2,2,75,0,1
64351,-100,4,2,3,75,0,1
64906,-83.3333333333333,4,2,3,75,0,1
67405,-83.3333333333333,4,2,3,5,0,1
67498,-83.3333333333333,4,2,3,75,0,1
69999,-83.3333333333333,4,2,3,75,0,0
70091,-83.3333333333333,4,2,3,75,0,1
74952,-83.3333333333333,4,2,3,40,0,1
75276,-133.333333333333,4,2,3,60,0,0
75553,-133.333333333333,4,2,3,5,0,0
75647,-133.333333333333,4,2,3,60,0,0
76017,-100,4,2,3,70,0,1
76388,-100,4,2,2,70,0,1
81850,-100,4,2,2,70,0,0
81943,-100,4,2,2,70,0,1
84906,-100,4,2,2,75,0,1
86388,-100,4,2,2,80,0,1
87684,-100,4,2,2,80,0,0

[Colours]
Combo1 : 198,243,253
Combo2 : 255,128,128
Combo3 : 0,128,255
Combo4 : 128,64,64
Combo5 : 255,247,147
Combo6 : 222,247,185

[HitObjects]
256,192,1017,12,2,4906,2:0:0:0:
56,112,5461,5,2,2:0:0:0:
88,40,5647,2,0,P|119:29|164:36,1,60.0000022888184,2|2,2:0|2:0,2:0:0:0:
108,168,6017,2,0,P|56:192|-8:160,2,120.000004577637,2|2|0,2:0|2:0|2:0,2:0:0:0:
128,100,6943,1,2,2:0:0:0:
168,216,7128,2,0,P|200:224|244:216,1,60.0000022888184,2|2,2:0|2:0,2:0:0:0:
304,128,7499,1,2,2:0:0:0:
304,128,7869,6,0,B|300:184|300:184|304:196|304:196|300:248,2,120.000004577637,2|0|0,2:0|2:0|2:0,2:0:0:0:
364,296,8980,1,0,2:0:0:0:
416,232,9165,2,0,L|420:184,1,30.0000011444092,0|0,2:0|2:0,2:0:0:0:
452,128,9350,6,0,P|444:100|412:72,2,60.0000022888184,2|0|0,2:0|2:0|2:0,2:0:0:0:
376,136,9906,1,0,2:0:0:0:
332,77,10091,2,0,P|312:99|304:128,1,60.0000022888184,2|2,2:0|2:0,2:0:0:0:
184,64,10461,1,2,2:0:0:0:
184,64,10832,6,0,P|212:71|242:70,1,60.0000022888184,2|0,2:0|2:0,2:0:0:0:
124,16,11202,2,0,B|55:32|71:-4|3:8,2,120.000004577637,0|0|2,2:0|2:0|2:0,2:0:0:0:
28,80,12128,2,0,L|28:128,1,30.0000011444092,0|0,2:0|2:0,2:0:0:0:
4,176,12313,6,0,P|36:180|80:160,1,60.0000022888184,0|0,2:0|2:0,2:0:0:0:
184,120,12684,2,0,P|152:116|108:136,1,60.0000022888184,0|2,2:0|2:0,2:0:0:0:
104,240,13054,1,2,2:0:0:0:
104,240,13424,2,0,L|100:312,1,60.0000022888184,2|2,2:0|2:0,2:0:0:0:
84,328,13702,1,2,2:0:0:0:
84,328,13795,6,0,P|52:324|8:344,1,60.0000022888184,2|0,2:0|2:0,2:0:0:0:
156,364,14165,2,0,P|188:368|232:348,1,60.0000022888184,0|2,2:0|2:0,2:0:0:0:
228,228,14536,1,0,2:0:0:0:
260,304,14721,1,0,2:0:0:0:
184,296,14906,1,0,2:0:0:0:
316,244,15091,2,0,L|356:252,1,30.0000011444092,2|2,2:0|2:0,2:0:0:0:
408,284,15276,6,0,P|417:250|415:220,1,60.0000022888184,2|0,2:0|2:0,2:0:0:0:
364,112,15647,2,0,P|354:145|356:175,1,60.0000022888184,0|2,2:0|2:0,2:0:0:0:
488,220,16017,2,0,P|480:188|459:166,2,60.0000022888184,2|0|0,2:0|2:0|2:0,2:0:0:0:
396,360,16573,1,2,2:0:0:0:
396,360,16665,1,2,2:0:0:0:
396,360,16758,6,0,P|352:364|320:352,1,80,4|0,1:2|2:0,2:0:0:0:
148,292,17128,2,0,L|134:213,1,80,0|2,1:0|2:0,2:0:0:0:
116,360,17499,2,0,P|160:364|192:352,1,80,2|0,1:2|2:0,2:0:0:0:
377,213,17869,2,0,L|364:292,1,80,2|2,1:2|2:0,2:0:0:0:
172,144,18239,6,0,P|78:160|56:220,1,160,2|0,1:2|1:0,2:0:0:0:
134,213,18795,1,2,2:0:0:0:
248,152,18980,2,0,P|244:122|204:76,1,80,2|2,1:2|2:0,2:0:0:0:
296,212,19350,2,0,P|314:188|318:127,1,80,2|2,1:2|2:0,2:0:0:0:
320,64,19628,5,2,2:0:0:0:
320,64,19721,1,2,1:2:0:0:
400,168,19906,1,0,2:0:0:0:
508,56,20091,1,0,1:0:0:0:
488,60,20461,1,0,1:0:0:0:
468,64,20832,1,0,1:0:0:0:
396,16,21017,5,2,2:0:0:0:
396,16,21110,1,2,2:0:0:0:
396,16,21202,2,0,L|388:96,1,80,2|0,1:2|2:0,2:0:0:0:
432,240,21573,2,0,P|476:220|524:236,1,80,0|0,1:0|2:0,2:0:0:0:
400,376,21943,1,2,1:2:0:0:
360,268,22128,1,2,2:0:0:0:
480,292,22313,1,2,1:2:0:0:
304,344,22499,5,2,2:0:0:0:
304,344,22591,1,2,2:0:0:0:
304,344,22684,2,0,L|200:336,1,80,2|0,1:2|2:0,2:0:0:0:
160,196,23054,2,0,P|180:240|164:288,1,80,0|2,1:0|2:0,2:0:0:0:
20,344,23424,1,0,1:0:0:0:
108,244,23610,1,0,2:0:0:0:
148,364,23795,1,2,1:2:0:0:
40,268,23980,5,2,2:0:0:0:
40,268,24073,1,2,2:0:0:0:
40,268,24165,2,0,P|36:228|55:194,1,80,2|0,1:2|2:0,2:0:0:0:
192,136,24536,2,0,P|159:158|120:159,1,80,0|2,1:0|2:0,2:0:0:0:
56,117,24813,1,2,2:0:0:0:
56,117,24906,2,0,P|35:84|0:68,1,80,2|0,1:2|2:0,2:0:0:0:
148,12,25276,1,2,1:2:0:0:
148,12,25647,6,0,L|132:116,1,80,2|0,1:2|2:0,2:0:0:0:
260,260,26017,2,0,L|244:156,1,80,0|2,1:0|2:0,2:0:0:0:
192,136,26295,1,2,2:0:0:0:
192,136,26387,2,0,P|224:113|263:112,1,80,2|2,1:2|2:0,2:0:0:0:
424,216,26758,2,0,P|463:214|495:192,1,80,2|2,1:2|2:0,2:0:0:0:
440,144,27036,5,2,2:0:0:0:
440,144,27128,2,0,L|448:36,2,80,2|0|0,1:2|2:0|1:0,2:0:0:0:
356,20,27684,1,2,2:0:0:0:
356,20,27776,1,2,2:0:0:0:
356,20,27869,2,0,L|348:104,1,80,2|0,1:2|2:0,2:0:0:0:
332,280,28239,2,0,L|316:212,1,40,10|8,1:2|2:3,2:0:0:0:
260,312,28424,2,0,L|244:244,1,40,4|4,2:3|2:3,2:0:0:0:
176,136,28610,5,4,1:0:0:0:
248,168,28795,1,0,3:0:0:0:
144,140,28980,1,0,1:0:0:0:
272,92,29165,1,2,3:2:0:0:
84,92,29350,2,0,P|68:136|84:184,1,80,0|0,1:0|3:0,2:0:0:0:
16,348,29721,2,0,P|21:308|6:272,1,80,2|2,1:2|3:2,2:0:0:0:
8,200,29999,5,2,2:0:0:0:
8,200,30091,1,2,1:2:0:0:
144,140,30276,1,0,3:0:0:0:
128,308,30461,1,0,1:0:0:0:
74,167,30647,1,2,3:2:0:0:
144,328,30832,2,0,P|184:320|244:344,1,80,0|2,1:0|3:2,2:0:0:0:
284,368,31110,1,2,2:0:0:0:
284,368,31202,1,2,1:2:0:0:
400,332,31387,1,0,3:0:0:0:
288,196,31573,5,2,1:2:0:0:
328,304,31758,1,0,2:0:0:0:
480,196,31943,1,0,1:0:0:0:
364,232,32128,1,2,3:2:0:0:
512,280,32313,1,2,1:2:0:0:
512,280,32406,1,2,2:0:0:0:
512,280,32499,1,2,3:2:0:0:
452,112,32684,1,2,1:2:0:0:
452,112,32776,1,2,2:0:0:0:
452,112,32869,1,2,3:2:0:0:
364,232,33054,5,2,1:2:0:0:
208,156,33239,1,0,2:0:0:0:
336,67,33424,1,0,1:0:0:0:
288,196,33610,1,0,3:0:0:0:
296,0,33795,1,2,1:2:0:0:
368,140,33980,1,2,3:2:0:0:
180,84,34165,1,2,1:2:0:0:
180,84,34258,1,2,2:0:0:0:
180,84,34350,2,0,P|212:80|248:88,1,40,2|2,3:2|2:0,2:0:0:0:
212,236,34536,5,2,1:2:0:0:
208,156,34721,1,0,2:0:0:0:
140,280,34906,1,0,1:0:0:0:
284,192,35091,1,2,3:2:0:0:
136,200,35276,1,0,1:0:0:0:
288,272,35461,1,0,3:0:0:0:
76,324,35647,1,2,1:2:0:0:
212,236,35832,5,2,3:0:0:0:
212,236,35924,1,2,2:0:0:0:
212,236,36017,1,2,1:2:0:0:
364,312,36202,1,0,2:0:0:0:
140,280,36387,1,0,1:0:0:0:
284,192,36573,1,2,3:2:0:0:
296,352,36758,1,0,1:0:0:0:
136,200,36943,1,0,3:0:0:0:
144,360,37128,1,2,1:2:0:0:
288,272,37313,5,2,3:2:0:0:
288,272,37406,1,2,2:0:0:0:
288,272,37499,1,2,1:2:0:0:
60,164,37684,1,0,2:0:0:0:
280,112,37869,1,0,1:0:0:0:
136,200,38054,1,2,2:3:0:0:
276,36,38239,5,0,1:0:0:0:
212,236,38424,1,2,2:3:0:0:
344,0,38610,1,0,1:0:0:0:
508,224,38795,1,8,2:0:0:0:
508,224,38887,1,8,2:0:0:0:
508,224,38980,1,2,2:0:0:0:
256,192,39073,12,0,40277,2:0:0:0:
32,44,40461,5,4,1:0:0:0:
160,116,40647,1,2,3:2:0:0:
316,76,40832,1,8,2:0:0:0:
232,56,41017,1,2,3:2:0:0:
232,56,41110,1,0,2:0:0:0:
232,56,41202,2,0,L|248:160,1,95.9999970703126,0|2,1:0|3:2,2:0:0:0:
96,252,41573,2,0,P|108:208|76:152,1,95.9999970703126,8|2,2:0|3:2,2:0:0:0:
28,288,41850,5,0,2:0:0:0:
28,288,41943,2,0,P|60:320|124:320,1,95.9999970703126,0|2,1:0|3:2,2:0:0:0:
188,256,42313,1,8,2:0:0:0:
312,352,42499,1,2,3:2:0:0:
312,352,42591,1,0,2:0:0:0:
312,352,42684,1,0,1:0:0:0:
200,352,42869,1,2,3:2:0:0:
324,256,43054,1,10,2:0:0:0:
500,356,43239,5,0,3:0:0:0:
500,356,43332,1,0,2:0:0:0:
500,356,43424,2,0,B|544:256|444:288|496:160,2,191.999994140625,2|8|0,1:2|2:0|1:0,2:0:0:0:
404,304,44350,1,0,3:0:0:0:
404,304,44443,1,0,2:0:0:0:
404,304,44536,1,10,2:0:0:0:
312,352,44721,1,2,3:2:0:0:
108,304,44906,5,2,1:3:0:0:
200,352,45091,1,0,2:0:0:0:
280,224,45276,5,8,2:0:0:0:
188,272,45461,1,0,3:0:0:0:
112,148,45647,5,2,1:3:0:0:
204,196,45832,1,0,3:0:0:0:
280,76,46017,1,8,2:0:0:0:
188,124,46202,5,0,3:0:0:0:
188,124,46295,1,0,2:0:0:0:
188,124,46387,2,0,P|176:76|196:24,1,95.9999970703126,6|2,1:2|3:2,2:0:0:0:
280,76,46758,1,10,2:0:0:0:
384,28,46943,1,2,3:2:0:0:
384,28,47036,1,0,2:0:0:0:
384,28,47128,2,0,B|388:68|388:68|380:96|380:96|384:140,1,95.9999970703126,0|2,1:0|3:2,2:0:0:0:
476,264,47499,1,8,2:0:0:0:
444,188,47684,5,2,3:2:0:0:
444,188,47776,1,0,2:0:0:0:
444,188,47869,2,0,B|412:204|412:204|348:188,1,95.9999970703126,0|2,1:0|3:2,2:0:0:0:
212,292,48239,2,0,B|244:308|244:308|308:292,1,95.9999970703126,8|2,2:0|3:2,2:0:0:0:
376,280,48517,1,0,2:0:0:0:
376,280,48610,1,0,1:0:0:0:
252,220,48795,1,2,3:2:0:0:
160,352,48980,1,8,2:0:0:0:
32,212,49165,5,2,3:2:0:0:
32,212,49258,1,0,2:0:0:0:
32,212,49350,2,0,P|9:254|25:310,1,95.9999970703126,0|2,1:0|3:2,2:0:0:0:
140,204,49721,2,0,P|163:162|147:106,1,95.9999970703126,8|2,2:0|3:2,2:0:0:0:
108,60,49999,1,0,2:0:0:0:
108,60,50091,1,0,1:0:0:0:
88,148,50276,1,2,3:2:0:0:
268,24,50461,1,8,2:0:0:0:
248,112,50647,1,2,3:2:0:0:
444,80,50832,5,8,2:0:0:0:
443,49,50955,5,8,2:3:0:0:
429,20,51078,5,8,2:3:0:0:
368,68,51202,6,0,L|368:100,6,23.9999992675781,0|2|2|2|2|2|2,2:0|2:0|2:0|2:0|2:0|2:0|2:0,2:0:0:0:
348,56,51573,6,0,B|364:132|324:100|340:176,1,120.000004577637,2|8,2:0|2:3,2:0:0:0:
339,172,52313,6,0,P|383:172|424:136,1,80,4|0,1:0|2:0,2:0:0:0:
504,220,52684,1,0,3:0:0:0:
504,220,52869,1,2,1:2:0:0:
480,320,53054,2,0,B|424:312|424:312|384:324|384:324|312:312,1,160,8|2,2:0|3:2,2:0:0:0:
248,336,53610,5,8,2:0:0:0:
248,336,53702,1,8,2:0:0:0:
248,336,53795,1,2,1:2:0:0:
204,210,53980,1,8,2:0:0:0:
172,360,54165,1,0,3:0:0:0:
269,264,54350,1,2,1:2:0:0:
188,284,54536,1,8,2:0:0:0:
188,284,54906,1,2,3:2:0:0:
64,360,55091,5,8,2:0:0:0:
64,360,55184,1,8,2:0:0:0:
64,360,55276,2,0,P|60:320|84:276,1,80,2|0,1:2|2:0,2:0:0:0:
16,200,55647,1,0,3:0:0:0:
16,200,55832,1,2,1:2:0:0:
168,136,56017,5,8,2:0:0:0:
104,204,56202,1,0,2:0:0:0:
104,204,56295,1,0,2:0:0:0:
104,204,56387,1,2,3:2:0:0:
72,124,56573,1,8,2:0:0:0:
220,40,56758,5,2,1:2:0:0:
252,120,56943,1,8,2:0:0:0:
444,40,57128,1,0,3:0:0:0:
412,120,57313,1,2,1:2:0:0:
320,16,57499,2,0,P|328:96|332:188,1,160,10|2,2:0|3:2,2:0:0:0:
331,175,58054,2,0,L|340:240,1,40,8|8,2:0|2:0,2:0:0:0:
408,264,58239,6,0,P|441:238|481:238,1,80,6|0,1:2|2:0,2:0:0:0:
344,320,58610,1,0,3:0:0:0:
344,320,58795,1,2,1:2:0:0:
244,200,58980,2,0,B|254:260|254:260|242:300|242:300|250:356,1,160,8|2,2:0|3:2,2:0:0:0:
256,364,59536,5,8,2:0:0:0:
256,364,59628,1,8,2:0:0:0:
256,364,59721,1,2,1:2:0:0:
168,316,59906,1,8,2:0:0:0:
92,364,60091,1,0,3:0:0:0:
120,248,60276,1,2,1:2:0:0:
44,296,60461,1,8,2:0:0:0:
44,296,60832,1,2,3:2:0:0:
8,184,61017,5,8,2:0:0:0:
8,184,61110,1,0,2:0:0:0:
8,184,61202,2,0,L|100:172,1,80,2|0,1:2|2:0,2:0:0:0:
152,112,61573,1,0,3:0:0:0:
152,112,61758,1,2,1:2:0:0:
324,180,61943,5,8,2:0:0:0:
196,172,62128,1,0,2:0:0:0:
316,104,62313,1,2,3:2:0:0:
259,217,62499,1,8,2:0:0:0:
328,344,62684,5,2,1:2:0:0:
404,308,62869,1,8,2:0:0:0:
472,360,63054,1,0,3:0:0:0:
184,344,63239,5,2,1:2:0:0:
108,308,63424,1,8,2:0:0:0:
40,360,63609,1,0,1:0:0:0:
252,356,63795,6,0,L|254:316,1,40,2|0,1:3|2:0,2:0:0:0:
292,252,63980,2,0,L|294:212,1,40,8|8,2:0|2:0,2:0:0:0:
328,144,64165,5,4,1:0:0:0:
424,12,64351,1,2,3:2:0:0:
444,132,64536,1,8,2:0:0:0:
308,32,64721,1,2,3:2:0:0:
308,32,64814,1,0,2:0:0:0:
308,32,64906,2,0,L|204:48,1,95.9999970703126,0|2,1:0|3:2,2:0:0:0:
108,116,65277,2,0,P|120:72|88:16,1,95.9999970703126,8|2,2:0|3:2,2:0:0:0:
40,80,65554,5,0,2:0:0:0:
40,80,65647,2,0,P|28:124|60:180,1,95.9999970703126,0|2,1:0|3:2,2:0:0:0:
72,328,66017,1,8,2:0:0:0:
20,256,66203,1,2,3:2:0:0:
20,256,66295,1,0,2:0:0:0:
20,256,66388,1,0,1:0:0:0:
100,240,66573,1,2,3:2:0:0:
160,308,66758,1,10,2:0:0:0:
240,184,66943,5,0,3:0:0:0:
240,184,67036,1,0,2:0:0:0:
240,184,67128,2,0,B|196:284|296:252|244:380,2,191.999994140625,2|8|0,1:2|2:0|1:0,2:0:0:0:
316,232,68054,1,0,3:0:0:0:
316,232,68147,1,0,2:0:0:0:
316,232,68240,1,10,2:0:0:0:
352,128,68425,1,2,3:2:0:0:
460,32,68610,5,2,1:3:0:0:
508,124,68795,1,0,2:0:0:0:
380,204,68980,5,8,2:0:0:0:
428,112,69165,1,0,3:0:0:0:
304,36,69351,5,2,1:3:0:0:
352,128,69536,1,0,3:0:0:0:
232,204,69721,1,8,2:0:0:0:
280,112,69906,5,0,3:0:0:0:
280,112,69999,1,0,2:0:0:0:
280,112,70091,2,0,P|232:100|180:120,1,95.9999970703126,4|2,1:2|3:2,2:0:0:0:
40,84,70462,1,8,2:0:0:0:
120,140,70647,1,2,3:2:0:0:
120,140,70740,1,0,2:0:0:0:
120,140,70832,2,0,B|116:100|116:100|124:72|124:72|120:28,1,95.9999970703126,0|2,1:0|3:2,2:0:0:0:
0,160,71203,1,8,2:0:0:0:
76,220,71388,5,2,3:2:0:0:
76,220,71480,1,0,2:0:0:0:
76,220,71573,2,0,B|92:252|92:252|76:316,1,95.9999970703126,0|2,1:0|3:2,2:0:0:0:
216,368,71943,2,0,B|232:336|232:336|216:272,1,95.9999970703126,8|2,2:0|3:2,2:0:0:0:
204,204,72221,1,0,2:0:0:0:
204,204,72314,1,0,1:0:0:0:
152,320,72499,1,2,3:2:0:0:
304,300,72684,1,8,2:0:0:0:
452,356,72869,5,2,3:2:0:0:
452,356,72962,1,0,2:0:0:0:
452,356,73054,2,0,P|460:309|437:268,1,95.9999970703126,0|2,1:0|3:2,2:0:0:0:
318,212,73425,2,0,P|295:254|311:310,1,95.9999970703126,8|2,2:0|3:2,2:0:0:0:
380,316,73703,1,0,2:0:0:0:
380,316,73795,1,0,1:0:0:0:
500,224,73980,1,2,1:2:0:0:
418,119,74165,1,12,2:0:0:0:
437,268,74350,1,2,2:0:0:0:
464,64,74536,5,8,2:0:0:0:
435,50,74659,5,8,2:3:0:0:
404,50,74782,5,8,2:3:0:0:
328,44,74906,6,0,L|328:12,6,23.9999992675781,14|2|2|2|2|2|2,2:0|2:0|2:0|2:0|2:0|2:0|2:0,2:0:0:0:
332,60,75277,6,0,B|256:76|288:36|212:52,1,120.000004577637,2|8,2:0|2:3,2:0:0:0:
215,51,76017,6,0,P|203:93|227:142,1,80,4|0,1:0|2:0,2:0:0:0:
252,272,76388,1,0,3:0:0:0:
252,272,76573,1,2,1:2:0:0:
260,192,76758,2,0,B|204:200|204:200|164:188|164:188|92:200,1,160,8|2,2:0|3:2,2:0:0:0:
103,198,77314,5,0,1:0:0:0:
103,198,77406,1,0,2:0:0:0:
103,198,77499,1,2,3:2:0:0:
12,316,77684,1,8,2:0:0:0:
0,240,77869,1,0,2:0:0:0:
124,328,78054,1,2,1:2:0:0:
252,272,78240,1,8,2:0:0:0:
252,272,78610,1,2,1:2:0:0:
316,224,78795,5,8,2:0:0:0:
316,224,78888,1,0,2:0:0:0:
316,224,78980,2,0,P|330:261|318:310,1,80,2|0,1:2|2:0,2:0:0:0:
280,360,79351,1,0,3:0:0:0:
280,360,79536,1,2,1:2:0:0:
400,288,79721,5,8,2:0:0:0:
512,372,79906,1,8,2:0:0:0:
512,372,79999,1,8,2:0:0:0:
512,372,80091,1,2,1:2:0:0:
432,356,80277,1,8,2:0:0:0:
416,216,80462,5,2,3:2:0:0:
448,136,80647,1,8,2:0:0:0:
256,96,80832,1,0,3:0:0:0:
224,16,81017,1,0,1:0:0:0:
344,120,81203,2,0,P|264:128|172:132,1,160,10|2,2:0|1:3,2:0:0:0:
184,131,81758,2,0,L|175:66,1,40,0|0,2:0|2:0,2:0:0:0:
124,28,81943,6,0,P|91:54|51:54,1,80,6|0,1:2|2:0,2:0:0:0:
16,144,82314,1,0,3:0:0:0:
16,144,82499,1,2,1:2:0:0:
140,196,82684,2,0,B|130:256|130:256|142:296|142:296|134:352,1,160,8|10,2:0|2:0,2:0:0:0:
64,308,83240,5,8,2:0:0:0:
64,308,83332,1,8,2:0:0:0:
64,308,83425,1,2,1:2:0:0:
216,248,83610,1,8,2:0:0:0:
340,364,83795,1,0,3:0:0:0:
340,364,83980,1,2,1:2:0:0:
512,240,84165,1,8,2:0:0:0:
512,240,84536,1,2,3:2:0:0:
436,276,84721,5,8,2:0:0:0:
436,276,84814,1,8,2:0:0:0:
436,276,84906,2,0,L|424:184,1,80,2|0,1:2|2:0,2:0:0:0:
464,128,85277,1,0,3:0:0:0:
464,128,85462,1,2,1:2:0:0:
298,118,85647,5,8,2:0:0:0:
464,128,85832,1,0,2:0:0:0:
312,212,86017,1,2,1:2:0:0:
382,69,86203,1,8,2:0:0:0:
224,76,86388,5,2,3:2:0:0:
148,40,86573,1,8,2:0:0:0:
80,92,86758,1,0,3:0:0:0:
304,152,86943,5,2,1:2:0:0:
380,116,87128,1,12,2:0:0:0:
448,168,87313,1,0,1:0:0:0:
208,252,87499,5,0,1:0:0:0:
64,268,87684,1,8,2:0:0:0:
