osu file format v14

[General]
AudioFilename: audio.mp3
AudioLeadIn: 0
PreviewTime: 40369
Countdown: 0
SampleSet: Soft
StackLeniency: 0.7
Mode: 0
LetterboxInBreaks: 0
WidescreenStoryboard: 0

[Editor]
DistanceSpacing: 1.4
BeatDivisor: 4
GridSize: 32
TimelineZoom: 2.899999

[Metadata]
Title:Afureru Hikari (TV Size)
TitleUnicode:あふれる光 (TV Size)
Artist:moumoon
ArtistUnicode:moumoon
Creator:Sarawatlism
Version:Hard
Source:夢王国と眠れる100人の王子様
Tags:Yume Oukoku to Nemureru 100-nin no Ouji-sama 100 Sleeping Princes & the Kingdom of Dreams opening op japanese anime [_lost_] conner c_o_n_n_e_r kanor Grindle j-pop jpop pop
BeatmapID:2161356
BeatmapSetID:845117

[Difficulty]
HPDrainRate:5.7
CircleSize:4
OverallDifficulty:7
ApproachRate:8
SliderMultiplier:1.41
SliderTickRate:1

[Events]
//Background and Video events
0,0,"BG.jpg",0,0
Video,-500,"VD.mp4"
//Break Periods
//Storyboard Layer 0 (Background)
//Storyboard Layer 1 (Fail)
//Storyboard Layer 2 (Pass)
//Storyboard Layer 3 (Foreground)
//Storyboard Layer 4 (Overlay)
//Storyboard Sound Samples

[TimingPoints]
462,370.37037037037,4,2,1,40,1,0
5647,-125,4,2,1,40,0,0
7776,-125,4,2,1,5,0,0
7869,-125,4,2,1,40,0,0
10738,-125,4,2,1,5,0,0
10832,-125,4,2,1,40,0,0
16758,-111.111111111111,4,2,2,50,0,0
19627,-111.111111111111,4,2,2,5,0,0
19721,-111.111111111111,4,2,2,50,0,0
22590,-111.111111111111,4,2,2,5,0,0
22684,-111.111111111111,4,2,2,50,0,0
27035,-111.111111111111,4,2,2,5,0,0
27128,-111.111111111111,4,2,2,50,0,0
28610,-100,4,2,2,60,0,0
37499,-100,4,2,2,65,0,0
40461,-83.3333333333333,4,2,2,75,0,1
40646,-83.3333333333333,4,2,3,75,0,1
45924,-83.3333333333333,4,2,3,5,0,1
46017,-83.3333333333333,4,2,3,75,0,1
46295,-83.3333333333333,4,2,3,75,0,0
46387,-83.3333333333333,4,2,3,75,0,1
51248,-83.3333333333333,4,2,3,40,0,1
51573,-114.942528735632,4,2,3,60,0,0
51850,-114.942528735632,4,2,3,5,0,0
51943,-83.3333333333333,4,2,3,60,0,0
52220,-83.3333333333333,4,2,3,5,0,0
52313,-125,4,2,3,70,0,1
52683,-125,4,2,2,70,0,1
58147,-125,4,2,2,70,0,0
58239,-125,4,2,2,70,0,1
64073,-125,4,2,2,70,0,0
64165,-83.3333333333333,4,2,2,75,0,1
64350,-83.3333333333333,4,2,3,75,0,1
69627,-83.3333333333333,4,2,3,5,0,1
69721,-83.3333333333333,4,2,3,75,0,1
69999,-83.3333333333333,4,2,3,75,0,0
70091,-83.3333333333333,4,2,3,75,0,1
74952,-83.3333333333333,4,2,3,40,0,1
75276,-114.942528735632,4,2,3,60,0,0
75553,-114.942528735632,4,2,3,5,0,0
75647,-83.3333333333333,4,2,3,60,0,0
75924,-83.3333333333333,4,2,3,5,0,0
76017,-125,4,2,3,70,0,1
76387,-125,4,2,2,70,0,1
81850,-125,4,2,2,70,0,0
81943,-125,4,2,2,70,0,1
84906,-125,4,2,2,75,0,1
86388,-125,4,2,2,80,0,1
87684,-125,4,2,2,80,0,0
88610,-125,4,2,2,50,0,0
88980,-125,4,2,2,5,0,0

[Colours]
Combo1 : 198,243,253
Combo2 : 255,128,128
Combo3 : 0,128,255
Combo4 : 128,64,64
Combo5 : 255,247,147
Combo6 : 222,247,185

[HitObjects]
256,192,1017,12,2,4906,2:0:0:0:
119,104,5461,5,2,2:0:0:0:
146,180,5647,2,0,P|195:170|213:149,1,56.4,2|2,2:0|2:0,2:0:0:0:
282,108,6017,2,0,L|275:230,2,112.8,2|2|0,2:0|2:0|2:0,2:0:0:0:
231,47,6943,1,2,2:0:0:0:
157,17,7128,2,0,P|117:20|92:39,1,56.4,2|2,2:0|2:0,2:0:0:0:
39,77,7499,2,0,P|28:125|47:166,1,84.6,2|0,2:0|2:0,2:0:0:0:
39,174,7869,6,0,P|85:169|113:233,1,112.8,2|0,2:0|2:0,2:0:0:0:
23,349,8610,2,0,B|64:346|64:346|95:356|95:356|146:349,1,112.8,0|0,2:0|2:0,2:0:0:0:
204,316,9165,1,0,2:0:0:0:
265,364,9350,6,0,P|322:353|332:289,1,112.8,2|0,2:0|2:0,2:0:0:0:
324,148,10091,2,0,L|253:156,1,56.4,2|2,2:0|2:0,2:0:0:0:
198,190,10461,2,0,P|159:171|114:167,1,84.6,2|0,2:0|2:0,2:0:0:0:
108,167,10832,6,0,P|150:155|173:86,1,112.8,2|0,2:0|2:0,2:0:0:0:
224,33,11387,1,2,2:0:0:0:
295,67,11573,2,0,B|328:77|353:63|351:45|378:29|416:43,1,112.8,0|2,2:0|2:0,2:0:0:0:
499,160,12313,6,0,L|495:277,1,112.8,0|0,2:0|2:0,2:0:0:0:
442,332,12869,1,2,2:0:0:0:
370,296,13054,2,0,P|331:282|305:285,1,56.4,2|0,2:0|2:0,2:0:0:0:
254,331,13424,2,0,P|212:348|191:348,1,56.4,2|0,2:0|2:0,2:0:0:0:
147,290,13795,6,0,P|125:257|55:255,1,112.8,2|0,2:0|2:0,2:0:0:0:
7,315,14350,1,2,2:0:0:0:
56,253,14536,2,0,P|73:213|53:145,1,112.8,0|0,2:0|2:0,2:0:0:0:
143,17,15276,6,0,P|126:57|146:125,1,112.8,2|0,2:0|2:0,2:0:0:0:
282,190,16017,2,0,P|253:181|219:187,1,56.4,2|0,2:0|2:0,2:0:0:0:
175,268,16387,2,0,P|202:270|229:261,1,56.4,0|2,2:0|2:0,2:0:0:0:
246,258,16665,1,2,2:0:0:0:
246,258,16758,6,0,B|283:246|317:265|306:279|348:299|385:280,1,126.899996127319,4|0,1:2|1:0,2:0:0:0:
437,230,17313,1,2,2:0:0:0:
412,144,17499,2,0,P|376:159|363:184,1,63.4499980636597,2|0,1:2|2:0,2:0:0:0:
461,73,17869,2,0,P|424:54|396:57,1,63.4499980636597,2|2,1:2|2:0,2:0:0:0:
319,83,18239,6,0,P|279:105|219:51,1,126.899996127319,2|0,1:2|1:0,2:0:0:0:
141,19,18795,1,2,2:0:0:0:
74,77,18980,2,0,P|83:116|78:145,1,63.4499980636597,2|2,1:2|2:0,2:0:0:0:
17,221,19350,2,0,B|53:219|53:219|79:227|79:227|130:223,1,95.1749970954896,2|0,1:2|2:0,2:0:0:0:
125,239,19721,6,0,P|134:199|219:213,1,126.899996127319,2|0,1:2|1:0,2:0:0:0:
285,266,20276,1,0,2:0:0:0:
215,336,20461,2,0,P|195:286|212:203,1,126.899996127319,0|0,1:0|1:0,2:0:0:0:
280,167,21017,1,0,2:0:0:0:
359,207,21202,6,0,P|430:216|459:164,1,126.899996127319,2|0,1:2|1:0,2:0:0:0:
360,27,21943,2,0,P|314:39|297:60,1,63.4499980636597,2|2,1:2|2:0,2:0:0:0:
231,96,22313,2,0,P|185:92|148:52,1,95.1749970954896,2|0,1:2|2:0,2:0:0:0:
134,39,22684,6,0,P|137:110|135:186,1,126.899996127319,2|0,1:2|1:0,2:0:0:0:
61,213,23239,1,2,2:0:0:0:
86,297,23424,2,0,P|105:254|192:266,1,126.899996127319,0|2,1:0|1:2,2:0:0:0:
350,291,24165,6,0,P|407:324|466:289,1,126.899996127319,0|0,1:0|1:0,2:0:0:0:
501,221,24721,1,0,2:0:0:0:
458,142,24906,2,0,P|397:158|349:101,1,126.899996127319,2|2,1:2|1:2,2:0:0:0:
279,69,25461,1,2,2:0:0:0:
269,58,25554,1,2,2:0:0:0:
257,46,25647,6,0,B|226:38|199:49|208:80|175:99|136:86,1,126.899996127319,2|0,1:2|1:0,2:0:0:0:
71,39,26202,1,2,2:0:0:0:
77,127,26387,2,0,P|84:175|77:194,1,63.4499980636597,0|2,1:0|2:0,2:0:0:0:
33,264,26758,2,0,P|63:226|124:246,1,95.1749970954896,2|0,1:2|2:0,2:0:0:0:
128,237,27128,6,0,B|177:233|177:233|216:240|216:240|271:234,1,126.899996127319,2|0,1:2|1:0,2:0:0:0:
423,288,27869,2,0,B|410:254|410:254|423:218,1,63.4499980636597,0|0,1:0|2:0,2:0:0:0:
475,159,28239,2,0,P|454:152|424:151,3,31.7249990318299,10|8|4|4,1:2|2:3|2:3|2:3,0:0:0:0:
419,146,28610,6,0,P|404:99|416:59,1,70.5,4|0,1:0|3:0,2:0:0:0:
328,19,28980,2,0,P|312:60|278:75,1,70.5,0|2,1:0|3:2,2:0:0:0:
195,46,29350,2,0,P|159:22|77:75,1,141,0|2,1:0|1:2,2:0:0:0:
20,141,29906,1,0,3:0:0:0:
96,203,30091,6,0,P|137:197|165:169,1,70.5,2|0,1:2|3:0,2:0:0:0:
10,231,30461,2,0,P|6:280|16:303,1,70.5,0|2,1:0|3:2,2:0:0:0:
92,358,30832,2,0,B|127:369|159:355|151:328|184:312|231:331,1,141,0|2,1:0|1:2,2:0:0:0:
312,367,31387,1,2,3:2:0:0:
328,362,31480,1,2,2:0:0:0:
345,356,31573,6,0,P|363:288|334:213,1,141,2|0,1:2|1:0,2:0:0:0:
258,169,32128,1,2,3:2:0:0:
337,110,32313,2,0,P|380:113|405:131,1,70.5,0|0,1:0|3:0,2:0:0:0:
263,55,32684,2,0,P|230:77|193:83,1,70.5,2|0,1:2|3:0,2:0:0:0:
345,18,33054,6,0,P|396:15|465:69,1,141,2|0,1:2|1:0,2:0:0:0:
489,163,33610,1,0,3:0:0:0:
430,242,33795,2,0,P|377:222|354:225,1,70.5,2|2,1:2|3:2,2:0:0:0:
282,277,34165,1,0,1:0:0:0:
210,208,34350,1,2,3:2:0:0:
194,196,34443,1,2,2:0:0:0:
178,185,34536,6,0,P|141:187|105:202,1,70.5,2|0,1:2|3:0,2:0:0:0:
88,286,34906,2,0,P|125:284|161:269,1,70.5,0|2,1:0|3:2,2:0:0:0:
169,92,35276,2,0,B|129:81|101:99|108:121|72:149|23:130,1,141,0|2,1:0|1:2,2:0:0:0:
30,36,35832,1,2,3:0:0:0:
122,3,36017,6,0,P|173:4|210:22,1,70.5,2|0,1:2|3:0,2:0:0:0:
237,99,36387,2,0,P|186:98|149:80,1,70.5,0|2,1:0|3:2,2:0:0:0:
286,19,36758,2,0,B|326:8|354:26|347:48|383:76|432:57,1,141,0|2,1:0|1:2,2:0:0:0:
495,115,37313,1,2,3:2:0:0:
480,124,37406,1,2,2:0:0:0:
466,131,37499,6,0,P|463:181|476:208,1,70.5,2|0,1:2|3:0,2:0:0:0:
458,297,37869,2,0,P|416:269|386:267,1,70.5,0|2,1:0|2:3,2:0:0:0:
317,208,38239,2,0,P|361:185|378:160,1,70.5,0|2,1:0|2:3,2:0:0:0:
266,282,38610,2,0,P|229:260|191:260,1,70.5,0|8,1:0|2:0,2:0:0:0:
183,262,38887,1,8,2:0:0:0:
165,269,38980,1,2,2:0:0:0:
165,269,40461,6,0,P|136:303|96:318,1,84.599997418213,4|2,1:0|3:2,2:0:0:0:
17,256,40832,1,8,2:0:0:0:
58,163,41017,1,2,3:2:0:0:
72,151,41110,1,2,2:0:0:0:
84,141,41202,2,0,P|139:146|169:180,1,84.599997418213,0|2,1:0|3:2,2:0:0:0:
256,197,41573,2,0,P|305:188|333:152,1,84.599997418213,8|2,2:0|3:2,2:0:0:0:
380,77,41943,6,0,P|345:142|394:232,1,169.199994836426,0|8,1:0|2:0,2:0:0:0:
491,301,42499,1,2,3:2:0:0:
479,289,42591,1,2,2:0:0:0:
467,278,42684,2,0,P|417:295|399:329,1,84.599997418213,0|2,1:0|3:2,2:0:0:0:
312,369,43054,2,0,P|320:326|308:284,1,84.599997418213,10|0,2:0|3:0,2:0:0:0:
257,200,43424,6,0,B|214:184|176:208|180:232|138:257|89:234,1,169.199994836426,2|8,1:2|2:0,2:0:0:0:
19,176,43980,1,0,3:0:0:0:
73,90,44165,2,0,P|123:88|156:120,1,84.599997418213,0|0,1:0|3:0,2:0:0:0:
250,113,44536,2,0,P|299:108|326:76,1,84.599997418213,10|2,2:0|3:2,2:0:0:0:
401,20,44906,6,0,P|362:81|404:167,1,169.199994836426,2|8,1:3|2:0,2:0:0:0:
473,230,45461,1,0,3:0:0:0:
409,309,45647,2,0,B|361:308|361:308|333:319|333:319|265:317,1,126.899996127319,2|0,1:3|2:0,2:0:0:0:
270,309,46017,2,0,P|218:318|194:351,1,84.599997418213,8|0,2:0|3:0,2:0:0:0:
99,361,46387,6,0,P|48:340|27:306,1,84.599997418213,6|2,1:2|3:2,2:0:0:0:
8,217,46758,1,10,2:0:0:0:
50,125,46943,2,0,P|55:67|42:37,1,84.599997418213,2|0,3:2|1:0,2:0:0:0:
137,85,47313,2,0,P|195:90|225:77,1,84.599997418213,2|8,3:2|2:0,2:0:0:0:
303,24,47684,1,2,3:2:0:0:
383,85,47869,6,0,P|438:87|481:190,1,169.199994836426,0|8,1:0|2:0,2:0:0:0:
433,267,48424,1,2,3:2:0:0:
353,203,48610,2,0,P|310:192|268:211,1,84.599997418213,0|2,1:0|3:2,2:0:0:0:
195,270,48980,2,0,P|152:281|110:262,1,84.599997418213,8|2,2:0|3:2,2:0:0:0:
61,181,49350,6,0,P|82:127|186:144,1,169.199994836426,0|8,1:0|2:0,2:0:0:0:
259,196,49906,1,2,3:2:0:0:
319,114,50091,2,0,P|326:69|307:22,1,84.599997418213,0|2,1:0|3:2,2:0:0:0:
373,192,50461,2,0,P|366:237|385:284,1,84.599997418213,8|2,2:0|3:2,2:0:0:0:
445,349,50832,6,0,L|503:334,2,56.3999982788086,8|8|8,2:0|2:3|2:3,2:0:0:0:
363,366,51202,6,0,L|327:354,6,21.1499993545532,10|2|2|2|2|2|2,2:0|2:0|2:0|2:0|2:0|2:0|2:0,2:0:0:0:
305,296,51573,6,0,P|256:304|214:322,1,92.0025007721157,2|0,2:0|2:0,2:0:0:0:
203,332,51943,6,0,P|136:333|80:312,1,126.899996127319,8|0,2:3|2:0,2:0:0:0:
68,301,52313,6,0,P|46:249|72:194,1,112.8,4|0,1:0|3:0,2:0:0:0:
117,138,52869,1,2,1:2:0:0:
180,184,53054,2,0,P|245:189|290:148,1,112.8,8|2,2:0|3:2,2:0:0:0:
301,85,53610,1,8,2:0:0:0:
299,78,53702,1,8,2:0:0:0:
296,70,53795,1,2,1:2:0:0:
235,18,53980,6,0,B|206:5|181:18|184:40|147:54|123:42,1,112.8,8|2,2:0|1:2,2:0:0:0:
55,20,54536,2,0,P|26:41|16:71,1,56.4,8|0,2:0|2:0,2:0:0:0:
16,143,54906,2,0,P|28:176|23:215,1,56.4,2|0,3:2|2:0,2:0:0:0:
10,273,55276,6,0,L|142:262,1,112.8,2|0,1:2|3:0,2:0:0:0:
180,317,55832,1,2,1:2:0:0:
242,268,56017,2,0,P|285:261|346:311,1,112.8,8|2,2:0|3:2,2:0:0:0:
389,359,56573,1,8,2:0:0:0:
393,364,56665,1,2,2:0:0:0:
397,370,56758,1,2,1:2:0:0:
448,310,56943,6,0,P|461:281|440:201,1,112.8,8|2,2:0|1:2,2:0:0:0:
383,153,57499,2,0,L|324:166,1,56.4,10|0,2:0|2:0,2:0:0:0:
429,86,57869,2,0,L|490:96,1,56.4,2|8,3:2|2:0,2:0:0:0:
363,34,58239,6,0,B|334:21|309:34|312:56|275:70|251:58,1,112.8,6|0,1:2|3:0,2:0:0:0:
190,21,58795,1,2,1:2:0:0:
140,82,58980,2,0,P|179:107|184:172,1,112.8,8|2,2:0|3:2,2:0:0:0:
135,231,59536,1,8,2:0:0:0:
135,231,59628,1,8,2:0:0:0:
135,231,59721,1,2,1:2:0:0:
163,304,59906,6,0,P|199:278|275:286,1,112.8,8|2,2:0|1:2,2:0:0:0:
336,314,60461,2,0,L|332:371,1,56.4,8|0,2:0|2:0,2:0:0:0:
401,258,60832,2,0,L|397:201,1,56.4,2|8,3:2|2:0,2:0:0:0:
343,143,61202,6,0,B|301:137|301:137|276:147|276:147|228:142,1,112.8,2|0,1:2|3:0,2:0:0:0:
171,91,61758,1,2,1:2:0:0:
134,160,61943,2,0,P|105:192|24:190,1,112.8,8|2,2:0|3:2,2:0:0:0:
12,122,62499,1,8,2:0:0:0:
12,122,62591,1,0,2:0:0:0:
12,122,62684,1,2,1:2:0:0:
23,43,62869,6,0,P|63:18|136:33,1,112.8,8|2,2:0|1:2,2:0:0:0:
180,82,63424,2,0,P|222:78|245:60,1,56.4,8|0,2:0|1:0,2:0:0:0:
293,18,63795,1,2,1:3:0:0:
358,62,63980,1,8,2:0:0:0:
372,69,64073,1,8,2:0:0:0:
386,75,64165,6,0,L|379:177,1,84.599997418213,4|2,1:0|3:2,2:0:0:0:
311,234,64536,1,8,2:0:0:0:
367,318,64721,1,2,3:2:0:0:
385,330,64813,1,0,2:0:0:0:
403,342,64906,2,0,P|454:337|477:307,1,84.599997418213,0|2,1:0|3:2,2:0:0:0:
485,212,65276,2,0,P|434:217|411:247,1,84.599997418213,8|2,2:0|3:2,2:0:0:0:
355,324,65647,6,0,B|318:344|276:339|276:309|237:288|192:315,1,169.199994836426,0|8,1:0|2:0,2:0:0:0:
103,355,66202,1,2,3:2:0:0:
86,360,66295,1,0,2:0:0:0:
68,366,66387,2,0,P|24:350|2:313,1,84.599997418213,0|2,1:0|3:2,2:0:0:0:
75,207,66758,2,0,P|88:253|74:293,1,84.599997418213,10|0,2:0|3:0,2:0:0:0:
0,126,67128,6,0,P|53:172|152:147,1,169.199994836426,2|8,1:2|2:0,2:0:0:0:
192,64,67684,1,0,3:0:0:0:
282,110,67869,2,0,P|293:158|284:197,1,84.599997418213,0|0,1:0|3:0,2:0:0:0:
203,250,68239,2,0,P|237:217|287:205,1,84.599997418213,10|2,2:0|3:2,2:0:0:0:
346,274,68610,6,0,B|387:299|426:278|426:248|468:243|505:263,1,169.199994836426,2|8,1:3|2:0,2:0:0:0:
474,359,69165,1,0,3:0:0:0:
373,375,69350,2,0,P|341:312|287:317,1,126.899996127319,2|0,1:3|2:0,2:0:0:0:
281,322,69721,2,0,P|241:349|192:349,1,84.599997418213,8|0,2:0|3:0,2:0:0:0:
116,304,70091,6,0,P|63:278|22:283,1,84.599997418213,4|2,1:2|3:2,2:0:0:0:
5,182,70461,1,8,2:0:0:0:
74,107,70647,2,0,P|81:59|72:20,1,84.599997418213,2|0,3:2|1:0,2:0:0:0:
166,132,71017,2,0,P|158:173|165:214,1,84.599997418213,2|8,3:2|2:0,2:0:0:0:
224,50,71387,1,2,3:2:0:0:
307,109,71573,6,0,B|348:134|387:113|387:83|429:78|466:98,1,169.199994836426,0|8,1:0|2:0,2:0:0:0:
485,197,72128,1,2,3:2:0:0:
423,277,72313,2,0,P|377:256|337:261,1,84.599997418213,0|2,1:0|3:2,2:0:0:0:
258,314,72684,2,0,P|212:335|172:330,1,84.599997418213,8|2,2:0|3:2,2:0:0:0:
84,295,73054,6,0,P|31:258|76:171,1,169.199994836426,0|8,1:0|2:0,2:0:0:0:
160,137,73610,1,2,3:2:0:0:
233,206,73795,2,0,P|191:235|147:235,1,84.599997418213,0|2,1:0|1:2,2:0:0:0:
248,109,74165,2,0,P|289:114|322:140,1,84.599997418213,12|2,2:0|2:0,2:0:0:0:
160,137,74536,6,0,L|152:71,2,56.3999982788086,8|8|8,2:0|2:3|2:3,2:0:0:0:
47,137,74906,6,0,L|42:170,6,21.1499993545532,14|2|2|2|2|2|2,2:0|2:0|2:0|2:0|2:0|2:0|2:0,2:0:0:0:
24,111,75276,6,0,P|52:82|108:77,1,92.0025007721157,2|0,2:0|2:0,2:0:0:0:
118,82,75647,6,0,P|159:126|238:117,1,126.899996127319,8|0,2:3|2:0,2:0:0:0:
238,117,76017,6,0,P|251:71|326:53,1,112.8,4|0,1:0|3:0,2:0:0:0:
378,83,76573,1,2,1:2:0:0:
439,132,76758,2,0,L|434:253,1,112.8,8|2,2:0|3:2,2:0:0:0:
479,309,77314,1,0,1:0:0:0:
483,315,77406,1,0,2:0:0:0:
486,321,77499,1,2,3:2:0:0:
408,344,77684,6,0,B|379:331|354:344|357:366|320:380|296:368,1,112.8,8|2,2:0|1:2,2:0:0:0:
235,330,78240,2,0,P|206:351|196:381,1,56.4,8|0,2:0|2:0,2:0:0:0:
146,309,78610,2,0,P|144:280|134:255,1,56.4,2|8,1:2|2:0,2:0:0:0:
62,222,78980,6,0,P|103:229|174:188,1,112.8,2|0,1:2|3:0,2:0:0:0:
197,127,79536,1,2,1:2:0:0:
136,76,79721,2,0,P|94:68|24:110,1,112.8,8|2,2:0|1:2,2:0:0:0:
2,171,80277,1,8,2:0:0:0:
2,171,80369,1,0,2:0:0:0:
2,171,80462,1,2,3:2:0:0:
62,222,80647,6,0,P|81:273|66:327,1,112.8,8|0,0:0|1:0,2:0:0:0:
145,329,81203,2,0,P|181:333|204:342,1,56.4,10|0,2:0|2:0,2:0:0:0:
267,299,81573,2,0,P|298:291|328:289,1,56.4,2|0,1:3|2:0,2:0:0:0:
386,335,81943,6,0,P|362:288|392:232,1,112.8,6|0,1:2|3:0,2:0:0:0:
447,188,82499,1,2,1:2:0:0:
396,127,82684,2,0,P|363:170|308:172,1,112.8,8|10,2:0|2:0,2:0:0:0:
254,114,83240,1,8,2:0:0:0:
254,114,83332,1,8,2:0:0:0:
254,114,83425,1,2,1:2:0:0:
184,151,83610,6,0,P|132:120|81:127,1,112.8,8|2,2:0|1:2,2:0:0:0:
29,185,84165,2,0,L|33:242,1,56.4,8|0,2:0|2:0,2:0:0:0:
82,127,84536,2,0,L|78:70,1,56.4,2|8,3:2|2:0,2:0:0:0:
142,25,84906,6,0,B|184:19|184:19|209:29|209:29|257:24,1,112.8,2|0,1:2|3:0,2:0:0:0:
324,57,85462,1,2,1:2:0:0:
391,15,85647,2,0,P|430:5|494:60,1,112.8,8|2,2:0|1:2,2:0:0:0:
492,121,86203,1,8,2:0:0:0:
492,121,86295,1,0,2:0:0:0:
492,121,86388,1,2,3:2:0:0:
472,197,86573,6,0,P|432:172|359:187,1,112.8,8|2,2:0|1:2,2:0:0:0:
338,252,87128,2,0,L|343:316,1,56.4,12|0,2:0|1:0,2:0:0:0:
416,260,87499,1,0,1:0:0:0:
293,183,87684,1,8,2:0:0:0:
256,192,87869,12,0,90647,2:0:0:0:
