osu file format v14

[General]
AudioFilename: audio.mp3
AudioLeadIn: 0
PreviewTime: 40369
Countdown: 0
SampleSet: Soft
StackLeniency: 0.7
Mode: 0
LetterboxInBreaks: 0
WidescreenStoryboard: 1

[Editor]
DistanceSpacing: 1
BeatDivisor: 4
GridSize: 8
TimelineZoom: 2.999999

[Metadata]
Title:Afureru Hikari (TV Size)
TitleUnicode:あふれる光 (TV Size)
Artist:moumoon
ArtistUnicode:moumoon
Creator:Sarawatlism
Version:Grindle's Normal
Source:夢王国と眠れる100人の王子様
Tags:Yume Oukoku to Nemureru 100-nin no Ouji-sama 100 Sleeping Princes & the Kingdom of Dreams opening op japanese anime [_lost_] conner c_o_n_n_e_r kanor Grindle j-pop jpop pop
BeatmapID:2162517
BeatmapSetID:845117

[Difficulty]
HPDrainRate:4
CircleSize:3.3
OverallDifficulty:4
ApproachRate:5
SliderMultiplier:1.06
SliderTickRate:1

[Events]
//Background and Video events
0,0,"BG.jpg",0,0
Video,-500,"VD.mp4"
//Break Periods
//Storyboard Layer 0 (Background)
//Storyboard Layer 1 (Fail)
//Storyboard Layer 2 (Pass)
//Storyboard Layer 3 (Foreground)
//Storyboard Layer 4 (Overlay)
//Storyboard Sound Samples

[TimingPoints]
462,370.37037037037,4,2,1,40,1,0
16758,-100,4,2,2,50,0,0
28610,-100,4,2,2,60,0,0
37499,-100,4,2,2,65,0,0
40461,-100,4,2,2,75,0,1
41017,-100,4,2,3,75,0,1
46295,-100,4,2,3,75,0,0
46387,-100,4,2,3,75,0,1
51573,-100,4,2,3,60,0,0
52313,-100,4,2,3,70,0,1
53424,-100,4,2,2,70,0,1
58147,-100,4,2,2,70,0,0
58239,-100,4,2,2,70,0,1
64073,-100,4,2,2,70,0,0
64165,-100,4,2,2,75,0,1
64721,-100,4,2,3,75,0,1
69999,-100,4,2,3,75,0,0
70091,-100,4,2,3,75,0,1
75276,-100,4,2,3,60,0,0
76017,-100,4,2,3,70,0,1
77128,-100,4,2,2,70,0,1
81850,-100,4,2,2,70,0,0
81943,-100,4,2,2,70,0,1
84906,-100,4,2,2,75,0,1
86387,-100,4,2,2,80,0,1
87684,-100,4,2,2,80,0,0

[Colours]
Combo1 : 198,243,253
Combo2 : 255,128,128
Combo3 : 0,128,255
Combo4 : 128,64,64
Combo5 : 255,247,147
Combo6 : 222,247,185

[HitObjects]
424,112,4906,5,2,2:0:0:0:
424,272,5461,1,2,2:0:0:0:
424,272,5647,2,0,B|298:248|350:341|227:316,1,212,2|2,2:0|2:0,2:0:0:0:
71,287,6943,1,2,2:0:0:0:
71,287,7128,2,0,P|32:192|75:99,1,212,2|2,2:0|2:0,2:0:0:0:
178,74,8239,6,0,P|174:47|162:24,2,53,0|0|0,2:0|2:0|2:0,2:0:0:0:
246,154,8980,2,0,P|272:155|297:148,1,53,0|0,2:0|2:0,2:0:0:0:
341,118,9350,2,0,P|441:138|485:230,1,212,2|2,2:0|2:0,2:0:0:0:
442,328,10461,1,2,2:0:0:0:
347,279,10832,6,0,B|287:286|287:286|262:313|262:313|200:321,1,159,2|2,2:0|2:0,2:0:0:0:
148,328,11573,1,0,2:0:0:0:
54,277,11943,2,0,P|37:227|48:176,1,106,2|0,2:0|2:0,2:0:0:0:
84,137,12499,1,0,2:0:0:0:
162,65,12869,1,2,2:0:0:0:
162,65,13054,2,0,L|267:76,1,106,2|2,2:0|2:0,2:0:0:0:
372,87,13795,5,2,2:0:0:0:
256,192,13980,12,4,16758,1:2:0:0:
159,93,17499,6,0,P|89:170|94:273,1,212,2|2,1:2|1:2,2:0:0:0:
177,340,18610,1,0,1:0:0:0:
247,261,18980,2,0,L|352:253,1,106,2|2,1:2|1:2,2:0:0:0:
449,296,19721,6,0,B|455:219|455:219|419:172|419:172|426:96,1,212,2|0,1:2|1:0,2:0:0:0:
334,42,20832,1,0,1:0:0:0:
249,105,21202,2,0,P|208:71|156:65,1,106,2|0,1:2|1:0,2:0:0:0:
63,115,21943,2,0,L|74:220,1,106,2|2,1:2|1:2,2:0:0:0:
85,325,22684,6,0,B|212:333|150:247|275:257,1,212,2|0,1:2|1:0,2:0:0:0:
360,318,23795,2,0,P|411:310|451:277,1,106,2|0,1:2|1:0,2:0:0:0:
482,175,24536,1,0,1:0:0:0:
415,92,24906,2,0,P|366:72|314:81,1,106,2|2,1:2|1:2,2:0:0:0:
210,101,25647,6,0,B|226:151|226:151|219:204,1,106,2|0,1:2|1:0,2:0:0:0:
174,232,26203,2,0,B|166:284|166:284|183:335,1,106,2|2,2:0|2:0,2:0:0:0:
234,355,26758,1,2,1:2:0:0:
337,338,27128,2,0,P|343:285|375:244,2,106,2|0|0,1:2|1:0|1:0,0:0:0:0:
442,326,28239,2,0,P|460:306|473:283,1,53,10|4,1:2|2:3,2:0:0:0:
480,231,28610,6,0,L|467:125,1,106,4|0,1:0|1:0,2:0:0:0:
362,139,29350,2,0,L|375:245,1,106,0|2,1:0|1:2,2:0:0:0:
350,291,29906,1,0,3:0:0:0:
350,291,30091,2,0,P|302:313|249:311,1,106,2|0,1:2|1:0,2:0:0:0:
216,210,30832,2,0,P|163:208|115:230,1,106,0|2,1:0|1:2,2:0:0:0:
85,273,31387,1,0,3:0:0:0:
85,273,31573,6,0,B|50:269|29:243|29:243|20:96,1,212,2|0,1:2|1:0,2:0:0:0:
103,32,32684,2,0,P|130:35|153:48,1,53,2|0,1:2|3:0,2:0:0:0:
182,92,33054,2,0,L|287:79,1,106,2|0,1:2|1:0,2:0:0:0:
338,172,33795,1,2,1:2:0:0:
338,172,33980,2,0,L|443:159,1,106,2|2,3:2|3:2,2:0:0:0:
488,187,34536,6,0,P|475:288|384:333,1,212,2|0,1:2|1:0,2:0:0:0:
288,288,35647,2,0,P|261:289|237:299,1,53,2|2,1:2|3:0,2:0:0:0:
201,337,36017,2,0,P|100:319|53:227,1,212,2|0,1:2|1:0,2:0:0:0:
71,123,37128,2,0,P|86:101|108:87,1,53,2|0,1:2|3:0,2:0:0:0:
158,71,37499,5,2,1:2:0:0:
222,155,37869,1,0,1:0:0:0:
306,91,38239,2,0,P|350:118|374:164,1,106,0|0,1:0|1:0,2:0:0:0:
379,218,38795,1,8,2:0:0:0:
379,218,38980,1,2,2:0:0:0:
72,305,40461,6,0,P|116:278|169:277,1,106,4|8,1:0|2:0,2:0:0:0:
215,302,41017,1,2,3:2:0:0:
309,349,41387,1,2,3:2:0:0:
309,349,41573,2,0,P|332:337|351:319,1,53,8|2,2:0|3:2,2:0:0:0:
374,270,41943,2,0,L|367:164,1,106,0|8,1:0|2:0,2:0:0:0:
261,173,42684,2,0,L|268:67,1,106,0|10,1:0|2:0,2:0:0:0:
313,39,43239,1,0,3:0:0:0:
313,39,43424,6,0,P|413:55|461:146,1,212,2|0,1:2|1:0,2:0:0:0:
453,252,44536,2,0,P|442:276|424:295,1,53,10|2,2:0|3:2,2:0:0:0:
378,320,44906,2,0,L|272:310,1,106,2|8,1:3|2:0,2:0:0:0:
232,344,45461,1,0,3:0:0:0:
232,344,45647,2,0,L|126:334,1,106,2|8,1:3|2:0,2:0:0:0:
43,268,46387,6,0,P|26:288|18:313,2,53,6|2|10,1:2|3:2|2:0,2:0:0:0:
88,240,46943,1,2,3:2:0:0:
178,184,47313,2,0,P|162:133|168:81,1,106,2|2,3:2|3:2,2:0:0:0:
201,40,47869,1,0,1:0:0:0:
201,40,48054,2,0,P|252:24|304:30,1,106,2|2,3:2|3:2,2:0:0:0:
347,126,48795,1,2,3:2:0:0:
347,126,48980,2,0,P|370:137|396:141,1,53,8|2,2:0|3:2,2:0:0:0:
449,137,49350,6,0,P|474:182|472:235,1,106,0|8,1:0|2:0,2:0:0:0:
403,316,50091,2,0,P|357:290|304:293,1,106,0|8,1:0|2:0,2:0:0:0:
261,323,50647,1,2,3:2:0:0:
261,323,50832,2,0,P|236:333|210:334,1,53,8|8,2:0|2:3,2:0:0:0:
160,315,51202,1,10,2:0:0:0:
54,329,51573,5,2,2:0:0:0:
7,232,51943,1,8,2:3:0:0:
84,158,52313,6,0,B|210:137|129:67|254:49,1,212,4|8,1:0|2:0,2:0:0:0:
358,37,53424,1,2,3:2:0:0:
440,103,53795,1,2,1:2:0:0:
440,103,53980,2,0,L|449:209,1,106,8|2,2:0|1:2,2:0:0:0:
452,261,54536,2,0,P|416:300|367:318,1,106,8|2,2:0|3:2,2:0:0:0:
263,336,55276,6,0,P|224:301|172:292,1,106,2|0,1:2|3:0,2:0:0:0:
123,312,55832,1,2,1:2:0:0:
123,312,56017,1,8,2:0:0:0:
26,268,56387,2,0,P|17:242|20:216,1,53,2|8,3:2|2:0,2:0:0:0:
29,164,56758,1,2,1:2:0:0:
29,164,56943,2,0,P|66:126|118:116,1,106,8|2,2:0|1:2,2:0:0:0:
168,131,57499,2,0,P|204:168|256:178,1,106,10|2,2:0|3:2,2:0:0:0:
319,93,58239,6,0,B|362:63|362:63|415:58,1,106,6|0,1:2|3:0,2:0:0:0:
463,81,58795,1,2,1:2:0:0:
463,81,58980,2,0,B|493:124|493:124|497:177,1,106,8|2,2:0|3:2,2:0:0:0:
475,225,59536,2,0,B|432:255|432:255|379:259,1,106,8|8,2:0|2:0,2:0:0:0:
291,318,60276,1,2,1:2:0:0:
291,318,60461,2,0,P|249:286|197:280,1,106,8|2,2:0|3:2,2:0:0:0:
93,300,61202,6,0,P|67:254|67:202,1,106,2|0,1:2|3:0,2:0:0:0:
96,157,61758,1,2,1:2:0:0:
96,157,61943,2,0,P|141:131|193:131,1,106,8|2,2:0|3:2,2:0:0:0:
239,160,62499,2,0,P|265:205|265:257,1,106,8|8,2:0|2:0,2:0:0:0:
340,331,63239,1,2,1:2:0:0:
340,331,63424,2,0,L|445:319,1,106,8|2,2:0|1:3,2:0:0:0:
493,224,64165,6,0,P|493:171|467:126,1,106,4|8,1:0|2:0,2:0:0:0:
424,94,64721,1,2,3:2:0:0:
331,145,65091,1,2,3:2:0:0:
331,145,65276,2,0,P|305:139|282:125,1,53,8|2,2:0|3:2,2:0:0:0:
247,85,65647,2,0,L|142:104,1,106,0|8,1:0|2:0,2:0:0:0:
87,194,66387,2,0,L|192:213,1,106,0|10,1:0|2:0,2:0:0:0:
208,263,66943,1,0,3:0:0:0:
208,263,67128,6,0,B|284:257|284:257|331:293|331:293|407:286,1,212,2|0,1:2|1:0,2:0:0:0:
487,216,68239,2,0,P|495:191|495:164,1,53,10|2,2:0|3:2,2:0:0:0:
483,112,68610,2,0,P|445:75|394:62,1,106,2|8,1:3|2:0,2:0:0:0:
346,82,69165,1,0,3:0:0:0:
346,82,69350,2,0,P|300:108|247:108,1,106,2|8,1:3|2:0,2:0:0:0:
144,85,70091,6,0,P|152:59|168:39,2,53,4|2|8,1:2|3:2|2:0,2:0:0:0:
147,138,70647,1,2,3:2:0:0:
66,208,71017,2,0,P|69:260|97:304,1,106,2|2,3:2|3:2,2:0:0:0:
144,329,71573,1,0,1:0:0:0:
144,329,71758,2,0,L|249:318,1,106,2|2,3:2|3:2,2:0:0:0:
320,239,72499,1,2,3:2:0:0:
320,239,72684,2,0,P|346:242|368:255,1,53,8|2,2:0|3:2,2:0:0:0:
406,293,73054,6,0,P|455:274|490:235,1,106,0|8,1:0|2:0,2:0:0:0:
476,130,73795,2,0,P|435:96|384:85,1,106,0|12,1:0|2:0,2:0:0:0:
339,112,74350,1,2,2:0:0:0:
339,112,74536,2,0,P|312:114|287:106,1,53,8|8,2:0|2:3,2:0:0:0:
245,74,74906,1,14,2:0:0:0:
142,47,75276,5,2,2:0:0:0:
67,122,75647,1,8,2:3:0:0:
95,224,76017,6,0,B|220:244|139:314|264:332,1,212,4|8,1:0|2:0,2:0:0:0:
370,326,77128,1,2,3:2:0:0:
431,239,77499,1,2,3:2:0:0:
431,239,77684,2,0,L|437:133,1,106,8|2,2:0|1:2,2:0:0:0:
440,80,78239,2,0,P|394:54|341:57,1,106,8|2,2:0|1:2,2:0:0:0:
264,128,78980,6,0,P|211:130|166:104,1,106,2|0,1:2|3:0,2:0:0:0:
136,60,79536,1,2,1:2:0:0:
136,60,79721,1,8,2:0:0:0:
31,75,80091,2,0,P|16:98|10:123,1,53,2|8,1:2|2:0,2:0:0:0:
37,168,80461,1,2,3:2:0:0:
37,168,80647,2,0,P|63:213|65:266,1,106,8|0,0:0|1:0,2:0:0:0:
80,316,81202,2,0,P|128:337|180:328,1,106,10|2,2:0|1:3,2:0:0:0:
222,230,81943,6,0,B|244:181|244:181|288:152,1,106,6|0,1:2|3:0,2:0:0:0:
342,150,82499,1,2,1:2:0:0:
342,150,82684,2,0,B|389:172|389:172|418:216,1,106,8|10,2:0|2:0,2:0:0:0:
423,270,83240,2,0,B|399:316|399:316|355:346,1,106,8|8,2:0|2:0,2:0:0:0:
249,327,83980,1,2,1:2:0:0:
249,327,84165,2,0,P|222:282|222:229,1,106,8|2,2:0|3:2,2:0:0:0:
262,195,84721,1,8,2:0:0:0:
262,195,84906,6,0,P|289:150|289:97,1,106,2|0,1:2|3:0,2:0:0:0:
261,52,85461,1,2,1:2:0:0:
261,52,85647,1,8,2:0:0:0:
157,30,86017,1,2,1:2:0:0:
157,30,86202,2,0,P|113:59|91:107,1,106,8|8,2:0|2:0,2:0:0:0:
154,189,86943,1,2,1:2:0:0:
154,189,87128,2,0,P|153:216|144:241,1,53,12|0,2:0|1:0,2:0:0:0:
108,279,87499,2,0,P|109:306|118:331,1,53,0|8,1:0|2:0,2:0:0:0:
152,369,87869,5,2,2:3:0:0:
