osu file format v14

[General]
AudioFilename: audio.mp3
AudioLeadIn: 0
PreviewTime: -1
Countdown: 1
SampleSet: Soft
StackLeniency: 0.2
Mode: 0
LetterboxInBreaks: 0
WidescreenStoryboard: 0

[Editor]
Bookmarks: 147645
DistanceSpacing: 2.7
BeatDivisor: 4
GridSize: 16
TimelineZoom: 3.299999

[Metadata]
Title:The Justice
TitleUnicode:The Justice
Artist:moro
ArtistUnicode:moro
Creator:Ephix
Version:JUMP EUPHORIA
Source:
Tags:
BeatmapID:1781774
BeatmapSetID:852431

[Difficulty]
HPDrainRate:7
CircleSize:4
OverallDifficulty:9
ApproachRate:10
SliderMultiplier:1.4
SliderTickRate:1

[Events]
//Background and Video events
0,0,"584481.png",0,0
//Break Periods
2,164209,170105
//Storyboard Layer 0 (Background)
//Storyboard Layer 1 (Fail)
//Storyboard Layer 2 (Pass)
//Storyboard Layer 3 (Foreground)
//Storyboard Layer 4 (Overlay)
//Storyboard Sound Samples

[TimingPoints]
9100,272.727272727273,4,2,0,50,1,0
25463,-100,4,2,0,100,0,0
26281,-100,4,2,0,50,0,0
26555,272.727272727273,4,2,0,100,1,1
62009,-100,4,2,0,50,0,0
78918,-100,4,2,0,100,0,1
112736,-50,4,2,0,100,0,0
113827,-100,4,2,0,100,0,1
122009,-100,4,2,0,100,0,1
129100,-33.3333333333333,4,2,0,100,0,0
130191,-666.666666666667,4,2,0,100,0,0
131282,-100,4,2,0,100,0,0
170555,-100,4,2,0,100,0,1

[HitObjects]
344,336,9100,6,4,B|344:208|344:208|400:280|400:280|456:232,1,280
208,192,10190,5,0,0:0:0:0:
128,192,10736,1,0,0:0:0:0:
112,336,11281,6,4,B|168:232|168:232|80:248|80:248|88:168,1,280
392,48,12372,1,0,0:0:0:0:
400,240,12918,1,0,0:0:0:0:
424,48,13463,6,4,B|440:176|440:176|320:64|320:64|320:64,1,280
144,56,14554,1,0,0:0:0:0:
248,296,15100,1,0,0:0:0:0:
368,96,15645,6,4,B|240:144|240:144|128:32|128:32|128:32,1,280
208,160,16736,5,0,0:0:0:0:
256,248,16873,1,0,0:0:0:0:
304,160,17009,1,0,0:0:0:0:
160,136,17145,1,0,0:0:0:0:
256,296,17282,1,0,0:0:0:0:
352,136,17418,1,0,0:0:0:0:
112,112,17555,1,0,0:0:0:0:
112,288,17827,5,4,0:0:0:0:
400,288,18100,1,0,0:0:0:0:
256,48,18373,1,0,0:0:0:0:
256,344,18645,1,0,0:0:0:0:
408,104,18918,1,0,0:0:0:0:
72,336,19191,1,0,0:0:0:0:
120,32,19463,6,4,B|96:72|56:152|56:152|136:120|136:120|144:184,1,280
400,328,20282,1,0,0:0:0:0:
256,48,20555,1,0,0:0:0:0:
160,320,20828,1,0,0:0:0:0:
432,120,21101,1,0,0:0:0:0:
48,192,21372,1,0,0:0:0:0:
448,320,21645,1,4,0:0:0:0:
368,152,21918,5,0,0:0:0:0:
328,240,22055,1,0,0:0:0:0:
240,280,22191,1,0,0:0:0:0:
112,248,22327,5,0,0:0:0:0:
144,168,22463,1,0,0:0:0:0:
224,128,22600,1,0,0:0:0:0:
72,104,22736,5,0,0:0:0:0:
40,184,22873,1,0,0:0:0:0:
48,264,23009,1,0,0:0:0:0:
256,248,23146,5,0,0:0:0:0:
312,176,23282,1,0,0:0:0:0:
320,88,23418,1,0,0:0:0:0:
464,184,23555,5,0,0:0:0:0:
440,272,23691,1,0,0:0:0:0:
360,320,23828,1,0,0:0:0:0:
168,320,23963,5,0,0:0:0:0:
136,232,24100,1,0,0:0:0:0:
176,152,24236,1,0,0:0:0:0:
320,64,24372,5,0,0:0:0:0:
328,152,24509,1,0,0:0:0:0:
280,224,24645,1,0,0:0:0:0:
88,248,24782,5,0,0:0:0:0:
80,136,24918,1,0,0:0:0:0:
184,184,25055,1,0,0:0:0:0:
88,248,25191,1,0,0:0:0:0:
80,136,25327,1,0,0:0:0:0:
152,80,25464,6,0,L|160:72,6,11.6666666666667
184,96,25736,6,0,L|200:104,6,11.6666666666667
168,128,26009,6,0,L|168:144,6,11.6666666666667
136,112,26282,6,0,L|120:120,6,11.6666666666667
376,320,26555,5,2,0:0:0:0:
424,120,26691,1,0,0:0:0:0:
224,224,26827,1,2,0:0:0:0:
360,48,26964,1,0,0:0:0:0:
448,272,27100,1,2,0:0:0:0:
232,72,27236,5,0,0:0:0:0:
304,304,27373,1,2,0:0:0:0:
120,128,27509,1,0,0:0:0:0:
384,208,27645,1,2,0:0:0:0:
112,248,27782,1,0,0:0:0:0:
368,88,27918,1,2,0:0:0:0:
200,352,28054,1,0,0:0:0:0:
184,40,28191,5,2,0:0:0:0:
352,352,28327,1,0,0:0:0:0:
56,40,28463,1,2,0:0:0:0:
472,352,28600,1,0,0:0:0:0:
56,240,28736,5,2,0:0:0:0:
320,144,28872,1,0,0:0:0:0:
88,72,29009,1,2,0:0:0:0:
136,296,29145,1,0,0:0:0:0:
192,40,29282,1,2,0:0:0:0:
272,280,29418,1,0,0:0:0:0:
320,80,29554,1,2,0:0:0:0:
56,96,29691,1,0,0:0:0:0:
224,264,29827,5,2,0:0:0:0:
288,120,29964,1,0,0:0:0:0:
160,320,30100,1,2,0:0:0:0:
352,64,30237,1,0,0:0:0:0:
80,344,30372,1,2,0:0:0:0:
432,40,30509,1,0,0:0:0:0:
0,344,30645,1,2,0:0:0:0:
512,40,30782,1,0,0:0:0:0:
32,48,30918,6,4,L|32:120,1,70
24,344,31190,1,2,0:0:0:0:
128,48,31327,1,0,0:0:0:0:
120,344,31463,1,2,0:0:0:0:
216,48,31600,1,0,0:0:0:0:
208,344,31736,1,2,0:0:0:0:
304,48,31872,1,0,0:0:0:0:
296,344,32009,1,2,0:0:0:0:
392,48,32145,1,0,0:0:0:0:
384,344,32281,1,2,0:0:0:0:
480,48,32418,5,0,0:0:0:0:
296,344,32555,1,2,0:0:0:0:
480,48,32690,1,0,0:0:0:0:
208,344,32827,1,2,0:0:0:0:
480,48,32963,1,0,0:0:0:0:
120,344,33099,1,2,0:0:0:0:
320,272,33236,5,0,0:0:0:0:
48,240,33372,1,2,0:0:0:0:
264,64,33508,1,0,0:0:0:0:
64,144,33645,1,2,0:0:0:0:
240,240,33781,1,0,0:0:0:0:
160,48,33918,1,2,0:0:0:0:
352,144,34054,1,0,0:0:0:0:
376,16,34190,5,2,0:0:0:0:
496,136,34327,1,0,0:0:0:0:
280,16,34463,1,2,0:0:0:0:
496,232,34599,1,0,0:0:0:0:
184,16,34736,1,2,0:0:0:0:
496,328,34872,1,0,0:0:0:0:
240,336,35008,5,2,0:0:0:0:
200,336,35077,1,0,0:0:0:0:
168,328,35145,1,0,0:0:0:0:
136,304,35214,1,0,0:0:0:0:
120,280,35282,6,4,P|104:232|112:200,1,70
120,40,35554,1,2,0:0:0:0:
320,216,35690,1,0,0:0:0:0:
312,32,35826,1,2,0:0:0:0:
120,216,35964,1,0,0:0:0:0:
328,352,36100,1,2,0:0:0:0:
240,112,36236,1,0,0:0:0:0:
144,344,36373,1,2,0:0:0:0:
24,144,36509,1,0,0:0:0:0:
336,264,36645,5,2,0:0:0:0:
328,16,36782,1,0,0:0:0:0:
80,352,36918,1,2,0:0:0:0:
408,112,37054,1,0,0:0:0:0:
0,256,37191,1,2,0:0:0:0:
400,328,37327,5,0,0:0:0:0:
336,112,37463,1,2,0:0:0:0:
192,296,37600,1,0,0:0:0:0:
448,200,37736,1,2,0:0:0:0:
160,144,37872,1,0,0:0:0:0:
296,352,38009,1,2,0:0:0:0:
288,56,38145,1,0,0:0:0:0:
48,112,38281,1,2,0:0:0:0:
392,53,38418,1,0,0:0:0:0:
256,192,38554,5,2,0:0:0:0:
216,192,38691,1,0,0:0:0:0:
304,192,38827,1,2,0:0:0:0:
144,192,38963,1,0,0:0:0:0:
376,192,39100,1,2,0:0:0:0:
72,192,39236,1,0,0:0:0:0:
448,192,39372,1,2,0:0:0:0:
0,192,39509,1,0,0:0:0:0:
512,192,39645,2,4,L|512:112,1,70
256,336,39918,5,2,0:0:0:0:
384,112,40054,1,0,0:0:0:0:
128,112,40191,1,2,0:0:0:0:
328,316,40327,5,0,0:0:0:0:
326,58,40463,1,2,0:0:0:0:
105,186,40599,1,0,0:0:0:0:
380,264,40736,5,2,0:0:0:0:
250,41,40872,1,0,0:0:0:0:
122,262,41008,1,2,0:0:0:0:
72,24,41145,1,0,0:0:0:0:
432,24,41282,1,2,0:0:0:0:
24,144,41418,1,0,0:0:0:0:
488,144,41555,1,2,0:0:0:0:
24,288,41691,1,0,0:0:0:0:
488,288,41828,1,2,0:0:0:0:
256,40,41964,1,0,0:0:0:0:
256,336,42101,1,2,0:0:0:0:
256,40,42236,1,0,0:0:0:0:
256,336,42373,1,2,0:0:0:0:
256,40,42509,1,0,0:0:0:0:
256,336,42646,1,2,0:0:0:0:
256,40,42782,1,0,0:0:0:0:
120,240,42918,6,0,L|128:232,6,11.6666666666667
128,256,43191,6,0,L|136:264,6,11.6666666666667
360,64,43464,2,0,B|448:168|448:168|360:160|360:160|392:232,1,280
56,176,44145,1,0,0:0:0:0:
240,288,44281,1,2,0:0:0:0:
216,80,44417,1,0,0:0:0:0:
416,224,44554,1,2,0:0:0:0:
368,40,44690,1,0,0:0:0:0:
264,208,44826,5,2,0:0:0:0:
80,32,44963,1,0,0:0:0:0:
104,232,45099,1,2,0:0:0:0:
264,64,45235,1,0,0:0:0:0:
368,272,45373,1,2,0:0:0:0:
96,112,45509,1,0,0:0:0:0:
480,192,45645,5,2,0:0:0:0:
256,32,45782,1,0,0:0:0:0:
256,352,45918,1,2,0:0:0:0:
32,192,46054,1,0,0:0:0:0:
176,88,46191,5,2,0:0:0:0:
32,280,46327,1,0,0:0:0:0:
32,104,46463,1,2,0:0:0:0:
144,264,46599,1,0,0:0:0:0:
256,104,46735,1,2,0:0:0:0:
368,264,46872,1,0,0:0:0:0:
480,104,47008,1,2,0:0:0:0:
480,352,47144,5,0,0:0:0:0:
368,32,47281,1,2,0:0:0:0:
256,352,47417,1,0,0:0:0:0:
144,32,47553,1,2,0:0:0:0:
32,352,47691,1,0,0:0:0:0:
32,32,47827,5,2,0:0:0:0:
144,352,47964,1,0,0:0:0:0:
256,32,48100,1,2,0:0:0:0:
368,352,48236,1,0,0:0:0:0:
480,32,48373,2,4,L|480:112,1,70
96,56,48645,5,2,0:0:0:0:
208,208,48781,1,0,0:0:0:0:
24,224,48918,1,2,0:0:0:0:
256,112,49054,5,0,0:0:0:0:
408,256,49190,1,2,0:0:0:0:
200,288,49327,1,0,0:0:0:0:
296,32,49463,5,2,0:0:0:0:
480,128,49599,1,0,0:0:0:0:
304,232,49736,1,2,0:0:0:0:
32,256,49872,5,0,0:0:0:0:
240,24,50009,1,2,0:0:0:0:
240,344,50145,1,0,0:0:0:0:
448,80,50281,1,2,0:0:0:0:
392,296,50418,5,0,0:0:0:0:
336,120,50554,1,2,0:0:0:0:
184,264,50690,1,0,0:0:0:0:
144,56,50827,1,2,0:0:0:0:
304,208,50963,1,0,0:0:0:0:
56,192,51099,1,2,0:0:0:0:
248,72,51236,1,0,0:0:0:0:
256,312,51372,1,2,0:0:0:0:
400,136,51508,1,0,0:0:0:0:
464,336,51645,5,2,0:0:0:0:
48,48,51781,1,0,0:0:0:0:
464,336,51917,1,2,0:0:0:0:
48,48,52054,1,0,0:0:0:0:
464,336,52190,1,2,0:0:0:0:
464,296,52259,1,0,0:0:0:0:
448,256,52326,1,0,0:0:0:0:
416,232,52395,1,0,0:0:0:0:
376,232,52463,1,0,0:0:0:0:
344,248,52532,1,0,0:0:0:0:
328,288,52599,1,0,0:0:0:0:
328,328,52668,1,0,0:0:0:0:
328,360,52736,2,4,L|232:360,1,70
192,56,53008,1,2,0:0:0:0:
40,280,53145,5,0,0:0:0:0:
168,112,53281,1,2,0:0:0:0:
176,280,53417,1,0,0:0:0:0:
24,96,53555,1,2,0:0:0:0:
272,32,53690,1,0,0:0:0:0:
280,232,53826,1,2,0:0:0:0:
424,96,53963,1,0,0:0:0:0:
464,288,54099,1,2,0:0:0:0:
328,0,54235,1,0,0:0:0:0:
144,112,54372,5,2,0:0:0:0:
432,360,54508,1,0,0:0:0:0:
32,312,54644,1,2,0:0:0:0:
480,120,54782,1,0,0:0:0:0:
208,56,54918,5,2,0:0:0:0:
32,184,55054,1,0,0:0:0:0:
296,184,55191,1,2,0:0:0:0:
64,80,55327,1,0,0:0:0:0:
216,312,55463,1,2,0:0:0:0:
360,112,55600,1,0,0:0:0:0:
144,144,55736,1,2,0:0:0:0:
424,288,55872,1,0,0:0:0:0:
256,24,56009,5,2,0:0:0:0:
152,360,56145,1,0,0:0:0:0:
456,128,56281,1,2,0:0:0:0:
56,128,56418,1,0,0:0:0:0:
360,360,56554,1,2,0:0:0:0:
256,24,56690,1,0,0:0:0:0:
152,360,56827,1,2,0:0:0:0:
456,128,56964,1,0,0:0:0:0:
56,128,57100,6,4,L|56:200,1,70
368,256,57372,5,2,0:0:0:0:
136,136,57509,1,0,0:0:0:0:
344,120,57645,5,2,0:0:0:0:
152,248,57781,1,0,0:0:0:0:
408,192,57918,5,2,0:0:0:0:
136,64,58054,1,0,0:0:0:0:
416,88,58190,5,2,0:0:0:0:
96,208,58327,1,0,0:0:0:0:
424,280,58463,5,2,0:0:0:0:
96,144,58599,1,0,0:0:0:0:
296,344,58736,5,2,0:0:0:0:
176,40,58872,1,0,0:0:0:0:
440,248,59008,5,2,0:0:0:0:
40,168,59145,1,0,0:0:0:0:
448,152,59282,5,2,0:0:0:0:
80,264,59417,1,0,0:0:0:0:
456,72,59554,5,2,0:0:0:0:
72,344,59690,1,0,0:0:0:0:
488,192,59827,5,2,0:0:0:0:
40,184,59963,1,0,0:0:0:0:
456,320,60099,5,2,0:0:0:0:
48,40,60236,1,0,0:0:0:0:
256,192,60372,1,2,0:0:0:0:
256,192,60645,1,0,0:0:0:0:
256,192,60917,1,0,0:0:0:0:
256,192,61191,1,0,0:0:0:0:
256,192,61464,1,4,0:0:0:0:
192,256,62009,5,0,0:0:0:0:
192,128,62145,1,0,0:0:0:0:
320,128,62282,1,0,0:0:0:0:
320,256,62418,1,0,0:0:0:0:
320,128,62555,1,0,0:0:0:0:
192,128,62691,1,0,0:0:0:0:
192,256,62827,1,0,0:0:0:0:
320,256,62964,1,0,0:0:0:0:
192,256,63100,1,0,0:0:0:0:
192,128,63236,1,0,0:0:0:0:
320,128,63373,1,0,0:0:0:0:
192,128,63509,1,0,0:0:0:0:
192,256,63645,1,0,0:0:0:0:
320,256,63782,1,0,0:0:0:0:
320,128,63919,1,0,0:0:0:0:
192,128,64055,1,0,0:0:0:0:
320,128,64191,1,0,0:0:0:0:
320,256,64328,1,0,0:0:0:0:
192,256,64464,1,0,0:0:0:0:
192,128,64601,1,0,0:0:0:0:
320,128,64736,1,0,0:0:0:0:
320,256,64872,1,0,0:0:0:0:
192,256,65009,1,0,0:0:0:0:
320,256,65145,1,0,0:0:0:0:
320,128,65282,1,0,0:0:0:0:
192,128,65418,1,0,0:0:0:0:
320,128,65554,1,0,0:0:0:0:
320,256,65691,1,0,0:0:0:0:
320,128,65827,6,2,P|368:128|416:128,1,70
384,256,66100,1,0,0:0:0:0:
128,256,66236,1,0,0:0:0:0:
128,128,66372,1,0,0:0:0:0:
384,128,66509,1,0,0:0:0:0:
384,256,66646,1,0,0:0:0:0:
384,128,66782,1,0,0:0:0:0:
128,128,66918,1,0,0:0:0:0:
128,256,67055,1,0,0:0:0:0:
128,128,67191,1,0,0:0:0:0:
384,128,67328,1,0,0:0:0:0:
384,256,67464,1,0,0:0:0:0:
128,256,67600,1,0,0:0:0:0:
384,256,67737,1,0,0:0:0:0:
384,128,67873,1,0,0:0:0:0:
128,128,68010,1,0,0:0:0:0:
128,256,68146,1,0,0:0:0:0:
128,128,68282,1,0,0:0:0:0:
384,128,68419,1,0,0:0:0:0:
384,256,68555,1,0,0:0:0:0:
128,256,68691,1,0,0:0:0:0:
128,128,68828,1,0,0:0:0:0:
384,128,68964,1,0,0:0:0:0:
128,128,69100,1,0,0:0:0:0:
128,256,69237,1,0,0:0:0:0:
384,256,69374,1,0,0:0:0:0:
384,128,69510,1,0,0:0:0:0:
384,256,69646,1,0,0:0:0:0:
128,256,69783,1,0,0:0:0:0:
128,128,69919,1,0,0:0:0:0:
128,256,70056,1,0,0:0:0:0:
384,256,70191,6,2,P|432:256|464:256,1,70
448,128,70464,1,0,0:0:0:0:
64,128,70600,1,0,0:0:0:0:
64,256,70737,1,0,0:0:0:0:
448,256,70873,1,0,0:0:0:0:
448,128,71009,1,0,0:0:0:0:
448,256,71146,1,0,0:0:0:0:
64,256,71282,1,0,0:0:0:0:
64,128,71418,1,0,0:0:0:0:
448,128,71555,1,0,0:0:0:0:
64,128,71691,1,0,0:0:0:0:
64,256,71827,1,0,0:0:0:0:
448,256,71964,1,0,0:0:0:0:
448,128,72101,1,0,0:0:0:0:
64,128,72237,1,0,0:0:0:0:
448,128,72373,1,0,0:0:0:0:
448,256,72510,1,0,0:0:0:0:
448,128,72646,1,0,0:0:0:0:
64,128,72783,1,0,0:0:0:0:
448,128,72918,1,0,0:0:0:0:
448,256,73054,1,0,0:0:0:0:
64,256,73191,1,0,0:0:0:0:
64,128,73327,1,0,0:0:0:0:
64,256,73464,1,0,0:0:0:0:
448,256,73600,1,0,0:0:0:0:
448,128,73736,1,0,0:0:0:0:
64,128,73873,1,0,0:0:0:0:
64,256,74009,1,0,0:0:0:0:
64,128,74145,1,0,0:0:0:0:
448,128,74282,1,0,0:0:0:0:
448,256,74418,1,0,0:0:0:0:
64,256,74555,6,2,P|64:304|64:352,1,70
448,320,74828,1,0,0:0:0:0:
448,64,74964,1,0,0:0:0:0:
64,64,75100,1,0,0:0:0:0:
64,320,75237,1,0,0:0:0:0:
64,64,75373,1,0,0:0:0:0:
448,64,75510,1,0,0:0:0:0:
448,320,75645,1,0,0:0:0:0:
64,320,75781,1,0,0:0:0:0:
448,320,75918,1,0,0:0:0:0:
448,64,76054,1,0,0:0:0:0:
64,64,76191,1,0,0:0:0:0:
448,64,76327,1,0,0:0:0:0:
448,320,76463,1,0,0:0:0:0:
64,320,76600,1,0,0:0:0:0:
64,64,76736,1,0,0:0:0:0:
64,320,76872,1,0,0:0:0:0:
448,320,77009,1,0,0:0:0:0:
448,64,77145,1,0,0:0:0:0:
64,64,77281,1,0,0:0:0:0:
448,64,77418,1,0,0:0:0:0:
448,320,77555,1,0,0:0:0:0:
64,320,77691,1,0,0:0:0:0:
448,320,77827,1,0,0:0:0:0:
448,64,77964,1,0,0:0:0:0:
64,64,78100,1,0,0:0:0:0:
64,320,78237,1,0,0:0:0:0:
64,64,78373,1,0,0:0:0:0:
296,160,78918,5,2,0:0:0:0:
256,264,79055,1,0,0:0:0:0:
192,184,79191,1,2,0:0:0:0:
360,88,79327,1,0,0:0:0:0:
272,360,79464,1,2,0:0:0:0:
112,120,79600,1,0,0:0:0:0:
408,256,79737,5,2,0:0:0:0:
232,40,79873,1,0,0:0:0:0:
136,296,80009,1,2,0:0:0:0:
232,40,80146,1,0,0:0:0:0:
408,256,80281,1,2,0:0:0:0:
112,120,80418,5,0,0:0:0:0:
336,80,80554,1,2,0:0:0:0:
64,208,80690,1,0,0:0:0:0:
448,112,80827,1,2,0:0:0:0:
8,120,80963,1,0,0:0:0:0:
416,16,81100,1,2,0:0:0:0:
416,288,81236,5,0,0:0:0:0:
96,288,81372,1,2,0:0:0:0:
256,32,81509,1,0,0:0:0:0:
256,288,81645,1,2,0:0:0:0:
96,32,81782,1,0,0:0:0:0:
416,32,81918,1,2,0:0:0:0:
256,288,82054,1,0,0:0:0:0:
96,32,82191,1,2,0:0:0:0:
416,96,82326,5,0,0:0:0:0:
192,288,82463,1,2,0:0:0:0:
160,32,82599,1,0,0:0:0:0:
416,160,82736,1,2,0:0:0:0:
128,288,82872,1,0,0:0:0:0:
224,32,83009,1,2,0:0:0:0:
416,224,83145,1,0,0:0:0:0:
64,288,83282,1,2,0:0:0:0:
288,32,83418,1,0,0:0:0:0:
416,288,83555,1,2,0:0:0:0:
0,288,83691,1,0,0:0:0:0:
352,32,83827,1,2,0:0:0:0:
416,224,83964,5,0,0:0:0:0:
288,32,84100,1,2,0:0:0:0:
64,288,84237,1,0,0:0:0:0:
416,160,84373,1,2,0:0:0:0:
224,32,84509,1,0,0:0:0:0:
128,288,84646,1,2,0:0:0:0:
416,160,84781,1,0,0:0:0:0:
160,32,84918,1,2,0:0:0:0:
192,288,85054,1,0,0:0:0:0:
416,96,85190,1,2,0:0:0:0:
96,32,85327,5,0,0:0:0:0:
256,288,85464,1,2,0:0:0:0:
416,32,85600,1,0,0:0:0:0:
96,32,85736,1,2,0:0:0:0:
256,288,85873,1,0,0:0:0:0:
416,32,86010,1,2,0:0:0:0:
464,320,86146,5,0,0:0:0:0:
256,112,86282,1,2,0:0:0:0:
344,320,86418,1,0,0:0:0:0:
136,112,86554,1,2,0:0:0:0:
224,320,86691,1,0,0:0:0:0:
16,112,86827,1,2,0:0:0:0:
104,320,86964,1,0,0:0:0:0:
232,160,87100,6,0,L|255:156,6,17.5
232,184,87373,6,0,L|248:192,6,17.5
96,336,87645,1,2,0:0:0:0:
416,336,87783,1,0,0:0:0:0:
416,32,87918,1,2,0:0:0:0:
360,288,88055,1,0,0:0:0:0:
96,336,88191,1,2,0:0:0:0:
304,240,88327,1,0,0:0:0:0:
416,32,88464,1,2,0:0:0:0:
256,192,88601,1,0,0:0:0:0:
96,336,88737,1,2,0:0:0:0:
208,136,88874,1,0,0:0:0:0:
416,32,89010,1,2,0:0:0:0:
152,80,89147,1,0,0:0:0:0:
96,336,89283,1,2,0:0:0:0:
96,32,89419,1,0,0:0:0:0:
416,32,89556,5,2,0:0:0:0:
408,344,89691,1,0,0:0:0:0:
96,192,89829,1,2,0:0:0:0:
408,192,89965,1,0,0:0:0:0:
96,40,90101,1,2,0:0:0:0:
96,344,90237,1,0,0:0:0:0:
256,40,90372,1,2,0:0:0:0:
256,344,90509,1,0,0:0:0:0:
416,32,90645,1,2,0:0:0:0:
416,336,90781,5,0,0:0:0:0:
96,336,90918,1,2,0:0:0:0:
256,112,91055,1,0,0:0:0:0:
416,336,91191,1,2,0:0:0:0:
96,336,91328,1,0,0:0:0:0:
96,48,91464,1,2,0:0:0:0:
416,48,91601,1,0,0:0:0:0:
416,336,91737,1,2,0:0:0:0:
96,336,91873,1,0,0:0:0:0:
96,48,92010,1,2,0:0:0:0:
416,48,92146,1,0,0:0:0:0:
256,336,92283,5,2,0:0:0:0:
96,192,92419,1,0,0:0:0:0:
256,48,92555,1,2,0:0:0:0:
416,192,92691,1,0,0:0:0:0:
256,336,92826,1,2,0:0:0:0:
96,192,92963,1,0,0:0:0:0:
256,48,93100,1,2,0:0:0:0:
416,192,93235,1,0,0:0:0:0:
96,336,93372,5,2,0:0:0:0:
96,48,93509,1,0,0:0:0:0:
416,48,93645,1,2,0:0:0:0:
416,336,93782,1,0,0:0:0:0:
96,336,93918,1,2,0:0:0:0:
96,48,94055,1,0,0:0:0:0:
416,48,94191,1,2,0:0:0:0:
416,336,94327,1,0,0:0:0:0:
256,48,94464,5,2,0:0:0:0:
256,336,94600,1,0,0:0:0:0:
256,112,94736,1,2,0:0:0:0:
256,272,94873,1,0,0:0:0:0:
256,176,95009,1,2,0:0:0:0:
256,208,95147,1,0,0:0:0:0:
256,192,95282,6,0,P|304:192|368:192,1,105
384,176,95555,2,0,L|400:160,6,17.5
384,192,95827,2,0,L|416:192,6,17.5
384,208,96100,2,0,L|400:224,5,17.5
112,32,96373,5,2,0:0:0:0:
400,32,96508,1,0,0:0:0:0:
112,112,96645,1,2,0:0:0:0:
400,112,96781,1,0,0:0:0:0:
112,192,96918,1,2,0:0:0:0:
400,192,97054,1,0,0:0:0:0:
112,272,97190,1,2,0:0:0:0:
400,272,97327,1,0,0:0:0:0:
112,352,97464,1,2,0:0:0:0:
400,352,97600,1,0,0:0:0:0:
32,352,97736,5,2,0:0:0:0:
480,352,97872,1,0,0:0:0:0:
32,272,98009,1,2,0:0:0:0:
480,272,98146,1,0,0:0:0:0:
32,192,98282,1,2,0:0:0:0:
480,192,98419,1,0,0:0:0:0:
32,112,98555,1,2,0:0:0:0:
480,112,98691,1,0,0:0:0:0:
32,32,98828,1,2,0:0:0:0:
480,32,98964,1,0,0:0:0:0:
480,352,99101,5,2,0:0:0:0:
400,32,99237,1,0,0:0:0:0:
400,352,99373,1,2,0:0:0:0:
320,32,99509,1,0,0:0:0:0:
320,352,99646,1,2,0:0:0:0:
240,32,99782,1,0,0:0:0:0:
240,352,99919,1,2,0:0:0:0:
160,32,100055,1,0,0:0:0:0:
160,352,100191,1,2,0:0:0:0:
80,32,100328,1,0,0:0:0:0:
80,352,100464,1,2,0:0:0:0:
0,32,100601,1,0,0:0:0:0:
0,352,100737,1,2,0:0:0:0:
256,48,100873,5,0,0:0:0:0:
160,320,101009,1,2,0:0:0:0:
416,160,101146,1,0,0:0:0:0:
96,160,101282,1,2,0:0:0:0:
352,320,101419,1,0,0:0:0:0:
256,0,101555,1,2,0:0:0:0:
112,336,101691,1,0,0:0:0:0:
464,160,101828,1,2,0:0:0:0:
48,160,101964,1,0,0:0:0:0:
368,336,102101,1,2,0:0:0:0:
256,32,102237,5,0,0:0:0:0:
96,352,102373,1,2,0:0:0:0:
256,32,102509,1,0,0:0:0:0:
160,352,102646,1,2,0:0:0:0:
256,32,102782,1,0,0:0:0:0:
224,352,102919,1,2,0:0:0:0:
256,32,103055,1,0,0:0:0:0:
288,352,103191,1,2,0:0:0:0:
256,32,103327,1,0,0:0:0:0:
352,352,103464,1,2,0:0:0:0:
256,32,103600,1,0,0:0:0:0:
416,352,103737,1,2,0:0:0:0:
256,32,103873,1,0,0:0:0:0:
256,352,104009,6,0,P|256:288|256:224,1,105
272,208,104282,2,0,L|288:192,6,17.5
256,192,104554,2,0,L|256:160,6,17.5
240,208,104827,2,0,L|224:192,4,17.5
448,32,105100,5,2,0:0:0:0:
64,352,105237,1,0,0:0:0:0:
384,32,105373,1,2,0:0:0:0:
128,352,105510,1,0,0:0:0:0:
320,32,105646,1,2,0:0:0:0:
192,352,105782,1,0,0:0:0:0:
256,32,105918,1,2,0:0:0:0:
256,352,106055,1,0,0:0:0:0:
192,32,106191,1,2,0:0:0:0:
320,352,106328,1,0,0:0:0:0:
128,32,106464,1,2,0:0:0:0:
384,352,106600,1,0,0:0:0:0:
64,32,106737,1,2,0:0:0:0:
448,352,106873,1,0,0:0:0:0:
128,32,107010,5,2,0:0:0:0:
384,352,107146,1,0,0:0:0:0:
192,32,107282,1,2,0:0:0:0:
320,352,107418,1,0,0:0:0:0:
256,32,107555,1,2,0:0:0:0:
256,352,107691,1,0,0:0:0:0:
320,32,107828,1,2,0:0:0:0:
192,352,107964,1,0,0:0:0:0:
384,32,108100,1,2,0:0:0:0:
128,352,108237,1,0,0:0:0:0:
448,32,108373,1,2,0:0:0:0:
64,352,108510,1,0,0:0:0:0:
448,96,108646,1,2,0:0:0:0:
64,288,108782,5,0,0:0:0:0:
384,96,108918,1,2,0:0:0:0:
128,288,109055,1,0,0:0:0:0:
320,96,109191,1,2,0:0:0:0:
192,288,109328,1,0,0:0:0:0:
256,96,109464,1,2,0:0:0:0:
256,288,109600,1,0,0:0:0:0:
192,96,109737,1,2,0:0:0:0:
320,288,109873,1,0,0:0:0:0:
128,96,110010,1,2,0:0:0:0:
384,288,110146,1,0,0:0:0:0:
64,96,110282,1,2,0:0:0:0:
448,288,110418,1,0,0:0:0:0:
64,160,110555,5,2,0:0:0:0:
448,224,110691,1,0,0:0:0:0:
128,160,110828,1,2,0:0:0:0:
384,224,110964,1,0,0:0:0:0:
192,160,111100,1,2,0:0:0:0:
320,224,111237,1,0,0:0:0:0:
256,160,111373,1,2,0:0:0:0:
256,224,111510,1,0,0:0:0:0:
256,192,111646,1,2,0:0:0:0:
256,192,112191,1,2,0:0:0:0:
208,80,112736,6,0,B|252:156|228:268|228:268|278:143|392:120|392:120|323:214|352:296|352:296|254:183|138:194|138:194|177:261|118:316|118:316,1,980
384,128,113827,1,2,0:0:0:0:
160,224,113963,1,0,0:0:0:0:
352,64,114100,1,2,0:0:0:0:
96,240,114236,1,0,0:0:0:0:
416,64,114373,1,2,0:0:0:0:
112,176,114509,1,0,0:0:0:0:
448,304,114662,5,2,0:0:0:0:
192,64,114798,1,0,0:0:0:0:
382,332,114935,1,2,0:0:0:0:
128,80,115071,1,0,0:0:0:0:
385,268,115208,1,2,0:0:0:0:
144,16,115344,1,0,0:0:0:0:
464,96,115464,5,2,0:0:0:0:
160,304,115600,1,0,0:0:0:0:
398,124,115737,1,2,0:0:0:0:
96,320,115873,1,0,0:0:0:0:
401,60,116010,1,2,0:0:0:0:
112,256,116146,1,0,0:0:0:0:
320,224,116281,5,2,0:0:0:0:
64,160,116418,1,0,0:0:0:0:
368,64,116554,1,2,0:0:0:0:
272,336,116691,1,0,0:0:0:0:
192,48,116827,1,2,0:0:0:0:
432,288,116963,1,0,0:0:0:0:
256,112,117099,1,2,0:0:0:0:
64,304,117236,1,0,0:0:0:0:
304,256,117372,1,2,0:0:0:0:
80,112,117509,1,0,0:0:0:0:
320,32,117645,1,2,0:0:0:0:
432,272,117781,1,0,0:0:0:0:
128,192,117918,1,2,0:0:0:0:
416,96,118054,1,0,0:0:0:0:
288,352,118191,1,2,0:0:0:0:
224,96,118327,1,0,0:0:0:0:
64,320,118463,1,2,0:0:0:0:
336,224,118599,1,0,0:0:0:0:
80,64,118736,1,2,0:0:0:0:
352,48,118872,1,0,0:0:0:0:
256,320,119009,1,2,0:0:0:0:
208,32,119145,1,0,0:0:0:0:
480,208,119281,1,2,0:0:0:0:
160,176,119417,1,0,0:0:0:0:
432,96,119554,1,2,0:0:0:0:
352,336,119690,1,0,0:0:0:0:
128,144,119827,1,2,0:0:0:0:
304,16,119963,1,0,0:0:0:0:
288,256,120100,1,2,0:0:0:0:
64,80,120236,1,0,0:0:0:0:
96,304,120372,1,2,0:0:0:0:
304,192,120509,1,0,0:0:0:0:
512,336,120645,1,2,0:0:0:0:
496,112,120782,1,0,0:0:0:0:
320,272,120918,1,2,0:0:0:0:
288,64,121055,1,0,0:0:0:0:
64,208,121191,1,2,0:0:0:0:
384,192,121328,1,0,0:0:0:0:
144,80,121464,1,2,0:0:0:0:
272,352,121600,1,0,0:0:0:0:
336,96,121736,1,2,0:0:0:0:
512,304,121873,1,0,0:0:0:0:
256,144,122009,6,0,L|240:128,6,17.5
240,256,122282,2,0,L|256:240,4,17.5
112,192,122555,5,2,0:0:0:0:
400,192,122691,1,0,0:0:0:0:
96,240,122827,1,2,0:0:0:0:
416,144,122964,1,0,0:0:0:0:
80,288,123100,1,2,0:0:0:0:
432,96,123236,1,0,0:0:0:0:
64,336,123373,1,2,0:0:0:0:
448,48,123509,1,0,0:0:0:0:
112,336,123646,1,2,0:0:0:0:
400,48,123782,1,0,0:0:0:0:
160,336,123918,1,2,0:0:0:0:
352,48,124054,1,0,0:0:0:0:
208,336,124191,1,2,0:0:0:0:
304,48,124327,1,0,0:0:0:0:
256,336,124464,1,2,0:0:0:0:
256,48,124600,1,0,0:0:0:0:
304,336,124736,1,2,0:0:0:0:
208,48,124873,1,0,0:0:0:0:
336,304,125009,1,2,0:0:0:0:
176,80,125146,1,0,0:0:0:0:
368,272,125282,1,2,0:0:0:0:
144,112,125418,1,0,0:0:0:0:
400,240,125554,1,2,0:0:0:0:
112,144,125691,1,0,0:0:0:0:
400,192,125827,1,2,0:0:0:0:
112,192,125964,1,0,0:0:0:0:
400,144,126100,1,2,0:0:0:0:
112,240,126236,1,0,0:0:0:0:
368,112,126372,1,2,0:0:0:0:
144,272,126509,1,0,0:0:0:0:
336,80,126645,1,2,0:0:0:0:
176,304,126782,1,0,0:0:0:0:
304,64,126918,1,2,0:0:0:0:
256,128,126986,1,0,0:0:0:0:
240,208,127054,1,0,0:0:0:0:
256,288,127123,1,0,0:0:0:0:
320,336,127191,1,2,0:0:0:0:
448,48,127327,1,0,0:0:0:0:
432,288,127464,1,2,0:0:0:0:
224,80,127600,1,0,0:0:0:0:
80,336,127736,1,2,0:0:0:0:
48,80,127873,6,2,L|96:80,1,43.75
144,256,128009,2,2,L|96:256,1,43.75
224,64,128145,2,2,L|272:64,1,43.75
368,320,128282,2,2,L|320:320,1,43.75
384,128,128418,2,2,L|432:128,1,43.75
224,320,128555,2,2,L|176:320,1,43.75
128,128,128691,2,2,L|176:128,1,43.75
448,49,128827,2,2,L|400:49,1,43.75
76,288,129100,2,0,P|84:192|172:96,1,210.000008010865
144,288,129373,2,0,P|160:192|256:144,1,210.000008010865
208,288,129645,2,0,P|232:216|336:252,1,210.000008010865
272,268,129918,2,0,P|340:320|400:240,1,183.750007009506
256,80,130191,2,0,L|256:144,1,64.3124980373383
320,320,131282,5,4,0:0:0:0:
80,240,131555,2,0,L|224:240,1,140
432,240,132100,1,0,0:0:0:0:
128,124,132373,2,0,L|128:48,2,70
128,320,132918,1,0,0:0:0:0:
416,240,133191,2,0,L|272:240,1,140
32,240,133736,1,0,0:0:0:0:
240,64,134009,2,0,L|384:64,1,140
384,352,134554,1,0,0:0:0:0:
128,352,134827,2,0,L|128:280,2,70
128,24,135372,1,0,0:0:0:0:
360,24,135645,1,0,0:0:0:0:
360,280,135918,2,0,L|216:280,1,140
96,48,136464,1,0,0:0:0:0:
352,48,136736,2,0,L|424:48,2,70
352,288,137282,1,0,0:0:0:0:
48,288,137555,2,0,L|48:144,1,140
392,144,138100,1,0,0:0:0:0:
168,336,138373,2,0,L|312:336,1,140
304,40,138918,2,0,L|304:112,4,70
48,112,139736,1,0,0:0:0:0:
432,112,140009,1,4,0:0:0:0:
152,328,140282,2,0,L|296:328,1,140
296,48,140827,1,0,0:0:0:0:
40,48,141100,2,0,L|40:120,2,70
40,344,141646,2,0,L|184:344,1,140
480,344,142191,1,0,0:0:0:0:
480,56,142464,2,0,L|336:56,1,140
336,272,143009,1,0,0:0:0:0:
48,272,143282,2,0,L|48:200,2,70
400,48,143827,2,0,L|256:48,1,140
256,288,144373,1,4,0:0:0:0:
488,288,144645,1,0,0:0:0:0:
488,120,144918,2,0,L|344:120,1,140
32,112,145464,2,0,L|32:184,2,70
32,352,146009,1,0,0:0:0:0:
368,352,146282,2,0,L|368:208,1,140
368,16,146827,1,0,0:0:0:0:
144,16,147100,2,0,L|144:160,1,140
144,352,147645,2,0,L|217:349,2,70
480,352,148191,2,0,L|480:208,1,140
224,208,148736,1,4,0:0:0:0:
256,32,150373,5,0,0:0:0:0:
256,352,150509,1,0,0:0:0:0:
256,32,150645,1,0,0:0:0:0:
256,352,150782,1,0,0:0:0:0:
256,176,150918,2,0,B|256:112|256:112|352:112|352:112|352:160|352:160|368:160|368:160|368:208|368:208|352:208|352:208|352:256|352:256|256:256|256:256|256:272|256:272|224:272|224:272|222:256|222:256|160:256|160:256,1,560
48,192,152555,1,0,0:0:0:0:
464,192,152691,1,0,0:0:0:0:
48,192,152827,1,0,0:0:0:0:
464,192,152964,1,0,0:0:0:0:
256,224,153100,2,0,B|240:176|240:176|272:112|272:112|144:112|144:112|160:176|160:176|128:240|128:240|208:288|208:288|160:352|160:352,1,560
256,32,154737,1,0,0:0:0:0:
256,352,154873,1,0,0:0:0:0:
32,192,155009,1,0,0:0:0:0:
480,192,155146,1,0,0:0:0:0:
256,192,155282,2,0,B|128:192|128:192|128:128|128:128|176:128|176:128|176:112|176:112|208:112|208:112|208:128|208:128|272:128|272:128|272:112|272:112|304:112|304:112|304:128|304:128|384:128|384:128|384:192|384:192|384:192|384:192,1,560
32,32,156919,1,0,0:0:0:0:
480,352,157055,1,0,0:0:0:0:
32,352,157191,1,0,0:0:0:0:
480,32,157328,1,0,0:0:0:0:
96,192,157464,2,0,B|192:192|192:192|192:176|192:176|224:176|224:176|224:192|224:192|288:192|288:192|288:176|288:176|320:176|320:176|320:192|320:192|384:192|384:192|384:160|384:160|400:160|400:160|400:128|400:128|384:128|384:128|384:64|384:64|320:64|320:64,1,560
256,192,158827,12,0,159645,0:0:0:0:
256,192,161009,12,0,161827,0:0:0:0:
256,192,163191,12,0,164009,0:0:0:0:
160,368,170555,5,2,0:0:0:0:
256,128,170692,1,0,0:0:0:0:
352,368,170828,1,2,0:0:0:0:
160,128,170964,5,0,0:0:0:0:
256,368,171101,1,2,0:0:0:0:
352,128,171237,1,0,0:0:0:0:
160,304,171374,5,2,0:0:0:0:
256,64,171510,1,0,0:0:0:0:
352,304,171646,1,2,0:0:0:0:
160,64,171782,5,0,0:0:0:0:
256,288,171919,1,2,0:0:0:0:
352,64,172055,1,0,0:0:0:0:
160,240,172192,5,2,0:0:0:0:
256,0,172328,1,0,0:0:0:0:
352,240,172464,1,2,0:0:0:0:
160,0,172601,5,0,0:0:0:0:
256,224,172737,1,2,0:0:0:0:
352,0,172874,1,0,0:0:0:0:
64,192,173010,5,2,0:0:0:0:
448,192,173146,1,0,0:0:0:0:
256,32,173282,1,2,0:0:0:0:
256,288,173419,1,0,0:0:0:0:
256,96,173555,5,2,0:0:0:0:
256,352,173692,1,0,0:0:0:0:
192,112,173828,1,2,0:0:0:0:
320,336,173964,1,0,0:0:0:0:
128,128,174101,1,2,0:0:0:0:
384,320,174237,1,0,0:0:0:0:
64,144,174374,1,2,0:0:0:0:
448,304,174510,1,0,0:0:0:0:
64,208,174645,6,0,L|112:208,4,35
400,192,175054,1,0,0:0:0:0:
144,320,175191,1,2,0:0:0:0:
288,64,175327,1,0,0:0:0:0:
320,320,175464,1,2,0:0:0:0:
144,96,175600,1,0,0:0:0:0:
432,96,175736,1,2,0:0:0:0:
160,240,175872,1,0,0:0:0:0:
448,240,176009,1,2,0:0:0:0:
240,48,176145,1,0,0:0:0:0:
288,320,176282,1,2,0:0:0:0:
96,144,176418,1,0,0:0:0:0:
384,128,176554,1,2,0:0:0:0:
128,288,176691,1,0,0:0:0:0:
368,208,176827,1,2,0:0:0:0:
160,80,176964,1,0,0:0:0:0:
240,336,177100,1,2,0:0:0:0:
352,80,177236,1,0,0:0:0:0:
464,304,177372,1,2,0:0:0:0:
224,96,177509,1,0,0:0:0:0:
96,320,177645,1,2,0:0:0:0:
336,240,177782,1,0,0:0:0:0:
96,128,177918,1,2,0:0:0:0:
384,96,178054,1,0,0:0:0:0:
352,320,178191,1,2,0:0:0:0:
192,96,178327,1,0,0:0:0:0:
432,176,178464,1,2,0:0:0:0:
160,320,178600,1,0,0:0:0:0:
128,80,178736,1,2,0:0:0:0:
384,336,178873,1,0,0:0:0:0:
288,80,179009,6,0,L|288:128,4,35
272,64,179350,1,0,0:0:0:0:
304,64,179418,1,0,0:0:0:0:
256,288,179555,1,2,0:0:0:0:
112,96,179691,1,0,0:0:0:0:
448,192,179827,1,2,0:0:0:0:
192,288,179963,1,0,0:0:0:0:
80,32,180100,1,2,0:0:0:0:
464,128,180236,1,0,0:0:0:0:
128,288,180373,1,2,0:0:0:0:
176,80,180509,1,0,0:0:0:0:
496,240,180645,1,2,0:0:0:0:
64,288,180782,1,0,0:0:0:0:
144,16,180918,1,2,0:0:0:0:
496,304,181055,1,0,0:0:0:0:
0,288,181191,5,2,0:0:0:0:
256,288,181327,1,0,0:0:0:0:
0,224,181463,1,2,0:0:0:0:
304,224,181600,1,0,0:0:0:0:
0,160,181736,1,2,0:0:0:0:
352,160,181873,1,0,0:0:0:0:
0,96,182009,1,2,0:0:0:0:
400,96,182145,1,0,0:0:0:0:
0,32,182282,1,2,0:0:0:0:
448,32,182418,5,0,0:0:0:0:
64,32,182555,1,2,0:0:0:0:
448,96,182691,1,0,0:0:0:0:
112,96,182827,1,2,0:0:0:0:
448,160,182964,1,0,0:0:0:0:
160,160,183100,1,2,0:0:0:0:
448,224,183236,1,0,0:0:0:0:
208,224,183373,2,0,L|256:224,4,35
256,32,183782,5,0,0:0:0:0:
256,352,183918,1,2,0:0:0:0:
336,352,184054,1,0,0:0:0:0:
336,32,184191,1,2,0:0:0:0:
416,32,184327,1,0,0:0:0:0:
416,352,184464,1,2,0:0:0:0:
496,352,184600,1,0,0:0:0:0:
496,32,184736,1,2,0:0:0:0:
128,32,184873,1,0,0:0:0:0:
128,112,185009,1,2,0:0:0:0:
496,112,185146,1,0,0:0:0:0:
496,192,185282,1,2,0:0:0:0:
128,192,185418,1,0,0:0:0:0:
128,272,185554,1,2,0:0:0:0:
496,272,185691,1,0,0:0:0:0:
496,352,185827,1,2,0:0:0:0:
128,352,185964,1,0,0:0:0:0:
496,352,186100,1,2,0:0:0:0:
128,352,186236,1,0,0:0:0:0:
496,352,186373,1,2,0:0:0:0:
128,352,186509,1,0,0:0:0:0:
496,352,186646,1,2,0:0:0:0:
128,352,186782,1,0,0:0:0:0:
192,96,186918,5,2,0:0:0:0:
208,112,186986,1,0,0:0:0:0:
224,128,187055,1,0,0:0:0:0:
240,144,187123,1,0,0:0:0:0:
256,160,187191,2,0,B|304:64|304:64|368:128|368:128|448:64,1,280
256,288,187873,1,0,0:0:0:0:
16,128,188009,1,2,0:0:0:0:
192,320,188145,1,0,0:0:0:0:
80,96,188282,1,2,0:0:0:0:
128,352,188418,1,0,0:0:0:0:
144,64,188555,1,2,0:0:0:0:
64,384,188691,1,0,0:0:0:0:
224,64,188827,1,2,0:0:0:0:
64,304,188964,1,0,0:0:0:0:
304,64,189100,1,2,0:0:0:0:
64,224,189237,1,0,0:0:0:0:
384,64,189373,1,2,0:0:0:0:
64,144,189509,1,0,0:0:0:0:
464,64,189645,1,2,0:0:0:0:
128,192,189782,1,0,0:0:0:0:
464,144,189918,1,2,0:0:0:0:
192,240,190055,1,0,0:0:0:0:
464,224,190191,1,2,0:0:0:0:
192,160,190327,1,0,0:0:0:0:
464,304,190464,1,2,0:0:0:0:
192,80,190600,1,0,0:0:0:0:
464,384,190737,1,2,0:0:0:0:
272,80,190873,1,0,0:0:0:0:
384,384,191009,1,2,0:0:0:0:
352,80,191146,1,0,0:0:0:0:
304,384,191282,1,2,0:0:0:0:
432,80,191418,1,0,0:0:0:0:
224,384,191555,1,2,0:0:0:0:
432,160,191691,1,0,0:0:0:0:
144,384,191828,1,2,0:0:0:0:
432,240,191964,1,0,0:0:0:0:
64,384,192100,1,2,0:0:0:0:
64,304,192168,1,0,0:0:0:0:
64,224,192236,1,0,0:0:0:0:
64,144,192305,1,0,0:0:0:0:
64,64,192373,6,0,P|112:64|160:64,1,70
416,32,192646,1,2,0:0:0:0:
416,336,192782,1,0,0:0:0:0:
112,336,192918,1,2,0:0:0:0:
416,336,193055,1,0,0:0:0:0:
416,32,193191,1,2,0:0:0:0:
112,32,193328,1,0,0:0:0:0:
112,336,193464,1,2,0:0:0:0:
112,32,193600,1,0,0:0:0:0:
416,32,193736,1,2,0:0:0:0:
112,336,193873,1,0,0:0:0:0:
416,32,194009,1,2,0:0:0:0:
112,336,194146,1,0,0:0:0:0:
416,32,194282,1,2,0:0:0:0:
112,336,194418,1,0,0:0:0:0:
416,32,194555,1,2,0:0:0:0:
112,336,194691,1,0,0:0:0:0:
416,32,194828,1,2,0:0:0:0:
112,336,194964,1,0,0:0:0:0:
416,32,195099,1,2,0:0:0:0:
112,336,195236,1,0,0:0:0:0:
416,32,195372,1,2,0:0:0:0:
112,336,195508,1,0,0:0:0:0:
416,32,195645,1,2,0:0:0:0:
112,336,195781,1,0,0:0:0:0:
432,160,195919,6,0,L|448:144,6,17.5
432,208,196191,2,0,L|448:224,6,17.5
400,176,196464,2,0,L|368:176,4,17.5
112,48,196736,1,2,0:0:0:0:
352,272,196872,1,0,0:0:0:0:
256,48,197008,1,2,0:0:0:0:
176,352,197145,1,0,0:0:0:0:
32,144,197281,1,2,0:0:0:0:
304,304,197418,1,0,0:0:0:0:
384,48,197554,1,2,0:0:0:0:
496,224,197690,1,0,0:0:0:0:
192,160,197826,1,2,0:0:0:0:
384,320,197963,1,0,0:0:0:0:
272,32,198099,1,2,0:0:0:0:
64,304,198236,1,0,0:0:0:0:
96,32,198372,1,2,0:0:0:0:
400,240,198508,1,0,0:0:0:0:
32,112,198645,1,2,0:0:0:0:
208,352,198781,1,0,0:0:0:0:
384,96,198918,1,2,0:0:0:0:
432,336,199054,1,0,0:0:0:0:
224,96,199191,1,2,0:0:0:0:
32,272,199328,1,0,0:0:0:0:
336,304,199464,1,2,0:0:0:0:
160,80,199600,1,0,0:0:0:0:
448,160,199737,1,2,0:0:0:0:
176,304,199873,1,0,0:0:0:0:
368,64,200010,1,2,0:0:0:0:
64,160,200146,1,0,0:0:0:0:
368,320,200282,1,2,0:0:0:0:
272,48,200418,1,0,0:0:0:0:
64,320,200555,1,2,0:0:0:0:
448,192,200691,1,0,0:0:0:0:
160,80,200828,1,2,0:0:0:0:
112,144,200895,1,0,0:0:0:0:
128,224,200964,1,0,0:0:0:0:
192,272,201032,1,0,0:0:0:0:
272,288,201100,6,0,P|304:288|352:272,1,70
256,16,201373,1,2,0:0:0:0:
496,192,201510,1,0,0:0:0:0:
176,16,201646,1,2,0:0:0:0:
496,272,201782,1,0,0:0:0:0:
256,16,201918,1,2,0:0:0:0:
496,192,202055,1,0,0:0:0:0:
176,16,202191,1,2,0:0:0:0:
496,272,202328,1,0,0:0:0:0:
256,16,202464,1,2,0:0:0:0:
496,192,202600,1,0,0:0:0:0:
176,16,202737,1,2,0:0:0:0:
496,272,202873,1,0,0:0:0:0:
256,304,203010,1,2,0:0:0:0:
368,32,203146,1,0,0:0:0:0:
32,64,203282,1,2,0:0:0:0:
400,208,203419,1,0,0:0:0:0:
64,304,203555,1,2,0:0:0:0:
240,48,203691,1,0,0:0:0:0:
416,320,203828,1,2,0:0:0:0:
160,256,203964,1,0,0:0:0:0:
496,272,204101,1,2,0:0:0:0:
336,48,204237,1,0,0:0:0:0:
288,352,204373,1,2,0:0:0:0:
80,160,204509,1,0,0:0:0:0:
128,208,204577,1,0,0:0:0:0:
192,192,204646,1,2,0:0:0:0:
448,272,204782,1,0,0:0:0:0:
144,144,204918,6,2,B|160:64|160:64|256:128|256:128|256:48|256:48|272:16,1,280
257,45,205601,1,0,0:0:0:0:
352,352,205737,1,2,0:0:0:0:
257,45,205873,1,0,0:0:0:0:
160,352,206009,1,2,0:0:0:0:
257,45,206146,1,0,0:0:0:0:
352,272,206282,1,2,0:0:0:0:
256,48,206419,1,0,0:0:0:0:
160,272,206555,1,2,0:0:0:0:
256,48,206691,1,0,0:0:0:0:
352,192,206828,1,2,0:0:0:0:
256,48,206964,1,0,0:0:0:0:
160,192,207101,1,2,0:0:0:0:
256,48,207237,1,0,0:0:0:0:
256,336,207373,2,0,B|288:336|288:336|304:288,2,70
448,272,207782,1,0,0:0:0:0:
56,272,207919,1,2,0:0:0:0:
416,208,208055,1,0,0:0:0:0:
80,208,208192,1,2,0:0:0:0:
384,144,208328,1,0,0:0:0:0:
112,144,208464,1,2,0:0:0:0:
352,80,208600,1,0,0:0:0:0:
144,80,208737,1,2,0:0:0:0:
416,80,208873,1,0,0:0:0:0:
80,80,209010,1,2,0:0:0:0:
480,80,209146,1,0,0:0:0:0:
16,80,209282,2,0,L|32:64,6,17.5
16,112,209554,6,0,L|0:128,5,17.5
96,256,209827,1,2,0:0:0:0:
416,96,209964,1,0,0:0:0:0:
320,352,210100,1,2,0:0:0:0:
288,32,210237,1,0,0:0:0:0:
192,320,210373,1,2,0:0:0:0:
416,32,210510,1,0,0:0:0:0:
96,240,210646,1,2,0:0:0:0:
496,128,210782,1,0,0:0:0:0:
80,128,210919,1,2,0:0:0:0:
496,256,211055,1,0,0:0:0:0:
160,32,211192,1,2,0:0:0:0:
432,336,211328,1,0,0:0:0:0:
272,16,211463,1,2,0:0:0:0:
272,352,211600,1,0,0:0:0:0:
192,336,211668,1,0,0:0:0:0:
128,288,211736,6,0,P|96:256|80:224,2,70
256,48,212145,1,0,0:0:0:0:
464,336,212282,1,2,0:0:0:0:
176,48,212418,1,0,0:0:0:0:
464,256,212554,1,2,0:0:0:0:
96,48,212690,1,0,0:0:0:0:
464,176,212827,1,2,0:0:0:0:
16,48,212963,1,0,0:0:0:0:
256,224,213100,6,0,L|272:208,6,17.5
224,224,213372,2,0,L|192:224,6,17.5
224,256,213645,1,0,0:0:0:0:
260,304,213714,1,0,0:0:0:0:
320,304,213782,1,0,0:0:0:0:
368,268,213850,1,0,0:0:0:0:
404,220,213918,6,0,P|420:184|416:140,1,70
48,144,214190,1,2,0:0:0:0:
304,64,214327,1,0,0:0:0:0:
160,320,214463,1,2,0:0:0:0:
160,48,214600,1,0,0:0:0:0:
352,240,214736,1,2,0:0:0:0:
96,208,214872,1,0,0:0:0:0:
400,336,215009,1,2,0:0:0:0:
400,96,215145,1,0,0:0:0:0:
112,128,215282,1,2,0:0:0:0:
256,352,215418,1,0,0:0:0:0:
288,48,215554,1,2,0:0:0:0:
448,272,215691,1,0,0:0:0:0:
80,176,215827,1,2,0:0:0:0:
368,352,215963,1,0,0:0:0:0:
160,80,216100,6,0,P|192:64|224:80,2,70
128,336,216509,1,0,0:0:0:0:
432,224,216645,1,2,0:0:0:0:
112,144,216781,1,0,0:0:0:0:
416,64,216918,1,2,0:0:0:0:
352,352,217054,1,0,0:0:0:0:
224,64,217191,1,2,0:0:0:0:
224,352,217327,1,0,0:0:0:0:
352,64,217463,1,2,0:0:0:0:
32,128,217600,1,0,0:0:0:0:
256,160,217736,2,0,L|224:160,6,17.5
288,192,218008,2,0,L|304:208,6,17.5
304,160,218282,6,0,L|320:144,5,17.5
176,352,218554,1,2,0:0:0:0:
176,32,218691,1,0,0:0:0:0:
336,352,218827,1,2,0:0:0:0:
336,32,218963,1,0,0:0:0:0:
256,352,219100,1,2,0:0:0:0:
96,32,219236,1,0,0:0:0:0:
416,352,219373,1,2,0:0:0:0:
256,32,219509,1,0,0:0:0:0:
96,352,219645,1,2,0:0:0:0:
416,32,219782,1,0,0:0:0:0:
176,352,219918,1,2,0:0:0:0:
176,32,220054,1,0,0:0:0:0:
336,352,220191,1,0,0:0:0:0:
336,288,220259,1,0,0:0:0:0:
336,224,220327,2,0,L|336:144,3,70
64,192,220872,1,0,0:0:0:0:
448,192,221009,1,2,0:0:0:0:
32,240,221145,1,0,0:0:0:0:
480,144,221282,1,2,0:0:0:0:
0,288,221418,1,0,0:0:0:0:
512,96,221555,2,0,L|512:16,1,70
128,128,221964,2,0,L|208:128,1,70
224,96,222134,2,0,L|240:80,5,17.5
224,128,222372,2,0,L|256:128,6,17.5
224,176,222645,6,0,L|208:160,4,17.5
480,272,222918,1,2,0:0:0:0:
128,32,223055,1,0,0:0:0:0:
256,352,223191,1,2,0:0:0:0:
416,32,223327,1,0,0:0:0:0:
16,192,223464,1,2,0:0:0:0:
480,112,223600,1,0,0:0:0:0:
96,352,223737,1,2,0:0:0:0:
304,32,223873,1,0,0:0:0:0:
432,352,224009,1,2,0:0:0:0:
144,32,224145,1,0,0:0:0:0:
480,256,224282,1,2,0:0:0:0:
32,288,224418,1,0,0:0:0:0:
464,32,224555,1,2,0:0:0:0:
32,80,224691,1,0,0:0:0:0:
400,352,224827,1,2,0:0:0:0:
208,32,224964,1,0,0:0:0:0:
480,208,225100,1,2,0:0:0:0:
80,352,225237,1,0,0:0:0:0:
112,32,225373,1,2,0:0:0:0:
464,352,225509,1,0,0:0:0:0:
432,32,225645,1,2,0:0:0:0:
32,192,225782,1,0,0:0:0:0:
480,112,225918,1,2,0:0:0:0:
256,352,226055,1,0,0:0:0:0:
256,32,226191,1,2,0:0:0:0:
480,304,226327,1,0,0:0:0:0:
32,96,226464,1,2,0:0:0:0:
480,32,226600,1,0,0:0:0:0:
192,352,226737,1,2,0:0:0:0:
96,32,226873,1,0,0:0:0:0:
256,272,227009,6,0,P|256:160|256:128,1,140
0,352,227418,1,0,0:0:0:0:
512,352,227555,1,2,0:0:0:0:
0,288,227691,1,0,0:0:0:0:
512,288,227827,1,2,0:0:0:0:
0,224,227964,1,0,0:0:0:0:
512,224,228100,1,2,0:0:0:0:
0,160,228237,1,0,0:0:0:0:
512,160,228373,1,2,0:0:0:0:
0,96,228509,1,0,0:0:0:0:
512,96,228645,1,2,0:0:0:0:
0,32,228782,1,0,0:0:0:0:
512,32,228918,1,2,0:0:0:0:
128,384,229055,5,0,0:0:0:0:
128,0,229191,1,2,0:0:0:0:
192,384,229327,1,0,0:0:0:0:
192,0,229464,1,2,0:0:0:0:
256,384,229600,1,0,0:0:0:0:
256,0,229737,1,2,0:0:0:0:
320,384,229873,1,0,0:0:0:0:
320,0,230009,1,2,0:0:0:0:
384,384,230145,1,0,0:0:0:0:
384,0,230282,1,2,0:0:0:0:
256,80,230555,1,2,0:0:0:0:
384,256,230827,1,2,0:0:0:0:
144,256,231100,1,2,0:0:0:0:
256,16,231373,1,2,0:0:0:0:
256,80,231441,1,0,0:0:0:0:
256,144,231509,1,0,0:0:0:0:
256,208,231577,1,0,0:0:0:0:
256,272,231645,5,2,0:0:0:0:
96,0,231782,1,0,0:0:0:0:
448,384,231918,1,2,0:0:0:0:
352,0,232055,1,0,0:0:0:0:
80,384,232191,1,2,0:0:0:0:
0,64,232327,1,0,0:0:0:0:
512,96,232464,1,2,0:0:0:0:
0,192,232600,1,0,0:0:0:0:
512,272,232737,1,2,0:0:0:0:
192,0,232873,1,0,0:0:0:0:
368,384,233009,1,2,0:0:0:0:
464,0,233145,1,0,0:0:0:0:
144,384,233282,1,2,0:0:0:0:
0,64,233418,1,0,0:0:0:0:
512,176,233555,1,2,0:0:0:0:
0,224,233691,1,0,0:0:0:0:
368,0,233827,1,2,0:0:0:0:
480,384,233964,1,0,0:0:0:0:
192,0,234100,1,2,0:0:0:0:
48,384,234237,1,0,0:0:0:0:
512,288,234373,1,2,0:0:0:0:
0,96,234509,1,0,0:0:0:0:
512,80,234645,1,2,0:0:0:0:
224,384,234782,1,0,0:0:0:0:
96,0,234918,1,2,0:0:0:0:
512,176,235055,1,0,0:0:0:0:
0,208,235191,1,2,0:0:0:0:
368,0,235327,1,0,0:0:0:0:
384,384,235464,1,2,0:0:0:0:
208,16,235600,1,0,0:0:0:0:
192,256,235736,6,0,P|256:256|336:256,1,140
0,128,236145,1,0,0:0:0:0:
512,176,236282,1,2,0:0:0:0:
192,0,236418,1,0,0:0:0:0:
320,384,236555,1,2,0:0:0:0:
384,0,236691,1,0,0:0:0:0:
96,384,236827,1,2,0:0:0:0:
512,96,236964,1,0,0:0:0:0:
0,176,237100,1,2,0:0:0:0:
512,272,237237,1,0,0:0:0:0:
144,0,237373,1,2,0:0:0:0:
384,384,237509,1,0,0:0:0:0:
352,0,237645,1,2,0:0:0:0:
112,384,237782,1,0,0:0:0:0:
512,32,237918,1,2,0:0:0:0:
0,176,238055,1,0,0:0:0:0:
512,256,238191,1,2,0:0:0:0:
144,0,238327,1,0,0:0:0:0:
48,384,238464,1,2,0:0:0:0:
512,80,238600,1,0,0:0:0:0:
304,384,238737,1,2,0:0:0:0:
368,0,238873,1,0,0:0:0:0:
0,160,239009,1,2,0:0:0:0:
208,384,239145,1,0,0:0:0:0:
256,208,239282,2,0,P|304:208|336:208,1,70
400,144,239555,2,0,P|336:144|320:144,1,70
256,80,239827,2,0,P|304:80|336:80,1,70
256,144,240100,6,0,L|224:144,8,17.5
0,192,240509,1,0,0:0:0:0:
416,384,240645,1,2,0:0:0:0:
176,0,240782,1,0,0:0:0:0:
128,384,240918,1,2,0:0:0:0:
416,0,241055,1,0,0:0:0:0:
0,80,241191,1,2,0:0:0:0:
512,208,241327,1,0,0:0:0:0:
0,320,241464,1,2,0:0:0:0:
272,0,241600,1,0,0:0:0:0:
336,384,241737,1,2,0:0:0:0:
96,0,241873,1,0,0:0:0:0:
512,224,242009,1,2,0:0:0:0:
0,160,242145,1,0,0:0:0:0:
368,0,242282,1,2,0:0:0:0:
192,384,242418,1,0,0:0:0:0:
512,128,242555,1,2,0:0:0:0:
160,0,242691,1,0,0:0:0:0:
448,384,242827,1,2,0:0:0:0:
0,224,242964,1,0,0:0:0:0:
320,0,243100,1,2,0:0:0:0:
512,288,243237,1,0,0:0:0:0:
0,48,243373,1,2,0:0:0:0:
96,384,243509,1,0,0:0:0:0:
208,0,243645,1,2,0:0:0:0:
432,384,243782,1,0,0:0:0:0:
0,160,243918,1,2,0:0:0:0:
512,208,244055,1,0,0:0:0:0:
176,384,244191,1,2,0:0:0:0:
416,0,244327,1,0,0:0:0:0:
144,48,244464,6,0,B|144:112|144:112|224:112,1,140
464,384,244873,1,0,0:0:0:0:
256,0,245009,1,2,0:0:0:0:
0,288,245145,1,0,0:0:0:0:
512,128,245282,1,2,0:0:0:0:
192,384,245418,1,0,0:0:0:0:
336,0,245555,1,2,0:0:0:0:
512,320,245691,1,0,0:0:0:0:
96,0,245827,1,2,0:0:0:0:
336,384,245964,1,0,0:0:0:0:
0,160,246100,1,2,0:0:0:0:
512,176,246237,1,0,0:0:0:0:
112,384,246373,1,2,0:0:0:0:
384,0,246509,1,0,0:0:0:0:
496,384,246645,1,2,0:0:0:0:
160,0,246782,1,0,0:0:0:0:
512,256,246918,1,2,0:0:0:0:
0,80,247055,1,0,0:0:0:0:
512,112,247191,1,2,0:0:0:0:
0,304,247327,1,0,0:0:0:0:
368,0,247464,1,2,0:0:0:0:
192,384,247600,1,0,0:0:0:0:
224,0,247737,1,2,0:0:0:0:
256,192,248009,1,2,0:0:0:0:
256,192,248282,1,2,0:0:0:0:
256,192,248555,1,2,0:0:0:0:
96,96,248827,1,2,0:0:0:0:
176,96,248895,1,0,0:0:0:0:
256,96,248963,1,0,0:0:0:0:
336,96,249031,1,0,0:0:0:0:
416,96,249099,5,2,0:0:0:0:
16,0,249237,1,0,0:0:0:0:
192,384,249373,1,2,0:0:0:0:
368,0,249509,1,0,0:0:0:0:
384,384,249645,1,2,0:0:0:0:
160,0,249782,1,0,0:0:0:0:
64,384,249918,1,2,0:0:0:0:
320,0,250055,1,0,0:0:0:0:
256,384,250191,1,2,0:0:0:0:
432,0,250327,1,0,0:0:0:0:
0,256,250464,5,2,0:0:0:0:
512,256,250600,1,0,0:0:0:0:
0,144,250737,1,2,0:0:0:0:
512,112,250873,1,0,0:0:0:0:
0,32,251009,1,2,0:0:0:0:
512,352,251145,1,0,0:0:0:0:
0,368,251282,1,2,0:0:0:0:
512,176,251418,1,0,0:0:0:0:
96,0,251555,5,2,0:0:0:0:
128,384,251691,1,0,0:0:0:0:
288,0,251827,1,2,0:0:0:0:
320,384,251964,1,0,0:0:0:0:
400,0,252100,1,2,0:0:0:0:
464,384,252237,1,0,0:0:0:0:
160,0,252373,1,2,0:0:0:0:
224,384,252509,1,0,0:0:0:0:
512,0,252645,1,2,0:0:0:0:
80,384,252782,1,0,0:0:0:0:
288,0,252918,1,2,0:0:0:0:
368,384,253055,1,0,0:0:0:0:
192,192,253191,6,0,P|256:192|336:192,1,140
0,0,253600,1,0,0:0:0:0:
512,384,253737,1,2,0:0:0:0:
0,48,253873,1,0,0:0:0:0:
512,336,254009,1,2,0:0:0:0:
0,96,254145,1,0,0:0:0:0:
512,288,254282,1,2,0:0:0:0:
0,144,254418,1,0,0:0:0:0:
512,240,254555,1,2,0:0:0:0:
0,192,254691,1,0,0:0:0:0:
512,192,254827,1,2,0:0:0:0:
0,240,254964,1,0,0:0:0:0:
512,144,255100,1,2,0:0:0:0:
0,288,255237,1,0,0:0:0:0:
512,96,255373,1,2,0:0:0:0:
0,336,255509,1,0,0:0:0:0:
512,48,255645,1,2,0:0:0:0:
0,384,255782,1,0,0:0:0:0:
512,0,255918,1,2,0:0:0:0:
0,0,256055,1,0,0:0:0:0:
0,384,256191,1,2,0:0:0:0:
512,384,256327,1,0,0:0:0:0:
256,192,256464,1,2,0:0:0:0:
248,200,256532,1,0,0:0:0:0:
264,200,256600,1,0,0:0:0:0:
248,184,256668,1,0,0:0:0:0:
264,184,256737,1,2,0:0:0:0:
512,192,257009,1,2,0:0:0:0:
0,192,257282,1,2,0:0:0:0:
272,176,257555,1,2,0:0:0:0:
