osu file format v14

[General]
AudioFilename: audio.mp3
AudioLeadIn: 0
PreviewTime: 84635
Countdown: 0
SampleSet: None
StackLeniency: 0.7
Mode: 1
LetterboxInBreaks: 0
WidescreenStoryboard: 1

[Editor]
Bookmarks: 46475,50541,81261,85101,100461,115821,131061,161901,192515,207981,254061
DistanceSpacing: 1
BeatDivisor: 4
GridSize: 32
TimelineZoom: 2.699999

[Metadata]
Title:Ice Cheinsaw
TitleUnicode:Ice Cheinsaw
Artist:moro
ArtistUnicode:moro
Creator:Haypzeh
Version:hz404's Oni
Source:東方紅魔郷 ~ the Embodiment of Scarlet Devil
Tags:electronic instrumental speedcore speed core gabber gabba the most fuckin gensou hardsounds video game hpz hz404
BeatmapID:4536982
BeatmapSetID:2150208

[Difficulty]
HPDrainRate:6
CircleSize:5
OverallDifficulty:6
ApproachRate:5
SliderMultiplier:1.4
SliderTickRate:1

[Events]
//Background and Video events
0,0,"ice.jpg",0,10
//Break Periods
2,81355,83435
//Storyboard Layer 0 (Background)
//Storyboard Layer 1 (Fail)
//Storyboard Layer 2 (Pass)
//Storyboard Layer 3 (Foreground)
//Storyboard Layer 4 (Overlay)
//Storyboard Sound Samples

[TimingPoints]
1595,240,4,1,0,90,1,0
1595,-111.111111111111,4,1,0,90,0,0
2495,-111.111111111111,4,1,0,80,0,0
17855,-100,4,1,0,90,0,0
47660,-100,4,1,0,90,0,0
47780,-101.26582278481,4,1,0,90,0,0
47840,-101.910828025478,4,1,0,90,0,0
47900,-102.564102564103,4,1,0,90,0,0
48020,-103.896103896104,4,1,0,90,0,0
48140,-105.263157894737,4,1,0,90,0,0
48260,-106.666666666667,4,1,0,90,0,0
48380,-108.108108108108,4,1,0,90,0,0
48500,-109.58904109589,4,1,0,90,0,0
48620,-111.111111111111,4,1,0,90,0,0
48935,-111.111111111111,4,1,0,80,0,0
50060,-111.111111111111,4,1,0,80,0,0
50180,-114.285714285714,4,1,0,80,0,0
50300,-117.647058823529,4,1,0,80,0,0
50420,-121.212121212121,4,1,0,80,0,0
50495,-125,4,1,0,70,0,0
50540,-125,4,1,0,70,0,0
57260,-125,4,1,0,70,0,0
57380,-124.031007751938,4,1,0,70,0,0
57500,-123.076923076923,4,1,0,70,0,0
57620,-122.137404580153,4,1,0,70,0,0
57740,-121.212121212121,4,1,0,70,0,0
57980,-119.402985074627,4,1,0,70,0,0
58100,-118.518518518519,4,1,0,70,0,0
58220,-117.647058823529,4,1,0,70,0,0
64940,-117.647058823529,4,1,0,70,0,0
65180,-113.207547169811,4,1,0,70,0,0
65420,-109.090909090909,4,1,0,70,0,0
65660,-105.263157894737,4,1,0,70,0,0
65855,-100,4,1,0,90,0,0
81275,-100,4,1,0,40,0,0
82235,-125,4,1,0,40,0,0
83195,-125,4,1,0,40,0,0
84155,-142.857142857143,4,1,0,40,0,0
84515,-100,4,1,0,100,0,0
85115,-100,4,1,0,100,0,1
114875,-100,4,1,0,80,0,1
115775,-100,4,1,0,90,0,1
115835,-100,4,1,0,90,0,0
131135,-100,4,1,0,60,0,0
131180,-100,4,1,0,60,0,0
131300,-101.449275362319,4,1,0,60,0,0
131420,-102.941176470588,4,1,0,60,0,0
131540,-104.477611940299,4,1,0,60,0,0
132140,-112.903225806452,4,1,0,60,0,0
132260,-114.754098360656,4,1,0,60,0,0
132380,-116.666666666667,4,1,0,60,0,0
132500,-118.64406779661,4,1,0,60,0,0
132740,-122.80701754386,4,1,0,60,0,0
132860,-125,4,1,0,60,0,0
146495,-111.111111111111,4,1,0,80,0,0
160940,-111.111111111111,4,1,0,80,0,0
161060,-110.091743119266,4,1,0,80,0,0
161180,-109.090909090909,4,1,0,80,0,0
161300,-108.108108108108,4,1,0,80,0,0
161540,-106.194690265487,4,1,0,80,0,0
161660,-105.263157894737,4,1,0,80,0,0
177335,-125,4,1,0,70,0,0
184940,-125,4,1,0,70,0,0
185420,-123.893805309735,4,1,0,71,0,0
185900,-122.80701754386,4,1,0,71,0,0
186380,-121.739130434783,4,1,0,72,0,0
186620,-121.212121212121,4,1,0,73,0,0
186860,-120.689655172414,4,1,0,73,0,0
187340,-119.65811965812,4,1,0,74,0,0
187820,-118.64406779661,4,1,0,74,0,0
188300,-117.647058823529,4,1,0,75,0,0
188540,-117.154811715481,4,1,0,75,0,0
188780,-116.666666666667,4,1,0,76,0,0
189260,-115.702479338843,4,1,0,76,0,0
189740,-114.754098360656,4,1,0,77,0,0
190220,-113.821138211382,4,1,0,78,0,0
190460,-113.36032388664,4,1,0,78,0,0
190700,-112.903225806452,4,1,0,79,0,0
191180,-112,4,1,0,79,0,0
191660,-111.111111111111,4,1,0,80,0,0
192455,-100,4,1,0,90,0,0
207260,-111.111111111111,4,1,0,90,0,0
207380,-109.090909090909,4,1,0,90,0,0
207500,-107.142857142857,4,1,0,90,0,0
207620,-105.263157894737,4,1,0,90,0,0
207740,-103.448275862069,4,1,0,90,0,0
207860,-101.694915254237,4,1,0,90,0,0
207935,-100,4,1,0,100,0,0
207995,-100,4,1,0,100,0,1
215555,-100,4,1,0,100,0,0
215675,-100,4,1,0,100,0,1
222515,-100,4,1,0,100,0,0
223355,-100,4,1,0,100,0,1
238715,-100,4,1,0,100,0,0
238895,-100,4,1,0,90,0,0

[HitObjects]
256,192,1595,12,0,2435,0:0:0:0:
256,192,2555,5,0,0:0:0:0:
256,192,2795,1,0,0:0:0:0:
256,192,3035,1,0,0:0:0:0:
256,192,3275,1,0,0:0:0:0:
256,192,3515,1,0,0:0:0:0:
256,192,3755,1,0,0:0:0:0:
256,192,3995,1,0,0:0:0:0:
256,192,4235,1,0,0:0:0:0:
256,192,4475,1,0,0:0:0:0:
256,192,4715,1,0,0:0:0:0:
256,192,4955,1,0,0:0:0:0:
256,192,5195,1,0,0:0:0:0:
256,192,5435,1,0,0:0:0:0:
256,192,5675,1,0,0:0:0:0:
256,192,5915,1,0,0:0:0:0:
256,192,6155,1,0,0:0:0:0:
256,192,6275,1,8,0:0:0:0:
256,192,6395,1,0,0:0:0:0:
256,192,6635,1,0,0:0:0:0:
256,192,6875,1,0,0:0:0:0:
256,192,7115,1,0,0:0:0:0:
256,192,7355,1,0,0:0:0:0:
256,192,7595,1,0,0:0:0:0:
256,192,7835,1,0,0:0:0:0:
256,192,8075,1,0,0:0:0:0:
256,192,8315,1,0,0:0:0:0:
256,192,8555,1,0,0:0:0:0:
256,192,8795,1,0,0:0:0:0:
256,192,9035,1,0,0:0:0:0:
256,192,9155,1,0,0:0:0:0:
256,192,9275,1,0,0:0:0:0:
256,192,9395,1,8,0:0:0:0:
256,192,9455,1,8,0:0:0:0:
256,192,9515,1,0,0:0:0:0:
256,192,9635,1,8,0:0:0:0:
256,192,9755,1,0,0:0:0:0:
256,192,9995,1,0,0:0:0:0:
256,192,10115,1,8,0:0:0:0:
256,192,10235,1,0,0:0:0:0:
256,192,10475,1,0,0:0:0:0:
256,192,10715,1,0,0:0:0:0:
256,192,10955,1,0,0:0:0:0:
256,192,11195,1,0,0:0:0:0:
256,192,11435,1,0,0:0:0:0:
256,192,11675,1,0,0:0:0:0:
256,192,11915,1,0,0:0:0:0:
256,192,12155,1,0,0:0:0:0:
256,192,12395,1,0,0:0:0:0:
256,192,12635,1,0,0:0:0:0:
256,192,12875,1,0,0:0:0:0:
256,192,13115,1,0,0:0:0:0:
256,192,13355,1,0,0:0:0:0:
256,192,13595,1,0,0:0:0:0:
256,192,13835,1,0,0:0:0:0:
256,192,13955,1,8,0:0:0:0:
256,192,14075,1,0,0:0:0:0:
256,192,14315,1,0,0:0:0:0:
256,192,14555,1,0,0:0:0:0:
256,192,14795,1,0,0:0:0:0:
256,192,15035,1,0,0:0:0:0:
256,192,15275,1,0,0:0:0:0:
256,192,15515,1,0,0:0:0:0:
256,192,15755,1,0,0:0:0:0:
256,192,15875,1,0,0:0:0:0:
256,192,15995,1,0,0:0:0:0:
256,192,16115,1,8,0:0:0:0:
256,192,16175,1,8,0:0:0:0:
256,192,16235,1,0,0:0:0:0:
256,192,16355,1,8,0:0:0:0:
256,192,16475,1,0,0:0:0:0:
256,192,16715,1,0,0:0:0:0:
256,192,16835,1,8,0:0:0:0:
256,128,17915,5,4,0:0:0:0:
256,192,18035,1,0,0:0:0:0:
256,192,18155,1,8,0:0:0:0:
256,192,18275,1,0,0:0:0:0:
256,192,18515,1,0,0:0:0:0:
256,192,18635,1,8,0:0:0:0:
256,192,18875,1,8,0:0:0:0:
256,192,18995,1,0,0:0:0:0:
256,192,19115,1,0,0:0:0:0:
256,192,19235,1,8,0:0:0:0:
256,192,19475,1,8,0:0:0:0:
256,192,19595,1,0,0:0:0:0:
256,192,19715,1,8,0:0:0:0:
256,192,19835,1,8,0:0:0:0:
256,192,19955,1,0,0:0:0:0:
256,192,20075,1,0,0:0:0:0:
256,192,20195,1,8,0:0:0:0:
256,192,20435,1,0,0:0:0:0:
256,192,20555,1,8,0:0:0:0:
256,192,20795,1,0,0:0:0:0:
256,192,20915,1,0,0:0:0:0:
256,192,21035,1,8,0:0:0:0:
256,192,21155,1,8,0:0:0:0:
256,192,21395,1,8,0:0:0:0:
256,192,21515,1,0,0:0:0:0:
256,192,21635,1,0,0:0:0:0:
256,192,21755,1,8,0:0:0:0:
256,192,21875,1,0,0:0:0:0:
256,192,21995,1,0,0:0:0:0:
256,192,22115,1,8,0:0:0:0:
256,192,22355,1,0,0:0:0:0:
256,192,22475,1,8,0:0:0:0:
256,192,22715,1,0,0:0:0:0:
256,192,22835,1,0,0:0:0:0:
256,192,22955,1,8,0:0:0:0:
256,192,23075,1,0,0:0:0:0:
256,192,23315,1,8,0:0:0:0:
256,192,23435,1,8,0:0:0:0:
256,192,23555,1,0,0:0:0:0:
256,192,23675,1,8,0:0:0:0:
256,192,23795,1,0,0:0:0:0:
256,192,23915,1,0,0:0:0:0:
256,192,24035,1,8,0:0:0:0:
256,192,24275,1,8,0:0:0:0:
256,192,24395,1,0,0:0:0:0:
256,192,24635,1,8,0:0:0:0:
256,192,24755,1,8,0:0:0:0:
256,192,24815,1,8,0:0:0:0:
256,192,24875,1,0,0:0:0:0:
256,192,24995,1,8,0:0:0:0:
256,192,25235,1,0,0:0:0:0:
256,192,25355,1,8,0:0:0:0:
256,192,25475,1,8,0:0:0:0:
256,128,25595,1,4,0:0:0:0:
256,192,25715,1,8,0:0:0:0:
256,192,25835,1,0,0:0:0:0:
256,192,25955,1,8,0:0:0:0:
256,192,26195,1,8,0:0:0:0:
256,192,26315,1,0,0:0:0:0:
256,192,26555,1,0,0:0:0:0:
256,192,26675,1,0,0:0:0:0:
256,192,26795,1,8,0:0:0:0:
256,192,26915,1,0,0:0:0:0:
256,192,27155,1,8,0:0:0:0:
256,192,27275,1,0,0:0:0:0:
256,192,27395,1,8,0:0:0:0:
256,192,27515,1,8,0:0:0:0:
256,192,27635,1,0,0:0:0:0:
256,192,27755,1,0,0:0:0:0:
256,192,27875,1,8,0:0:0:0:
256,192,28115,1,0,0:0:0:0:
256,192,28235,1,8,0:0:0:0:
256,192,28475,1,0,0:0:0:0:
256,192,28595,1,0,0:0:0:0:
256,192,28715,1,0,0:0:0:0:
256,192,28835,1,8,0:0:0:0:
256,192,29075,1,0,0:0:0:0:
256,192,29195,1,8,0:0:0:0:
256,192,29315,1,8,0:0:0:0:
256,192,29435,1,0,0:0:0:0:
256,192,29555,1,8,0:0:0:0:
256,192,29675,1,0,0:0:0:0:
256,192,29795,1,8,0:0:0:0:
256,192,30035,1,8,0:0:0:0:
256,192,30155,1,0,0:0:0:0:
256,192,30395,1,8,0:0:0:0:
256,192,30515,1,8,0:0:0:0:
256,192,30635,1,0,0:0:0:0:
256,192,30755,1,8,0:0:0:0:
256,192,30995,1,0,0:0:0:0:
256,192,31115,1,0,0:0:0:0:
256,192,31235,1,0,0:0:0:0:
256,192,31355,1,8,0:0:0:0:
256,192,31475,1,8,0:0:0:0:
256,192,31595,1,0,0:0:0:0:
256,192,31715,1,8,0:0:0:0:
256,192,31955,1,0,0:0:0:0:
256,192,32075,1,8,0:0:0:0:
256,192,32315,1,8,0:0:0:0:
256,192,32375,1,8,0:0:0:0:
256,192,32435,1,8,0:0:0:0:
256,192,32555,1,0,0:0:0:0:
256,192,32675,1,0,0:0:0:0:
256,192,32735,1,0,0:0:0:0:
256,192,32795,1,8,0:0:0:0:
256,192,32915,1,8,0:0:0:0:
256,192,33035,1,8,0:0:0:0:
256,192,33155,1,8,0:0:0:0:
256,128,33275,1,4,0:0:0:0:
256,192,33395,1,0,0:0:0:0:
256,192,33515,1,8,0:0:0:0:
256,192,33635,1,0,0:0:0:0:
256,192,33875,1,0,0:0:0:0:
256,192,33995,1,8,0:0:0:0:
256,192,34235,1,8,0:0:0:0:
256,192,34355,1,0,0:0:0:0:
256,192,34475,1,8,0:0:0:0:
256,192,34595,1,8,0:0:0:0:
256,192,34715,1,0,0:0:0:0:
256,192,34835,1,0,0:0:0:0:
256,192,34955,1,8,0:0:0:0:
256,192,35075,1,0,0:0:0:0:
256,192,35195,1,8,0:0:0:0:
256,192,35315,1,8,0:0:0:0:
256,192,35435,1,0,0:0:0:0:
256,192,35555,1,8,0:0:0:0:
256,192,35795,1,8,0:0:0:0:
256,192,35915,1,0,0:0:0:0:
256,192,36155,1,8,0:0:0:0:
256,192,36275,1,8,0:0:0:0:
256,192,36395,1,0,0:0:0:0:
256,192,36515,1,8,0:0:0:0:
256,192,36635,1,0,0:0:0:0:
256,192,36755,1,0,0:0:0:0:
256,192,36875,1,8,0:0:0:0:
256,192,36935,1,8,0:0:0:0:
256,192,36995,1,8,0:0:0:0:
256,128,37115,1,4,0:0:0:0:
256,192,37235,1,0,0:0:0:0:
256,192,37355,1,8,0:0:0:0:
256,192,37475,1,8,0:0:0:0:
256,192,37715,1,0,0:0:0:0:
256,192,37835,1,8,0:0:0:0:
256,192,38075,1,8,0:0:0:0:
256,192,38195,1,0,0:0:0:0:
256,192,38315,1,8,0:0:0:0:
256,192,38435,1,8,0:0:0:0:
256,192,38555,1,0,0:0:0:0:
256,192,38675,1,8,0:0:0:0:
256,192,38795,1,0,0:0:0:0:
256,192,38915,1,0,0:0:0:0:
256,192,38975,1,0,0:0:0:0:
256,192,39035,1,8,0:0:0:0:
256,192,39155,1,8,0:0:0:0:
256,192,39275,1,0,0:0:0:0:
256,192,39395,1,8,0:0:0:0:
256,192,39635,1,8,0:0:0:0:
256,192,39755,1,0,0:0:0:0:
256,192,39995,1,8,0:0:0:0:
256,192,40115,1,8,0:0:0:0:
256,192,40235,1,0,0:0:0:0:
256,192,40355,1,0,0:0:0:0:
256,192,40475,1,8,0:0:0:0:
256,192,40535,1,8,0:0:0:0:
256,192,40595,1,8,0:0:0:0:
256,192,40715,1,0,0:0:0:0:
256,192,40835,1,8,0:0:0:0:
256,128,40955,1,4,0:0:0:0:
256,192,41075,1,0,0:0:0:0:
256,192,41195,1,8,0:0:0:0:
256,192,41315,1,0,0:0:0:0:
256,192,41555,1,0,0:0:0:0:
256,192,41675,1,8,0:0:0:0:
256,192,41915,1,0,0:0:0:0:
256,192,42035,1,0,0:0:0:0:
256,192,42155,1,8,0:0:0:0:
256,192,42275,1,8,0:0:0:0:
256,192,42395,1,0,0:0:0:0:
256,192,42515,1,8,0:0:0:0:
256,192,42635,1,0,0:0:0:0:
256,192,42755,1,0,0:0:0:0:
256,192,42875,1,8,0:0:0:0:
256,192,42995,1,8,0:0:0:0:
256,192,43115,1,0,0:0:0:0:
256,192,43235,1,8,0:0:0:0:
256,192,43475,1,8,0:0:0:0:
256,192,43595,1,0,0:0:0:0:
256,192,43835,1,0,0:0:0:0:
256,192,43955,1,0,0:0:0:0:
256,192,44075,1,8,0:0:0:0:
256,192,44195,1,8,0:0:0:0:
256,192,44315,1,0,0:0:0:0:
256,192,44375,1,0,0:0:0:0:
256,192,44435,1,8,0:0:0:0:
256,192,44555,1,0,0:0:0:0:
256,192,44675,1,8,0:0:0:0:
256,128,44795,1,4,0:0:0:0:
256,192,44915,1,0,0:0:0:0:
256,192,45035,1,8,0:0:0:0:
256,192,45155,1,0,0:0:0:0:
256,192,45395,1,8,0:0:0:0:
256,192,45515,1,0,0:0:0:0:
256,192,45755,1,8,0:0:0:0:
256,192,45875,1,8,0:0:0:0:
256,192,45995,1,0,0:0:0:0:
256,192,46115,1,8,0:0:0:0:
256,192,46235,1,0,0:0:0:0:
256,192,46355,1,0,0:0:0:0:
256,192,46475,1,8,0:0:0:0:
256,192,46595,1,0,0:0:0:0:
256,192,46655,1,0,0:0:0:0:
256,192,46715,1,8,0:0:0:0:
256,192,46835,1,8,0:0:0:0:
256,192,46955,1,0,0:0:0:0:
256,192,47075,1,8,0:0:0:0:
256,192,47315,1,0,0:0:0:0:
256,192,47435,1,8,0:0:0:0:
256,192,47555,1,8,0:0:0:0:
256,192,47675,1,0,0:0:0:0:
256,192,47795,1,0,0:0:0:0:
256,192,47855,1,0,0:0:0:0:
256,192,47915,1,8,0:0:0:0:
256,192,48035,1,8,0:0:0:0:
256,192,48155,1,0,0:0:0:0:
256,192,48275,1,0,0:0:0:0:
256,192,48395,1,8,0:0:0:0:
256,192,48515,1,8,0:0:0:0:
256,192,48635,1,0,0:0:0:0:
256,192,48995,1,8,0:0:0:0:
256,192,49235,1,8,0:0:0:0:
256,192,49475,1,8,0:0:0:0:
256,192,49595,1,8,0:0:0:0:
256,192,50075,1,0,0:0:0:0:
256,192,50195,1,0,0:0:0:0:
256,192,50315,1,8,0:0:0:0:
256,192,50435,1,8,0:0:0:0:
256,192,50555,1,0,0:0:0:0:
256,192,50795,1,8,0:0:0:0:
256,192,51035,1,0,0:0:0:0:
256,192,51155,1,0,0:0:0:0:
256,192,51275,1,8,0:0:0:0:
256,192,51515,1,0,0:0:0:0:
256,192,51755,1,8,0:0:0:0:
256,192,51995,1,0,0:0:0:0:
256,192,52115,1,8,0:0:0:0:
256,192,52235,1,0,0:0:0:0:
256,192,52355,1,8,0:0:0:0:
256,192,52475,1,0,0:0:0:0:
256,192,52715,1,8,0:0:0:0:
256,192,52955,1,8,0:0:0:0:
256,192,53075,1,0,0:0:0:0:
256,192,53195,1,8,0:0:0:0:
256,192,53435,1,0,0:0:0:0:
256,192,53675,1,8,0:0:0:0:
256,192,53795,1,8,0:0:0:0:
256,192,53915,1,0,0:0:0:0:
256,192,54035,1,8,0:0:0:0:
256,192,54155,1,0,0:0:0:0:
256,192,54275,1,8,0:0:0:0:
256,192,54395,1,0,0:0:0:0:
256,192,54635,1,8,0:0:0:0:
256,192,54875,1,0,0:0:0:0:
256,192,54995,1,0,0:0:0:0:
256,192,55115,1,8,0:0:0:0:
256,192,55355,1,8,0:0:0:0:
256,192,55595,1,0,0:0:0:0:
256,192,55835,1,8,0:0:0:0:
256,192,55955,1,0,0:0:0:0:
256,192,56075,1,8,0:0:0:0:
256,192,56195,1,8,0:0:0:0:
256,192,56315,1,0,0:0:0:0:
256,192,56555,1,8,0:0:0:0:
256,192,56795,1,0,0:0:0:0:
256,192,56915,1,0,0:0:0:0:
256,192,57035,1,8,0:0:0:0:
256,192,57275,1,0,0:0:0:0:
256,192,57395,1,0,0:0:0:0:
256,192,57515,1,8,0:0:0:0:
256,192,57635,1,8,0:0:0:0:
256,192,57755,1,8,0:0:0:0:
256,192,57995,1,8,0:0:0:0:
256,192,58115,1,8,0:0:0:0:
256,192,58235,1,0,0:0:0:0:
256,192,58475,1,8,0:0:0:0:
256,192,58715,1,0,0:0:0:0:
256,192,58835,1,0,0:0:0:0:
256,192,58955,1,8,0:0:0:0:
256,192,59075,1,8,0:0:0:0:
256,192,59195,1,0,0:0:0:0:
256,192,59435,1,0,0:0:0:0:
256,192,59555,1,8,0:0:0:0:
256,192,59675,1,0,0:0:0:0:
256,192,59795,1,0,0:0:0:0:
256,192,59915,1,8,0:0:0:0:
256,192,60035,1,8,0:0:0:0:
256,192,60155,1,0,0:0:0:0:
256,192,60395,1,8,0:0:0:0:
256,192,60515,1,8,0:0:0:0:
256,192,60635,1,0,0:0:0:0:
256,192,60755,1,0,0:0:0:0:
256,192,60875,1,8,0:0:0:0:
256,192,60995,1,8,0:0:0:0:
256,192,61115,1,0,0:0:0:0:
256,192,61355,1,8,0:0:0:0:
256,192,61595,1,0,0:0:0:0:
256,192,61715,1,8,0:0:0:0:
256,192,61835,1,0,0:0:0:0:
256,192,61955,1,8,0:0:0:0:
256,192,62075,1,0,0:0:0:0:
256,192,62315,1,8,0:0:0:0:
256,192,62435,1,8,0:0:0:0:
256,192,62555,1,0,0:0:0:0:
256,192,62675,1,0,0:0:0:0:
256,192,62795,1,8,0:0:0:0:
256,192,62915,1,0,0:0:0:0:
256,192,63035,1,8,0:0:0:0:
256,192,63275,1,0,0:0:0:0:
256,192,63395,1,8,0:0:0:0:
256,192,63515,1,0,0:0:0:0:
256,192,63635,1,0,0:0:0:0:
256,192,63755,1,8,0:0:0:0:
256,192,63995,1,0,0:0:0:0:
256,192,64115,1,0,0:0:0:0:
256,192,64235,1,8,0:0:0:0:
256,192,64355,1,8,0:0:0:0:
256,192,64475,1,0,0:0:0:0:
256,192,64595,1,8,0:0:0:0:
256,192,64715,1,8,0:0:0:0:
256,192,64835,1,0,0:0:0:0:
256,192,64955,1,8,0:0:0:0:
256,192,65195,1,8,0:0:0:0:
256,192,65435,1,8,0:0:0:0:
256,192,65675,1,8,0:0:0:0:
256,128,65915,1,4,0:0:0:0:
256,192,66155,1,8,0:0:0:0:
256,128,66395,1,4,0:0:0:0:
256,192,66635,1,8,0:0:0:0:
256,192,66755,1,8,0:0:0:0:
256,128,66875,1,4,0:0:0:0:
256,192,67115,1,8,0:0:0:0:
256,192,67355,1,0,0:0:0:0:
256,192,67475,1,0,0:0:0:0:
256,192,67595,1,8,0:0:0:0:
256,192,67655,1,8,0:0:0:0:
256,192,67715,1,8,0:0:0:0:
256,128,67835,1,4,0:0:0:0:
256,192,68075,1,8,0:0:0:0:
256,128,68315,1,4,0:0:0:0:
256,192,68555,1,8,0:0:0:0:
256,192,68675,1,8,0:0:0:0:
256,128,68795,1,4,0:0:0:0:
256,192,69035,1,0,0:0:0:0:
256,192,69155,1,8,0:0:0:0:
256,192,69215,1,8,0:0:0:0:
256,192,69275,1,8,0:0:0:0:
256,192,69515,1,8,0:0:0:0:
256,192,69635,1,8,0:0:0:0:
256,128,69755,1,4,0:0:0:0:
256,192,69995,1,8,0:0:0:0:
256,128,70235,1,4,0:0:0:0:
256,192,70475,1,8,0:0:0:0:
256,192,70595,1,8,0:0:0:0:
256,128,70715,1,4,0:0:0:0:
256,192,70955,1,8,0:0:0:0:
256,192,71195,1,0,0:0:0:0:
256,192,71315,1,0,0:0:0:0:
256,192,71435,1,8,0:0:0:0:
256,192,71495,1,8,0:0:0:0:
256,192,71555,1,8,0:0:0:0:
256,128,71675,1,4,0:0:0:0:
256,192,71915,1,8,0:0:0:0:
256,128,72155,1,4,0:0:0:0:
256,192,72395,1,8,0:0:0:0:
256,192,72515,1,8,0:0:0:0:
256,128,72635,1,4,0:0:0:0:
256,192,72875,1,0,0:0:0:0:
256,192,72995,1,8,0:0:0:0:
256,192,73055,1,8,0:0:0:0:
256,192,73115,1,8,0:0:0:0:
256,192,73355,1,8,0:0:0:0:
256,128,73595,1,4,0:0:0:0:
256,192,73835,1,8,0:0:0:0:
256,128,74075,1,4,0:0:0:0:
256,192,74315,1,8,0:0:0:0:
256,192,74435,1,8,0:0:0:0:
256,128,74555,1,4,0:0:0:0:
256,192,74795,1,8,0:0:0:0:
256,192,75035,1,0,0:0:0:0:
256,192,75155,1,0,0:0:0:0:
256,192,75275,1,8,0:0:0:0:
256,192,75335,1,8,0:0:0:0:
256,192,75395,1,8,0:0:0:0:
256,128,75515,1,4,0:0:0:0:
256,192,75755,1,8,0:0:0:0:
256,128,75995,1,4,0:0:0:0:
256,192,76235,1,8,0:0:0:0:
256,192,76355,1,8,0:0:0:0:
256,128,76475,1,4,0:0:0:0:
256,192,76715,1,0,0:0:0:0:
256,192,76835,1,8,0:0:0:0:
256,192,76895,1,8,0:0:0:0:
256,192,76955,1,8,0:0:0:0:
256,192,77195,1,8,0:0:0:0:
256,128,77435,1,4,0:0:0:0:
256,192,77675,1,8,0:0:0:0:
256,128,77915,1,4,0:0:0:0:
256,192,78155,1,8,0:0:0:0:
256,192,78275,1,8,0:0:0:0:
256,128,78395,1,4,0:0:0:0:
256,192,78635,1,8,0:0:0:0:
256,192,78875,1,0,0:0:0:0:
256,192,78995,1,0,0:0:0:0:
256,192,79115,1,8,0:0:0:0:
256,192,79175,1,8,0:0:0:0:
256,192,79235,1,8,0:0:0:0:
256,128,79355,1,4,0:0:0:0:
256,192,79595,1,8,0:0:0:0:
256,128,79835,1,4,0:0:0:0:
256,192,80075,1,8,0:0:0:0:
256,192,80195,1,8,0:0:0:0:
256,128,80315,1,4,0:0:0:0:
256,192,80555,1,0,0:0:0:0:
256,192,80675,1,8,0:0:0:0:
256,192,80735,1,8,0:0:0:0:
256,192,80795,1,8,0:0:0:0:
256,192,81035,1,8,0:0:0:0:
256,192,81155,1,8,0:0:0:0:
256,192,84635,5,0,0:0:0:0:
256,192,84755,1,0,0:0:0:0:
256,192,84875,1,8,0:0:0:0:
256,192,84995,1,8,0:0:0:0:
256,128,85115,1,4,0:0:0:0:
256,192,85355,1,0,0:0:0:0:
256,192,85475,1,8,0:0:0:0:
256,192,85595,1,0,0:0:0:0:
256,192,85655,1,8,0:0:0:0:
256,192,85715,1,0,0:0:0:0:
256,192,85775,1,0,0:0:0:0:
256,192,85835,1,8,0:0:0:0:
256,192,85955,1,8,0:0:0:0:
256,192,86075,1,0,0:0:0:0:
256,192,86195,1,8,0:0:0:0:
256,192,86255,1,8,0:0:0:0:
256,192,86315,1,0,0:0:0:0:
256,192,86435,1,8,0:0:0:0:
256,192,86555,1,0,0:0:0:0:
256,192,86615,1,0,0:0:0:0:
256,192,86675,1,0,0:0:0:0:
256,192,86795,1,8,0:0:0:0:
256,192,86915,1,8,0:0:0:0:
256,192,87035,1,0,0:0:0:0:
256,192,87275,1,8,0:0:0:0:
256,192,87395,1,0,0:0:0:0:
256,192,87515,1,8,0:0:0:0:
256,192,87575,1,8,0:0:0:0:
256,192,87635,1,0,0:0:0:0:
256,192,87695,1,8,0:0:0:0:
256,192,87755,1,0,0:0:0:0:
256,192,87875,1,8,0:0:0:0:
256,192,87995,1,0,0:0:0:0:
256,192,88115,1,0,0:0:0:0:
256,192,88175,1,0,0:0:0:0:
256,192,88235,1,8,0:0:0:0:
256,192,88355,1,0,0:0:0:0:
256,192,88475,1,8,0:0:0:0:
256,192,88595,1,0,0:0:0:0:
256,192,88715,1,8,0:0:0:0:
256,192,88775,1,8,0:0:0:0:
256,192,88835,1,8,0:0:0:0:
256,192,88895,1,8,0:0:0:0:
256,192,88955,1,0,0:0:0:0:
256,192,89195,1,8,0:0:0:0:
256,192,89315,1,8,0:0:0:0:
256,192,89435,1,0,0:0:0:0:
256,192,89555,1,0,0:0:0:0:
256,192,89615,1,0,0:0:0:0:
256,192,89675,1,8,0:0:0:0:
256,192,89795,1,8,0:0:0:0:
256,192,89915,1,0,0:0:0:0:
256,192,90035,1,8,0:0:0:0:
256,192,90095,1,0,0:0:0:0:
256,192,90155,1,8,0:0:0:0:
256,192,90275,1,0,0:0:0:0:
256,192,90335,1,0,0:0:0:0:
256,192,90395,1,8,0:0:0:0:
256,192,90455,1,0,0:0:0:0:
256,192,90515,1,8,0:0:0:0:
256,192,90635,1,8,0:0:0:0:
256,192,90755,1,8,0:0:0:0:
256,192,90815,1,8,0:0:0:0:
256,192,90875,1,0,0:0:0:0:
256,192,91115,1,0,0:0:0:0:
256,192,91235,1,8,0:0:0:0:
256,192,91355,1,0,0:0:0:0:
256,192,91475,1,0,0:0:0:0:
256,192,91535,1,0,0:0:0:0:
256,192,91595,1,8,0:0:0:0:
256,192,91715,1,8,0:0:0:0:
256,192,91835,1,0,0:0:0:0:
256,192,91955,1,8,0:0:0:0:
256,192,92015,1,8,0:0:0:0:
256,192,92075,1,0,0:0:0:0:
256,192,92195,1,0,0:0:0:0:
256,192,92315,1,8,0:0:0:0:
256,192,92375,1,8,0:0:0:0:
256,192,92435,1,0,0:0:0:0:
256,192,92495,1,8,0:0:0:0:
256,192,92555,1,0,0:0:0:0:
256,192,92675,1,8,0:0:0:0:
256,192,92735,1,8,0:0:0:0:
256,192,92795,1,0,0:0:0:0:
256,192,93035,1,0,0:0:0:0:
256,192,93155,1,8,0:0:0:0:
256,192,93275,1,0,0:0:0:0:
256,192,93335,1,0,0:0:0:0:
256,192,93395,1,8,0:0:0:0:
256,192,93455,1,0,0:0:0:0:
256,192,93515,1,8,0:0:0:0:
256,192,93635,1,0,0:0:0:0:
256,192,93755,1,8,0:0:0:0:
256,192,93875,1,0,0:0:0:0:
256,192,93935,1,0,0:0:0:0:
256,192,93995,1,8,0:0:0:0:
256,192,94115,1,0,0:0:0:0:
256,192,94235,1,0,0:0:0:0:
256,192,94295,1,8,0:0:0:0:
256,192,94355,1,0,0:0:0:0:
256,192,94475,1,8,0:0:0:0:
256,192,94595,1,8,0:0:0:0:
256,192,94715,1,0,0:0:0:0:
256,192,94955,1,8,0:0:0:0:
256,192,95075,1,0,0:0:0:0:
256,192,95195,1,8,0:0:0:0:
256,192,95255,1,8,0:0:0:0:
256,192,95315,1,0,0:0:0:0:
256,192,95375,1,0,0:0:0:0:
256,192,95435,1,8,0:0:0:0:
256,192,95555,1,8,0:0:0:0:
256,192,95675,1,0,0:0:0:0:
256,192,95795,1,0,0:0:0:0:
256,192,95855,1,0,0:0:0:0:
256,192,95915,1,8,0:0:0:0:
256,192,96155,1,8,0:0:0:0:
256,192,96275,1,0,0:0:0:0:
256,192,96395,1,8,0:0:0:0:
256,192,96455,1,8,0:0:0:0:
256,192,96515,1,8,0:0:0:0:
256,192,96575,1,8,0:0:0:0:
256,192,96635,1,0,0:0:0:0:
256,192,96875,1,8,0:0:0:0:
256,192,96995,1,0,0:0:0:0:
256,192,97115,1,8,0:0:0:0:
256,192,97235,1,8,0:0:0:0:
256,192,97295,1,8,0:0:0:0:
256,192,97355,1,0,0:0:0:0:
256,192,97475,1,0,0:0:0:0:
256,192,97595,1,8,0:0:0:0:
256,192,97715,1,0,0:0:0:0:
256,192,97775,1,0,0:0:0:0:
256,192,97835,1,8,0:0:0:0:
256,192,97955,1,8,0:0:0:0:
256,192,98015,1,8,0:0:0:0:
256,192,98075,1,0,0:0:0:0:
256,192,98135,1,8,0:0:0:0:
256,192,98195,1,0,0:0:0:0:
256,192,98315,1,8,0:0:0:0:
256,192,98435,1,8,0:0:0:0:
256,192,98495,1,8,0:0:0:0:
256,192,98555,1,0,0:0:0:0:
256,192,98795,1,8,0:0:0:0:
256,192,98915,1,8,0:0:0:0:
256,192,99035,1,0,0:0:0:0:
256,192,99155,1,8,0:0:0:0:
256,192,99215,1,0,0:0:0:0:
256,192,99275,1,8,0:0:0:0:
256,192,99395,1,0,0:0:0:0:
256,192,99515,1,8,0:0:0:0:
256,192,99635,1,0,0:0:0:0:
256,192,99695,1,0,0:0:0:0:
256,192,99755,1,8,0:0:0:0:
256,192,99875,1,0,0:0:0:0:
256,192,99995,1,8,0:0:0:0:
256,192,100055,1,8,0:0:0:0:
256,192,100115,1,0,0:0:0:0:
256,192,100175,1,0,0:0:0:0:
256,192,100235,1,8,0:0:0:0:
256,192,100355,1,8,0:0:0:0:
256,128,100475,1,4,0:0:0:0:
256,192,100715,1,8,0:0:0:0:
256,192,100955,1,0,0:0:0:0:
256,192,101075,1,0,0:0:0:0:
256,192,101195,1,8,0:0:0:0:
256,192,101315,1,8,0:0:0:0:
256,192,101435,1,0,0:0:0:0:
256,192,101555,1,0,0:0:0:0:
256,192,101615,1,0,0:0:0:0:
256,192,101675,1,8,0:0:0:0:
256,192,101795,1,0,0:0:0:0:
256,192,101855,1,8,0:0:0:0:
256,192,101915,1,0,0:0:0:0:
256,192,102035,1,0,0:0:0:0:
256,192,102155,1,8,0:0:0:0:
256,128,102395,1,4,0:0:0:0:
256,192,102635,1,8,0:0:0:0:
256,192,102875,1,8,0:0:0:0:
256,192,102995,1,0,0:0:0:0:
256,192,103115,1,8,0:0:0:0:
256,192,103235,1,8,0:0:0:0:
256,192,103295,1,8,0:0:0:0:
256,192,103355,1,0,0:0:0:0:
256,192,103475,1,0,0:0:0:0:
256,192,103595,1,8,0:0:0:0:
256,192,103715,1,0,0:0:0:0:
256,192,103775,1,0,0:0:0:0:
256,192,103835,1,8,0:0:0:0:
256,192,103955,1,0,0:0:0:0:
256,192,104075,1,8,0:0:0:0:
256,128,104315,1,4,0:0:0:0:
256,192,104555,1,8,0:0:0:0:
256,192,104795,1,0,0:0:0:0:
256,192,104915,1,8,0:0:0:0:
256,192,105035,1,0,0:0:0:0:
256,192,105155,1,0,0:0:0:0:
256,192,105215,1,0,0:0:0:0:
256,192,105275,1,8,0:0:0:0:
256,192,105395,1,0,0:0:0:0:
256,192,105515,1,8,0:0:0:0:
256,192,105635,1,0,0:0:0:0:
256,192,105695,1,8,0:0:0:0:
256,192,105755,1,0,0:0:0:0:
256,192,105875,1,0,0:0:0:0:
256,192,105995,1,8,0:0:0:0:
256,128,106235,1,4,0:0:0:0:
256,192,106475,1,8,0:0:0:0:
256,192,106715,1,0,0:0:0:0:
256,192,106835,1,0,0:0:0:0:
256,192,106955,1,8,0:0:0:0:
256,192,107075,1,8,0:0:0:0:
256,192,107135,1,8,0:0:0:0:
256,192,107195,1,0,0:0:0:0:
256,192,107315,1,0,0:0:0:0:
256,192,107375,1,0,0:0:0:0:
256,192,107435,1,8,0:0:0:0:
256,192,107555,1,8,0:0:0:0:
256,192,107675,1,0,0:0:0:0:
256,192,107915,1,0,0:0:0:0:
256,192,108035,1,8,0:0:0:0:
256,128,108155,1,4,0:0:0:0:
256,192,108395,1,8,0:0:0:0:
256,192,108635,1,0,0:0:0:0:
256,192,108755,1,0,0:0:0:0:
256,192,108875,1,8,0:0:0:0:
256,192,108995,1,0,0:0:0:0:
256,192,109115,1,8,0:0:0:0:
256,192,109235,1,0,0:0:0:0:
256,192,109295,1,0,0:0:0:0:
256,192,109355,1,8,0:0:0:0:
256,192,109475,1,0,0:0:0:0:
256,192,109535,1,8,0:0:0:0:
256,192,109595,1,0,0:0:0:0:
256,192,109715,1,0,0:0:0:0:
256,192,109835,1,8,0:0:0:0:
256,128,110075,1,4,0:0:0:0:
256,192,110315,1,8,0:0:0:0:
256,192,110555,1,0,0:0:0:0:
256,192,110675,1,0,0:0:0:0:
256,192,110795,1,8,0:0:0:0:
256,192,110915,1,8,0:0:0:0:
256,192,110975,1,0,0:0:0:0:
256,192,111035,1,0,0:0:0:0:
256,192,111155,1,0,0:0:0:0:
256,192,111275,1,8,0:0:0:0:
256,192,111395,1,0,0:0:0:0:
256,192,111455,1,0,0:0:0:0:
256,192,111515,1,8,0:0:0:0:
256,192,111635,1,8,0:0:0:0:
256,192,111695,1,0,0:0:0:0:
256,192,111755,1,8,0:0:0:0:
256,192,111875,1,8,0:0:0:0:
256,128,111995,1,4,0:0:0:0:
256,192,112235,1,8,0:0:0:0:
256,192,112475,1,0,0:0:0:0:
256,192,112595,1,8,0:0:0:0:
256,192,112715,1,8,0:0:0:0:
256,192,112835,1,0,0:0:0:0:
256,192,112895,1,0,0:0:0:0:
256,192,112955,1,8,0:0:0:0:
256,192,113075,1,8,0:0:0:0:
256,192,113195,1,0,0:0:0:0:
256,192,113315,1,8,0:0:0:0:
256,192,113375,1,8,0:0:0:0:
256,192,113435,1,0,0:0:0:0:
256,192,113555,1,0,0:0:0:0:
256,192,113675,1,8,0:0:0:0:
256,192,113795,1,8,0:0:0:0:
256,128,113915,1,4,0:0:0:0:
256,192,114035,1,0,0:0:0:0:
256,192,114095,1,0,0:0:0:0:
256,192,114155,1,8,0:0:0:0:
256,192,114275,1,8,0:0:0:0:
256,192,114395,1,0,0:0:0:0:
256,192,114515,1,0,0:0:0:0:
256,192,114635,1,8,0:0:0:0:
256,192,114755,1,8,0:0:0:0:
256,192,114815,1,8,0:0:0:0:
256,192,114875,1,0,0:0:0:0:
256,192,114995,1,0,0:0:0:0:
256,192,115115,1,8,0:0:0:0:
256,192,115235,1,8,0:0:0:0:
256,192,115355,1,0,0:0:0:0:
256,192,115595,1,0,0:0:0:0:
256,128,115835,1,12,0:0:0:0:
256,192,116075,1,0,0:0:0:0:
256,192,116195,1,0,0:0:0:0:
256,192,116315,1,8,0:0:0:0:
256,192,116435,1,0,0:0:0:0:
256,192,116495,1,0,0:0:0:0:
256,192,116555,1,8,0:0:0:0:
256,192,116675,1,8,0:0:0:0:
256,192,116795,1,0,0:0:0:0:
256,192,116915,1,0,0:0:0:0:
256,192,117035,1,8,0:0:0:0:
256,192,117155,1,8,0:0:0:0:
256,192,117215,1,8,0:0:0:0:
256,192,117275,1,0,0:0:0:0:
256,192,117395,1,0,0:0:0:0:
256,192,117515,1,8,0:0:0:0:
256,192,117755,1,0,0:0:0:0:
256,192,117875,1,0,0:0:0:0:
256,192,117995,1,8,0:0:0:0:
256,192,118115,1,0,0:0:0:0:
256,192,118175,1,8,0:0:0:0:
256,192,118235,1,0,0:0:0:0:
256,192,118355,1,0,0:0:0:0:
256,192,118475,1,8,0:0:0:0:
256,192,118595,1,8,0:0:0:0:
256,192,118715,1,0,0:0:0:0:
256,192,118835,1,0,0:0:0:0:
256,192,118895,1,0,0:0:0:0:
256,192,118955,1,8,0:0:0:0:
256,192,119075,1,0,0:0:0:0:
256,192,119195,1,8,0:0:0:0:
256,192,119255,1,8,0:0:0:0:
256,192,119315,1,8,0:0:0:0:
256,192,119435,1,0,0:0:0:0:
256,192,119555,1,0,0:0:0:0:
256,128,119675,1,12,0:0:0:0:
256,192,119915,1,8,0:0:0:0:
256,192,120035,1,0,0:0:0:0:
256,192,120155,1,0,0:0:0:0:
256,192,120275,1,8,0:0:0:0:
256,192,120335,1,8,0:0:0:0:
256,192,120395,1,0,0:0:0:0:
256,192,120515,1,0,0:0:0:0:
256,192,120635,1,8,0:0:0:0:
256,192,120755,1,0,0:0:0:0:
256,192,120875,1,8,0:0:0:0:
256,192,120995,1,0,0:0:0:0:
256,192,121055,1,0,0:0:0:0:
256,192,121115,1,8,0:0:0:0:
256,192,121235,1,0,0:0:0:0:
256,192,121355,1,8,0:0:0:0:
256,192,121595,1,0,0:0:0:0:
256,192,121715,1,0,0:0:0:0:
256,192,121835,1,8,0:0:0:0:
256,192,121955,1,0,0:0:0:0:
256,192,122015,1,8,0:0:0:0:
256,192,122075,1,0,0:0:0:0:
256,192,122195,1,0,0:0:0:0:
256,192,122315,1,8,0:0:0:0:
256,192,122435,1,8,0:0:0:0:
256,192,122555,1,0,0:0:0:0:
256,192,122675,1,8,0:0:0:0:
256,192,122735,1,8,0:0:0:0:
256,192,122795,1,0,0:0:0:0:
256,192,122915,1,8,0:0:0:0:
256,192,123035,1,0,0:0:0:0:
256,192,123275,1,0,0:0:0:0:
256,128,123515,1,12,0:0:0:0:
256,192,123755,1,8,0:0:0:0:
256,192,123875,1,0,0:0:0:0:
256,192,123995,1,8,0:0:0:0:
256,192,124115,1,8,0:0:0:0:
256,192,124175,1,8,0:0:0:0:
256,192,124235,1,0,0:0:0:0:
256,192,124355,1,0,0:0:0:0:
256,192,124475,1,8,0:0:0:0:
256,192,124595,1,0,0:0:0:0:
256,192,124715,1,8,0:0:0:0:
256,192,124835,1,0,0:0:0:0:
256,192,124895,1,0,0:0:0:0:
256,192,124955,1,8,0:0:0:0:
256,192,125075,1,0,0:0:0:0:
256,192,125195,1,8,0:0:0:0:
256,192,125435,1,0,0:0:0:0:
256,192,125555,1,0,0:0:0:0:
256,192,125675,1,8,0:0:0:0:
256,192,125795,1,0,0:0:0:0:
256,192,125855,1,8,0:0:0:0:
256,192,125915,1,0,0:0:0:0:
256,192,126035,1,0,0:0:0:0:
256,192,126155,1,8,0:0:0:0:
256,192,126275,1,8,0:0:0:0:
256,192,126395,1,0,0:0:0:0:
256,192,126515,1,0,0:0:0:0:
256,192,126575,1,0,0:0:0:0:
256,192,126635,1,8,0:0:0:0:
256,192,126755,1,0,0:0:0:0:
256,192,126875,1,8,0:0:0:0:
256,192,126935,1,8,0:0:0:0:
256,192,126995,1,8,0:0:0:0:
256,192,127115,1,0,0:0:0:0:
256,192,127235,1,0,0:0:0:0:
256,128,127355,1,12,0:0:0:0:
256,192,127595,1,0,0:0:0:0:
256,192,127715,1,8,0:0:0:0:
256,192,127835,1,0,0:0:0:0:
256,192,127955,1,8,0:0:0:0:
256,192,128015,1,8,0:0:0:0:
256,192,128075,1,0,0:0:0:0:
256,192,128195,1,0,0:0:0:0:
256,192,128315,1,8,0:0:0:0:
256,192,128435,1,0,0:0:0:0:
256,192,128555,1,8,0:0:0:0:
256,192,128675,1,0,0:0:0:0:
256,192,128735,1,0,0:0:0:0:
256,192,128795,1,8,0:0:0:0:
256,192,128915,1,0,0:0:0:0:
256,192,129035,1,8,0:0:0:0:
256,192,129275,1,0,0:0:0:0:
256,192,129395,1,0,0:0:0:0:
256,192,129515,1,8,0:0:0:0:
256,192,129635,1,8,0:0:0:0:
256,192,129695,1,8,0:0:0:0:
256,192,129755,1,0,0:0:0:0:
256,192,129875,1,0,0:0:0:0:
256,192,129995,1,8,0:0:0:0:
256,192,130115,1,8,0:0:0:0:
256,192,130235,1,0,0:0:0:0:
256,192,130355,1,8,0:0:0:0:
256,192,130415,1,8,0:0:0:0:
256,192,130475,1,0,0:0:0:0:
256,192,130535,1,0,0:0:0:0:
256,192,130595,1,8,0:0:0:0:
256,192,130715,1,0,0:0:0:0:
256,192,130835,1,0,0:0:0:0:
256,192,130955,1,8,0:0:0:0:
256,192,131075,1,8,0:0:0:0:
256,192,131195,1,0,0:0:0:0:
256,192,131315,1,0,0:0:0:0:
256,192,131435,1,0,0:0:0:0:
256,192,131555,1,8,0:0:0:0:
256,192,132155,1,8,0:0:0:0:
256,192,132275,1,0,0:0:0:0:
256,192,132395,1,0,0:0:0:0:
256,192,132515,1,8,0:0:0:0:
256,192,132755,1,8,0:0:0:0:
256,192,132875,1,0,0:0:0:0:
256,192,133115,1,8,0:0:0:0:
256,192,133235,1,0,0:0:0:0:
256,192,133355,1,0,0:0:0:0:
256,192,133475,1,8,0:0:0:0:
256,192,134075,1,0,0:0:0:0:
256,192,134195,1,0,0:0:0:0:
256,192,134315,1,8,0:0:0:0:
256,192,134435,1,8,0:0:0:0:
256,192,134675,1,8,0:0:0:0:
256,192,134795,1,0,0:0:0:0:
256,192,135035,1,8,0:0:0:0:
256,192,135155,1,0,0:0:0:0:
256,192,135275,1,0,0:0:0:0:
256,192,135395,1,8,0:0:0:0:
256,192,135995,1,0,0:0:0:0:
256,192,136115,1,0,0:0:0:0:
256,192,136235,1,0,0:0:0:0:
256,192,136355,1,8,0:0:0:0:
256,192,136595,1,0,0:0:0:0:
256,192,136715,1,0,0:0:0:0:
256,192,136955,1,8,0:0:0:0:
256,192,137075,1,8,0:0:0:0:
256,192,137195,1,0,0:0:0:0:
256,192,137315,1,8,0:0:0:0:
256,192,137915,1,8,0:0:0:0:
256,192,138035,1,0,0:0:0:0:
256,192,138155,1,0,0:0:0:0:
256,192,138275,1,8,0:0:0:0:
256,192,138515,1,8,0:0:0:0:
256,192,138635,1,0,0:0:0:0:
256,192,138875,1,8,0:0:0:0:
256,192,138995,1,8,0:0:0:0:
256,192,139115,1,0,0:0:0:0:
256,192,139235,1,8,0:0:0:0:
256,192,139835,1,0,0:0:0:0:
256,192,139955,1,0,0:0:0:0:
256,192,140075,1,8,0:0:0:0:
256,192,140195,1,8,0:0:0:0:
256,192,140435,1,8,0:0:0:0:
256,192,140555,1,0,0:0:0:0:
256,192,140795,1,8,0:0:0:0:
256,192,140915,1,0,0:0:0:0:
256,192,141035,1,0,0:0:0:0:
256,192,141155,1,8,0:0:0:0:
256,192,141755,1,0,0:0:0:0:
256,192,141875,1,0,0:0:0:0:
256,192,141995,1,0,0:0:0:0:
256,192,142115,1,8,0:0:0:0:
256,192,142355,1,8,0:0:0:0:
256,192,142475,1,0,0:0:0:0:
256,192,142715,1,8,0:0:0:0:
256,192,142835,1,0,0:0:0:0:
256,192,142955,1,0,0:0:0:0:
256,192,143075,1,8,0:0:0:0:
256,192,143675,1,0,0:0:0:0:
256,192,143795,1,0,0:0:0:0:
256,192,143915,1,8,0:0:0:0:
256,192,144035,1,8,0:0:0:0:
256,192,144275,1,8,0:0:0:0:
256,192,144395,1,0,0:0:0:0:
256,192,144635,1,8,0:0:0:0:
256,192,144755,1,0,0:0:0:0:
256,192,144875,1,0,0:0:0:0:
256,192,144995,1,8,0:0:0:0:
256,192,145595,1,0,0:0:0:0:
256,192,145715,1,0,0:0:0:0:
256,192,145835,1,0,0:0:0:0:
256,192,145955,1,8,0:0:0:0:
256,192,146195,1,8,0:0:0:0:
256,192,146315,1,0,0:0:0:0:
256,128,146555,1,12,0:0:0:0:
256,192,146675,1,0,0:0:0:0:
256,192,146795,1,0,0:0:0:0:
256,192,146915,1,8,0:0:0:0:
256,192,147515,1,0,0:0:0:0:
256,192,147635,1,0,0:0:0:0:
256,192,147755,1,0,0:0:0:0:
256,192,147875,1,8,0:0:0:0:
256,192,148115,1,8,0:0:0:0:
256,192,148235,1,0,0:0:0:0:
256,192,148475,1,8,0:0:0:0:
256,192,148595,1,0,0:0:0:0:
256,192,148715,1,0,0:0:0:0:
256,192,148835,1,8,0:0:0:0:
256,192,149435,1,0,0:0:0:0:
256,192,149555,1,0,0:0:0:0:
256,192,149675,1,8,0:0:0:0:
256,192,149795,1,8,0:0:0:0:
256,192,150035,1,8,0:0:0:0:
256,192,150155,1,0,0:0:0:0:
256,192,150395,1,8,0:0:0:0:
256,192,150515,1,0,0:0:0:0:
256,192,150635,1,0,0:0:0:0:
256,192,150755,1,8,0:0:0:0:
256,192,151355,1,0,0:0:0:0:
256,192,151475,1,0,0:0:0:0:
256,192,151595,1,0,0:0:0:0:
256,192,151715,1,8,0:0:0:0:
256,192,151955,1,0,0:0:0:0:
256,192,152075,1,0,0:0:0:0:
256,192,152315,1,8,0:0:0:0:
256,192,152435,1,8,0:0:0:0:
256,192,152555,1,0,0:0:0:0:
256,192,152675,1,8,0:0:0:0:
256,192,153275,1,8,0:0:0:0:
256,192,153395,1,0,0:0:0:0:
256,192,153515,1,0,0:0:0:0:
256,192,153635,1,8,0:0:0:0:
256,192,153875,1,8,0:0:0:0:
256,192,153995,1,0,0:0:0:0:
256,192,154235,1,8,0:0:0:0:
256,192,154355,1,8,0:0:0:0:
256,192,154475,1,0,0:0:0:0:
256,192,154595,1,8,0:0:0:0:
256,192,155195,1,0,0:0:0:0:
256,192,155315,1,0,0:0:0:0:
256,192,155435,1,8,0:0:0:0:
256,192,155555,1,8,0:0:0:0:
256,192,155795,1,8,0:0:0:0:
256,192,155915,1,0,0:0:0:0:
256,192,156155,1,8,0:0:0:0:
256,192,156275,1,0,0:0:0:0:
256,192,156395,1,0,0:0:0:0:
256,192,156515,1,8,0:0:0:0:
256,192,157115,1,0,0:0:0:0:
256,192,157235,1,0,0:0:0:0:
256,192,157355,1,0,0:0:0:0:
256,192,157475,1,8,0:0:0:0:
256,192,157715,1,8,0:0:0:0:
256,192,157835,1,0,0:0:0:0:
256,192,158075,1,8,0:0:0:0:
256,192,158195,1,0,0:0:0:0:
256,192,158315,1,0,0:0:0:0:
256,192,158435,1,8,0:0:0:0:
256,192,159035,1,0,0:0:0:0:
256,192,159155,1,0,0:0:0:0:
256,192,159275,1,8,0:0:0:0:
256,192,159395,1,8,0:0:0:0:
256,192,159635,1,8,0:0:0:0:
256,192,159755,1,0,0:0:0:0:
256,192,159995,1,8,0:0:0:0:
256,192,160115,1,0,0:0:0:0:
256,192,160235,1,0,0:0:0:0:
256,192,160355,1,8,0:0:0:0:
256,192,160955,1,0,0:0:0:0:
256,192,161075,1,0,0:0:0:0:
256,192,161195,1,0,0:0:0:0:
256,192,161315,1,8,0:0:0:0:
256,192,161555,1,8,0:0:0:0:
256,192,161675,1,0,0:0:0:0:
256,192,161915,1,0,0:0:0:0:
256,192,162155,1,0,0:0:0:0:
256,192,162275,1,8,0:0:0:0:
256,192,162395,1,0,0:0:0:0:
256,192,162515,1,0,0:0:0:0:
256,192,162635,1,8,0:0:0:0:
256,192,162755,1,8,0:0:0:0:
256,192,162875,1,0,0:0:0:0:
256,192,162995,1,0,0:0:0:0:
256,192,163115,1,8,0:0:0:0:
256,192,163235,1,0,0:0:0:0:
256,192,163355,1,8,0:0:0:0:
256,192,163475,1,8,0:0:0:0:
256,192,163595,1,0,0:0:0:0:
256,192,163835,1,0,0:0:0:0:
256,192,164075,1,8,0:0:0:0:
256,192,164195,1,8,0:0:0:0:
256,192,164315,1,0,0:0:0:0:
256,192,164435,1,0,0:0:0:0:
256,192,164555,1,8,0:0:0:0:
256,192,164675,1,8,0:0:0:0:
256,192,164795,1,0,0:0:0:0:
256,192,164915,1,8,0:0:0:0:
256,192,165035,1,0,0:0:0:0:
256,192,165155,1,0,0:0:0:0:
256,192,165275,1,8,0:0:0:0:
256,192,165395,1,8,0:0:0:0:
256,192,165515,1,0,0:0:0:0:
256,192,165755,1,0,0:0:0:0:
256,192,165995,1,8,0:0:0:0:
256,192,166115,1,8,0:0:0:0:
256,192,166235,1,0,0:0:0:0:
256,192,166355,1,0,0:0:0:0:
256,192,166475,1,8,0:0:0:0:
256,192,166595,1,0,0:0:0:0:
256,192,166715,1,8,0:0:0:0:
256,192,166835,1,8,0:0:0:0:
256,192,166955,1,0,0:0:0:0:
256,192,167075,1,8,0:0:0:0:
256,192,167195,1,0,0:0:0:0:
256,192,167315,1,0,0:0:0:0:
256,192,167435,1,8,0:0:0:0:
256,192,167675,1,0,0:0:0:0:
256,192,167915,1,8,0:0:0:0:
256,192,168035,1,0,0:0:0:0:
256,192,168155,1,8,0:0:0:0:
256,192,168275,1,8,0:0:0:0:
256,192,168395,1,0,0:0:0:0:
256,192,168515,1,0,0:0:0:0:
256,192,168635,1,8,0:0:0:0:
256,192,168755,1,8,0:0:0:0:
256,192,168875,1,8,0:0:0:0:
256,192,168995,1,8,0:0:0:0:
256,192,169115,1,0,0:0:0:0:
256,192,169235,1,0,0:0:0:0:
256,192,169355,1,8,0:0:0:0:
256,192,169595,1,0,0:0:0:0:
256,192,169835,1,8,0:0:0:0:
256,192,169955,1,8,0:0:0:0:
256,192,170075,1,0,0:0:0:0:
256,192,170195,1,0,0:0:0:0:
256,192,170315,1,8,0:0:0:0:
256,192,170435,1,0,0:0:0:0:
256,192,170555,1,8,0:0:0:0:
256,192,170675,1,8,0:0:0:0:
256,192,170795,1,0,0:0:0:0:
256,192,170915,1,8,0:0:0:0:
256,192,171035,1,0,0:0:0:0:
256,192,171155,1,0,0:0:0:0:
256,192,171275,1,8,0:0:0:0:
256,192,171515,1,0,0:0:0:0:
256,192,171755,1,8,0:0:0:0:
256,192,171875,1,0,0:0:0:0:
256,192,171995,1,8,0:0:0:0:
256,192,172115,1,8,0:0:0:0:
256,192,172235,1,0,0:0:0:0:
256,192,172355,1,0,0:0:0:0:
256,192,172475,1,8,0:0:0:0:
256,192,172595,1,8,0:0:0:0:
256,192,172715,1,0,0:0:0:0:
256,192,172835,1,8,0:0:0:0:
256,192,172955,1,8,0:0:0:0:
256,192,173075,1,0,0:0:0:0:
256,192,173195,1,8,0:0:0:0:
256,192,173435,1,0,0:0:0:0:
256,192,173675,1,0,0:0:0:0:
256,192,173795,1,8,0:0:0:0:
256,192,173915,1,0,0:0:0:0:
256,192,174035,1,0,0:0:0:0:
256,192,174155,1,8,0:0:0:0:
256,192,174275,1,8,0:0:0:0:
256,192,174395,1,0,0:0:0:0:
256,192,174515,1,8,0:0:0:0:
256,192,174635,1,8,0:0:0:0:
256,192,174755,1,8,0:0:0:0:
256,192,174875,1,0,0:0:0:0:
256,192,174995,1,8,0:0:0:0:
256,192,175115,1,0,0:0:0:0:
256,192,175355,1,0,0:0:0:0:
256,192,175595,1,8,0:0:0:0:
256,192,175715,1,8,0:0:0:0:
256,192,175835,1,0,0:0:0:0:
256,192,175955,1,0,0:0:0:0:
256,192,176075,1,8,0:0:0:0:
256,192,176195,1,8,0:0:0:0:
256,192,176315,1,0,0:0:0:0:
256,192,176435,1,8,0:0:0:0:
256,192,176555,1,0,0:0:0:0:
256,192,176675,1,0,0:0:0:0:
256,192,176795,1,8,0:0:0:0:
256,192,176915,1,0,0:0:0:0:
256,192,177035,1,8,0:0:0:0:
256,192,177155,1,0,0:0:0:0:
256,128,177275,1,12,0:0:0:0:
256,192,177755,1,0,0:0:0:0:
256,192,178235,1,0,0:0:0:0:
256,192,178715,1,0,0:0:0:0:
256,192,178955,1,0,0:0:0:0:
256,192,179195,1,0,0:0:0:0:
256,192,179675,1,0,0:0:0:0:
256,192,180155,1,0,0:0:0:0:
256,192,180635,1,0,0:0:0:0:
256,192,180875,1,0,0:0:0:0:
256,128,181115,1,12,0:0:0:0:
256,192,181595,1,0,0:0:0:0:
256,192,182075,1,0,0:0:0:0:
256,192,182555,1,0,0:0:0:0:
256,192,182795,1,0,0:0:0:0:
256,192,183035,1,0,0:0:0:0:
256,192,183515,1,0,0:0:0:0:
256,192,183875,1,0,0:0:0:0:
256,192,183995,1,0,0:0:0:0:
256,192,184235,1,0,0:0:0:0:
256,192,184355,1,0,0:0:0:0:
256,192,184475,1,0,0:0:0:0:
256,192,184715,1,0,0:0:0:0:
256,128,184955,1,12,0:0:0:0:
256,192,185435,1,0,0:0:0:0:
256,192,185915,1,0,0:0:0:0:
256,192,186395,1,0,0:0:0:0:
256,192,186635,1,0,0:0:0:0:
256,192,186875,1,0,0:0:0:0:
256,192,187355,1,0,0:0:0:0:
256,192,187835,1,0,0:0:0:0:
256,192,188315,1,0,0:0:0:0:
256,192,188555,1,0,0:0:0:0:
256,128,188795,1,12,0:0:0:0:
256,192,189275,1,0,0:0:0:0:
256,192,189755,1,0,0:0:0:0:
256,192,190235,1,0,0:0:0:0:
256,192,190475,1,0,0:0:0:0:
256,192,190715,1,0,0:0:0:0:
256,192,191195,1,0,0:0:0:0:
256,192,191675,1,0,0:0:0:0:
256,192,192515,1,0,0:0:0:0:
256,192,192635,1,8,0:0:0:0:
256,192,192875,1,0,0:0:0:0:
256,192,192995,1,8,0:0:0:0:
256,192,193115,1,0,0:0:0:0:
256,192,193235,1,0,0:0:0:0:
256,192,193355,1,8,0:0:0:0:
256,192,193475,1,0,0:0:0:0:
256,192,193595,1,8,0:0:0:0:
256,192,193715,1,8,0:0:0:0:
256,192,193835,1,0,0:0:0:0:
256,192,193955,1,8,0:0:0:0:
256,192,194075,1,0,0:0:0:0:
256,192,194195,1,8,0:0:0:0:
256,192,194315,1,8,0:0:0:0:
256,192,194435,1,0,0:0:0:0:
256,192,194555,1,8,0:0:0:0:
256,192,194795,1,0,0:0:0:0:
256,192,194915,1,0,0:0:0:0:
256,192,195035,1,8,0:0:0:0:
256,192,195155,1,0,0:0:0:0:
256,192,195275,1,8,0:0:0:0:
256,192,195395,1,8,0:0:0:0:
256,192,195515,1,0,0:0:0:0:
256,192,195635,1,8,0:0:0:0:
256,192,195695,1,8,0:0:0:0:
256,192,195755,1,0,0:0:0:0:
256,192,195875,1,8,0:0:0:0:
256,192,195995,1,0,0:0:0:0:
256,192,196115,1,0,0:0:0:0:
256,192,196235,1,8,0:0:0:0:
256,192,196355,1,8,0:0:0:0:
256,192,196475,1,0,0:0:0:0:
256,192,196715,1,0,0:0:0:0:
256,192,196835,1,8,0:0:0:0:
256,192,196955,1,0,0:0:0:0:
256,192,197075,1,8,0:0:0:0:
256,192,197195,1,8,0:0:0:0:
256,192,197315,1,0,0:0:0:0:
256,192,197435,1,8,0:0:0:0:
256,192,197555,1,0,0:0:0:0:
256,192,197675,1,8,0:0:0:0:
256,192,197795,1,8,0:0:0:0:
256,192,197915,1,0,0:0:0:0:
256,192,198035,1,8,0:0:0:0:
256,192,198155,1,0,0:0:0:0:
256,192,198275,1,0,0:0:0:0:
256,192,198395,1,8,0:0:0:0:
256,192,198635,1,0,0:0:0:0:
256,192,198755,1,0,0:0:0:0:
256,192,198875,1,8,0:0:0:0:
256,192,198995,1,8,0:0:0:0:
256,192,199115,1,0,0:0:0:0:
256,192,199235,1,8,0:0:0:0:
256,192,199355,1,0,0:0:0:0:
256,192,199475,1,0,0:0:0:0:
256,192,199535,1,0,0:0:0:0:
256,192,199595,1,8,0:0:0:0:
256,192,199715,1,8,0:0:0:0:
256,192,199835,1,0,0:0:0:0:
256,192,199955,1,8,0:0:0:0:
256,192,200015,1,8,0:0:0:0:
256,192,200075,1,0,0:0:0:0:
256,192,200195,1,8,0:0:0:0:
256,192,200315,1,0,0:0:0:0:
256,192,200555,1,8,0:0:0:0:
256,192,200675,1,0,0:0:0:0:
256,192,200795,1,8,0:0:0:0:
256,192,200915,1,8,0:0:0:0:
256,192,201035,1,0,0:0:0:0:
256,192,201155,1,0,0:0:0:0:
256,192,201275,1,8,0:0:0:0:
256,192,201395,1,0,0:0:0:0:
256,192,201515,1,8,0:0:0:0:
256,192,201635,1,8,0:0:0:0:
256,192,201755,1,0,0:0:0:0:
256,192,201875,1,8,0:0:0:0:
256,192,201995,1,0,0:0:0:0:
256,192,202055,1,0,0:0:0:0:
256,192,202115,1,8,0:0:0:0:
256,192,202235,1,0,0:0:0:0:
256,192,202475,1,0,0:0:0:0:
256,192,202595,1,8,0:0:0:0:
256,192,202715,1,0,0:0:0:0:
256,192,202835,1,0,0:0:0:0:
256,192,202955,1,8,0:0:0:0:
256,192,203075,1,0,0:0:0:0:
256,192,203195,1,8,0:0:0:0:
256,192,203315,1,8,0:0:0:0:
256,192,203375,1,8,0:0:0:0:
256,192,203435,1,0,0:0:0:0:
256,192,203555,1,8,0:0:0:0:
256,192,203615,1,0,0:0:0:0:
256,192,203675,1,0,0:0:0:0:
256,192,203795,1,0,0:0:0:0:
256,192,203915,1,8,0:0:0:0:
256,192,204035,1,8,0:0:0:0:
256,192,204155,1,0,0:0:0:0:
256,192,204395,1,0,0:0:0:0:
256,192,204515,1,0,0:0:0:0:
256,192,204635,1,8,0:0:0:0:
256,192,204755,1,0,0:0:0:0:
256,192,204875,1,8,0:0:0:0:
256,192,204995,1,8,0:0:0:0:
256,192,205115,1,0,0:0:0:0:
256,192,205235,1,8,0:0:0:0:
256,192,205355,1,0,0:0:0:0:
256,192,205475,1,0,0:0:0:0:
256,192,205595,1,8,0:0:0:0:
256,192,205715,1,8,0:0:0:0:
256,192,205835,1,0,0:0:0:0:
256,192,205895,1,0,0:0:0:0:
256,192,205955,1,8,0:0:0:0:
256,192,206075,1,0,0:0:0:0:
256,192,206315,1,8,0:0:0:0:
256,192,206435,1,8,0:0:0:0:
256,192,206555,1,0,0:0:0:0:
256,192,206675,1,0,0:0:0:0:
256,192,206795,1,8,0:0:0:0:
256,192,206915,1,0,0:0:0:0:
256,192,207035,1,8,0:0:0:0:
256,192,207275,1,8,0:0:0:0:
256,192,207395,1,8,0:0:0:0:
256,192,207515,1,8,0:0:0:0:
256,192,207635,1,8,0:0:0:0:
256,192,207755,1,8,0:0:0:0:
256,192,207875,1,8,0:0:0:0:
256,128,207995,1,4,0:0:0:0:
256,192,208235,1,8,0:0:0:0:
256,192,208355,1,0,0:0:0:0:
256,192,208415,1,0,0:0:0:0:
256,192,208475,1,8,0:0:0:0:
256,192,208535,1,8,0:0:0:0:
256,192,208595,1,0,0:0:0:0:
256,192,208715,1,8,0:0:0:0:
256,192,208835,1,0,0:0:0:0:
256,192,208895,1,8,0:0:0:0:
256,192,208955,1,0,0:0:0:0:
256,192,209075,1,0,0:0:0:0:
256,192,209195,1,8,0:0:0:0:
256,192,209315,1,8,0:0:0:0:
256,192,209375,1,8,0:0:0:0:
256,192,209435,1,0,0:0:0:0:
256,192,209495,1,0,0:0:0:0:
256,192,209555,1,0,0:0:0:0:
256,192,209675,1,8,0:0:0:0:
256,192,209795,1,8,0:0:0:0:
256,192,209915,1,0,0:0:0:0:
256,192,210155,1,8,0:0:0:0:
256,192,210275,1,0,0:0:0:0:
256,192,210335,1,8,0:0:0:0:
256,192,210395,1,0,0:0:0:0:
256,192,210455,1,0,0:0:0:0:
256,192,210515,1,8,0:0:0:0:
256,192,210635,1,0,0:0:0:0:
256,192,210755,1,8,0:0:0:0:
256,192,210815,1,8,0:0:0:0:
256,192,210875,1,0,0:0:0:0:
256,192,210995,1,0,0:0:0:0:
256,192,211115,1,8,0:0:0:0:
256,192,211235,1,8,0:0:0:0:
256,192,211295,1,0,0:0:0:0:
256,192,211355,1,8,0:0:0:0:
256,192,211415,1,8,0:0:0:0:
256,192,211475,1,0,0:0:0:0:
256,192,211595,1,8,0:0:0:0:
256,192,211715,1,8,0:0:0:0:
256,192,211835,1,0,0:0:0:0:
256,192,212075,1,0,0:0:0:0:
256,192,212195,1,8,0:0:0:0:
256,192,212255,1,8,0:0:0:0:
256,192,212315,1,0,0:0:0:0:
256,192,212375,1,0,0:0:0:0:
256,192,212435,1,8,0:0:0:0:
256,192,212555,1,0,0:0:0:0:
256,192,212675,1,8,0:0:0:0:
256,192,212735,1,0,0:0:0:0:
256,192,212795,1,8,0:0:0:0:
256,192,212915,1,0,0:0:0:0:
256,192,213035,1,8,0:0:0:0:
256,192,213155,1,0,0:0:0:0:
256,192,213215,1,8,0:0:0:0:
256,192,213275,1,0,0:0:0:0:
256,192,213335,1,0,0:0:0:0:
256,192,213395,1,8,0:0:0:0:
256,192,213515,1,8,0:0:0:0:
256,192,213635,1,8,0:0:0:0:
256,192,213755,1,0,0:0:0:0:
256,192,213995,1,8,0:0:0:0:
256,192,214115,1,0,0:0:0:0:
256,192,214175,1,0,0:0:0:0:
256,192,214235,1,8,0:0:0:0:
256,192,214295,1,0,0:0:0:0:
256,192,214355,1,8,0:0:0:0:
256,192,214475,1,0,0:0:0:0:
256,192,214595,1,8,0:0:0:0:
256,192,214655,1,8,0:0:0:0:
256,192,214715,1,0,0:0:0:0:
256,192,214835,1,0,0:0:0:0:
256,192,214955,1,8,0:0:0:0:
256,192,215075,1,0,0:0:0:0:
256,192,215135,1,0,0:0:0:0:
256,192,215195,1,8,0:0:0:0:
256,192,215255,1,8,0:0:0:0:
256,192,215315,1,0,0:0:0:0:
256,192,215435,1,8,0:0:0:0:
256,192,215555,1,8,0:0:0:0:
256,128,215675,1,4,0:0:0:0:
256,192,215915,1,0,0:0:0:0:
256,192,216035,1,8,0:0:0:0:
256,192,216155,1,0,0:0:0:0:
256,192,216215,1,0,0:0:0:0:
256,192,216275,1,8,0:0:0:0:
256,192,216335,1,8,0:0:0:0:
256,192,216395,1,0,0:0:0:0:
256,192,216515,1,8,0:0:0:0:
256,192,216635,1,0,0:0:0:0:
256,192,216755,1,8,0:0:0:0:
256,192,216815,1,8,0:0:0:0:
256,192,216875,1,0,0:0:0:0:
256,192,216995,1,8,0:0:0:0:
256,192,217115,1,0,0:0:0:0:
256,192,217175,1,0,0:0:0:0:
256,192,217235,1,8,0:0:0:0:
256,192,217295,1,0,0:0:0:0:
256,192,217355,1,8,0:0:0:0:
256,192,217475,1,8,0:0:0:0:
256,192,217595,1,0,0:0:0:0:
256,192,217835,1,8,0:0:0:0:
256,192,217955,1,8,0:0:0:0:
256,192,218075,1,0,0:0:0:0:
256,192,218135,1,8,0:0:0:0:
256,192,218195,1,0,0:0:0:0:
256,192,218255,1,0,0:0:0:0:
256,192,218315,1,8,0:0:0:0:
256,192,218435,1,0,0:0:0:0:
256,192,218555,1,8,0:0:0:0:
256,192,218675,1,0,0:0:0:0:
256,192,218735,1,0,0:0:0:0:
256,192,218795,1,8,0:0:0:0:
256,192,218915,1,8,0:0:0:0:
256,192,219035,1,0,0:0:0:0:
256,192,219155,1,8,0:0:0:0:
256,192,219215,1,8,0:0:0:0:
256,192,219275,1,0,0:0:0:0:
256,192,219335,1,8,0:0:0:0:
256,192,219395,1,0,0:0:0:0:
256,192,219515,1,8,0:0:0:0:
256,192,219755,1,8,0:0:0:0:
256,192,219875,1,0,0:0:0:0:
256,192,219995,1,8,0:0:0:0:
256,192,220055,1,8,0:0:0:0:
256,192,220115,1,0,0:0:0:0:
256,192,220175,1,0,0:0:0:0:
256,192,220235,1,8,0:0:0:0:
256,192,220355,1,8,0:0:0:0:
256,192,220475,1,0,0:0:0:0:
256,192,220595,1,0,0:0:0:0:
256,192,220655,1,0,0:0:0:0:
256,192,220715,1,8,0:0:0:0:
256,192,220835,1,8,0:0:0:0:
256,192,220955,1,0,0:0:0:0:
256,192,221015,1,8,0:0:0:0:
256,192,221075,1,0,0:0:0:0:
256,192,221135,1,0,0:0:0:0:
256,192,221195,1,8,0:0:0:0:
256,192,221315,1,0,0:0:0:0:
256,192,221435,1,8,0:0:0:0:
256,192,221675,1,0,0:0:0:0:
256,192,221795,1,8,0:0:0:0:
256,192,221915,1,0,0:0:0:0:
256,192,221975,1,0,0:0:0:0:
256,192,222035,1,8,0:0:0:0:
256,192,222095,1,0,0:0:0:0:
256,192,222155,1,8,0:0:0:0:
256,192,222275,1,8,0:0:0:0:
256,192,222395,1,0,0:0:0:0:
256,192,222515,1,8,0:0:0:0:
256,192,222575,1,8,0:0:0:0:
256,192,222635,1,0,0:0:0:0:
256,192,222755,1,8,0:0:0:0:
256,192,222875,1,0,0:0:0:0:
256,192,222995,1,0,0:0:0:0:
256,192,223115,1,8,0:0:0:0:
256,192,223235,1,8,0:0:0:0:
256,128,223355,1,4,0:0:0:0:
256,192,223595,1,8,0:0:0:0:
256,192,223715,1,0,0:0:0:0:
256,192,223775,1,8,0:0:0:0:
256,192,223835,1,0,0:0:0:0:
256,192,223895,1,0,0:0:0:0:
256,192,223955,1,8,0:0:0:0:
256,192,224075,1,0,0:0:0:0:
256,192,224195,1,8,0:0:0:0:
256,192,224255,1,8,0:0:0:0:
256,192,224315,1,0,0:0:0:0:
256,192,224435,1,0,0:0:0:0:
256,192,224555,1,8,0:0:0:0:
256,192,224675,1,0,0:0:0:0:
256,192,224735,1,0,0:0:0:0:
256,192,224795,1,8,0:0:0:0:
256,192,224855,1,0,0:0:0:0:
256,192,224915,1,8,0:0:0:0:
256,192,225035,1,0,0:0:0:0:
256,192,225155,1,8,0:0:0:0:
256,192,225215,1,8,0:0:0:0:
256,192,225275,1,0,0:0:0:0:
256,192,225515,1,8,0:0:0:0:
256,192,225635,1,0,0:0:0:0:
256,192,225695,1,0,0:0:0:0:
256,192,225755,1,8,0:0:0:0:
256,192,225815,1,8,0:0:0:0:
256,192,225875,1,0,0:0:0:0:
256,192,225995,1,8,0:0:0:0:
256,192,226115,1,8,0:0:0:0:
256,192,226175,1,8,0:0:0:0:
256,192,226235,1,0,0:0:0:0:
256,192,226355,1,0,0:0:0:0:
256,192,226475,1,8,0:0:0:0:
256,192,226595,1,0,0:0:0:0:
256,192,226655,1,8,0:0:0:0:
256,192,226715,1,8,0:0:0:0:
256,192,226775,1,0,0:0:0:0:
256,192,226835,1,8,0:0:0:0:
256,192,226955,1,8,0:0:0:0:
256,192,227075,1,0,0:0:0:0:
256,192,227135,1,0,0:0:0:0:
256,192,227195,1,8,0:0:0:0:
256,192,227435,1,8,0:0:0:0:
256,192,227555,1,0,0:0:0:0:
256,192,227615,1,0,0:0:0:0:
256,192,227675,1,8,0:0:0:0:
256,192,227735,1,0,0:0:0:0:
256,192,227795,1,8,0:0:0:0:
256,192,227915,1,0,0:0:0:0:
256,192,228035,1,8,0:0:0:0:
256,192,228095,1,0,0:0:0:0:
256,192,228155,1,0,0:0:0:0:
256,192,228275,1,0,0:0:0:0:
256,192,228395,1,8,0:0:0:0:
256,192,228515,1,0,0:0:0:0:
256,192,228575,1,8,0:0:0:0:
256,192,228635,1,0,0:0:0:0:
256,192,228695,1,0,0:0:0:0:
256,192,228755,1,8,0:0:0:0:
256,192,228875,1,8,0:0:0:0:
256,192,228995,1,8,0:0:0:0:
256,192,229055,1,8,0:0:0:0:
256,192,229115,1,0,0:0:0:0:
256,192,229355,1,0,0:0:0:0:
256,192,229475,1,8,0:0:0:0:
256,192,229535,1,8,0:0:0:0:
256,192,229595,1,0,0:0:0:0:
256,192,229655,1,8,0:0:0:0:
256,192,229715,1,0,0:0:0:0:
256,192,229835,1,8,0:0:0:0:
256,192,229955,1,0,0:0:0:0:
256,192,230015,1,0,0:0:0:0:
256,192,230075,1,8,0:0:0:0:
256,192,230195,1,0,0:0:0:0:
256,192,230315,1,8,0:0:0:0:
256,192,230435,1,0,0:0:0:0:
256,192,230495,1,0,0:0:0:0:
256,192,230555,1,8,0:0:0:0:
256,192,230615,1,8,0:0:0:0:
256,192,230675,1,0,0:0:0:0:
256,192,230795,1,8,0:0:0:0:
256,192,230915,1,8,0:0:0:0:
256,128,231035,1,4,0:0:0:0:
256,192,231275,1,0,0:0:0:0:
256,192,231395,1,8,0:0:0:0:
256,192,231515,1,0,0:0:0:0:
256,192,231575,1,0,0:0:0:0:
256,192,231635,1,8,0:0:0:0:
256,192,231695,1,0,0:0:0:0:
256,192,231755,1,8,0:0:0:0:
256,192,231875,1,8,0:0:0:0:
256,192,231935,1,8,0:0:0:0:
256,192,231995,1,0,0:0:0:0:
256,192,232115,1,0,0:0:0:0:
256,192,232235,1,8,0:0:0:0:
256,192,232355,1,0,0:0:0:0:
256,192,232415,1,0,0:0:0:0:
256,192,232475,1,8,0:0:0:0:
256,192,232535,1,8,0:0:0:0:
256,192,232595,1,0,0:0:0:0:
256,192,232715,1,8,0:0:0:0:
256,192,232835,1,0,0:0:0:0:
256,192,232895,1,0,0:0:0:0:
256,192,232955,1,8,0:0:0:0:
256,192,233195,1,8,0:0:0:0:
256,192,233315,1,0,0:0:0:0:
256,192,233435,1,8,0:0:0:0:
256,192,233495,1,8,0:0:0:0:
256,192,233555,1,0,0:0:0:0:
256,192,233615,1,0,0:0:0:0:
256,192,233675,1,8,0:0:0:0:
256,192,233795,1,0,0:0:0:0:
256,192,233855,1,8,0:0:0:0:
256,192,233915,1,0,0:0:0:0:
256,192,234035,1,0,0:0:0:0:
256,192,234155,1,8,0:0:0:0:
256,192,234275,1,0,0:0:0:0:
256,192,234335,1,8,0:0:0:0:
256,192,234395,1,8,0:0:0:0:
256,192,234455,1,0,0:0:0:0:
256,192,234515,1,8,0:0:0:0:
256,192,234635,1,0,0:0:0:0:
256,192,234755,1,8,0:0:0:0:
256,192,234815,1,8,0:0:0:0:
256,192,234875,1,0,0:0:0:0:
256,192,235115,1,0,0:0:0:0:
256,192,235235,1,8,0:0:0:0:
256,192,235355,1,0,0:0:0:0:
256,192,235415,1,0,0:0:0:0:
256,192,235475,1,8,0:0:0:0:
256,192,235535,1,0,0:0:0:0:
256,192,235595,1,8,0:0:0:0:
256,192,235715,1,0,0:0:0:0:
256,192,235775,1,8,0:0:0:0:
256,192,235835,1,0,0:0:0:0:
256,192,235955,1,0,0:0:0:0:
256,192,236075,1,8,0:0:0:0:
256,192,236195,1,0,0:0:0:0:
256,192,236255,1,0,0:0:0:0:
256,192,236315,1,8,0:0:0:0:
256,192,236375,1,8,0:0:0:0:
256,192,236435,1,0,0:0:0:0:
256,192,236555,1,8,0:0:0:0:
256,192,236675,1,0,0:0:0:0:
256,192,236735,1,0,0:0:0:0:
256,192,236795,1,8,0:0:0:0:
256,192,237035,1,0,0:0:0:0:
256,192,237155,1,8,0:0:0:0:
256,192,237275,1,0,0:0:0:0:
256,192,237335,1,8,0:0:0:0:
256,192,237395,1,0,0:0:0:0:
256,192,237455,1,0,0:0:0:0:
256,192,237515,1,8,0:0:0:0:
256,192,237635,1,0,0:0:0:0:
256,192,237755,1,8,0:0:0:0:
256,192,237875,1,8,0:0:0:0:
256,192,237935,1,8,0:0:0:0:
256,192,237995,1,0,0:0:0:0:
256,192,238115,1,8,0:0:0:0:
256,192,238235,1,0,0:0:0:0:
256,192,238355,1,0,0:0:0:0:
256,192,238475,1,8,0:0:0:0:
256,192,238595,1,8,0:0:0:0:
256,128,238715,1,4,0:0:0:0:
256,192,238955,1,0,0:0:0:0:
256,192,239075,1,8,0:0:0:0:
256,192,239195,1,0,0:0:0:0:
256,192,239315,1,0,0:0:0:0:
256,192,239435,1,8,0:0:0:0:
256,192,239555,1,0,0:0:0:0:
256,192,239615,1,0,0:0:0:0:
256,192,239675,1,8,0:0:0:0:
256,192,239795,1,0,0:0:0:0:
256,192,239915,1,8,0:0:0:0:
256,192,240035,1,0,0:0:0:0:
256,192,240095,1,8,0:0:0:0:
256,192,240155,1,0,0:0:0:0:
256,192,240275,1,0,0:0:0:0:
256,192,240395,1,8,0:0:0:0:
256,192,240455,1,8,0:0:0:0:
256,192,240515,1,0,0:0:0:0:
256,192,240575,1,0,0:0:0:0:
256,192,240635,1,8,0:0:0:0:
256,192,240875,1,0,0:0:0:0:
256,192,240995,1,0,0:0:0:0:
256,192,241115,1,8,0:0:0:0:
256,192,241235,1,0,0:0:0:0:
256,192,241355,1,8,0:0:0:0:
256,192,241475,1,8,0:0:0:0:
256,192,241535,1,8,0:0:0:0:
256,192,241595,1,0,0:0:0:0:
256,192,241715,1,0,0:0:0:0:
256,192,241835,1,8,0:0:0:0:
256,192,241955,1,0,0:0:0:0:
256,192,242015,1,0,0:0:0:0:
256,192,242075,1,8,0:0:0:0:
256,192,242195,1,0,0:0:0:0:
256,192,242315,1,8,0:0:0:0:
256,192,242375,1,8,0:0:0:0:
256,192,242435,1,0,0:0:0:0:
256,192,242495,1,8,0:0:0:0:
256,192,242555,1,0,0:0:0:0:
256,192,242795,1,0,0:0:0:0:
256,192,242915,1,8,0:0:0:0:
256,192,243035,1,0,0:0:0:0:
256,192,243155,1,0,0:0:0:0:
256,192,243275,1,8,0:0:0:0:
256,192,243395,1,0,0:0:0:0:
256,192,243455,1,8,0:0:0:0:
256,192,243515,1,0,0:0:0:0:
256,192,243635,1,0,0:0:0:0:
256,192,243755,1,8,0:0:0:0:
256,192,243875,1,0,0:0:0:0:
256,192,243935,1,0,0:0:0:0:
256,192,243995,1,8,0:0:0:0:
256,192,244115,1,0,0:0:0:0:
256,192,244235,1,8,0:0:0:0:
256,192,244295,1,8,0:0:0:0:
256,192,244355,1,0,0:0:0:0:
256,192,244415,1,0,0:0:0:0:
256,192,244475,1,8,0:0:0:0:
256,192,244715,1,0,0:0:0:0:
256,192,244835,1,8,0:0:0:0:
256,192,244955,1,0,0:0:0:0:
256,192,245075,1,0,0:0:0:0:
256,192,245135,1,0,0:0:0:0:
256,192,245195,1,8,0:0:0:0:
256,192,245315,1,0,0:0:0:0:
256,192,245435,1,8,0:0:0:0:
256,192,245675,1,0,0:0:0:0:
256,192,245795,1,0,0:0:0:0:
256,192,245915,1,8,0:0:0:0:
256,192,245975,1,8,0:0:0:0:
256,192,246035,1,0,0:0:0:0:
256,192,246155,1,8,0:0:0:0:
256,192,246275,1,8,0:0:0:0:
256,128,246395,1,4,0:0:0:0:
256,192,246635,1,0,0:0:0:0:
256,192,246755,1,8,0:0:0:0:
256,192,246875,1,8,0:0:0:0:
256,192,246995,1,0,0:0:0:0:
256,192,247115,1,8,0:0:0:0:
256,192,247235,1,0,0:0:0:0:
256,192,247295,1,8,0:0:0:0:
256,192,247355,1,0,0:0:0:0:
256,192,247475,1,0,0:0:0:0:
256,192,247595,1,8,0:0:0:0:
256,192,247715,1,0,0:0:0:0:
256,192,247775,1,0,0:0:0:0:
256,192,247835,1,8,0:0:0:0:
256,192,247955,1,0,0:0:0:0:
256,192,248075,1,8,0:0:0:0:
256,192,248135,1,8,0:0:0:0:
256,192,248195,1,0,0:0:0:0:
256,192,248255,1,0,0:0:0:0:
256,192,248315,1,8,0:0:0:0:
256,192,248555,1,0,0:0:0:0:
256,192,248675,1,8,0:0:0:0:
256,192,248795,1,0,0:0:0:0:
256,192,248915,1,0,0:0:0:0:
256,192,249035,1,8,0:0:0:0:
256,192,249155,1,0,0:0:0:0:
256,192,249215,1,0,0:0:0:0:
256,192,249275,1,8,0:0:0:0:
256,192,249395,1,0,0:0:0:0:
256,192,249515,1,8,0:0:0:0:
256,192,249635,1,8,0:0:0:0:
256,192,249695,1,0,0:0:0:0:
256,192,249755,1,8,0:0:0:0:
256,192,249875,1,0,0:0:0:0:
256,192,249995,1,8,0:0:0:0:
256,192,250055,1,8,0:0:0:0:
256,192,250115,1,0,0:0:0:0:
256,192,250175,1,8,0:0:0:0:
256,192,250235,1,0,0:0:0:0:
256,192,250475,1,0,0:0:0:0:
256,192,250595,1,8,0:0:0:0:
256,192,250715,1,8,0:0:0:0:
256,192,250835,1,0,0:0:0:0:
256,192,250955,1,8,0:0:0:0:
256,192,251075,1,0,0:0:0:0:
256,192,251135,1,8,0:0:0:0:
256,192,251195,1,0,0:0:0:0:
256,192,251315,1,0,0:0:0:0:
256,192,251435,1,8,0:0:0:0:
256,192,251555,1,0,0:0:0:0:
256,192,251615,1,0,0:0:0:0:
256,192,251675,1,8,0:0:0:0:
256,192,251795,1,0,0:0:0:0:
256,192,251915,1,8,0:0:0:0:
256,192,251975,1,8,0:0:0:0:
256,192,252035,1,0,0:0:0:0:
256,192,252095,1,0,0:0:0:0:
256,192,252155,1,8,0:0:0:0:
256,192,252395,1,0,0:0:0:0:
256,192,252515,1,8,0:0:0:0:
256,192,252635,1,0,0:0:0:0:
256,192,252755,1,0,0:0:0:0:
256,192,252815,1,0,0:0:0:0:
256,192,252875,1,8,0:0:0:0:
256,192,252995,1,0,0:0:0:0:
256,192,253115,1,8,0:0:0:0:
256,192,253235,1,8,0:0:0:0:
256,192,253355,1,0,0:0:0:0:
256,192,253475,1,0,0:0:0:0:
256,192,253595,1,8,0:0:0:0:
256,192,253715,1,0,0:0:0:0:
256,192,253835,1,8,0:0:0:0:
256,192,253955,1,8,0:0:0:0:
256,128,254075,1,4,0:0:0:0:
256,192,254315,1,8,0:0:0:0:
256,192,254435,1,0,0:0:0:0:
256,192,254555,1,8,0:0:0:0:
256,192,254675,1,0,0:0:0:0:
256,192,254735,1,0,0:0:0:0:
256,192,254795,1,8,0:0:0:0:
256,192,254915,1,8,0:0:0:0:
256,192,255035,1,0,0:0:0:0:
256,192,255155,1,0,0:0:0:0:
256,192,255275,1,8,0:0:0:0:
256,192,255395,1,0,0:0:0:0:
256,192,255455,1,8,0:0:0:0:
256,192,255515,1,0,0:0:0:0:
256,192,255635,1,0,0:0:0:0:
256,192,255755,1,8,0:0:0:0:
256,192,255875,1,8,0:0:0:0:
256,192,255995,1,0,0:0:0:0:
256,192,256235,1,0,0:0:0:0:
256,192,256355,1,0,0:0:0:0:
256,192,256475,1,8,0:0:0:0:
256,192,256595,1,8,0:0:0:0:
256,192,256655,1,8,0:0:0:0:
256,192,256715,1,0,0:0:0:0:
256,192,256835,1,8,0:0:0:0:
256,192,256955,1,0,0:0:0:0:
256,192,257075,1,0,0:0:0:0:
256,192,257195,1,8,0:0:0:0:
256,192,257315,1,0,0:0:0:0:
256,192,257375,1,0,0:0:0:0:
256,192,257435,1,8,0:0:0:0:
256,192,257555,1,0,0:0:0:0:
256,192,257675,1,8,0:0:0:0:
256,192,257735,1,8,0:0:0:0:
256,192,257795,1,0,0:0:0:0:
256,192,257855,1,8,0:0:0:0:
256,192,257915,1,0,0:0:0:0:
256,192,258155,1,0,0:0:0:0:
256,192,258275,1,0,0:0:0:0:
256,192,258395,1,8,0:0:0:0:
256,192,258515,1,0,0:0:0:0:
256,192,258575,1,0,0:0:0:0:
256,192,258635,1,8,0:0:0:0:
256,192,258755,1,8,0:0:0:0:
256,192,258875,1,0,0:0:0:0:
256,192,258995,1,0,0:0:0:0:
256,192,259115,1,8,0:0:0:0:
256,192,259235,1,0,0:0:0:0:
256,192,259295,1,8,0:0:0:0:
256,192,259355,1,0,0:0:0:0:
256,192,259475,1,0,0:0:0:0:
256,192,259595,1,8,0:0:0:0:
256,192,259715,1,8,0:0:0:0:
256,192,259775,1,8,0:0:0:0:
256,192,259835,1,0,0:0:0:0:
256,192,260075,1,0,0:0:0:0:
256,192,260195,1,0,0:0:0:0:
256,192,260315,1,8,0:0:0:0:
256,192,260435,1,0,0:0:0:0:
256,192,260495,1,0,0:0:0:0:
256,192,260555,1,8,0:0:0:0:
256,192,260675,1,8,0:0:0:0:
256,192,260795,1,0,0:0:0:0:
256,192,260915,1,0,0:0:0:0:
256,192,261035,1,8,0:0:0:0:
256,192,261155,1,0,0:0:0:0:
256,192,261275,1,8,0:0:0:0:
256,192,261335,1,8,0:0:0:0:
256,192,261395,1,0,0:0:0:0:
256,192,261455,1,0,0:0:0:0:
256,192,261515,1,8,0:0:0:0:
256,192,261635,1,8,0:0:0:0:
256,128,261755,1,4,0:0:0:0:
256,192,261995,1,0,0:0:0:0:
256,192,262115,1,8,0:0:0:0:
256,192,262235,1,0,0:0:0:0:
256,192,262355,1,0,0:0:0:0:
256,192,262415,1,0,0:0:0:0:
256,192,262475,1,8,0:0:0:0:
256,192,262595,1,0,0:0:0:0:
256,192,262715,1,8,0:0:0:0:
256,192,262835,1,8,0:0:0:0:
256,192,262955,1,0,0:0:0:0:
256,192,263075,1,8,0:0:0:0:
256,192,263135,1,8,0:0:0:0:
256,192,263195,1,0,0:0:0:0:
256,192,263315,1,0,0:0:0:0:
256,192,263435,1,8,0:0:0:0:
256,192,263555,1,0,0:0:0:0:
256,192,263675,1,8,0:0:0:0:
256,192,263915,1,0,0:0:0:0:
256,192,264035,1,0,0:0:0:0:
256,192,264155,1,8,0:0:0:0:
256,192,264275,1,8,0:0:0:0:
256,192,264335,1,8,0:0:0:0:
256,192,264395,1,0,0:0:0:0:
256,192,264515,1,0,0:0:0:0:
256,192,264635,1,8,0:0:0:0:
256,192,264755,1,8,0:0:0:0:
256,192,264875,1,0,0:0:0:0:
256,192,264995,1,0,0:0:0:0:
256,192,265055,1,0,0:0:0:0:
256,192,265115,1,8,0:0:0:0:
256,192,265235,1,0,0:0:0:0:
256,192,265355,1,8,0:0:0:0:
256,192,265415,1,8,0:0:0:0:
256,192,265475,1,0,0:0:0:0:
256,192,265535,1,8,0:0:0:0:
256,192,265595,1,0,0:0:0:0:
256,192,265835,1,8,0:0:0:0:
256,192,265955,1,0,0:0:0:0:
256,192,266075,1,8,0:0:0:0:
256,192,266195,1,0,0:0:0:0:
256,192,266255,1,0,0:0:0:0:
256,192,266315,1,8,0:0:0:0:
256,192,266435,1,8,0:0:0:0:
256,192,266555,1,0,0:0:0:0:
256,192,266675,1,0,0:0:0:0:
256,192,266795,1,8,0:0:0:0:
256,192,266915,1,8,0:0:0:0:
256,192,266975,1,8,0:0:0:0:
256,192,267035,1,0,0:0:0:0:
256,192,267155,1,0,0:0:0:0:
256,192,267275,1,8,0:0:0:0:
256,192,267395,1,8,0:0:0:0:
256,192,267455,1,8,0:0:0:0:
256,192,267515,1,0,0:0:0:0:
256,192,267755,1,0,0:0:0:0:
256,192,267875,1,8,0:0:0:0:
256,192,267995,1,0,0:0:0:0:
256,192,268115,1,0,0:0:0:0:
256,192,268175,1,0,0:0:0:0:
256,192,268235,1,8,0:0:0:0:
256,192,268355,1,8,0:0:0:0:
256,192,268475,1,0,0:0:0:0:
256,192,268595,1,0,0:0:0:0:
256,192,268715,1,8,0:0:0:0:
256,192,268835,1,0,0:0:0:0:
256,192,268955,1,8,0:0:0:0:
256,192,269015,1,8,0:0:0:0:
256,192,269075,1,0,0:0:0:0:
256,192,269135,1,0,0:0:0:0:
256,192,269195,1,8,0:0:0:0:
256,192,269315,1,8,0:0:0:0:
