osu file format v14

[General]
AudioFilename: audio.mp3
AudioLeadIn: 0
PreviewTime: 84635
Countdown: 0
SampleSet: Normal
StackLeniency: 0.7
Mode: 1
LetterboxInBreaks: 0
WidescreenStoryboard: 0

[Editor]
Bookmarks: 46475,50541,81261,85101,100461,115821,131061,161901,192515,207981,254061
DistanceSpacing: 0.9
BeatDivisor: 4
GridSize: 32
TimelineZoom: 3.199999

[Metadata]
Title:Ice Cheinsaw
TitleUnicode:Ice Cheinsaw
Artist:moro
ArtistUnicode:moro
Creator:Haypzeh
Version:Collapse
Source:東方紅魔郷 ~ the Embodiment of Scarlet Devil
Tags:electronic instrumental speedcore speed core gabber gabba the most fuckin gensou hardsounds video game hpz hz404
BeatmapID:4529948
BeatmapSetID:2150208

[Difficulty]
HPDrainRate:5
CircleSize:5
OverallDifficulty:8
ApproachRate:5
SliderMultiplier:1.4
SliderTickRate:1

[Events]
//Background and Video events
0,0,"ice.jpg",0,10
//Break Periods
2,81355,83435
//Storyboard Layer 0 (Background)
//Storyboard Layer 1 (Fail)
//Storyboard Layer 2 (Pass)
//Storyboard Layer 3 (Foreground)
//Storyboard Layer 4 (Overlay)
//Storyboard Sound Samples

[TimingPoints]
1595,240,4,1,0,90,1,0
2555,-100,4,1,0,80,0,0
16895,-100,4,1,0,60,0,0
17915,-100,4,1,0,85,0,0
48635,-100,4,1,0,75,0,0
50555,-125,4,1,0,70,0,0
58235,-111.111111111111,4,1,0,75,0,0
65915,-100,4,1,0,80,0,0
82235,-111.111111111111,4,1,0,50,0,0
83195,-125,4,1,0,50,0,0
84155,-142.857142857143,4,1,0,50,0,0
84635,-100,4,1,0,90,0,0
85115,-100,4,1,0,90,0,1
100715,-111.111111111111,4,1,0,100,0,1
114875,-111.111111111111,4,1,0,70,0,1
115835,-100,4,1,0,80,0,0
130835,-100,4,1,0,80,0,0
130955,-101.694915254237,4,1,0,78,0,0
131075,-103.448275862069,4,1,0,75,0,0
131195,-105.263157894737,4,1,0,73,0,0
131315,-107.142857142857,4,1,0,70,0,0
131435,-109.090909090909,4,1,0,68,0,0
131555,-111.111111111111,4,1,0,65,0,0
146555,-111.111111111111,4,1,0,70,0,0
154235,-111.111111111111,4,1,0,70,0,0
154355,-109.090909090909,4,1,0,72,0,0
154475,-107.142857142857,4,1,0,73,0,0
154595,-105.263157894737,4,1,0,75,0,0
161555,-105.263157894737,4,1,0,75,0,0
161675,-103.448275862069,4,1,0,77,0,0
161795,-101.694915254237,4,1,0,78,0,0
161915,-100,4,1,0,80,0,0
177755,-125,4,1,0,70,0,0
178235,-124.998718697787,4,1,0,70,0,0
178715,-124.98975031774,4,1,0,70,0,0
178955,-124.979982653768,4,1,0,70,0,0
179195,-124.965414057776,4,1,0,70,0,0
179675,-124.918049580004,4,1,0,70,0,0
180155,-124.840040540126,4,1,0,70,0,0
180635,-124.723847318251,4,1,0,70,0,0
180875,-124.649106555335,4,1,0,70,0,0
181115,-124.562048641968,4,1,0,70,0,0
181595,-124.347391605825,4,1,0,70,0,0
182075,-124.072849366638,4,1,0,70,0,0
182555,-123.731685539186,4,1,0,70,0,0
182795,-123.53411193237,4,1,0,70,0,0
183035,-123.317524042594,4,1,0,71,0,0
183515,-122.824422867733,4,1,0,71,0,0
183875,-122.399503782405,4,1,0,71,0,0
183995,-122.246949966417,4,1,0,71,0,0
184235,-121.925034775555,4,1,0,71,0,0
184355,-121.755536969893,4,1,0,71,0,0
184475,-121.580259222333,4,1,0,71,0,0
184715,-121.212121212121,4,1,0,71,0,0
184955,-120.82016427064,4,1,0,71,0,0
185435,-119.963207807028,4,1,0,72,0,0
185915,-119.006723984815,4,1,0,72,0,0
186395,-117.948891554146,4,1,0,72,0,0
186635,-117.381641942435,4,1,0,73,0,0
186875,-116.788775559067,4,1,0,73,0,0
187355,-115.526355678502,4,1,0,73,0,0
187835,-114.162539670652,4,1,0,74,0,0
188315,-112.699160844331,4,1,0,74,0,0
188555,-111.930957016796,4,1,0,75,0,0
188795,-111.138959014974,4,1,0,75,0,0
189275,-109.485544981146,4,1,0,76,0,0
189755,-107.743349148709,4,1,0,76,0,0
190235,-105.917555501511,4,1,0,77,0,0
190475,-104.975116347887,4,1,0,78,0,0
190715,-104.014022637518,4,1,0,78,0,0
191195,-102.039194028852,4,1,0,79,0,0
191675,-100,4,1,0,80,0,0
192635,-100,4,1,0,85,0,0
204155,-95.238095238095,4,1,0,90,0,0
207995,-100,4,1,0,100,0,1
215555,-100,4,1,0,100,0,0
215675,-100,4,1,0,100,0,1
222515,-100,4,1,0,100,0,0
223355,-100,4,1,0,100,0,1
237875,-100,4,1,0,80,0,1
237935,-100.840336134454,4,1,0,80,0,1
237995,-101.694915254237,4,1,0,80,0,1
238115,-103.448275862069,4,1,0,80,0,1
238175,-104.347826086957,4,1,0,80,0,1
238235,-105.263157894737,4,1,0,80,0,1
238355,-107.142857142857,4,1,0,80,0,1
238475,-109.090909090909,4,1,0,80,0,1
238595,-111.111111111111,4,1,0,80,0,1
238715,-100,4,1,0,90,0,0
253115,-100,4,1,0,90,0,0
253235,-101.449275362319,4,1,0,90,0,0
253355,-102.941176470588,4,1,0,90,0,0
253475,-104.477611940299,4,1,0,90,0,0
253595,-106.060606060606,4,1,0,90,0,0
253655,-106.870229007634,4,1,0,90,0,0
253715,-107.692307692308,4,1,0,90,0,0
253835,-109.375,4,1,0,90,0,0
253955,-111.111111111111,4,1,0,90,0,0
254075,-99.9999999999999,4,1,0,100,0,0

[HitObjects]
256,192,1595,8,0,2435,0:0:0:0:
256,192,2555,5,0,0:0:0:0:
256,192,2795,1,0,0:0:0:0:
256,192,3035,1,0,0:0:0:0:
256,192,3275,1,0,0:0:0:0:
256,192,3515,1,0,0:0:0:0:
256,192,3755,1,0,0:0:0:0:
256,192,3995,1,0,0:0:0:0:
256,192,4235,1,0,0:0:0:0:
256,192,4475,1,0,0:0:0:0:
256,192,4715,1,0,0:0:0:0:
256,192,4955,1,0,0:0:0:0:
256,192,5195,1,0,0:0:0:0:
256,192,5435,1,0,0:0:0:0:
256,192,5675,1,0,0:0:0:0:
256,192,5915,1,0,0:0:0:0:
256,192,6155,1,0,0:0:0:0:
256,192,6275,1,8,0:0:0:0:
256,192,6395,1,0,0:0:0:0:
256,192,6635,1,0,0:0:0:0:
256,192,6875,1,0,0:0:0:0:
256,192,7115,1,0,0:0:0:0:
256,192,7355,1,0,0:0:0:0:
256,192,7595,1,0,0:0:0:0:
256,192,7835,1,0,0:0:0:0:
256,192,8075,1,0,0:0:0:0:
256,192,8315,1,0,0:0:0:0:
256,192,8555,1,0,0:0:0:0:
256,192,8795,1,0,0:0:0:0:
256,192,9035,1,0,0:0:0:0:
256,192,9155,1,8,0:0:0:0:
256,192,9275,1,0,0:0:0:0:
256,192,9395,1,8,0:0:0:0:
256,192,9455,1,8,0:0:0:0:
256,192,9515,1,0,0:0:0:0:
256,192,9635,1,8,0:0:0:0:
256,192,9755,1,0,0:0:0:0:
256,192,9995,1,0,0:0:0:0:
256,192,10115,1,8,0:0:0:0:
256,192,10235,1,0,0:0:0:0:
256,192,10475,1,0,0:0:0:0:
256,192,10715,1,0,0:0:0:0:
256,192,10955,1,0,0:0:0:0:
256,192,11195,1,0,0:0:0:0:
256,192,11435,1,0,0:0:0:0:
256,192,11675,1,0,0:0:0:0:
256,192,11915,1,0,0:0:0:0:
256,192,12155,1,0,0:0:0:0:
256,192,12395,1,0,0:0:0:0:
256,192,12635,1,0,0:0:0:0:
256,192,12875,1,0,0:0:0:0:
256,192,13115,1,0,0:0:0:0:
256,192,13355,1,0,0:0:0:0:
256,192,13595,1,0,0:0:0:0:
256,192,13835,1,0,0:0:0:0:
256,192,13955,1,8,0:0:0:0:
256,192,14075,1,0,0:0:0:0:
256,192,14315,1,0,0:0:0:0:
256,192,14555,1,0,0:0:0:0:
256,192,14795,1,0,0:0:0:0:
256,192,15035,1,0,0:0:0:0:
256,192,15275,1,0,0:0:0:0:
256,192,15515,1,0,0:0:0:0:
256,192,15755,1,0,0:0:0:0:
256,192,15875,1,8,0:0:0:0:
256,192,15995,1,0,0:0:0:0:
256,192,16115,1,8,0:0:0:0:
256,192,16175,1,8,0:0:0:0:
256,192,16235,1,0,0:0:0:0:
256,192,16355,1,8,0:0:0:0:
256,192,16475,1,0,0:0:0:0:
256,192,16715,1,0,0:0:0:0:
256,192,16835,1,0,0:0:0:0:
256,192,17915,1,4,0:0:0:0:
256,192,18155,1,0,0:0:0:0:
256,192,18275,1,8,0:0:0:0:
256,192,18395,1,0,0:0:0:0:
256,192,18515,1,0,0:0:0:0:
256,192,18635,1,8,0:0:0:0:
256,192,18875,1,0,0:0:0:0:
256,192,18995,1,8,0:0:0:0:
256,192,19115,1,0,0:0:0:0:
256,192,19235,1,0,0:0:0:0:
256,192,19355,1,8,0:0:0:0:
256,192,19475,1,8,0:0:0:0:
256,192,19595,1,0,0:0:0:0:
256,192,19835,1,8,0:0:0:0:
256,192,19955,1,0,0:0:0:0:
256,192,20075,1,0,0:0:0:0:
256,192,20195,1,8,0:0:0:0:
256,192,20315,1,0,0:0:0:0:
256,192,20435,1,0,0:0:0:0:
256,192,20555,1,8,0:0:0:0:
256,192,20795,1,8,0:0:0:0:
256,192,20915,1,0,0:0:0:0:
256,192,21035,1,0,0:0:0:0:
256,192,21155,1,8,0:0:0:0:
256,192,21395,1,8,0:0:0:0:
256,192,21515,1,8,0:0:0:0:
256,192,21635,1,0,0:0:0:0:
256,192,21755,1,8,0:0:0:0:
256,192,21875,1,0,0:0:0:0:
256,192,21995,1,0,0:0:0:0:
256,192,22115,1,8,0:0:0:0:
256,192,22235,1,0,0:0:0:0:
256,192,22355,1,0,0:0:0:0:
256,192,22475,1,8,0:0:0:0:
256,192,22715,1,0,0:0:0:0:
256,192,22835,1,8,0:0:0:0:
256,192,22955,1,0,0:0:0:0:
256,192,23075,1,0,0:0:0:0:
256,192,23195,1,8,0:0:0:0:
256,192,23315,1,8,0:0:0:0:
256,192,23435,1,0,0:0:0:0:
256,192,23555,1,0,0:0:0:0:
256,192,23675,1,8,0:0:0:0:
256,192,23915,1,0,0:0:0:0:
256,192,24035,1,8,0:0:0:0:
256,192,24155,1,0,0:0:0:0:
256,192,24275,1,0,0:0:0:0:
256,192,24395,1,8,0:0:0:0:
256,192,24635,1,0,0:0:0:0:
256,192,24755,1,8,0:0:0:0:
256,192,24815,1,8,0:0:0:0:
256,192,24875,1,0,0:0:0:0:
256,192,24995,1,8,0:0:0:0:
256,192,25115,1,0,0:0:0:0:
256,192,25155,1,0,0:0:0:0:
256,192,25195,1,0,0:0:0:0:
256,192,25235,1,8,0:0:0:0:
256,192,25355,1,8,0:0:0:0:
256,192,25475,1,8,0:0:0:0:
256,192,25595,1,4,0:0:0:0:
256,192,25835,1,0,0:0:0:0:
256,192,25955,1,8,0:0:0:0:
256,192,26075,1,0,0:0:0:0:
256,192,26195,1,0,0:0:0:0:
256,192,26315,1,8,0:0:0:0:
256,192,26555,1,0,0:0:0:0:
256,192,26675,1,8,0:0:0:0:
256,192,26795,1,8,0:0:0:0:
256,192,26915,1,0,0:0:0:0:
256,192,27035,1,0,0:0:0:0:
256,192,27155,1,8,0:0:0:0:
256,192,27275,1,0,0:0:0:0:
256,192,27395,1,8,0:0:0:0:
256,192,27515,1,8,0:0:0:0:
256,192,27635,1,0,0:0:0:0:
256,192,27755,1,0,0:0:0:0:
256,192,27875,1,8,0:0:0:0:
256,192,27995,1,0,0:0:0:0:
256,192,28115,1,0,0:0:0:0:
256,192,28235,1,8,0:0:0:0:
256,192,28475,1,8,0:0:0:0:
256,192,28595,1,0,0:0:0:0:
256,192,28715,1,0,0:0:0:0:
256,192,28835,1,8,0:0:0:0:
256,192,29075,1,8,0:0:0:0:
256,192,29195,1,8,0:0:0:0:
256,192,29315,1,0,0:0:0:0:
256,192,29435,1,8,0:0:0:0:
256,192,29555,1,0,0:0:0:0:
256,192,29675,1,0,0:0:0:0:
256,192,29795,1,8,0:0:0:0:
256,192,29915,1,0,0:0:0:0:
256,192,30035,1,0,0:0:0:0:
256,192,30155,1,8,0:0:0:0:
256,192,30395,1,8,0:0:0:0:
256,192,30515,1,8,0:0:0:0:
256,192,30635,1,0,0:0:0:0:
256,192,30755,1,8,0:0:0:0:
256,192,30875,1,0,0:0:0:0:
256,192,30995,1,8,0:0:0:0:
256,192,31115,1,8,0:0:0:0:
256,192,31235,1,0,0:0:0:0:
256,192,31355,1,8,0:0:0:0:
256,192,31475,1,0,0:0:0:0:
256,192,31595,1,0,0:0:0:0:
256,192,31715,1,8,0:0:0:0:
256,192,31835,1,0,0:0:0:0:
256,192,31955,1,0,0:0:0:0:
256,192,32075,1,8,0:0:0:0:
256,192,32315,1,8,0:0:0:0:
256,192,32355,1,8,0:0:0:0:
256,192,32395,1,8,0:0:0:0:
256,192,32435,1,0,0:0:0:0:
256,192,32495,1,0,0:0:0:0:
256,192,32555,1,8,0:0:0:0:
256,192,32615,1,0,0:0:0:0:
256,192,32675,1,8,0:0:0:0:
256,192,32735,1,8,0:0:0:0:
256,192,32795,1,0,0:0:0:0:
256,192,32915,1,0,0:0:0:0:
256,192,33035,1,0,0:0:0:0:
256,192,33155,1,8,0:0:0:0:
256,192,33275,1,4,0:0:0:0:
256,192,33515,1,8,0:0:0:0:
256,192,33635,1,0,0:0:0:0:
256,192,33755,1,0,0:0:0:0:
256,192,33875,1,0,0:0:0:0:
256,192,33995,1,8,0:0:0:0:
256,192,34235,1,8,0:0:0:0:
256,192,34355,1,8,0:0:0:0:
256,192,34475,1,0,0:0:0:0:
256,192,34595,1,8,0:0:0:0:
256,192,34715,1,0,0:0:0:0:
256,192,34835,1,8,0:0:0:0:
256,192,34955,1,0,0:0:0:0:
256,192,35075,1,0,0:0:0:0:
256,192,35195,1,8,0:0:0:0:
256,192,35315,1,0,0:0:0:0:
256,192,35435,1,8,0:0:0:0:
256,192,35555,1,8,0:0:0:0:
256,192,35675,1,0,0:0:0:0:
256,192,35795,1,0,0:0:0:0:
256,192,35915,1,8,0:0:0:0:
256,192,36155,1,8,0:0:0:0:
256,192,36275,1,0,0:0:0:0:
256,192,36395,1,0,0:0:0:0:
256,192,36515,1,8,0:0:0:0:
256,192,36755,1,8,0:0:0:0:
256,192,36875,1,8,0:0:0:0:
256,192,36935,1,8,0:0:0:0:
256,192,36995,1,8,0:0:0:0:
256,192,37115,1,4,0:0:0:0:
256,192,37355,1,8,0:0:0:0:
256,192,37475,1,0,0:0:0:0:
256,192,37595,1,0,0:0:0:0:
256,192,37715,1,8,0:0:0:0:
256,192,37835,1,8,0:0:0:0:
256,192,38075,1,8,0:0:0:0:
256,192,38195,1,0,0:0:0:0:
256,192,38315,1,0,0:0:0:0:
256,192,38435,1,8,0:0:0:0:
256,192,38555,1,0,0:0:0:0:
256,192,38675,1,8,0:0:0:0:
256,192,38795,1,8,0:0:0:0:
256,192,38915,1,0,0:0:0:0:
256,192,38975,1,0,0:0:0:0:
256,192,39035,1,8,0:0:0:0:
256,192,39275,1,8,0:0:0:0:
256,192,39395,1,0,0:0:0:0:
256,192,39635,1,0,0:0:0:0:
256,192,39755,1,8,0:0:0:0:
256,192,39875,1,0,0:0:0:0:
256,192,39995,1,8,0:0:0:0:
256,192,40115,1,8,0:0:0:0:
256,192,40235,1,0,0:0:0:0:
256,192,40355,1,8,0:0:0:0:
256,192,40475,1,0,0:0:0:0:
256,192,40515,1,0,0:0:0:0:
256,192,40555,1,0,0:0:0:0:
256,192,40595,1,8,0:0:0:0:
256,192,40715,1,8,0:0:0:0:
256,192,40835,1,8,0:0:0:0:
256,192,40955,1,4,0:0:0:0:
256,192,41195,1,8,0:0:0:0:
256,192,41315,1,0,0:0:0:0:
256,192,41555,1,0,0:0:0:0:
256,192,41675,1,8,0:0:0:0:
256,192,41795,1,0,0:0:0:0:
256,192,41915,1,8,0:0:0:0:
256,192,42035,1,0,0:0:0:0:
256,192,42155,1,0,0:0:0:0:
256,192,42275,1,8,0:0:0:0:
256,192,42395,1,0,0:0:0:0:
256,192,42515,1,8,0:0:0:0:
256,192,42635,1,8,0:0:0:0:
256,192,42755,1,0,0:0:0:0:
256,192,42875,1,8,0:0:0:0:
256,192,42995,1,0,0:0:0:0:
256,192,43115,1,8,0:0:0:0:
256,192,43235,1,8,0:0:0:0:
256,192,43355,1,0,0:0:0:0:
256,192,43475,1,0,0:0:0:0:
256,192,43595,1,8,0:0:0:0:
256,192,43835,1,8,0:0:0:0:
256,192,43955,1,0,0:0:0:0:
256,192,44075,1,0,0:0:0:0:
256,192,44195,1,8,0:0:0:0:
256,192,44315,1,0,0:0:0:0:
256,192,44355,1,8,0:0:0:0:
256,192,44395,1,8,0:0:0:0:
256,192,44435,1,0,0:0:0:0:
256,192,44555,1,8,0:0:0:0:
256,192,44675,1,8,0:0:0:0:
256,192,44795,1,4,0:0:0:0:
256,192,45035,1,8,0:0:0:0:
256,192,45155,1,0,0:0:0:0:
256,192,45395,1,0,0:0:0:0:
256,192,45515,1,8,0:0:0:0:
256,192,45635,1,0,0:0:0:0:
256,192,45755,1,8,0:0:0:0:
256,192,45875,1,8,0:0:0:0:
256,192,45995,1,0,0:0:0:0:
256,192,46115,1,8,0:0:0:0:
256,192,46235,1,0,0:0:0:0:
256,192,46355,1,8,0:0:0:0:
256,192,46475,1,8,0:0:0:0:
256,192,46595,1,0,0:0:0:0:
256,192,46655,1,0,0:0:0:0:
256,192,46715,1,8,0:0:0:0:
256,192,46835,1,0,0:0:0:0:
256,192,46955,1,8,0:0:0:0:
256,192,47075,1,8,0:0:0:0:
256,192,47195,1,0,0:0:0:0:
256,192,47315,1,0,0:0:0:0:
256,192,47435,1,8,0:0:0:0:
256,192,47555,1,0,0:0:0:0:
256,192,47675,1,8,0:0:0:0:
256,192,47795,1,0,0:0:0:0:
256,192,47855,1,0,0:0:0:0:
256,192,47915,1,8,0:0:0:0:
256,192,47975,1,0,0:0:0:0:
256,192,48035,1,8,0:0:0:0:
256,192,48095,1,8,0:0:0:0:
256,192,48155,1,0,0:0:0:0:
256,192,48275,1,8,0:0:0:0:
256,192,48395,1,0,0:0:0:0:
256,192,48635,1,8,0:0:0:0:
256,192,48755,1,0,0:0:0:0:
256,192,48995,1,8,0:0:0:0:
256,192,49235,1,0,0:0:0:0:
256,192,49475,1,8,0:0:0:0:
256,192,49595,1,8,0:0:0:0:
256,192,50555,1,4,0:0:0:0:
256,192,50795,1,8,0:0:0:0:
256,192,51035,1,0,0:0:0:0:
256,192,51155,1,0,0:0:0:0:
256,192,51275,1,8,0:0:0:0:
256,192,51515,1,0,0:0:0:0:
256,192,51755,1,8,0:0:0:0:
256,192,51995,1,0,0:0:0:0:
256,192,52115,1,8,0:0:0:0:
256,192,52235,1,0,0:0:0:0:
256,192,52355,1,8,0:0:0:0:
256,192,52475,1,0,0:0:0:0:
256,192,52715,1,8,0:0:0:0:
256,192,52955,1,0,0:0:0:0:
256,192,53075,1,0,0:0:0:0:
256,192,53195,1,8,0:0:0:0:
256,192,53435,1,0,0:0:0:0:
256,192,53675,1,8,0:0:0:0:
256,192,53795,1,0,0:0:0:0:
256,192,53915,1,0,0:0:0:0:
256,192,54035,1,8,0:0:0:0:
256,192,54155,1,0,0:0:0:0:
256,192,54275,1,8,0:0:0:0:
256,192,54395,1,0,0:0:0:0:
256,192,54635,1,8,0:0:0:0:
256,192,54875,1,0,0:0:0:0:
256,192,54995,1,0,0:0:0:0:
256,192,55115,1,8,0:0:0:0:
256,192,55355,1,0,0:0:0:0:
256,192,55595,1,8,0:0:0:0:
256,192,55835,1,0,0:0:0:0:
256,192,55955,1,8,0:0:0:0:
256,192,56075,1,0,0:0:0:0:
256,192,56195,1,8,0:0:0:0:
256,192,56315,1,0,0:0:0:0:
256,192,56555,1,8,0:0:0:0:
256,192,56795,1,0,0:0:0:0:
256,192,56915,1,0,0:0:0:0:
256,192,57035,1,8,0:0:0:0:
256,192,57275,1,0,0:0:0:0:
256,192,57395,1,8,0:0:0:0:
256,192,57515,1,8,0:0:0:0:
256,192,57635,1,8,0:0:0:0:
256,192,57755,1,0,0:0:0:0:
256,192,57995,1,8,0:0:0:0:
256,192,58115,1,8,0:0:0:0:
256,192,58235,1,4,0:0:0:0:
256,192,58475,1,8,0:0:0:0:
256,192,58715,1,0,0:0:0:0:
256,192,58835,1,0,0:0:0:0:
256,192,58955,1,8,0:0:0:0:
256,192,59075,1,0,0:0:0:0:
256,192,59195,1,0,0:0:0:0:
256,192,59435,1,8,0:0:0:0:
256,192,59675,1,0,0:0:0:0:
256,192,59795,1,8,0:0:0:0:
256,192,59915,1,0,0:0:0:0:
256,192,60035,1,8,0:0:0:0:
256,192,60155,1,0,0:0:0:0:
256,192,60275,1,0,0:0:0:0:
256,192,60395,1,8,0:0:0:0:
256,192,60635,1,0,0:0:0:0:
256,192,60755,1,0,0:0:0:0:
256,192,60875,1,8,0:0:0:0:
256,192,60995,1,8,0:0:0:0:
256,192,61115,1,0,0:0:0:0:
256,192,61355,1,8,0:0:0:0:
256,192,61475,1,0,0:0:0:0:
256,192,61595,1,0,0:0:0:0:
256,192,61715,1,8,0:0:0:0:
256,192,61835,1,0,0:0:0:0:
256,192,61955,1,8,0:0:0:0:
256,192,62075,1,0,0:0:0:0:
256,192,62315,1,8,0:0:0:0:
256,192,62435,1,8,0:0:0:0:
256,192,62555,1,0,0:0:0:0:
256,192,62675,1,0,0:0:0:0:
256,192,62795,1,8,0:0:0:0:
256,192,62915,1,8,0:0:0:0:
256,192,63035,1,8,0:0:0:0:
256,192,63155,1,0,0:0:0:0:
256,192,63275,1,8,0:0:0:0:
256,192,63395,1,8,0:0:0:0:
256,192,63515,1,0,0:0:0:0:
256,192,63635,1,8,0:0:0:0:
256,192,63755,1,0,0:0:0:0:
256,192,63875,1,8,0:0:0:0:
256,192,63995,1,0,0:0:0:0:
256,192,64235,1,8,0:0:0:0:
256,192,64475,1,0,0:0:0:0:
256,192,64595,1,0,0:0:0:0:
256,192,64715,1,8,0:0:0:0:
256,192,64835,1,8,0:0:0:0:
256,192,64955,1,0,0:0:0:0:
256,192,65195,1,0,0:0:0:0:
256,192,65435,1,0,0:0:0:0:
256,192,65675,1,8,0:0:0:0:
256,192,65795,1,8,0:0:0:0:
256,192,65915,1,4,0:0:0:0:
256,192,66155,1,8,0:0:0:0:
256,192,66395,1,0,0:0:0:0:
256,192,66635,1,8,0:0:0:0:
256,192,66755,1,8,0:0:0:0:
256,192,66875,1,0,0:0:0:0:
256,192,67115,1,8,0:0:0:0:
256,192,67235,1,8,0:0:0:0:
256,192,67355,1,0,0:0:0:0:
256,192,67475,1,8,0:0:0:0:
256,192,67595,1,0,0:0:0:0:
256,192,67655,1,0,0:0:0:0:
256,192,67715,1,8,0:0:0:0:
256,192,67835,1,4,0:0:0:0:
256,192,68075,1,8,0:0:0:0:
256,192,68315,1,0,0:0:0:0:
256,192,68555,1,8,0:0:0:0:
256,192,68675,1,8,0:0:0:0:
256,192,68795,1,0,0:0:0:0:
256,192,68915,1,8,0:0:0:0:
256,192,68975,1,8,0:0:0:0:
256,192,69035,1,8,0:0:0:0:
256,192,69155,1,0,0:0:0:0:
256,192,69215,1,0,0:0:0:0:
256,192,69275,1,8,0:0:0:0:
256,192,69515,1,8,0:0:0:0:
256,192,69635,1,8,0:0:0:0:
256,192,69755,1,4,0:0:0:0:
256,192,69995,1,8,0:0:0:0:
256,192,70235,1,0,0:0:0:0:
256,192,70355,1,8,0:0:0:0:
256,192,70475,1,8,0:0:0:0:
256,192,70595,1,8,0:0:0:0:
256,192,70715,1,0,0:0:0:0:
256,192,70835,1,8,0:0:0:0:
256,192,70955,1,8,0:0:0:0:
256,192,71075,1,0,0:0:0:0:
256,192,71195,1,8,0:0:0:0:
256,192,71315,1,8,0:0:0:0:
256,192,71435,1,0,0:0:0:0:
256,192,71495,1,0,0:0:0:0:
256,192,71555,1,8,0:0:0:0:
256,192,71675,1,4,0:0:0:0:
256,192,71915,1,8,0:0:0:0:
256,192,72155,1,0,0:0:0:0:
256,192,72275,1,8,0:0:0:0:
256,192,72395,1,8,0:0:0:0:
256,192,72515,1,8,0:0:0:0:
256,192,72635,1,0,0:0:0:0:
256,192,72755,1,8,0:0:0:0:
256,192,72815,1,8,0:0:0:0:
256,192,72875,1,8,0:0:0:0:
256,192,72995,1,0,0:0:0:0:
256,192,73055,1,0,0:0:0:0:
256,192,73115,1,8,0:0:0:0:
256,192,73355,1,8,0:0:0:0:
256,192,73475,1,8,0:0:0:0:
256,192,73595,1,4,0:0:0:0:
256,192,73715,1,8,0:0:0:0:
256,192,73775,1,8,0:0:0:0:
256,192,73835,1,8,0:0:0:0:
256,192,74075,1,4,0:0:0:0:
256,192,74195,1,8,0:0:0:0:
256,192,74255,1,8,0:0:0:0:
256,192,74315,1,0,0:0:0:0:
256,192,74435,1,8,0:0:0:0:
256,192,74555,1,4,0:0:0:0:
256,192,74675,1,8,0:0:0:0:
256,192,74735,1,8,0:0:0:0:
256,192,74795,1,8,0:0:0:0:
256,192,75035,1,8,0:0:0:0:
256,192,75155,1,8,0:0:0:0:
256,192,75275,1,0,0:0:0:0:
256,192,75335,1,0,0:0:0:0:
256,192,75395,1,8,0:0:0:0:
256,192,75515,1,4,0:0:0:0:
256,192,75635,1,8,0:0:0:0:
256,192,75695,1,8,0:0:0:0:
256,192,75755,1,8,0:0:0:0:
256,192,75995,1,4,0:0:0:0:
256,192,76115,1,8,0:0:0:0:
256,192,76175,1,8,0:0:0:0:
256,192,76235,1,0,0:0:0:0:
256,192,76355,1,8,0:0:0:0:
256,192,76475,1,4,0:0:0:0:
256,192,76595,1,8,0:0:0:0:
256,192,76655,1,8,0:0:0:0:
256,192,76715,1,8,0:0:0:0:
256,192,76835,1,0,0:0:0:0:
256,192,76895,1,0,0:0:0:0:
256,192,76955,1,8,0:0:0:0:
256,192,77075,1,0,0:0:0:0:
256,192,77195,1,8,0:0:0:0:
256,192,77315,1,8,0:0:0:0:
256,192,77435,1,4,0:0:0:0:
256,192,77555,1,8,0:0:0:0:
256,192,77615,1,8,0:0:0:0:
256,192,77675,1,8,0:0:0:0:
256,192,77915,1,4,0:0:0:0:
256,192,78035,1,8,0:0:0:0:
256,192,78095,1,8,0:0:0:0:
256,192,78155,1,0,0:0:0:0:
256,192,78275,1,8,0:0:0:0:
256,192,78395,1,4,0:0:0:0:
256,192,78515,1,8,0:0:0:0:
256,192,78575,1,8,0:0:0:0:
256,192,78635,1,8,0:0:0:0:
256,192,78875,1,8,0:0:0:0:
256,192,78995,1,8,0:0:0:0:
256,192,79115,1,0,0:0:0:0:
256,192,79175,1,0,0:0:0:0:
256,192,79235,1,8,0:0:0:0:
256,192,79355,1,4,0:0:0:0:
256,192,79475,1,8,0:0:0:0:
256,192,79535,1,8,0:0:0:0:
256,192,79595,1,8,0:0:0:0:
256,192,79835,1,4,0:0:0:0:
256,192,79955,1,8,0:0:0:0:
256,192,80015,1,8,0:0:0:0:
256,192,80075,1,0,0:0:0:0:
256,192,80195,1,8,0:0:0:0:
256,192,80315,1,4,0:0:0:0:
256,192,80435,1,8,0:0:0:0:
256,192,80495,1,8,0:0:0:0:
256,192,80555,1,8,0:0:0:0:
256,192,80675,1,0,0:0:0:0:
256,192,80735,1,0,0:0:0:0:
256,192,80795,1,8,0:0:0:0:
256,192,80915,1,0,0:0:0:0:
256,192,81035,1,8,0:0:0:0:
256,192,81155,1,8,0:0:0:0:
256,192,84635,5,8,0:0:0:0:
256,192,84755,1,0,0:0:0:0:
256,192,84875,1,8,0:0:0:0:
256,192,84995,1,0,0:0:0:0:
256,192,85115,1,8,0:0:0:0:
256,192,85175,1,8,0:0:0:0:
256,192,85235,1,0,0:0:0:0:
256,192,85295,1,0,0:0:0:0:
256,192,85355,1,0,0:0:0:0:
256,192,85475,1,8,0:0:0:0:
256,192,85595,1,0,0:0:0:0:
256,192,85655,1,0,0:0:0:0:
256,192,85715,1,8,0:0:0:0:
256,192,85775,1,0,0:0:0:0:
256,192,85835,1,8,0:0:0:0:
256,192,85895,1,8,0:0:0:0:
256,192,85955,1,0,0:0:0:0:
256,192,86015,1,0,0:0:0:0:
256,192,86075,1,8,0:0:0:0:
256,192,86135,1,8,0:0:0:0:
256,192,86195,1,0,0:0:0:0:
256,192,86315,1,8,0:0:0:0:
256,192,86375,1,8,0:0:0:0:
256,192,86435,1,8,0:0:0:0:
256,192,86555,1,0,0:0:0:0:
256,192,86675,1,8,0:0:0:0:
256,192,86735,1,0,0:0:0:0:
256,192,86795,1,8,0:0:0:0:
256,192,86915,1,0,0:0:0:0:
256,192,87035,1,8,0:0:0:0:
256,192,87095,1,8,0:0:0:0:
256,192,87155,1,8,0:0:0:0:
256,192,87215,1,8,0:0:0:0:
256,192,87275,1,0,0:0:0:0:
256,192,87395,1,8,0:0:0:0:
256,192,87455,1,0,0:0:0:0:
256,192,87515,1,8,0:0:0:0:
256,192,87575,1,8,0:0:0:0:
256,192,87635,1,0,0:0:0:0:
256,192,87695,1,0,0:0:0:0:
256,192,87755,1,8,0:0:0:0:
256,192,87815,1,0,0:0:0:0:
256,192,87875,1,0,0:0:0:0:
256,192,87935,1,0,0:0:0:0:
256,192,87995,1,8,0:0:0:0:
256,192,88055,1,8,0:0:0:0:
256,192,88115,1,0,0:0:0:0:
256,192,88235,1,8,0:0:0:0:
256,192,88295,1,8,0:0:0:0:
256,192,88355,1,8,0:0:0:0:
256,192,88475,1,0,0:0:0:0:
256,192,88535,1,0,0:0:0:0:
256,192,88595,1,0,0:0:0:0:
256,192,88715,1,8,0:0:0:0:
256,192,88755,1,8,0:0:0:0:
256,192,88795,1,8,0:0:0:0:
256,192,88835,1,0,0:0:0:0:
256,192,88895,1,0,0:0:0:0:
256,192,88955,1,8,0:0:0:0:
256,192,89015,1,8,0:0:0:0:
256,192,89075,1,0,0:0:0:0:
256,192,89195,1,0,0:0:0:0:
256,192,89315,1,8,0:0:0:0:
256,192,89375,1,0,0:0:0:0:
256,192,89435,1,0,0:0:0:0:
256,192,89495,1,0,0:0:0:0:
256,192,89555,1,8,0:0:0:0:
256,192,89615,1,0,0:0:0:0:
256,192,89675,1,8,0:0:0:0:
256,192,89735,1,8,0:0:0:0:
256,192,89795,1,0,0:0:0:0:
256,192,89915,1,8,0:0:0:0:
256,192,89975,1,8,0:0:0:0:
256,192,90035,1,0,0:0:0:0:
256,192,90095,1,0,0:0:0:0:
256,192,90155,1,8,0:0:0:0:
256,192,90215,1,0,0:0:0:0:
256,192,90275,1,8,0:0:0:0:
256,192,90335,1,8,0:0:0:0:
256,192,90395,1,0,0:0:0:0:
256,192,90455,1,0,0:0:0:0:
256,192,90515,1,8,0:0:0:0:
256,192,90575,1,8,0:0:0:0:
256,192,90635,1,0,0:0:0:0:
256,192,90755,1,8,0:0:0:0:
256,192,90815,1,8,0:0:0:0:
256,192,90875,1,8,0:0:0:0:
256,192,90935,1,0,0:0:0:0:
256,192,90995,1,8,0:0:0:0:
256,192,91055,1,8,0:0:0:0:
256,192,91115,1,0,0:0:0:0:
256,192,91175,1,0,0:0:0:0:
256,192,91235,1,8,0:0:0:0:
256,192,91295,1,8,0:0:0:0:
256,192,91355,1,8,0:0:0:0:
256,192,91415,1,0,0:0:0:0:
256,192,91475,1,8,0:0:0:0:
256,192,91535,1,8,0:0:0:0:
256,192,91595,1,0,0:0:0:0:
256,192,91655,1,0,0:0:0:0:
256,192,91715,1,8,0:0:0:0:
256,192,91775,1,8,0:0:0:0:
256,192,91835,1,0,0:0:0:0:
256,192,91955,1,0,0:0:0:0:
256,192,92075,1,8,0:0:0:0:
256,192,92195,1,0,0:0:0:0:
256,192,92255,1,0,0:0:0:0:
256,192,92315,1,8,0:0:0:0:
256,192,92355,1,0,0:0:0:0:
256,192,92395,1,0,0:0:0:0:
256,192,92435,1,8,0:0:0:0:
256,192,92495,1,0,0:0:0:0:
256,192,92555,1,8,0:0:0:0:
256,192,92615,1,8,0:0:0:0:
256,192,92675,1,0,0:0:0:0:
256,192,92715,1,0,0:0:0:0:
256,192,92755,1,0,0:0:0:0:
256,192,92795,1,8,0:0:0:0:
256,192,93035,1,8,0:0:0:0:
256,192,93155,1,0,0:0:0:0:
256,192,93215,1,0,0:0:0:0:
256,192,93275,1,8,0:0:0:0:
256,192,93395,1,8,0:0:0:0:
256,192,93515,1,0,0:0:0:0:
256,192,93575,1,0,0:0:0:0:
256,192,93635,1,8,0:0:0:0:
256,192,93695,1,0,0:0:0:0:
256,192,93755,1,8,0:0:0:0:
256,192,93815,1,8,0:0:0:0:
256,192,93875,1,0,0:0:0:0:
256,192,93935,1,0,0:0:0:0:
256,192,93995,1,8,0:0:0:0:
256,192,94055,1,8,0:0:0:0:
256,192,94115,1,0,0:0:0:0:
256,192,94235,1,8,0:0:0:0:
256,192,94355,1,0,0:0:0:0:
256,192,94415,1,0,0:0:0:0:
256,192,94475,1,8,0:0:0:0:
256,192,94535,1,8,0:0:0:0:
256,192,94595,1,8,0:0:0:0:
256,192,94655,1,0,0:0:0:0:
256,192,94715,1,8,0:0:0:0:
256,192,94775,1,8,0:0:0:0:
256,192,94835,1,0,0:0:0:0:
256,192,94895,1,0,0:0:0:0:
256,192,94955,1,8,0:0:0:0:
256,192,95075,1,8,0:0:0:0:
256,192,95135,1,0,0:0:0:0:
256,192,95195,1,0,0:0:0:0:
256,192,95255,1,0,0:0:0:0:
256,192,95315,1,8,0:0:0:0:
256,192,95375,1,0,0:0:0:0:
256,192,95435,1,8,0:0:0:0:
256,192,95495,1,8,0:0:0:0:
256,192,95555,1,0,0:0:0:0:
256,192,95615,1,0,0:0:0:0:
256,192,95675,1,8,0:0:0:0:
256,192,95795,1,0,0:0:0:0:
256,192,95855,1,0,0:0:0:0:
256,192,95915,1,8,0:0:0:0:
256,192,95955,1,8,0:0:0:0:
256,192,95995,1,8,0:0:0:0:
256,192,96035,1,0,0:0:0:0:
256,192,96075,1,0,0:0:0:0:
256,192,96115,1,0,0:0:0:0:
256,192,96155,1,8,0:0:0:0:
256,192,96275,1,0,0:0:0:0:
256,192,96395,1,8,0:0:0:0:
256,192,96435,1,8,0:0:0:0:
256,192,96475,1,8,0:0:0:0:
256,192,96515,1,8,0:0:0:0:
256,192,96555,1,8,0:0:0:0:
256,192,96595,1,8,0:0:0:0:
256,192,96635,1,0,0:0:0:0:
256,192,96875,1,8,0:0:0:0:
256,192,96995,1,8,0:0:0:0:
256,192,97115,1,0,0:0:0:0:
256,192,97175,1,0,0:0:0:0:
256,192,97235,1,8,0:0:0:0:
256,192,97295,1,0,0:0:0:0:
256,192,97355,1,8,0:0:0:0:
256,192,97415,1,8,0:0:0:0:
256,192,97475,1,0,0:0:0:0:
256,192,97535,1,0,0:0:0:0:
256,192,97595,1,8,0:0:0:0:
256,192,97655,1,8,0:0:0:0:
256,192,97715,1,8,0:0:0:0:
256,192,97775,1,8,0:0:0:0:
256,192,97835,1,0,0:0:0:0:
256,192,97895,1,0,0:0:0:0:
256,192,97955,1,8,0:0:0:0:
256,192,98015,1,8,0:0:0:0:
256,192,98075,1,8,0:0:0:0:
256,192,98135,1,0,0:0:0:0:
256,192,98195,1,8,0:0:0:0:
256,192,98255,1,8,0:0:0:0:
256,192,98315,1,0,0:0:0:0:
256,192,98435,1,8,0:0:0:0:
256,192,98495,1,8,0:0:0:0:
256,192,98555,1,8,0:0:0:0:
256,192,98675,1,8,0:0:0:0:
256,192,98795,1,0,0:0:0:0:
256,192,98855,1,0,0:0:0:0:
256,192,98915,1,8,0:0:0:0:
256,192,98975,1,0,0:0:0:0:
256,192,99035,1,8,0:0:0:0:
256,192,99095,1,8,0:0:0:0:
256,192,99155,1,0,0:0:0:0:
256,192,99215,1,0,0:0:0:0:
256,192,99275,1,8,0:0:0:0:
256,192,99395,1,0,0:0:0:0:
256,192,99515,1,8,0:0:0:0:
256,192,99545,1,8,0:0:0:0:
256,192,99635,1,0,0:0:0:0:
256,192,99665,1,0,0:0:0:0:
256,192,99755,1,8,0:0:0:0:
256,192,99785,1,8,0:0:0:0:
256,192,99875,1,0,0:0:0:0:
256,192,99905,1,0,0:0:0:0:
256,192,100115,1,0,0:0:0:0:
256,192,100235,1,8,0:0:0:0:
256,192,100355,1,8,0:0:0:0:
256,192,100475,1,4,0:0:0:0:
256,192,100715,1,0,0:0:0:0:
256,192,100955,1,8,0:0:0:0:
256,192,101075,1,8,0:0:0:0:
256,192,101195,1,0,0:0:0:0:
256,192,101315,1,8,0:0:0:0:
256,192,101435,1,8,0:0:0:0:
256,192,101555,1,0,0:0:0:0:
256,192,101615,1,0,0:0:0:0:
256,192,101675,1,0,0:0:0:0:
256,192,101795,1,8,0:0:0:0:
256,192,101915,1,8,0:0:0:0:
256,192,102035,1,0,0:0:0:0:
256,192,102155,1,8,0:0:0:0:
256,192,102215,1,8,0:0:0:0:
256,192,102275,1,8,0:0:0:0:
256,192,102395,1,4,0:0:0:0:
256,192,102635,1,0,0:0:0:0:
256,192,102875,1,8,0:0:0:0:
256,192,102995,1,8,0:0:0:0:
256,192,103115,1,0,0:0:0:0:
256,192,103175,1,0,0:0:0:0:
256,192,103235,1,8,0:0:0:0:
256,192,103355,1,8,0:0:0:0:
256,192,103475,1,8,0:0:0:0:
256,192,103595,1,0,0:0:0:0:
256,192,103715,1,8,0:0:0:0:
256,192,103775,1,8,0:0:0:0:
256,192,103835,1,0,0:0:0:0:
256,192,104075,1,8,0:0:0:0:
256,192,104315,1,4,0:0:0:0:
256,192,104555,1,0,0:0:0:0:
256,192,104675,1,0,0:0:0:0:
256,192,104735,1,0,0:0:0:0:
256,192,104795,1,8,0:0:0:0:
256,192,104915,1,8,0:0:0:0:
256,192,105035,1,0,0:0:0:0:
256,192,105155,1,8,0:0:0:0:
256,192,105275,1,4,0:0:0:0:
256,192,105395,1,8,0:0:0:0:
256,192,105455,1,8,0:0:0:0:
256,192,105515,1,0,0:0:0:0:
256,192,105635,1,8,0:0:0:0:
256,192,105755,1,8,0:0:0:0:
256,192,105875,1,8,0:0:0:0:
256,192,105995,1,0,0:0:0:0:
256,192,106055,1,0,0:0:0:0:
256,192,106115,1,8,0:0:0:0:
256,192,106235,1,4,0:0:0:0:
256,192,106475,1,0,0:0:0:0:
256,192,106595,1,0,0:0:0:0:
256,192,106715,1,8,0:0:0:0:
256,192,106775,1,0,0:0:0:0:
256,192,106835,1,8,0:0:0:0:
256,192,106955,1,0,0:0:0:0:
256,192,107075,1,8,0:0:0:0:
256,192,107195,1,4,0:0:0:0:
256,192,107315,1,8,0:0:0:0:
256,192,107375,1,8,0:0:0:0:
256,192,107435,1,0,0:0:0:0:
256,192,107555,1,0,0:0:0:0:
256,192,107615,1,0,0:0:0:0:
256,192,107675,1,8,0:0:0:0:
256,192,107915,1,8,0:0:0:0:
256,192,108035,1,8,0:0:0:0:
256,192,108155,1,4,0:0:0:0:
256,192,108395,1,0,0:0:0:0:
256,192,108635,1,8,0:0:0:0:
256,192,108755,1,8,0:0:0:0:
256,192,108815,1,0,0:0:0:0:
256,192,108875,1,0,0:0:0:0:
256,192,108995,1,8,0:0:0:0:
256,192,109115,1,4,0:0:0:0:
256,192,109355,1,0,0:0:0:0:
256,192,109475,1,8,0:0:0:0:
256,192,109595,1,8,0:0:0:0:
256,192,109715,1,8,0:0:0:0:
256,192,109835,1,0,0:0:0:0:
256,192,109895,1,0,0:0:0:0:
256,192,109955,1,8,0:0:0:0:
256,192,110075,1,4,0:0:0:0:
256,192,110315,1,0,0:0:0:0:
256,192,110555,1,8,0:0:0:0:
256,192,110675,1,8,0:0:0:0:
256,192,110795,1,0,0:0:0:0:
256,192,110855,1,0,0:0:0:0:
256,192,110915,1,8,0:0:0:0:
256,192,111035,1,4,0:0:0:0:
256,192,111155,1,8,0:0:0:0:
256,192,111275,1,8,0:0:0:0:
256,192,111395,1,0,0:0:0:0:
256,192,111455,1,0,0:0:0:0:
256,192,111515,1,0,0:0:0:0:
256,192,111635,1,8,0:0:0:0:
256,192,111695,1,8,0:0:0:0:
256,192,111755,1,0,0:0:0:0:
256,192,111875,1,8,0:0:0:0:
256,192,111995,1,4,0:0:0:0:
256,192,112235,1,0,0:0:0:0:
256,192,112475,1,8,0:0:0:0:
256,192,112595,1,8,0:0:0:0:
256,192,112655,1,8,0:0:0:0:
256,192,112715,1,0,0:0:0:0:
256,192,112835,1,8,0:0:0:0:
256,192,112955,1,4,0:0:0:0:
256,192,113075,1,8,0:0:0:0:
256,192,113195,1,0,0:0:0:0:
256,192,113315,1,8,0:0:0:0:
256,192,113375,1,0,0:0:0:0:
256,192,113435,1,8,0:0:0:0:
256,192,113555,1,8,0:0:0:0:
256,192,113675,1,8,0:0:0:0:
256,192,113795,1,8,0:0:0:0:
256,192,113915,1,0,0:0:0:0:
256,192,114035,1,8,0:0:0:0:
256,192,114095,1,8,0:0:0:0:
256,192,114155,1,0,0:0:0:0:
256,192,114275,1,8,0:0:0:0:
256,192,114395,1,4,0:0:0:0:
256,192,114635,1,8,0:0:0:0:
256,192,114755,1,8,0:0:0:0:
256,192,114875,1,0,0:0:0:0:
256,192,114995,1,0,0:0:0:0:
256,192,115055,1,0,0:0:0:0:
256,192,115115,1,0,0:0:0:0:
256,192,115235,1,8,0:0:0:0:
256,192,115355,1,0,0:0:0:0:
256,192,115475,1,8,0:0:0:0:
256,192,115535,1,8,0:0:0:0:
256,192,115595,1,0,0:0:0:0:
256,192,115715,1,8,0:0:0:0:
256,192,115835,1,4,0:0:0:0:
256,192,116075,1,8,0:0:0:0:
256,192,116135,1,8,0:0:0:0:
256,192,116195,1,0,0:0:0:0:
256,192,116315,1,0,0:0:0:0:
256,192,116435,1,8,0:0:0:0:
256,192,116495,1,8,0:0:0:0:
256,192,116555,1,8,0:0:0:0:
256,192,116615,1,8,0:0:0:0:
256,192,116675,1,0,0:0:0:0:
256,192,116795,1,8,0:0:0:0:
256,192,116855,1,8,0:0:0:0:
256,192,116915,1,8,0:0:0:0:
256,192,117035,1,0,0:0:0:0:
256,192,117095,1,0,0:0:0:0:
256,192,117155,1,8,0:0:0:0:
256,192,117275,1,0,0:0:0:0:
256,192,117395,1,8,0:0:0:0:
256,192,117455,1,8,0:0:0:0:
256,192,117515,1,8,0:0:0:0:
256,192,117575,1,8,0:0:0:0:
256,192,117635,1,0,0:0:0:0:
256,192,117695,1,0,0:0:0:0:
256,192,117755,1,8,0:0:0:0:
256,192,117815,1,8,0:0:0:0:
256,192,117875,1,0,0:0:0:0:
256,192,117995,1,8,0:0:0:0:
256,192,118055,1,8,0:0:0:0:
256,192,118115,1,8,0:0:0:0:
256,192,118235,1,0,0:0:0:0:
256,192,118355,1,8,0:0:0:0:
256,192,118415,1,0,0:0:0:0:
256,192,118475,1,8,0:0:0:0:
256,192,118535,1,8,0:0:0:0:
256,192,118595,1,0,0:0:0:0:
256,192,118715,1,8,0:0:0:0:
256,192,118775,1,8,0:0:0:0:
256,192,118835,1,8,0:0:0:0:
256,192,118955,1,0,0:0:0:0:
256,192,119015,1,0,0:0:0:0:
256,192,119075,1,0,0:0:0:0:
256,192,119135,1,0,0:0:0:0:
256,192,119195,1,8,0:0:0:0:
256,192,119255,1,8,0:0:0:0:
256,192,119315,1,0,0:0:0:0:
256,192,119435,1,8,0:0:0:0:
256,192,119555,1,8,0:0:0:0:
256,192,119675,1,4,0:0:0:0:
256,192,119915,1,8,0:0:0:0:
256,192,119975,1,8,0:0:0:0:
256,192,120035,1,0,0:0:0:0:
256,192,120155,1,0,0:0:0:0:
256,192,120275,1,8,0:0:0:0:
256,192,120335,1,0,0:0:0:0:
256,192,120395,1,8,0:0:0:0:
256,192,120455,1,8,0:0:0:0:
256,192,120515,1,0,0:0:0:0:
256,192,120635,1,8,0:0:0:0:
256,192,120695,1,8,0:0:0:0:
256,192,120755,1,8,0:0:0:0:
256,192,120875,1,0,0:0:0:0:
256,192,120935,1,0,0:0:0:0:
256,192,120995,1,0,0:0:0:0:
256,192,121115,1,0,0:0:0:0:
256,192,121235,1,8,0:0:0:0:
256,192,121295,1,0,0:0:0:0:
256,192,121355,1,8,0:0:0:0:
256,192,121415,1,8,0:0:0:0:
256,192,121475,1,0,0:0:0:0:
256,192,121535,1,0,0:0:0:0:
256,192,121595,1,8,0:0:0:0:
256,192,121655,1,8,0:0:0:0:
256,192,121715,1,0,0:0:0:0:
256,192,121835,1,8,0:0:0:0:
256,192,121895,1,8,0:0:0:0:
256,192,121955,1,8,0:0:0:0:
256,192,122075,1,0,0:0:0:0:
256,192,122195,1,8,0:0:0:0:
256,192,122255,1,8,0:0:0:0:
256,192,122315,1,0,0:0:0:0:
256,192,122375,1,0,0:0:0:0:
256,192,122435,1,0,0:0:0:0:
256,192,122555,1,12,0:0:0:0:
256,192,122795,1,4,0:0:0:0:
256,192,123035,1,12,0:0:0:0:
256,192,123275,1,12,0:0:0:0:
256,192,123515,1,4,0:0:0:0:
256,192,123755,1,8,0:0:0:0:
256,192,123815,1,8,0:0:0:0:
256,192,123875,1,0,0:0:0:0:
256,192,123995,1,0,0:0:0:0:
256,192,124115,1,8,0:0:0:0:
256,192,124175,1,8,0:0:0:0:
256,192,124235,1,8,0:0:0:0:
256,192,124295,1,8,0:0:0:0:
256,192,124355,1,0,0:0:0:0:
256,192,124415,1,0,0:0:0:0:
256,192,124475,1,8,0:0:0:0:
256,192,124535,1,8,0:0:0:0:
256,192,124595,1,8,0:0:0:0:
256,192,124715,1,0,0:0:0:0:
256,192,124775,1,0,0:0:0:0:
256,192,124835,1,8,0:0:0:0:
256,192,124955,1,0,0:0:0:0:
256,192,125075,1,8,0:0:0:0:
256,192,125135,1,8,0:0:0:0:
256,192,125195,1,8,0:0:0:0:
256,192,125255,1,8,0:0:0:0:
256,192,125315,1,0,0:0:0:0:
256,192,125375,1,0,0:0:0:0:
256,192,125435,1,8,0:0:0:0:
256,192,125495,1,8,0:0:0:0:
256,192,125555,1,0,0:0:0:0:
256,192,125675,1,8,0:0:0:0:
256,192,125735,1,8,0:0:0:0:
256,192,125795,1,8,0:0:0:0:
256,192,125915,1,0,0:0:0:0:
256,192,126035,1,8,0:0:0:0:
256,192,126095,1,0,0:0:0:0:
256,192,126155,1,8,0:0:0:0:
256,192,126215,1,8,0:0:0:0:
256,192,126275,1,0,0:0:0:0:
256,192,126395,1,8,0:0:0:0:
256,192,126455,1,8,0:0:0:0:
256,192,126515,1,8,0:0:0:0:
256,192,126575,1,8,0:0:0:0:
256,192,126635,1,0,0:0:0:0:
256,192,126695,1,0,0:0:0:0:
256,192,126755,1,0,0:0:0:0:
256,192,126815,1,0,0:0:0:0:
256,192,126875,1,8,0:0:0:0:
256,192,126935,1,8,0:0:0:0:
256,192,126995,1,0,0:0:0:0:
256,192,127055,1,0,0:0:0:0:
256,192,127115,1,8,0:0:0:0:
256,192,127235,1,8,0:0:0:0:
256,192,127355,1,4,0:0:0:0:
256,192,127595,1,8,0:0:0:0:
256,192,127655,1,8,0:0:0:0:
256,192,127715,1,8,0:0:0:0:
256,192,127835,1,0,0:0:0:0:
256,192,127955,1,8,0:0:0:0:
256,192,128015,1,0,0:0:0:0:
256,192,128075,1,8,0:0:0:0:
256,192,128135,1,8,0:0:0:0:
256,192,128195,1,0,0:0:0:0:
256,192,128255,1,0,0:0:0:0:
256,192,128315,1,8,0:0:0:0:
256,192,128375,1,8,0:0:0:0:
256,192,128435,1,8,0:0:0:0:
256,192,128555,1,0,0:0:0:0:
256,192,128615,1,0,0:0:0:0:
256,192,128675,1,0,0:0:0:0:
256,192,128795,1,0,0:0:0:0:
256,192,128915,1,8,0:0:0:0:
256,192,128975,1,0,0:0:0:0:
256,192,129035,1,8,0:0:0:0:
256,192,129095,1,8,0:0:0:0:
256,192,129155,1,0,0:0:0:0:
256,192,129275,1,12,0:0:0:0:
256,192,129515,1,0,0:0:0:0:
256,192,129575,1,0,0:0:0:0:
256,192,129635,1,0,0:0:0:0:
256,192,129755,1,12,0:0:0:0:
256,192,129995,1,0,0:0:0:0:
256,192,130235,1,8,0:0:0:0:
256,192,130275,1,8,0:0:0:0:
256,192,130315,1,8,0:0:0:0:
256,192,130355,1,0,0:0:0:0:
256,192,130415,1,0,0:0:0:0:
256,192,130475,1,8,0:0:0:0:
256,192,130515,1,0,0:0:0:0:
256,192,130555,1,0,0:0:0:0:
256,192,130595,1,8,0:0:0:0:
256,192,130635,1,0,0:0:0:0:
256,192,130675,1,0,0:0:0:0:
256,192,130715,1,8,0:0:0:0:
256,192,130835,1,0,0:0:0:0:
256,192,130955,1,0,0:0:0:0:
256,192,131075,1,8,0:0:0:0:
256,192,131195,1,0,0:0:0:0:
256,192,131315,1,0,0:0:0:0:
256,192,131435,1,0,0:0:0:0:
256,192,131555,1,8,0:0:0:0:
256,192,132155,1,8,0:0:0:0:
256,192,132275,1,0,0:0:0:0:
256,192,132395,1,0,0:0:0:0:
256,192,132515,1,8,0:0:0:0:
256,192,132755,1,8,0:0:0:0:
256,192,132875,1,0,0:0:0:0:
256,192,132995,1,0,0:0:0:0:
256,192,133115,1,8,0:0:0:0:
256,192,133235,1,0,0:0:0:0:
256,192,133355,1,0,0:0:0:0:
256,192,133475,1,8,0:0:0:0:
256,192,134075,1,8,0:0:0:0:
256,192,134195,1,0,0:0:0:0:
256,192,134315,1,0,0:0:0:0:
256,192,134435,1,8,0:0:0:0:
256,192,134675,1,0,0:0:0:0:
256,192,134795,1,8,0:0:0:0:
256,192,134915,1,0,0:0:0:0:
256,192,135035,1,8,0:0:0:0:
256,192,135155,1,0,0:0:0:0:
256,192,135275,1,0,0:0:0:0:
256,192,135395,1,8,0:0:0:0:
256,192,135995,1,8,0:0:0:0:
256,192,136115,1,8,0:0:0:0:
256,192,136235,1,0,0:0:0:0:
256,192,136355,1,8,0:0:0:0:
256,192,136595,1,8,0:0:0:0:
256,192,136715,1,0,0:0:0:0:
256,192,136835,1,0,0:0:0:0:
256,192,136955,1,8,0:0:0:0:
256,192,137075,1,8,0:0:0:0:
256,192,137195,1,0,0:0:0:0:
256,192,137315,1,8,0:0:0:0:
256,192,137915,1,8,0:0:0:0:
256,192,138035,1,0,0:0:0:0:
256,192,138155,1,0,0:0:0:0:
256,192,138275,1,8,0:0:0:0:
256,192,138515,1,0,0:0:0:0:
256,192,138635,1,8,0:0:0:0:
256,192,138755,1,0,0:0:0:0:
256,192,138875,1,8,0:0:0:0:
256,192,138995,1,8,0:0:0:0:
256,192,139115,1,0,0:0:0:0:
256,192,139235,1,8,0:0:0:0:
256,192,139835,1,8,0:0:0:0:
256,192,139955,1,0,0:0:0:0:
256,192,140075,1,0,0:0:0:0:
256,192,140195,1,8,0:0:0:0:
256,192,140435,1,8,0:0:0:0:
256,192,140555,1,0,0:0:0:0:
256,192,140675,1,0,0:0:0:0:
256,192,140795,1,8,0:0:0:0:
256,192,140915,1,0,0:0:0:0:
256,192,141035,1,0,0:0:0:0:
256,192,141155,1,8,0:0:0:0:
256,192,141755,1,8,0:0:0:0:
256,192,141875,1,0,0:0:0:0:
256,192,141995,1,0,0:0:0:0:
256,192,142115,1,8,0:0:0:0:
256,192,142355,1,0,0:0:0:0:
256,192,142475,1,8,0:0:0:0:
256,192,142595,1,0,0:0:0:0:
256,192,142715,1,8,0:0:0:0:
256,192,142835,1,0,0:0:0:0:
256,192,142955,1,0,0:0:0:0:
256,192,143075,1,8,0:0:0:0:
256,192,143675,1,8,0:0:0:0:
256,192,143795,1,8,0:0:0:0:
256,192,143915,1,0,0:0:0:0:
256,192,144035,1,8,0:0:0:0:
256,192,144275,1,8,0:0:0:0:
256,192,144395,1,0,0:0:0:0:
256,192,144515,1,0,0:0:0:0:
256,192,144635,1,8,0:0:0:0:
256,192,144755,1,8,0:0:0:0:
256,192,144875,1,0,0:0:0:0:
256,192,144995,1,8,0:0:0:0:
256,192,145595,1,8,0:0:0:0:
256,192,145715,1,0,0:0:0:0:
256,192,145835,1,0,0:0:0:0:
256,192,145955,1,8,0:0:0:0:
256,192,146195,1,0,0:0:0:0:
256,192,146315,1,8,0:0:0:0:
256,192,146435,1,0,0:0:0:0:
256,192,146555,1,8,0:0:0:0:
256,192,146675,1,0,0:0:0:0:
256,192,146795,1,0,0:0:0:0:
256,192,146915,1,8,0:0:0:0:
256,192,147515,1,8,0:0:0:0:
256,192,147635,1,0,0:0:0:0:
256,192,147755,1,0,0:0:0:0:
256,192,147875,1,8,0:0:0:0:
256,192,148115,1,8,0:0:0:0:
256,192,148235,1,0,0:0:0:0:
256,192,148355,1,0,0:0:0:0:
256,192,148475,1,8,0:0:0:0:
256,192,148595,1,0,0:0:0:0:
256,192,148715,1,0,0:0:0:0:
256,192,148835,1,8,0:0:0:0:
256,192,149435,1,8,0:0:0:0:
256,192,149555,1,0,0:0:0:0:
256,192,149675,1,0,0:0:0:0:
256,192,149795,1,8,0:0:0:0:
256,192,150035,1,0,0:0:0:0:
256,192,150155,1,8,0:0:0:0:
256,192,150275,1,0,0:0:0:0:
256,192,150395,1,8,0:0:0:0:
256,192,150515,1,0,0:0:0:0:
256,192,150635,1,0,0:0:0:0:
256,192,150755,1,8,0:0:0:0:
256,192,151355,1,8,0:0:0:0:
256,192,151475,1,8,0:0:0:0:
256,192,151595,1,0,0:0:0:0:
256,192,151715,1,8,0:0:0:0:
256,192,151955,1,8,0:0:0:0:
256,192,152075,1,0,0:0:0:0:
256,192,152195,1,0,0:0:0:0:
256,192,152315,1,8,0:0:0:0:
256,192,152435,1,8,0:0:0:0:
256,192,152555,1,0,0:0:0:0:
256,192,152675,1,8,0:0:0:0:
256,192,153275,1,8,0:0:0:0:
256,192,153395,1,0,0:0:0:0:
256,192,153515,1,0,0:0:0:0:
256,192,153635,1,8,0:0:0:0:
256,192,153875,1,0,0:0:0:0:
256,192,153995,1,8,0:0:0:0:
256,192,154115,1,0,0:0:0:0:
256,192,154235,1,8,0:0:0:0:
256,192,154355,1,8,0:0:0:0:
256,192,154475,1,0,0:0:0:0:
256,192,154595,1,8,0:0:0:0:
256,192,154835,1,0,0:0:0:0:
256,192,154955,1,0,0:0:0:0:
256,192,155195,1,8,0:0:0:0:
256,192,155315,1,0,0:0:0:0:
256,192,155435,1,0,0:0:0:0:
256,192,155555,1,8,0:0:0:0:
256,192,155795,1,8,0:0:0:0:
256,192,155915,1,0,0:0:0:0:
256,192,156035,1,0,0:0:0:0:
256,192,156155,1,8,0:0:0:0:
256,192,156275,1,0,0:0:0:0:
256,192,156395,1,0,0:0:0:0:
256,192,156515,1,8,0:0:0:0:
256,192,156755,1,0,0:0:0:0:
256,192,156875,1,0,0:0:0:0:
256,192,157115,1,8,0:0:0:0:
256,192,157235,1,0,0:0:0:0:
256,192,157355,1,0,0:0:0:0:
256,192,157475,1,8,0:0:0:0:
256,192,157715,1,0,0:0:0:0:
256,192,157835,1,8,0:0:0:0:
256,192,157955,1,0,0:0:0:0:
256,192,158075,1,8,0:0:0:0:
256,192,158195,1,0,0:0:0:0:
256,192,158315,1,0,0:0:0:0:
256,192,158435,1,8,0:0:0:0:
256,192,158675,1,0,0:0:0:0:
256,192,158795,1,0,0:0:0:0:
256,192,159035,1,8,0:0:0:0:
256,192,159155,1,8,0:0:0:0:
256,192,159275,1,0,0:0:0:0:
256,192,159395,1,8,0:0:0:0:
256,192,159635,1,8,0:0:0:0:
256,192,159755,1,0,0:0:0:0:
256,192,159875,1,0,0:0:0:0:
256,192,159995,1,8,0:0:0:0:
256,192,160115,1,8,0:0:0:0:
256,192,160235,1,0,0:0:0:0:
256,192,160355,1,8,0:0:0:0:
256,192,160595,1,0,0:0:0:0:
256,192,160715,1,0,0:0:0:0:
256,192,160955,1,8,0:0:0:0:
256,192,161075,1,0,0:0:0:0:
256,192,161195,1,0,0:0:0:0:
256,192,161315,1,8,0:0:0:0:
256,192,161555,1,0,0:0:0:0:
256,192,161675,1,8,0:0:0:0:
256,192,161795,1,8,0:0:0:0:
256,192,161915,1,0,0:0:0:0:
256,192,162155,1,0,0:0:0:0:
256,192,162275,1,8,0:0:0:0:
256,192,162395,1,0,0:0:0:0:
256,192,162515,1,8,0:0:0:0:
256,192,162635,1,8,0:0:0:0:
256,192,162755,1,0,0:0:0:0:
256,192,162875,1,8,0:0:0:0:
256,192,162995,1,0,0:0:0:0:
256,192,163115,1,0,0:0:0:0:
256,192,163235,1,8,0:0:0:0:
256,192,163355,1,0,0:0:0:0:
256,192,163475,1,8,0:0:0:0:
256,192,163595,1,0,0:0:0:0:
256,192,163715,1,8,0:0:0:0:
256,192,163835,1,8,0:0:0:0:
256,192,163955,1,0,0:0:0:0:
256,192,164075,1,0,0:0:0:0:
256,192,164195,1,8,0:0:0:0:
256,192,164315,1,0,0:0:0:0:
256,192,164435,1,0,0:0:0:0:
256,192,164555,1,8,0:0:0:0:
256,192,164675,1,0,0:0:0:0:
256,192,164795,1,8,0:0:0:0:
256,192,164915,1,0,0:0:0:0:
256,192,165035,1,0,0:0:0:0:
256,192,165155,1,8,0:0:0:0:
256,192,165275,1,0,0:0:0:0:
256,192,165395,1,8,0:0:0:0:
256,192,165515,1,0,0:0:0:0:
256,192,165635,1,8,0:0:0:0:
256,192,165695,1,8,0:0:0:0:
256,192,165875,1,0,0:0:0:0:
256,192,165995,1,0,0:0:0:0:
256,192,166115,1,8,0:0:0:0:
256,192,166235,1,0,0:0:0:0:
256,192,166355,1,8,0:0:0:0:
256,192,166475,1,0,0:0:0:0:
256,192,166595,1,0,0:0:0:0:
256,192,166715,1,8,0:0:0:0:
256,192,166835,1,8,0:0:0:0:
256,192,166955,1,0,0:0:0:0:
256,192,167075,1,8,0:0:0:0:
256,192,167195,1,0,0:0:0:0:
256,192,167315,1,8,0:0:0:0:
256,192,167435,1,0,0:0:0:0:
256,192,167555,1,0,0:0:0:0:
256,192,167675,1,8,0:0:0:0:
256,192,167795,1,0,0:0:0:0:
256,192,167915,1,0,0:0:0:0:
256,192,168035,1,8,0:0:0:0:
256,192,168155,1,8,0:0:0:0:
256,192,168275,1,0,0:0:0:0:
256,192,168395,1,8,0:0:0:0:
256,192,168515,1,0,0:0:0:0:
256,192,168635,1,8,0:0:0:0:
256,192,168755,1,0,0:0:0:0:
256,192,168875,1,0,0:0:0:0:
256,192,168995,1,8,0:0:0:0:
256,192,169115,1,0,0:0:0:0:
256,192,169235,1,8,0:0:0:0:
256,192,169355,1,8,0:0:0:0:
256,192,169475,1,0,0:0:0:0:
256,192,169595,1,8,0:0:0:0:
256,192,169835,1,0,0:0:0:0:
256,192,169955,1,8,0:0:0:0:
256,192,170075,1,0,0:0:0:0:
256,192,170195,1,8,0:0:0:0:
256,192,170315,1,8,0:0:0:0:
256,192,170435,1,0,0:0:0:0:
256,192,170555,1,8,0:0:0:0:
256,192,170675,1,0,0:0:0:0:
256,192,170795,1,0,0:0:0:0:
256,192,170915,1,8,0:0:0:0:
256,192,171035,1,0,0:0:0:0:
256,192,171155,1,8,0:0:0:0:
256,192,171275,1,0,0:0:0:0:
256,192,171395,1,8,0:0:0:0:
256,192,171515,1,8,0:0:0:0:
256,192,171635,1,0,0:0:0:0:
256,192,171755,1,0,0:0:0:0:
256,192,171875,1,8,0:0:0:0:
256,192,171995,1,0,0:0:0:0:
256,192,172115,1,0,0:0:0:0:
256,192,172235,1,8,0:0:0:0:
256,192,172355,1,0,0:0:0:0:
256,192,172475,1,8,0:0:0:0:
256,192,172595,1,0,0:0:0:0:
256,192,172715,1,0,0:0:0:0:
256,192,172835,1,8,0:0:0:0:
256,192,172955,1,0,0:0:0:0:
256,192,173075,1,8,0:0:0:0:
256,192,173195,1,0,0:0:0:0:
256,192,173315,1,8,0:0:0:0:
256,192,173375,1,8,0:0:0:0:
256,192,173555,1,0,0:0:0:0:
256,192,173675,1,0,0:0:0:0:
256,192,173795,1,8,0:0:0:0:
256,192,173915,1,0,0:0:0:0:
256,192,174035,1,8,0:0:0:0:
256,192,174155,1,0,0:0:0:0:
256,192,174275,1,0,0:0:0:0:
256,192,174395,1,8,0:0:0:0:
256,192,174515,1,8,0:0:0:0:
256,192,174635,1,0,0:0:0:0:
256,192,174755,1,8,0:0:0:0:
256,192,174875,1,0,0:0:0:0:
256,192,174995,1,8,0:0:0:0:
256,192,175115,1,0,0:0:0:0:
256,192,175235,1,0,0:0:0:0:
256,192,175355,1,8,0:0:0:0:
256,192,175475,1,0,0:0:0:0:
256,192,175595,1,0,0:0:0:0:
256,192,175715,1,8,0:0:0:0:
256,192,175835,1,8,0:0:0:0:
256,192,175955,1,0,0:0:0:0:
256,192,176075,1,8,0:0:0:0:
256,192,176195,1,0,0:0:0:0:
256,192,176315,1,8,0:0:0:0:
256,192,176435,1,0,0:0:0:0:
256,192,176555,1,0,0:0:0:0:
256,192,176675,1,8,0:0:0:0:
256,192,176795,1,0,0:0:0:0:
256,192,176915,1,8,0:0:0:0:
256,192,177035,1,8,0:0:0:0:
256,192,177155,1,0,0:0:0:0:
256,192,177275,1,12,0:0:0:0:
256,192,177755,1,0,0:0:0:0:
256,192,178235,1,0,0:0:0:0:
256,192,178715,1,0,0:0:0:0:
256,192,178955,1,0,0:0:0:0:
256,192,179195,1,0,0:0:0:0:
256,192,179675,1,0,0:0:0:0:
256,192,180155,1,0,0:0:0:0:
256,192,180635,1,0,0:0:0:0:
256,192,180875,1,0,0:0:0:0:
256,192,181115,1,12,0:0:0:0:
256,192,181595,1,0,0:0:0:0:
256,192,182075,1,0,0:0:0:0:
256,192,182555,1,0,0:0:0:0:
256,192,182795,1,0,0:0:0:0:
256,192,183035,1,0,0:0:0:0:
256,192,183515,1,0,0:0:0:0:
256,192,183875,1,0,0:0:0:0:
256,192,183995,1,0,0:0:0:0:
256,192,184235,1,0,0:0:0:0:
256,192,184355,1,0,0:0:0:0:
256,192,184475,1,0,0:0:0:0:
256,192,184715,1,0,0:0:0:0:
256,192,184955,1,12,0:0:0:0:
256,192,185435,1,0,0:0:0:0:
256,192,185915,1,0,0:0:0:0:
256,192,186395,1,0,0:0:0:0:
256,192,186635,1,0,0:0:0:0:
256,192,186875,1,0,0:0:0:0:
256,192,187355,1,0,0:0:0:0:
256,192,187835,1,0,0:0:0:0:
256,192,188315,1,0,0:0:0:0:
256,192,188555,1,0,0:0:0:0:
256,192,188795,1,12,0:0:0:0:
256,192,189275,1,0,0:0:0:0:
256,192,189755,1,0,0:0:0:0:
256,192,190235,1,0,0:0:0:0:
256,192,190475,1,0,0:0:0:0:
256,192,190715,1,0,0:0:0:0:
256,192,191195,1,0,0:0:0:0:
256,192,191675,1,8,0:0:0:0:
256,192,192635,1,8,0:0:0:0:
256,192,192755,1,0,0:0:0:0:
256,192,192875,1,0,0:0:0:0:
256,192,192995,1,8,0:0:0:0:
256,192,193115,1,0,0:0:0:0:
256,192,193235,1,8,0:0:0:0:
256,192,193355,1,8,0:0:0:0:
256,192,193475,1,0,0:0:0:0:
256,192,193595,1,8,0:0:0:0:
256,192,193715,1,0,0:0:0:0:
256,192,193835,1,0,0:0:0:0:
256,192,193955,1,8,0:0:0:0:
256,192,194075,1,0,0:0:0:0:
256,192,194195,1,8,0:0:0:0:
256,192,194315,1,8,0:0:0:0:
256,192,194435,1,0,0:0:0:0:
256,192,194555,1,8,0:0:0:0:
256,192,194675,1,0,0:0:0:0:
256,192,194795,1,0,0:0:0:0:
256,192,194915,1,8,0:0:0:0:
256,192,195035,1,8,0:0:0:0:
256,192,195155,1,0,0:0:0:0:
256,192,195275,1,8,0:0:0:0:
256,192,195395,1,0,0:0:0:0:
256,192,195515,1,8,0:0:0:0:
256,192,195635,1,0,0:0:0:0:
256,192,195755,1,0,0:0:0:0:
256,192,195875,1,8,0:0:0:0:
256,192,195935,1,8,0:0:0:0:
256,192,195995,1,0,0:0:0:0:
256,192,196115,1,8,0:0:0:0:
256,192,196235,1,8,0:0:0:0:
256,192,196355,1,8,0:0:0:0:
256,192,196475,1,4,0:0:0:0:
256,192,196715,1,0,0:0:0:0:
256,192,196835,1,8,0:0:0:0:
256,192,196955,1,0,0:0:0:0:
256,192,197075,1,8,0:0:0:0:
256,192,197195,1,8,0:0:0:0:
256,192,197315,1,0,0:0:0:0:
256,192,197435,1,8,0:0:0:0:
256,192,197555,1,0,0:0:0:0:
256,192,197675,1,0,0:0:0:0:
256,192,197795,1,8,0:0:0:0:
256,192,197855,1,8,0:0:0:0:
256,192,197915,1,0,0:0:0:0:
256,192,198035,1,8,0:0:0:0:
256,192,198155,1,0,0:0:0:0:
256,192,198215,1,8,0:0:0:0:
256,192,198275,1,0,0:0:0:0:
256,192,198335,1,0,0:0:0:0:
256,192,198395,1,8,0:0:0:0:
256,192,198515,1,0,0:0:0:0:
256,192,198635,1,0,0:0:0:0:
256,192,198755,1,8,0:0:0:0:
256,192,198875,1,8,0:0:0:0:
256,192,198995,1,0,0:0:0:0:
256,192,199115,1,8,0:0:0:0:
256,192,199235,1,0,0:0:0:0:
256,192,199355,1,8,0:0:0:0:
256,192,199475,1,0,0:0:0:0:
256,192,199535,1,0,0:0:0:0:
256,192,199595,1,0,0:0:0:0:
256,192,199715,1,8,0:0:0:0:
256,192,199775,1,8,0:0:0:0:
256,192,199835,1,0,0:0:0:0:
256,192,199955,1,8,0:0:0:0:
256,192,200075,1,8,0:0:0:0:
256,192,200195,1,8,0:0:0:0:
256,192,200315,1,4,0:0:0:0:
256,192,200555,1,0,0:0:0:0:
256,192,200675,1,8,0:0:0:0:
256,192,200795,1,0,0:0:0:0:
256,192,200915,1,8,0:0:0:0:
256,192,201035,1,8,0:0:0:0:
256,192,201155,1,0,0:0:0:0:
256,192,201275,1,8,0:0:0:0:
256,192,201395,1,0,0:0:0:0:
256,192,201515,1,0,0:0:0:0:
256,192,201635,1,8,0:0:0:0:
256,192,201755,1,0,0:0:0:0:
256,192,201875,1,8,0:0:0:0:
256,192,201995,1,0,0:0:0:0:
256,192,202055,1,0,0:0:0:0:
256,192,202115,1,0,0:0:0:0:
256,192,202175,1,0,0:0:0:0:
256,192,202235,1,8,0:0:0:0:
256,192,202355,1,0,0:0:0:0:
256,192,202475,1,0,0:0:0:0:
256,192,202595,1,8,0:0:0:0:
256,192,202715,1,0,0:0:0:0:
256,192,202835,1,8,0:0:0:0:
256,192,202955,1,8,0:0:0:0:
256,192,203075,1,0,0:0:0:0:
256,192,203195,1,8,0:0:0:0:
256,192,203315,1,0,0:0:0:0:
256,192,203375,1,0,0:0:0:0:
256,192,203435,1,0,0:0:0:0:
256,192,203555,1,8,0:0:0:0:
256,192,203615,1,8,0:0:0:0:
256,192,203675,1,0,0:0:0:0:
256,192,203795,1,8,0:0:0:0:
256,192,203915,1,8,0:0:0:0:
256,192,204035,1,8,0:0:0:0:
256,192,204155,1,4,0:0:0:0:
256,192,204395,1,12,0:0:0:0:
256,192,204635,1,12,0:0:0:0:
256,192,204875,1,12,0:0:0:0:
256,192,204995,1,12,0:0:0:0:
256,192,205115,1,12,0:0:0:0:
256,192,205355,1,12,0:0:0:0:
256,192,205475,1,12,0:0:0:0:
256,192,205715,1,0,0:0:0:0:
256,192,205835,1,8,0:0:0:0:
256,192,205895,1,8,0:0:0:0:
256,192,205955,1,0,0:0:0:0:
256,192,206075,1,12,0:0:0:0:
256,192,206315,1,12,0:0:0:0:
256,192,206555,1,4,0:0:0:0:
256,192,206795,1,4,0:0:0:0:
256,192,206915,1,12,0:0:0:0:
256,192,207995,1,8,0:0:0:0:
256,192,208055,1,8,0:0:0:0:
256,192,208115,1,0,0:0:0:0:
256,192,208175,1,0,0:0:0:0:
256,192,208235,1,8,0:0:0:0:
256,192,208295,1,0,0:0:0:0:
256,192,208355,1,8,0:0:0:0:
256,192,208415,1,8,0:0:0:0:
256,192,208475,1,0,0:0:0:0:
256,192,208595,1,8,0:0:0:0:
256,192,208715,1,0,0:0:0:0:
256,192,208775,1,0,0:0:0:0:
256,192,208835,1,8,0:0:0:0:
256,192,208895,1,0,0:0:0:0:
256,192,208955,1,8,0:0:0:0:
256,192,209015,1,8,0:0:0:0:
256,192,209075,1,0,0:0:0:0:
256,192,209135,1,0,0:0:0:0:
256,192,209195,1,8,0:0:0:0:
256,192,209255,1,0,0:0:0:0:
256,192,209315,1,8,0:0:0:0:
256,192,209375,1,8,0:0:0:0:
256,192,209435,1,0,0:0:0:0:
256,192,209555,1,8,0:0:0:0:
256,192,209615,1,0,0:0:0:0:
256,192,209675,1,8,0:0:0:0:
256,192,209735,1,8,0:0:0:0:
256,192,209795,1,0,0:0:0:0:
256,192,209855,1,0,0:0:0:0:
256,192,209915,1,8,0:0:0:0:
256,192,209975,1,8,0:0:0:0:
256,192,210035,1,0,0:0:0:0:
256,192,210095,1,0,0:0:0:0:
256,192,210155,1,8,0:0:0:0:
256,192,210215,1,8,0:0:0:0:
256,192,210275,1,8,0:0:0:0:
256,192,210335,1,8,0:0:0:0:
256,192,210395,1,0,0:0:0:0:
256,192,210515,1,0,0:0:0:0:
256,192,210635,1,8,0:0:0:0:
256,192,210695,1,8,0:0:0:0:
256,192,210755,1,0,0:0:0:0:
256,192,210815,1,0,0:0:0:0:
256,192,210875,1,8,0:0:0:0:
256,192,210935,1,0,0:0:0:0:
256,192,210995,1,0,0:0:0:0:
256,192,211055,1,0,0:0:0:0:
256,192,211115,1,8,0:0:0:0:
256,192,211175,1,8,0:0:0:0:
256,192,211235,1,8,0:0:0:0:
256,192,211295,1,8,0:0:0:0:
256,192,211355,1,0,0:0:0:0:
256,192,211415,1,0,0:0:0:0:
256,192,211475,1,8,0:0:0:0:
256,192,211535,1,0,0:0:0:0:
256,192,211595,1,8,0:0:0:0:
256,192,211655,1,8,0:0:0:0:
256,192,211715,1,0,0:0:0:0:
256,192,211835,1,8,0:0:0:0:
256,192,211895,1,0,0:0:0:0:
256,192,211955,1,0,0:0:0:0:
256,192,212015,1,0,0:0:0:0:
256,192,212075,1,8,0:0:0:0:
256,192,212135,1,0,0:0:0:0:
256,192,212195,1,8,0:0:0:0:
256,192,212255,1,8,0:0:0:0:
256,192,212315,1,0,0:0:0:0:
256,192,212435,1,8,0:0:0:0:
256,192,212555,1,0,0:0:0:0:
256,192,212615,1,0,0:0:0:0:
256,192,212675,1,8,0:0:0:0:
256,192,212735,1,0,0:0:0:0:
256,192,212795,1,8,0:0:0:0:
256,192,212855,1,8,0:0:0:0:
256,192,212915,1,0,0:0:0:0:
256,192,212975,1,0,0:0:0:0:
256,192,213035,1,8,0:0:0:0:
256,192,213095,1,8,0:0:0:0:
256,192,213155,1,8,0:0:0:0:
256,192,213215,1,8,0:0:0:0:
256,192,213275,1,0,0:0:0:0:
256,192,213395,1,8,0:0:0:0:
256,192,213455,1,8,0:0:0:0:
256,192,213515,1,8,0:0:0:0:
256,192,213575,1,8,0:0:0:0:
256,192,213635,1,0,0:0:0:0:
256,192,213695,1,0,0:0:0:0:
256,192,213755,1,8,0:0:0:0:
256,192,213815,1,8,0:0:0:0:
256,192,213875,1,0,0:0:0:0:
256,192,213935,1,0,0:0:0:0:
256,192,213995,1,8,0:0:0:0:
256,192,214055,1,0,0:0:0:0:
256,192,214115,1,0,0:0:0:0:
256,192,214175,1,0,0:0:0:0:
256,192,214235,1,8,0:0:0:0:
256,192,214295,1,8,0:0:0:0:
256,192,214355,1,8,0:0:0:0:
256,192,214415,1,0,0:0:0:0:
256,192,214475,1,8,0:0:0:0:
256,192,214535,1,8,0:0:0:0:
256,192,214595,1,0,0:0:0:0:
256,192,214655,1,0,0:0:0:0:
256,192,214715,1,8,0:0:0:0:
256,192,214775,1,0,0:0:0:0:
256,192,214835,1,0,0:0:0:0:
256,192,214895,1,0,0:0:0:0:
256,192,214955,1,8,0:0:0:0:
256,192,215015,1,8,0:0:0:0:
256,192,215075,1,8,0:0:0:0:
256,192,215135,1,8,0:0:0:0:
256,192,215195,1,0,0:0:0:0:
256,192,215315,1,8,0:0:0:0:
256,192,215435,1,8,0:0:0:0:
256,192,215495,1,8,0:0:0:0:
256,192,215555,1,0,0:0:0:0:
256,192,215675,1,8,0:0:0:0:
256,192,215735,1,8,0:0:0:0:
256,192,215795,1,0,0:0:0:0:
256,192,215855,1,0,0:0:0:0:
256,192,215915,1,8,0:0:0:0:
256,192,215975,1,0,0:0:0:0:
256,192,216035,1,8,0:0:0:0:
256,192,216095,1,8,0:0:0:0:
256,192,216155,1,0,0:0:0:0:
256,192,216275,1,8,0:0:0:0:
256,192,216335,1,0,0:0:0:0:
256,192,216395,1,0,0:0:0:0:
256,192,216455,1,0,0:0:0:0:
256,192,216515,1,8,0:0:0:0:
256,192,216575,1,8,0:0:0:0:
256,192,216635,1,8,0:0:0:0:
256,192,216695,1,8,0:0:0:0:
256,192,216755,1,0,0:0:0:0:
256,192,216815,1,0,0:0:0:0:
256,192,216875,1,8,0:0:0:0:
256,192,216935,1,0,0:0:0:0:
256,192,216995,1,8,0:0:0:0:
256,192,217055,1,8,0:0:0:0:
256,192,217115,1,0,0:0:0:0:
256,192,217235,1,8,0:0:0:0:
256,192,217295,1,8,0:0:0:0:
256,192,217355,1,8,0:0:0:0:
256,192,217415,1,8,0:0:0:0:
256,192,217475,1,0,0:0:0:0:
256,192,217535,1,0,0:0:0:0:
256,192,217595,1,8,0:0:0:0:
256,192,217655,1,0,0:0:0:0:
256,192,217715,1,0,0:0:0:0:
256,192,217775,1,0,0:0:0:0:
256,192,217835,1,8,0:0:0:0:
256,192,217895,1,8,0:0:0:0:
256,192,217955,1,8,0:0:0:0:
256,192,218015,1,8,0:0:0:0:
256,192,218075,1,0,0:0:0:0:
256,192,218195,1,8,0:0:0:0:
256,192,218255,1,0,0:0:0:0:
256,192,218315,1,8,0:0:0:0:
256,192,218375,1,8,0:0:0:0:
256,192,218435,1,0,0:0:0:0:
256,192,218495,1,0,0:0:0:0:
256,192,218555,1,8,0:0:0:0:
256,192,218615,1,0,0:0:0:0:
256,192,218675,1,0,0:0:0:0:
256,192,218735,1,0,0:0:0:0:
256,192,218795,1,8,0:0:0:0:
256,192,218855,1,8,0:0:0:0:
256,192,218915,1,8,0:0:0:0:
256,192,218975,1,8,0:0:0:0:
256,192,219035,1,0,0:0:0:0:
256,192,219155,1,8,0:0:0:0:
256,192,219215,1,0,0:0:0:0:
256,192,219275,1,8,0:0:0:0:
256,192,219335,1,8,0:0:0:0:
256,192,219395,1,0,0:0:0:0:
256,192,219515,1,8,0:0:0:0:
256,192,219575,1,0,0:0:0:0:
256,192,219635,1,0,0:0:0:0:
256,192,219695,1,0,0:0:0:0:
256,192,219755,1,8,0:0:0:0:
256,192,219815,1,0,0:0:0:0:
256,192,219875,1,8,0:0:0:0:
256,192,219935,1,8,0:0:0:0:
256,192,219995,1,0,0:0:0:0:
256,192,220115,1,8,0:0:0:0:
256,192,220175,1,8,0:0:0:0:
256,192,220235,1,0,0:0:0:0:
256,192,220295,1,0,0:0:0:0:
256,192,220355,1,8,0:0:0:0:
256,192,220415,1,0,0:0:0:0:
256,192,220475,1,8,0:0:0:0:
256,192,220535,1,8,0:0:0:0:
256,192,220595,1,0,0:0:0:0:
256,192,220655,1,0,0:0:0:0:
256,192,220715,1,8,0:0:0:0:
256,192,220775,1,8,0:0:0:0:
256,192,220835,1,8,0:0:0:0:
256,192,220895,1,8,0:0:0:0:
256,192,220955,1,0,0:0:0:0:
256,192,221075,1,8,0:0:0:0:
256,192,221195,1,8,0:0:0:0:
256,192,221255,1,8,0:0:0:0:
256,192,221315,1,0,0:0:0:0:
256,192,221375,1,0,0:0:0:0:
256,192,221435,1,8,0:0:0:0:
256,192,221495,1,0,0:0:0:0:
256,192,221555,1,0,0:0:0:0:
256,192,221615,1,0,0:0:0:0:
256,192,221675,1,8,0:0:0:0:
256,192,221735,1,8,0:0:0:0:
256,192,221795,1,8,0:0:0:0:
256,192,221855,1,8,0:0:0:0:
256,192,221915,1,0,0:0:0:0:
256,192,222035,1,0,0:0:0:0:
256,192,222155,1,8,0:0:0:0:
256,192,222275,1,0,0:0:0:0:
256,192,222395,1,0,0:0:0:0:
256,192,222515,1,8,0:0:0:0:
256,192,222575,1,8,0:0:0:0:
256,192,222635,1,0,0:0:0:0:
256,192,222755,1,8,0:0:0:0:
256,192,222815,1,0,0:0:0:0:
256,192,222875,1,0,0:0:0:0:
256,192,222995,1,8,0:0:0:0:
256,192,223115,1,8,0:0:0:0:
256,192,223235,1,0,0:0:0:0:
256,192,223355,1,8,0:0:0:0:
256,192,223415,1,8,0:0:0:0:
256,192,223475,1,0,0:0:0:0:
256,192,223535,1,0,0:0:0:0:
256,192,223595,1,8,0:0:0:0:
256,192,223655,1,0,0:0:0:0:
256,192,223715,1,8,0:0:0:0:
256,192,223775,1,8,0:0:0:0:
256,192,223835,1,0,0:0:0:0:
256,192,223895,1,0,0:0:0:0:
256,192,223955,1,8,0:0:0:0:
256,192,224015,1,0,0:0:0:0:
256,192,224075,1,0,0:0:0:0:
256,192,224135,1,0,0:0:0:0:
256,192,224195,1,8,0:0:0:0:
256,192,224255,1,8,0:0:0:0:
256,192,224315,1,8,0:0:0:0:
256,192,224375,1,8,0:0:0:0:
256,192,224435,1,0,0:0:0:0:
256,192,224495,1,0,0:0:0:0:
256,192,224555,1,8,0:0:0:0:
256,192,224615,1,0,0:0:0:0:
256,192,224675,1,8,0:0:0:0:
256,192,224735,1,8,0:0:0:0:
256,192,224795,1,0,0:0:0:0:
256,192,224855,1,0,0:0:0:0:
256,192,224915,1,8,0:0:0:0:
256,192,224975,1,0,0:0:0:0:
256,192,225035,1,8,0:0:0:0:
256,192,225095,1,8,0:0:0:0:
256,192,225155,1,0,0:0:0:0:
256,192,225215,1,0,0:0:0:0:
256,192,225275,1,8,0:0:0:0:
256,192,225335,1,8,0:0:0:0:
256,192,225395,1,0,0:0:0:0:
256,192,225455,1,0,0:0:0:0:
256,192,225515,1,8,0:0:0:0:
256,192,225575,1,8,0:0:0:0:
256,192,225635,1,8,0:0:0:0:
256,192,225695,1,0,0:0:0:0:
256,192,225755,1,8,0:0:0:0:
256,192,225815,1,8,0:0:0:0:
256,192,225875,1,0,0:0:0:0:
256,192,225935,1,0,0:0:0:0:
256,192,225995,1,8,0:0:0:0:
256,192,226055,1,8,0:0:0:0:
256,192,226115,1,0,0:0:0:0:
256,192,226175,1,0,0:0:0:0:
256,192,226235,1,8,0:0:0:0:
256,192,226295,1,0,0:0:0:0:
256,192,226355,1,0,0:0:0:0:
256,192,226415,1,0,0:0:0:0:
256,192,226475,1,8,0:0:0:0:
256,192,226535,1,8,0:0:0:0:
256,192,226595,1,8,0:0:0:0:
256,192,226655,1,8,0:0:0:0:
256,192,226715,1,0,0:0:0:0:
256,192,226775,1,0,0:0:0:0:
256,192,226835,1,8,0:0:0:0:
256,192,226895,1,0,0:0:0:0:
256,192,226955,1,8,0:0:0:0:
256,192,227015,1,8,0:0:0:0:
256,192,227075,1,0,0:0:0:0:
256,192,227195,1,8,0:0:0:0:
256,192,227255,1,0,0:0:0:0:
256,192,227315,1,0,0:0:0:0:
256,192,227375,1,0,0:0:0:0:
256,192,227435,1,8,0:0:0:0:
256,192,227495,1,0,0:0:0:0:
256,192,227555,1,8,0:0:0:0:
256,192,227615,1,8,0:0:0:0:
256,192,227675,1,0,0:0:0:0:
256,192,227735,1,0,0:0:0:0:
256,192,227795,1,8,0:0:0:0:
256,192,227855,1,8,0:0:0:0:
256,192,227915,1,8,0:0:0:0:
256,192,227975,1,0,0:0:0:0:
256,192,228035,1,8,0:0:0:0:
256,192,228095,1,8,0:0:0:0:
256,192,228155,1,0,0:0:0:0:
256,192,228215,1,0,0:0:0:0:
256,192,228275,1,0,0:0:0:0:
256,192,228335,1,0,0:0:0:0:
256,192,228395,1,8,0:0:0:0:
256,192,228455,1,0,0:0:0:0:
256,192,228515,1,8,0:0:0:0:
256,192,228575,1,8,0:0:0:0:
256,192,228635,1,0,0:0:0:0:
256,192,228695,1,0,0:0:0:0:
256,192,228755,1,8,0:0:0:0:
256,192,228815,1,8,0:0:0:0:
256,192,228875,1,8,0:0:0:0:
256,192,228935,1,8,0:0:0:0:
256,192,228995,1,0,0:0:0:0:
256,192,229055,1,0,0:0:0:0:
256,192,229115,1,8,0:0:0:0:
256,192,229175,1,8,0:0:0:0:
256,192,229235,1,0,0:0:0:0:
256,192,229295,1,0,0:0:0:0:
256,192,229355,1,8,0:0:0:0:
256,192,229415,1,0,0:0:0:0:
256,192,229475,1,0,0:0:0:0:
256,192,229535,1,0,0:0:0:0:
256,192,229595,1,8,0:0:0:0:
256,192,229655,1,8,0:0:0:0:
256,192,229715,1,8,0:0:0:0:
256,192,229775,1,0,0:0:0:0:
256,192,229835,1,8,0:0:0:0:
256,192,229895,1,8,0:0:0:0:
256,192,229955,1,0,0:0:0:0:
256,192,230015,1,0,0:0:0:0:
256,192,230075,1,8,0:0:0:0:
256,192,230135,1,0,0:0:0:0:
256,192,230195,1,0,0:0:0:0:
256,192,230255,1,0,0:0:0:0:
256,192,230315,1,8,0:0:0:0:
256,192,230375,1,8,0:0:0:0:
256,192,230435,1,8,0:0:0:0:
256,192,230495,1,8,0:0:0:0:
256,192,230555,1,0,0:0:0:0:
256,192,230615,1,0,0:0:0:0:
256,192,230675,1,8,0:0:0:0:
256,192,230735,1,0,0:0:0:0:
256,192,230795,1,8,0:0:0:0:
256,192,230855,1,8,0:0:0:0:
256,192,230915,1,0,0:0:0:0:
256,192,231035,1,8,0:0:0:0:
256,192,231095,1,8,0:0:0:0:
256,192,231155,1,0,0:0:0:0:
256,192,231215,1,0,0:0:0:0:
256,192,231275,1,8,0:0:0:0:
256,192,231335,1,0,0:0:0:0:
256,192,231395,1,8,0:0:0:0:
256,192,231455,1,8,0:0:0:0:
256,192,231515,1,0,0:0:0:0:
256,192,231575,1,0,0:0:0:0:
256,192,231635,1,8,0:0:0:0:
256,192,231695,1,0,0:0:0:0:
256,192,231755,1,0,0:0:0:0:
256,192,231815,1,0,0:0:0:0:
256,192,231875,1,8,0:0:0:0:
256,192,231935,1,8,0:0:0:0:
256,192,231995,1,8,0:0:0:0:
256,192,232055,1,8,0:0:0:0:
256,192,232115,1,0,0:0:0:0:
256,192,232175,1,0,0:0:0:0:
256,192,232235,1,8,0:0:0:0:
256,192,232295,1,0,0:0:0:0:
256,192,232355,1,8,0:0:0:0:
256,192,232415,1,8,0:0:0:0:
256,192,232475,1,0,0:0:0:0:
256,192,232535,1,0,0:0:0:0:
256,192,232595,1,8,0:0:0:0:
256,192,232655,1,8,0:0:0:0:
256,192,232715,1,8,0:0:0:0:
256,192,232775,1,8,0:0:0:0:
256,192,232835,1,0,0:0:0:0:
256,192,232895,1,0,0:0:0:0:
256,192,232955,1,8,0:0:0:0:
256,192,233015,1,0,0:0:0:0:
256,192,233075,1,0,0:0:0:0:
256,192,233135,1,0,0:0:0:0:
256,192,233195,1,8,0:0:0:0:
256,192,233255,1,8,0:0:0:0:
256,192,233315,1,8,0:0:0:0:
256,192,233375,1,8,0:0:0:0:
256,192,233435,1,0,0:0:0:0:
256,192,233495,1,0,0:0:0:0:
256,192,233555,1,8,0:0:0:0:
256,192,233615,1,0,0:0:0:0:
256,192,233675,1,8,0:0:0:0:
256,192,233735,1,8,0:0:0:0:
256,192,233795,1,0,0:0:0:0:
256,192,233855,1,0,0:0:0:0:
256,192,233915,1,8,0:0:0:0:
256,192,233975,1,0,0:0:0:0:
256,192,234035,1,0,0:0:0:0:
256,192,234095,1,0,0:0:0:0:
256,192,234155,1,8,0:0:0:0:
256,192,234215,1,8,0:0:0:0:
256,192,234275,1,8,0:0:0:0:
256,192,234335,1,8,0:0:0:0:
256,192,234395,1,0,0:0:0:0:
256,192,234455,1,0,0:0:0:0:
256,192,234515,1,8,0:0:0:0:
256,192,234575,1,0,0:0:0:0:
256,192,234635,1,8,0:0:0:0:
256,192,234695,1,8,0:0:0:0:
256,192,234755,1,0,0:0:0:0:
256,192,234875,1,8,0:0:0:0:
256,192,234935,1,0,0:0:0:0:
256,192,234995,1,0,0:0:0:0:
256,192,235055,1,0,0:0:0:0:
256,192,235115,1,8,0:0:0:0:
256,192,235175,1,0,0:0:0:0:
256,192,235235,1,8,0:0:0:0:
256,192,235295,1,8,0:0:0:0:
256,192,235355,1,0,0:0:0:0:
256,192,235415,1,0,0:0:0:0:
256,192,235475,1,8,0:0:0:0:
256,192,235535,1,0,0:0:0:0:
256,192,235595,1,0,0:0:0:0:
256,192,235655,1,0,0:0:0:0:
256,192,235715,1,8,0:0:0:0:
256,192,235775,1,8,0:0:0:0:
256,192,235835,1,8,0:0:0:0:
256,192,235895,1,8,0:0:0:0:
256,192,235955,1,0,0:0:0:0:
256,192,236015,1,0,0:0:0:0:
256,192,236075,1,8,0:0:0:0:
256,192,236135,1,0,0:0:0:0:
256,192,236195,1,8,0:0:0:0:
256,192,236255,1,8,0:0:0:0:
256,192,236315,1,0,0:0:0:0:
256,192,236375,1,0,0:0:0:0:
256,192,236435,1,8,0:0:0:0:
256,192,236495,1,0,0:0:0:0:
256,192,236555,1,8,0:0:0:0:
256,192,236615,1,8,0:0:0:0:
256,192,236675,1,0,0:0:0:0:
256,192,236735,1,0,0:0:0:0:
256,192,236795,1,8,0:0:0:0:
256,192,236855,1,8,0:0:0:0:
256,192,236915,1,0,0:0:0:0:
256,192,236975,1,0,0:0:0:0:
256,192,237035,1,8,0:0:0:0:
256,192,237095,1,8,0:0:0:0:
256,192,237155,1,8,0:0:0:0:
256,192,237215,1,0,0:0:0:0:
256,192,237275,1,8,0:0:0:0:
256,192,237335,1,8,0:0:0:0:
256,192,237395,1,0,0:0:0:0:
256,192,237455,1,0,0:0:0:0:
256,192,237515,1,8,0:0:0:0:
256,192,237575,1,8,0:0:0:0:
256,192,237635,1,0,0:0:0:0:
256,192,237695,1,0,0:0:0:0:
256,192,237755,1,8,0:0:0:0:
256,192,237875,1,0,0:0:0:0:
256,192,237935,1,0,0:0:0:0:
256,192,237995,1,8,0:0:0:0:
256,192,238115,1,8,0:0:0:0:
256,192,238175,1,8,0:0:0:0:
256,192,238235,1,0,0:0:0:0:
256,192,238355,1,0,0:0:0:0:
256,192,238475,1,0,0:0:0:0:
256,192,238595,1,8,0:0:0:0:
256,192,238715,1,4,0:0:0:0:
256,192,238955,1,0,0:0:0:0:
256,192,239075,1,8,0:0:0:0:
256,192,239135,1,8,0:0:0:0:
256,192,239195,1,0,0:0:0:0:
256,192,239255,1,0,0:0:0:0:
256,192,239315,1,0,0:0:0:0:
256,192,239435,1,8,0:0:0:0:
256,192,239495,1,8,0:0:0:0:
256,192,239555,1,8,0:0:0:0:
256,192,239675,1,0,0:0:0:0:
256,192,239795,1,8,0:0:0:0:
256,192,239855,1,8,0:0:0:0:
256,192,239915,1,0,0:0:0:0:
256,192,240035,1,8,0:0:0:0:
256,192,240155,1,0,0:0:0:0:
256,192,240215,1,0,0:0:0:0:
256,192,240275,1,0,0:0:0:0:
256,192,240395,1,8,0:0:0:0:
256,192,240515,1,8,0:0:0:0:
256,192,240635,1,4,0:0:0:0:
256,192,240875,1,0,0:0:0:0:
256,192,240995,1,8,0:0:0:0:
256,192,241055,1,8,0:0:0:0:
256,192,241115,1,8,0:0:0:0:
256,192,241175,1,8,0:0:0:0:
256,192,241235,1,0,0:0:0:0:
256,192,241355,1,8,0:0:0:0:
256,192,241415,1,0,0:0:0:0:
256,192,241475,1,0,0:0:0:0:
256,192,241595,1,8,0:0:0:0:
256,192,241655,1,8,0:0:0:0:
256,192,241715,1,0,0:0:0:0:
256,192,241835,1,8,0:0:0:0:
256,192,241955,1,8,0:0:0:0:
256,192,242075,1,0,0:0:0:0:
256,192,242195,1,8,0:0:0:0:
256,192,242315,1,0,0:0:0:0:
256,192,242355,1,0,0:0:0:0:
256,192,242395,1,0,0:0:0:0:
256,192,242435,1,8,0:0:0:0:
256,192,242555,1,4,0:0:0:0:
256,192,242795,1,0,0:0:0:0:
256,192,242915,1,8,0:0:0:0:
256,192,242975,1,8,0:0:0:0:
256,192,243035,1,0,0:0:0:0:
256,192,243095,1,0,0:0:0:0:
256,192,243155,1,0,0:0:0:0:
256,192,243275,1,8,0:0:0:0:
256,192,243335,1,0,0:0:0:0:
256,192,243395,1,8,0:0:0:0:
256,192,243515,1,0,0:0:0:0:
256,192,243635,1,8,0:0:0:0:
256,192,243695,1,8,0:0:0:0:
256,192,243755,1,0,0:0:0:0:
256,192,243875,1,8,0:0:0:0:
256,192,243995,1,0,0:0:0:0:
256,192,244115,1,8,0:0:0:0:
256,192,244175,1,0,0:0:0:0:
256,192,244235,1,8,0:0:0:0:
256,192,244355,1,8,0:0:0:0:
256,192,244475,1,4,0:0:0:0:
256,192,244715,1,0,0:0:0:0:
256,192,244835,1,8,0:0:0:0:
256,192,244895,1,8,0:0:0:0:
256,192,244955,1,8,0:0:0:0:
256,192,245015,1,8,0:0:0:0:
256,192,245075,1,0,0:0:0:0:
256,192,245195,1,8,0:0:0:0:
256,192,245255,1,0,0:0:0:0:
256,192,245315,1,0,0:0:0:0:
256,192,245435,1,8,0:0:0:0:
256,192,245495,1,8,0:0:0:0:
256,192,245555,1,8,0:0:0:0:
256,192,245675,1,0,0:0:0:0:
256,192,245795,1,8,0:0:0:0:
256,192,245915,1,0,0:0:0:0:
256,192,245945,1,0,0:0:0:0:
256,192,246035,1,8,0:0:0:0:
256,192,246065,1,8,0:0:0:0:
256,192,246155,1,0,0:0:0:0:
256,192,246185,1,0,0:0:0:0:
256,192,246275,1,8,0:0:0:0:
256,192,246305,1,8,0:0:0:0:
256,192,246395,1,4,0:0:0:0:
256,192,246635,1,0,0:0:0:0:
256,192,246755,1,8,0:0:0:0:
256,192,246815,1,8,0:0:0:0:
256,192,246875,1,0,0:0:0:0:
256,192,246935,1,0,0:0:0:0:
256,192,246995,1,0,0:0:0:0:
256,192,247115,1,8,0:0:0:0:
256,192,247175,1,8,0:0:0:0:
256,192,247235,1,8,0:0:0:0:
256,192,247355,1,0,0:0:0:0:
256,192,247475,1,8,0:0:0:0:
256,192,247535,1,8,0:0:0:0:
256,192,247595,1,0,0:0:0:0:
256,192,247715,1,8,0:0:0:0:
256,192,247835,1,0,0:0:0:0:
256,192,247895,1,0,0:0:0:0:
256,192,247955,1,8,0:0:0:0:
256,192,248075,1,8,0:0:0:0:
256,192,248195,1,8,0:0:0:0:
256,192,248315,1,4,0:0:0:0:
256,192,248555,1,0,0:0:0:0:
256,192,248675,1,8,0:0:0:0:
256,192,248735,1,8,0:0:0:0:
256,192,248795,1,8,0:0:0:0:
256,192,248855,1,8,0:0:0:0:
256,192,248915,1,0,0:0:0:0:
256,192,249035,1,8,0:0:0:0:
256,192,249095,1,8,0:0:0:0:
256,192,249155,1,0,0:0:0:0:
256,192,249275,1,0,0:0:0:0:
256,192,249395,1,8,0:0:0:0:
256,192,249435,1,8,0:0:0:0:
256,192,249475,1,8,0:0:0:0:
256,192,249515,1,0,0:0:0:0:
256,192,249555,1,0,0:0:0:0:
256,192,249595,1,0,0:0:0:0:
256,192,249635,1,8,0:0:0:0:
256,192,249695,1,8,0:0:0:0:
256,192,249755,1,0,0:0:0:0:
256,192,249875,1,8,0:0:0:0:
256,192,249995,1,0,0:0:0:0:
256,192,250035,1,0,0:0:0:0:
256,192,250075,1,0,0:0:0:0:
256,192,250115,1,8,0:0:0:0:
256,192,250235,1,4,0:0:0:0:
256,192,250475,1,0,0:0:0:0:
256,192,250595,1,8,0:0:0:0:
256,192,250655,1,8,0:0:0:0:
256,192,250715,1,0,0:0:0:0:
256,192,250775,1,0,0:0:0:0:
256,192,250835,1,0,0:0:0:0:
256,192,250955,1,8,0:0:0:0:
256,192,251015,1,8,0:0:0:0:
256,192,251075,1,8,0:0:0:0:
256,192,251195,1,0,0:0:0:0:
256,192,251315,1,8,0:0:0:0:
256,192,251375,1,8,0:0:0:0:
256,192,251435,1,0,0:0:0:0:
256,192,251555,1,8,0:0:0:0:
256,192,251675,1,0,0:0:0:0:
256,192,251735,1,0,0:0:0:0:
256,192,251795,1,8,0:0:0:0:
256,192,251915,1,0,0:0:0:0:
256,192,252035,1,8,0:0:0:0:
256,192,252155,1,4,0:0:0:0:
256,192,252395,1,0,0:0:0:0:
256,192,252515,1,8,0:0:0:0:
256,192,252575,1,8,0:0:0:0:
256,192,252635,1,8,0:0:0:0:
256,192,252695,1,8,0:0:0:0:
256,192,252755,1,0,0:0:0:0:
256,192,252875,1,8,0:0:0:0:
256,192,252935,1,0,0:0:0:0:
256,192,252995,1,8,0:0:0:0:
256,192,253115,1,0,0:0:0:0:
256,192,253235,1,8,0:0:0:0:
256,192,253355,1,8,0:0:0:0:
256,192,253475,1,8,0:0:0:0:
256,192,253595,1,0,0:0:0:0:
256,192,253655,1,0,0:0:0:0:
256,192,253715,1,8,0:0:0:0:
256,192,253835,1,8,0:0:0:0:
256,192,253955,1,8,0:0:0:0:
256,192,254075,1,4,0:0:0:0:
256,192,254315,1,8,0:0:0:0:
256,192,254375,1,8,0:0:0:0:
256,192,254435,1,0,0:0:0:0:
256,192,254495,1,0,0:0:0:0:
256,192,254555,1,8,0:0:0:0:
256,192,254675,1,0,0:0:0:0:
256,192,254795,1,8,0:0:0:0:
256,192,254855,1,8,0:0:0:0:
256,192,254915,1,0,0:0:0:0:
256,192,255035,1,8,0:0:0:0:
256,192,255095,1,8,0:0:0:0:
256,192,255155,1,8,0:0:0:0:
256,192,255275,1,0,0:0:0:0:
256,192,255335,1,0,0:0:0:0:
256,192,255395,1,8,0:0:0:0:
256,192,255455,1,8,0:0:0:0:
256,192,255515,1,0,0:0:0:0:
256,192,255635,1,8,0:0:0:0:
256,192,255755,1,0,0:0:0:0:
256,192,255875,1,8,0:0:0:0:
256,192,255995,1,4,0:0:0:0:
256,192,256235,1,8,0:0:0:0:
256,192,256295,1,0,0:0:0:0:
256,192,256355,1,0,0:0:0:0:
256,192,256475,1,8,0:0:0:0:
256,192,256595,1,0,0:0:0:0:
256,192,256655,1,0,0:0:0:0:
256,192,256715,1,8,0:0:0:0:
256,192,256775,1,8,0:0:0:0:
256,192,256835,1,0,0:0:0:0:
256,192,256955,1,8,0:0:0:0:
256,192,257015,1,8,0:0:0:0:
256,192,257075,1,0,0:0:0:0:
256,192,257135,1,0,0:0:0:0:
256,192,257195,1,8,0:0:0:0:
256,192,257255,1,0,0:0:0:0:
256,192,257315,1,8,0:0:0:0:
256,192,257435,1,0,0:0:0:0:
256,192,257555,1,8,0:0:0:0:
256,192,257675,1,8,0:0:0:0:
256,192,257735,1,8,0:0:0:0:
256,192,257795,1,8,0:0:0:0:
256,192,257915,1,4,0:0:0:0:
256,192,258155,1,8,0:0:0:0:
256,192,258215,1,8,0:0:0:0:
256,192,258275,1,8,0:0:0:0:
256,192,258395,1,0,0:0:0:0:
256,192,258515,1,0,0:0:0:0:
256,192,258575,1,0,0:0:0:0:
256,192,258635,1,8,0:0:0:0:
256,192,258695,1,8,0:0:0:0:
256,192,258755,1,8,0:0:0:0:
256,192,258815,1,0,0:0:0:0:
256,192,258875,1,8,0:0:0:0:
256,192,258935,1,8,0:0:0:0:
256,192,258995,1,0,0:0:0:0:
256,192,259115,1,8,0:0:0:0:
256,192,259235,1,0,0:0:0:0:
256,192,259295,1,0,0:0:0:0:
256,192,259355,1,0,0:0:0:0:
256,192,259475,1,8,0:0:0:0:
256,192,259535,1,0,0:0:0:0:
256,192,259595,1,0,0:0:0:0:
256,192,259715,1,8,0:0:0:0:
256,192,259835,1,4,0:0:0:0:
256,192,260075,1,8,0:0:0:0:
256,192,260135,1,8,0:0:0:0:
256,192,260195,1,0,0:0:0:0:
256,192,260315,1,8,0:0:0:0:
256,192,260435,1,0,0:0:0:0:
256,192,260555,1,8,0:0:0:0:
256,192,260615,1,8,0:0:0:0:
256,192,260675,1,0,0:0:0:0:
256,192,260735,1,0,0:0:0:0:
256,192,260795,1,8,0:0:0:0:
256,192,260855,1,8,0:0:0:0:
256,192,260915,1,0,0:0:0:0:
256,192,261035,1,8,0:0:0:0:
256,192,261155,1,0,0:0:0:0:
256,192,261275,1,8,0:0:0:0:
256,192,261315,1,8,0:0:0:0:
256,192,261355,1,8,0:0:0:0:
256,192,261395,1,0,0:0:0:0:
256,192,261515,1,8,0:0:0:0:
256,192,261635,1,8,0:0:0:0:
256,192,261755,1,4,0:0:0:0:
256,192,261995,1,8,0:0:0:0:
256,192,262055,1,8,0:0:0:0:
256,192,262115,1,0,0:0:0:0:
256,192,262235,1,8,0:0:0:0:
256,192,262355,1,0,0:0:0:0:
256,192,262415,1,0,0:0:0:0:
256,192,262475,1,8,0:0:0:0:
256,192,262535,1,8,0:0:0:0:
256,192,262595,1,8,0:0:0:0:
256,192,262655,1,0,0:0:0:0:
256,192,262715,1,8,0:0:0:0:
256,192,262775,1,8,0:0:0:0:
256,192,262835,1,0,0:0:0:0:
256,192,262895,1,0,0:0:0:0:
256,192,262955,1,8,0:0:0:0:
256,192,263075,1,8,0:0:0:0:
256,192,263135,1,8,0:0:0:0:
256,192,263195,1,0,0:0:0:0:
256,192,263315,1,8,0:0:0:0:
256,192,263435,1,0,0:0:0:0:
256,192,263555,1,8,0:0:0:0:
256,192,263675,1,4,0:0:0:0:
256,192,263915,1,8,0:0:0:0:
256,192,263975,1,0,0:0:0:0:
256,192,264035,1,0,0:0:0:0:
256,192,264155,1,8,0:0:0:0:
256,192,264275,1,0,0:0:0:0:
256,192,264335,1,0,0:0:0:0:
256,192,264395,1,8,0:0:0:0:
256,192,264455,1,8,0:0:0:0:
256,192,264515,1,0,0:0:0:0:
256,192,264635,1,8,0:0:0:0:
256,192,264695,1,8,0:0:0:0:
256,192,264755,1,0,0:0:0:0:
256,192,264875,1,8,0:0:0:0:
256,192,264915,1,8,0:0:0:0:
256,192,264955,1,8,0:0:0:0:
256,192,264995,1,0,0:0:0:0:
256,192,265035,1,0,0:0:0:0:
256,192,265075,1,0,0:0:0:0:
256,192,265115,1,8,0:0:0:0:
256,192,265235,1,0,0:0:0:0:
256,192,265355,1,8,0:0:0:0:
256,192,265395,1,8,0:0:0:0:
256,192,265435,1,8,0:0:0:0:
256,192,265475,1,8,0:0:0:0:
256,192,265595,1,4,0:0:0:0:
256,192,265835,1,8,0:0:0:0:
256,192,265895,1,8,0:0:0:0:
256,192,265955,1,8,0:0:0:0:
256,192,266075,1,0,0:0:0:0:
256,192,266195,1,8,0:0:0:0:
256,192,266255,1,0,0:0:0:0:
256,192,266315,1,8,0:0:0:0:
256,192,266375,1,8,0:0:0:0:
256,192,266435,1,0,0:0:0:0:
256,192,266555,1,8,0:0:0:0:
256,192,266615,1,8,0:0:0:0:
256,192,266675,1,0,0:0:0:0:
256,192,266735,1,0,0:0:0:0:
256,192,266795,1,8,0:0:0:0:
256,192,266855,1,0,0:0:0:0:
256,192,266915,1,8,0:0:0:0:
256,192,266975,1,8,0:0:0:0:
256,192,267035,1,0,0:0:0:0:
256,192,267155,1,8,0:0:0:0:
256,192,267215,1,8,0:0:0:0:
256,192,267275,1,0,0:0:0:0:
256,192,267395,1,8,0:0:0:0:
256,192,267515,1,4,0:0:0:0:
256,192,267755,1,8,0:0:0:0:
256,192,267875,1,8,0:0:0:0:
256,192,267995,1,4,0:0:0:0:
256,192,268235,1,8,0:0:0:0:
256,192,268355,1,8,0:0:0:0:
256,192,268475,1,4,0:0:0:0:
256,192,268595,1,8,0:0:0:0:
256,192,268655,1,8,0:0:0:0:
256,192,268715,1,0,0:0:0:0:
256,192,268835,1,8,0:0:0:0:
256,192,268955,1,0,0:0:0:0:
256,192,269075,1,8,0:0:0:0:
256,192,269135,1,8,0:0:0:0:
256,192,269195,1,8,0:0:0:0:
256,192,269315,1,0,0:0:0:0:
