osu file format v14

[General]
AudioFilename: audio.mp3
AudioLeadIn: 0
PreviewTime: -1
Countdown: 0
SampleSet: None
StackLeniency: 0.7
Mode: 1
LetterboxInBreaks: 0
WidescreenStoryboard: 0

[Editor]
DistanceSpacing: 1.1
BeatDivisor: 4
GridSize: 32
TimelineZoom: 3.099999

[Metadata]
Title:Decadent Fantasy
TitleUnicode:Decadent Fantasy
Artist:moro
ArtistUnicode:moro
Creator:TimmyAkmed
Version:Supreme Oni
Source:Touhou
Tags:Speedcore Gabber
BeatmapID:986931
BeatmapSetID:460786

[Difficulty]
HPDrainRate:6
CircleSize:5
OverallDifficulty:5
ApproachRate:5
SliderMultiplier:1.4
SliderTickRate:1

[Events]
//Background and Video events
0,0,"BGyukariDecadentfantasy.jpg",0,0
//Break Periods
//Storyboard Layer 0 (Background)
//Storyboard Layer 1 (Fail)
//Storyboard Layer 2 (Pass)
//Storyboard Layer 3 (Foreground)
//Storyboard Sound Samples

[TimingPoints]
18016,272.727272727273,4,1,0,80,1,0
18016,-111.111111111111,4,1,0,80,0,0
26743,-100,4,1,0,80,0,1
34379,-100,4,1,0,80,0,0
35470,-100,4,1,0,80,0,1
43106,-100,4,1,0,80,0,0
44197,-90.9090909090909,4,1,0,80,0,0
61652,-100,4,1,0,80,0,0
96561,-90.9090909090909,4,1,0,80,0,0
114016,-111.111111111111,4,1,0,80,0,0
122743,-125,4,1,0,80,0,0
131470,-125,4,1,0,80,0,0
131606,-117.647058823529,4,1,0,80,0,0
131743,-111.111111111111,4,1,0,80,0,0
131879,-105.263157894737,4,1,0,80,0,0
132016,-100,4,1,0,80,0,0
132152,-95.2380952380952,4,1,0,80,0,0
132288,-90.9090909090909,4,1,0,80,0,0
132425,-86.9565217391304,4,1,0,80,0,0
132561,-83.3333333333333,4,1,0,80,0,0
132697,-80,4,1,0,80,0,0
132834,-76.9230769230769,4,1,0,80,0,0
132970,-74.0740740740741,4,1,0,80,0,0
133106,-25,4,1,0,80,0,0
133652,-50,4,1,0,80,0,1
133788,-100,4,1,0,80,0,1
148925,-100,4,1,0,80,0,0
151106,-100,4,1,0,80,0,1
167470,-100,4,1,0,80,0,0
203470,-111.111111111111,4,1,0,80,0,0
220925,-125,4,1,0,80,0,0
229652,-111.111111111111,4,1,0,80,0,0
234016,-100,4,1,0,80,0,0
240561,-100,4,1,0,80,0,1
256925,-100,4,1,0,80,0,0
258016,-100,4,1,0,80,0,1
274379,-100,4,1,0,80,0,0

[HitObjects]
192,192,17743,5,2,0:0:0:0:
192,192,17811,1,2,0:0:0:0:
192,192,17879,1,2,0:0:0:0:
224,128,17947,1,2,0:0:0:0:
192,192,18016,1,4,0:0:0:0:
352,192,18288,1,2,0:0:0:0:
352,192,18425,1,0,0:0:0:0:
288,288,18697,1,0,0:0:0:0:
320,288,18833,1,0,0:0:0:0:
320,288,18969,1,2,0:0:0:0:
288,288,19243,1,0,0:0:0:0:
288,288,19380,1,2,0:0:0:0:
288,192,19516,1,2,0:0:0:0:
288,288,19788,1,0,0:0:0:0:
288,288,19925,1,2,0:0:0:0:
288,288,20061,1,2,0:0:0:0:
288,288,20197,1,4,0:0:0:0:
224,224,20334,1,2,0:0:0:0:
352,192,20470,1,0,0:0:0:0:
352,192,20607,1,2,0:0:0:0:
288,288,20879,1,0,0:0:0:0:
320,288,21016,1,0,0:0:0:0:
320,288,21152,1,2,0:0:0:0:
288,288,21424,1,0,0:0:0:0:
288,288,21561,1,0,0:0:0:0:
256,192,21697,1,2,0:0:0:0:
288,288,21833,1,0,0:0:0:0:
288,288,21970,1,2,0:0:0:0:
160,192,22106,1,0,0:0:0:0:
256,192,22243,1,0,0:0:0:0:
256,192,22379,1,6,0:0:0:0:
352,192,22652,1,2,0:0:0:0:
352,192,22789,1,0,0:0:0:0:
288,288,23061,1,0,0:0:0:0:
320,288,23197,1,0,0:0:0:0:
320,288,23333,1,2,0:0:0:0:
288,288,23606,1,0,0:0:0:0:
288,288,23743,1,2,0:0:0:0:
160,224,23879,1,0,0:0:0:0:
288,288,24015,1,0,0:0:0:0:
288,288,24152,1,2,0:0:0:0:
288,256,24288,1,0,0:0:0:0:
288,256,24425,1,2,0:0:0:0:
288,256,24561,1,4,0:0:0:0:
256,192,24834,1,0,0:0:0:0:
256,192,24970,1,2,0:0:0:0:
256,192,25243,1,0,0:0:0:0:
256,192,25379,1,0,0:0:0:0:
256,192,25516,1,2,0:0:0:0:
224,224,25652,1,4,0:0:0:0:
224,224,25788,1,4,0:0:0:0:
224,224,25925,1,4,0:0:0:0:
224,224,26061,1,4,0:0:0:0:
224,224,26197,1,0,0:0:0:0:
192,192,26266,1,0,0:0:0:0:
224,224,26334,1,0,0:0:0:0:
256,224,26470,1,0,0:0:0:0:
288,224,26538,1,0,0:0:0:0:
288,224,26606,1,0,0:0:0:0:
288,224,26743,1,4,0:0:0:0:
192,160,26879,1,0,0:0:0:0:
192,160,26947,1,0,0:0:0:0:
192,160,27016,1,2,0:0:0:0:
192,160,27152,1,2,0:0:0:0:
192,224,27288,1,0,0:0:0:0:
192,160,27425,1,2,0:0:0:0:
192,160,27493,1,2,0:0:0:0:
192,160,27561,1,0,0:0:0:0:
192,160,27697,1,2,0:0:0:0:
192,224,27834,1,4,0:0:0:0:
128,192,27970,1,2,0:0:0:0:
128,192,28038,1,0,0:0:0:0:
128,192,28106,1,2,0:0:0:0:
128,192,28175,1,2,0:0:0:0:
128,192,28243,1,0,0:0:0:0:
192,224,28379,1,0,0:0:0:0:
224,288,28516,1,0,0:0:0:0:
256,320,28584,1,0,0:0:0:0:
256,320,28652,1,2,0:0:0:0:
224,320,28788,1,2,0:0:0:0:
192,224,28925,1,4,0:0:0:0:
224,320,29061,1,2,0:0:0:0:
224,320,29129,1,2,0:0:0:0:
224,320,29197,1,0,0:0:0:0:
224,320,29266,1,0,0:0:0:0:
224,320,29334,1,2,0:0:0:0:
192,224,29470,1,0,0:0:0:0:
160,288,29606,1,2,0:0:0:0:
160,224,29675,1,0,0:0:0:0:
160,288,29743,1,0,0:0:0:0:
160,288,29811,1,0,0:0:0:0:
160,288,29879,1,2,0:0:0:0:
192,224,30016,1,4,0:0:0:0:
288,256,30152,1,0,0:0:0:0:
256,256,30220,1,0,0:0:0:0:
256,256,30288,1,0,0:0:0:0:
256,256,30356,1,0,0:0:0:0:
256,256,30425,1,2,0:0:0:0:
192,224,30561,1,0,0:0:0:0:
256,256,30629,1,0,0:0:0:0:
256,256,30697,1,0,0:0:0:0:
256,256,30834,1,0,0:0:0:0:
320,192,30879,1,0,0:0:0:0:
320,192,30925,1,0,0:0:0:0:
320,192,30970,1,0,0:0:0:0:
320,192,31016,1,0,0:0:0:0:
320,192,31061,1,0,0:0:0:0:
192,224,31106,1,2,0:0:0:0:
192,160,31243,1,0,0:0:0:0:
192,160,31311,1,0,0:0:0:0:
192,160,31380,1,2,0:0:0:0:
192,160,31516,1,2,0:0:0:0:
320,256,31584,1,2,0:0:0:0:
192,224,31652,1,0,0:0:0:0:
416,192,31720,1,0,0:0:0:0:
192,160,31789,1,2,0:0:0:0:
192,160,31857,1,2,0:0:0:0:
192,160,31925,1,0,0:0:0:0:
192,160,32061,1,2,0:0:0:0:
192,224,32198,1,4,0:0:0:0:
128,192,32334,1,2,0:0:0:0:
128,192,32402,1,0,0:0:0:0:
128,192,32470,1,0,0:0:0:0:
128,192,32539,1,0,0:0:0:0:
128,192,32607,1,2,0:0:0:0:
192,224,32743,1,0,0:0:0:0:
256,192,32811,1,2,0:0:0:0:
224,288,32880,1,0,0:0:0:0:
256,320,32948,1,2,0:0:0:0:
256,320,33016,1,0,0:0:0:0:
224,160,33084,1,0,0:0:0:0:
224,320,33152,1,2,0:0:0:0:
224,192,33220,1,2,0:0:0:0:
192,224,33289,1,0,0:0:0:0:
224,320,33425,1,2,0:0:0:0:
224,320,33493,1,0,0:0:0:0:
224,320,33561,1,2,0:0:0:0:
224,320,33630,1,0,0:0:0:0:
224,320,33697,1,2,0:0:0:0:
192,224,33834,1,4,0:0:0:0:
160,288,33970,1,2,0:0:0:0:
160,288,34107,1,0,0:0:0:0:
160,288,34175,1,0,0:0:0:0:
160,288,34243,1,2,0:0:0:0:
192,224,34380,1,2,0:0:0:0:
256,256,34447,1,2,0:0:0:0:
160,160,34516,1,2,0:0:0:0:
160,160,34584,1,2,0:0:0:0:
160,160,34652,1,2,0:0:0:0:
160,160,34720,1,2,0:0:0:0:
160,160,34788,1,2,0:0:0:0:
160,160,34856,1,2,0:0:0:0:
160,192,34925,1,0,0:0:0:0:
320,256,35061,1,2,0:0:0:0:
320,256,35197,1,0,0:0:0:0:
320,256,35334,1,2,0:0:0:0:
320,256,35470,1,4,0:0:0:0:
192,160,35606,1,0,0:0:0:0:
192,160,35674,1,0,0:0:0:0:
192,160,35743,1,2,0:0:0:0:
192,160,35879,1,2,0:0:0:0:
320,256,35947,1,2,0:0:0:0:
192,224,36015,1,0,0:0:0:0:
192,160,36152,1,2,0:0:0:0:
192,160,36220,1,2,0:0:0:0:
192,160,36288,1,0,0:0:0:0:
192,160,36424,1,2,0:0:0:0:
192,224,36561,1,4,0:0:0:0:
128,192,36697,1,2,0:0:0:0:
128,192,36765,1,0,0:0:0:0:
128,192,36833,1,0,0:0:0:0:
128,192,36902,1,0,0:0:0:0:
128,192,36970,1,2,0:0:0:0:
192,224,37106,1,0,0:0:0:0:
256,192,37174,1,0,0:0:0:0:
224,288,37243,1,2,0:0:0:0:
256,320,37311,1,2,0:0:0:0:
256,320,37379,1,0,0:0:0:0:
224,320,37515,1,2,0:0:0:0:
224,192,37583,1,0,0:0:0:0:
192,224,37652,1,2,0:0:0:0:
160,160,37720,1,2,0:0:0:0:
224,320,37788,1,0,0:0:0:0:
224,320,37924,1,4,0:0:0:0:
224,320,38060,1,2,0:0:0:0:
256,256,38129,1,2,0:0:0:0:
192,224,38197,1,2,0:0:0:0:
160,288,38333,1,2,0:0:0:0:
160,288,38470,1,0,0:0:0:0:
160,288,38538,1,0,0:0:0:0:
160,288,38606,1,2,0:0:0:0:
224,160,38675,1,0,0:0:0:0:
192,224,38743,1,2,0:0:0:0:
256,256,38811,1,2,0:0:0:0:
160,160,38879,1,2,0:0:0:0:
160,160,38947,1,2,0:0:0:0:
160,160,39016,1,0,0:0:0:0:
160,160,39083,1,2,0:0:0:0:
160,160,39151,1,0,0:0:0:0:
160,160,39219,1,0,0:0:0:0:
160,192,39288,1,2,0:0:0:0:
224,224,39356,1,2,0:0:0:0:
320,256,39424,1,2,0:0:0:0:
224,224,39493,1,0,0:0:0:0:
320,256,39560,1,0,0:0:0:0:
224,224,39629,1,0,0:0:0:0:
320,256,39697,1,2,0:0:0:0:
224,224,39766,1,2,0:0:0:0:
320,256,39833,1,0,0:0:0:0:
192,160,39970,1,0,0:0:0:0:
192,160,40038,1,0,0:0:0:0:
192,160,40107,1,2,0:0:0:0:
192,160,40243,1,2,0:0:0:0:
320,256,40311,1,0,0:0:0:0:
192,224,40379,1,2,0:0:0:0:
416,192,40447,1,2,0:0:0:0:
192,160,40516,1,0,0:0:0:0:
192,160,40584,1,0,0:0:0:0:
192,160,40652,1,2,0:0:0:0:
192,160,40788,1,2,0:0:0:0:
192,224,40925,1,4,0:0:0:0:
128,192,41061,1,2,0:0:0:0:
128,192,41129,1,0,0:0:0:0:
128,192,41197,1,0,0:0:0:0:
128,192,41266,1,0,0:0:0:0:
128,192,41334,1,2,0:0:0:0:
192,160,41402,1,2,0:0:0:0:
192,224,41470,1,0,0:0:0:0:
256,192,41538,1,2,0:0:0:0:
224,288,41607,1,0,0:0:0:0:
256,320,41675,1,0,0:0:0:0:
256,320,41743,1,2,0:0:0:0:
224,320,41879,1,2,0:0:0:0:
224,192,41947,1,2,0:0:0:0:
192,224,42016,1,0,0:0:0:0:
224,320,42152,1,0,0:0:0:0:
224,320,42220,1,0,0:0:0:0:
224,320,42288,1,2,0:0:0:0:
224,320,42357,1,0,0:0:0:0:
224,320,42424,1,2,0:0:0:0:
192,224,42561,1,4,0:0:0:0:
160,288,42697,1,2,0:0:0:0:
160,288,42834,1,0,0:0:0:0:
160,288,42902,1,0,0:0:0:0:
160,288,42970,1,2,0:0:0:0:
192,224,43107,1,2,0:0:0:0:
256,256,43174,1,2,0:0:0:0:
160,160,43243,1,2,0:0:0:0:
160,160,43311,1,2,0:0:0:0:
160,160,43379,1,2,0:0:0:0:
160,160,43447,1,2,0:0:0:0:
160,160,43515,1,2,0:0:0:0:
160,160,43583,1,2,0:0:0:0:
160,192,43652,1,2,0:0:0:0:
192,160,43720,1,2,0:0:0:0:
320,256,43788,1,2,0:0:0:0:
192,160,43856,1,2,0:0:0:0:
192,160,43925,1,2,0:0:0:0:
192,160,43993,1,2,0:0:0:0:
320,256,44061,1,2,0:0:0:0:
192,160,44129,1,2,0:0:0:0:
320,256,44197,1,4,0:0:0:0:
256,224,44470,1,4,0:0:0:0:
256,224,44743,1,4,0:0:0:0:
256,224,45016,1,4,0:0:0:0:
256,224,45288,1,4,0:0:0:0:
256,224,45561,1,4,0:0:0:0:
256,224,45834,1,4,0:0:0:0:
288,160,46106,1,2,0:0:0:0:
288,160,46243,1,2,0:0:0:0:
256,288,46379,1,4,0:0:0:0:
256,288,46652,1,4,0:0:0:0:
256,192,46925,1,4,0:0:0:0:
256,192,47197,1,4,0:0:0:0:
256,192,47470,1,4,0:0:0:0:
256,192,47743,1,4,0:0:0:0:
320,192,48016,1,2,0:0:0:0:
320,224,48061,1,2,0:0:0:0:
320,224,48106,1,2,0:0:0:0:
352,320,48152,1,2,0:0:0:0:
352,320,48197,1,0,0:0:0:0:
352,320,48243,1,0,0:0:0:0:
352,320,48288,1,2,0:0:0:0:
288,224,48425,1,0,0:0:0:0:
288,224,48561,1,4,0:0:0:0:
224,256,48834,1,4,0:0:0:0:
224,256,49106,1,4,0:0:0:0:
224,160,49379,1,4,0:0:0:0:
224,160,49652,1,4,0:0:0:0:
224,160,49925,1,4,0:0:0:0:
224,160,50197,1,4,0:0:0:0:
96,160,50470,1,2,0:0:0:0:
96,160,50516,1,2,0:0:0:0:
96,160,50561,1,2,0:0:0:0:
96,160,50606,1,0,0:0:0:0:
192,160,50743,1,4,0:0:0:0:
192,224,51016,1,4,0:0:0:0:
160,224,51288,1,4,0:0:0:0:
160,224,51561,1,4,0:0:0:0:
352,192,51834,1,2,0:0:0:0:
352,192,51879,1,2,0:0:0:0:
352,192,51925,1,2,0:0:0:0:
352,192,51970,1,2,0:0:0:0:
352,192,52016,1,2,0:0:0:0:
352,192,52061,1,2,0:0:0:0:
320,288,52106,1,0,0:0:0:0:
320,288,52152,1,0,0:0:0:0:
320,288,52197,1,0,0:0:0:0:
320,288,52243,1,0,0:0:0:0:
320,288,52288,1,0,0:0:0:0:
352,352,52334,1,0,0:0:0:0:
352,352,52379,1,2,0:0:0:0:
352,352,52425,1,2,0:0:0:0:
352,352,52516,1,0,0:0:0:0:
352,352,52652,1,2,0:0:0:0:
352,352,52697,1,2,0:0:0:0:
352,352,52743,1,2,0:0:0:0:
352,352,52788,1,2,0:0:0:0:
352,352,52834,1,2,0:0:0:0:
352,352,52925,1,4,0:0:0:0:
160,160,53197,1,4,0:0:0:0:
160,160,53470,1,4,0:0:0:0:
160,160,53743,1,4,0:0:0:0:
160,160,54016,1,4,0:0:0:0:
160,160,54288,1,4,0:0:0:0:
160,160,54561,1,4,0:0:0:0:
224,160,54834,1,2,0:0:0:0:
224,192,54879,1,2,0:0:0:0:
224,192,54925,1,2,0:0:0:0:
224,192,54970,1,2,0:0:0:0:
224,192,55016,1,2,0:0:0:0:
224,192,55061,1,2,0:0:0:0:
224,192,55106,1,4,0:0:0:0:
256,160,55379,1,4,0:0:0:0:
320,256,55652,1,4,0:0:0:0:
320,256,55925,1,4,0:0:0:0:
320,256,56197,1,4,0:0:0:0:
320,256,56470,1,4,0:0:0:0:
192,96,56743,1,2,0:0:0:0:
192,96,56788,1,2,0:0:0:0:
192,96,56834,1,2,0:0:0:0:
192,96,56879,1,0,0:0:0:0:
128,128,56925,1,0,0:0:0:0:
128,128,56970,1,0,0:0:0:0:
128,128,57016,1,2,0:0:0:0:
128,128,57061,1,2,0:0:0:0:
128,128,57106,1,2,0:0:0:0:
128,128,57152,1,2,0:0:0:0:
128,128,57197,1,2,0:0:0:0:
128,128,57288,1,4,0:0:0:0:
256,192,57561,1,4,0:0:0:0:
256,192,57834,1,4,0:0:0:0:
256,192,58106,1,4,0:0:0:0:
256,192,58379,1,4,0:0:0:0:
256,192,58652,1,4,0:0:0:0:
256,192,58925,1,4,0:0:0:0:
224,192,59197,1,2,0:0:0:0:
224,192,59243,1,2,0:0:0:0:
224,192,59288,1,2,0:0:0:0:
224,192,59334,1,2,0:0:0:0:
320,256,59470,1,4,0:0:0:0:
160,224,59743,1,4,0:0:0:0:
160,224,60016,1,4,0:0:0:0:
160,224,60288,1,4,0:0:0:0:
160,224,60561,1,4,0:0:0:0:
288,256,60834,1,0,0:0:0:0:
224,224,60879,1,0,0:0:0:0:
224,224,60925,1,0,0:0:0:0:
224,224,60970,1,0,0:0:0:0:
224,224,61016,1,0,0:0:0:0:
224,224,61061,1,0,0:0:0:0:
320,160,61106,1,2,0:0:0:0:
320,160,61152,1,2,0:0:0:0:
320,160,61197,1,2,0:0:0:0:
288,160,61243,1,2,0:0:0:0:
288,160,61277,1,2,0:0:0:0:
288,160,61311,1,2,0:0:0:0:
288,160,61345,1,2,0:0:0:0:
288,160,61379,1,2,0:0:0:0:
256,192,61425,1,2,0:0:0:0:
256,192,61470,1,2,0:0:0:0:
320,160,61516,1,2,0:0:0:0:
288,224,61652,1,4,0:0:0:0:
224,256,61788,1,2,0:0:0:0:
224,256,61925,1,0,0:0:0:0:
224,256,62061,1,2,0:0:0:0:
320,288,62197,1,4,0:0:0:0:
224,256,62334,1,2,0:0:0:0:
224,256,62470,1,2,0:0:0:0:
384,192,62538,1,2,0:0:0:0:
288,288,62606,1,2,0:0:0:0:
320,288,62743,1,4,0:0:0:0:
288,224,62879,1,2,0:0:0:0:
288,224,62947,1,2,0:0:0:0:
288,224,63016,1,2,0:0:0:0:
288,224,63152,1,2,0:0:0:0:
320,288,63288,1,4,0:0:0:0:
288,224,63425,1,0,0:0:0:0:
288,224,63493,1,0,0:0:0:0:
288,224,63561,1,2,0:0:0:0:
288,224,63697,1,0,0:0:0:0:
320,288,63834,1,4,0:0:0:0:
192,256,63970,1,2,0:0:0:0:
192,256,64038,1,2,0:0:0:0:
192,256,64106,1,0,0:0:0:0:
192,256,64243,1,2,0:0:0:0:
320,288,64379,1,4,0:0:0:0:
288,256,64516,1,2,0:0:0:0:
288,256,64584,1,2,0:0:0:0:
288,256,64652,1,2,0:0:0:0:
288,256,64788,1,2,0:0:0:0:
320,288,64925,1,4,0:0:0:0:
320,288,65061,1,2,0:0:0:0:
320,288,65129,1,0,0:0:0:0:
320,288,65266,1,0,0:0:0:0:
320,288,65334,1,2,0:0:0:0:
320,288,65470,1,4,0:0:0:0:
320,288,65606,1,2,0:0:0:0:
192,160,65675,1,2,0:0:0:0:
320,256,65743,1,0,0:0:0:0:
320,256,65811,1,2,0:0:0:0:
320,256,65879,1,0,0:0:0:0:
320,256,66016,1,4,0:0:0:0:
192,192,66152,1,2,0:0:0:0:
192,192,66220,1,2,0:0:0:0:
192,192,66288,1,2,0:0:0:0:
192,192,66425,1,0,0:0:0:0:
192,192,66561,1,4,0:0:0:0:
288,224,66697,1,2,0:0:0:0:
288,224,66765,1,2,0:0:0:0:
288,224,66834,1,2,0:0:0:0:
288,224,66970,1,2,0:0:0:0:
320,288,67106,1,4,0:0:0:0:
288,224,67243,1,0,0:0:0:0:
288,224,67311,1,0,0:0:0:0:
288,224,67379,1,2,0:0:0:0:
288,224,67515,1,0,0:0:0:0:
320,288,67652,1,4,0:0:0:0:
192,256,67788,1,2,0:0:0:0:
192,256,67856,1,2,0:0:0:0:
192,256,67924,1,0,0:0:0:0:
192,256,68061,1,2,0:0:0:0:
320,288,68197,1,4,0:0:0:0:
288,256,68334,1,2,0:0:0:0:
288,256,68402,1,2,0:0:0:0:
288,256,68470,1,2,0:0:0:0:
288,256,68606,1,2,0:0:0:0:
320,288,68743,1,0,0:0:0:0:
256,128,68788,1,0,0:0:0:0:
256,128,68834,1,0,0:0:0:0:
256,128,68879,1,0,0:0:0:0:
192,128,68925,1,0,0:0:0:0:
192,96,68970,1,0,0:0:0:0:
256,128,69016,1,2,0:0:0:0:
320,128,69152,1,0,0:0:0:0:
320,288,69288,1,4,0:0:0:0:
320,288,69424,1,2,0:0:0:0:
192,160,69493,1,2,0:0:0:0:
256,288,69561,1,0,0:0:0:0:
256,288,69595,1,0,0:0:0:0:
256,288,69629,1,0,0:0:0:0:
256,288,69663,1,0,0:0:0:0:
224,192,69697,1,0,0:0:0:0:
224,192,69743,1,0,0:0:0:0:
224,192,69788,1,0,0:0:0:0:
224,192,69834,1,0,0:0:0:0:
224,192,69879,1,0,0:0:0:0:
224,192,69925,1,0,0:0:0:0:
288,192,69970,1,0,0:0:0:0:
288,192,70038,1,0,0:0:0:0:
288,192,70106,1,2,0:0:0:0:
192,192,70243,1,2,0:0:0:0:
192,192,70379,1,4,0:0:0:0:
288,224,70516,1,2,0:0:0:0:
288,224,70584,1,2,0:0:0:0:
288,224,70652,1,2,0:0:0:0:
288,224,70788,1,2,0:0:0:0:
320,288,70925,1,4,0:0:0:0:
288,224,71061,1,0,0:0:0:0:
288,224,71129,1,0,0:0:0:0:
288,224,71197,1,2,0:0:0:0:
288,224,71334,1,0,0:0:0:0:
160,160,71402,1,2,0:0:0:0:
192,256,71538,1,2,0:0:0:0:
192,256,71606,1,0,0:0:0:0:
192,256,71743,1,0,0:0:0:0:
192,256,71811,1,2,0:0:0:0:
320,288,71947,1,0,0:0:0:0:
256,192,72016,1,2,0:0:0:0:
256,224,72084,1,2,0:0:0:0:
288,256,72152,1,2,0:0:0:0:
288,256,72288,1,2,0:0:0:0:
288,256,72356,1,2,0:0:0:0:
224,256,72493,1,2,0:0:0:0:
256,160,72561,1,0,0:0:0:0:
320,288,72697,1,2,0:0:0:0:
320,288,72766,1,0,0:0:0:0:
320,288,72902,1,0,0:0:0:0:
320,288,72970,1,2,0:0:0:0:
320,288,73107,1,4,0:0:0:0:
320,288,73243,1,2,0:0:0:0:
192,160,73311,1,2,0:0:0:0:
320,256,73380,1,0,0:0:0:0:
320,256,73448,1,2,0:0:0:0:
320,256,73516,1,0,0:0:0:0:
256,160,73652,1,4,0:0:0:0:
192,192,73789,1,2,0:0:0:0:
192,192,73857,1,2,0:0:0:0:
192,192,73925,1,2,0:0:0:0:
192,192,74062,1,4,0:0:0:0:
192,192,74198,1,4,0:0:0:0:
192,192,74334,1,2,0:0:0:0:
192,192,74402,1,2,0:0:0:0:
192,192,74470,1,2,0:0:0:0:
192,192,74607,1,0,0:0:0:0:
192,192,74743,1,4,0:0:0:0:
288,224,74879,1,2,0:0:0:0:
288,224,74947,1,2,0:0:0:0:
288,224,75016,1,2,0:0:0:0:
288,224,75152,1,2,0:0:0:0:
320,288,75288,1,4,0:0:0:0:
288,224,75425,1,0,0:0:0:0:
288,224,75493,1,0,0:0:0:0:
288,224,75561,1,2,0:0:0:0:
288,224,75697,1,0,0:0:0:0:
320,288,75834,1,4,0:0:0:0:
192,256,75970,1,2,0:0:0:0:
192,256,76038,1,2,0:0:0:0:
192,256,76106,1,0,0:0:0:0:
192,256,76243,1,2,0:0:0:0:
320,288,76379,1,4,0:0:0:0:
288,256,76516,1,2,0:0:0:0:
288,256,76584,1,2,0:0:0:0:
288,256,76652,1,2,0:0:0:0:
288,256,76788,1,2,0:0:0:0:
256,256,76925,1,4,0:0:0:0:
224,256,77061,1,2,0:0:0:0:
224,256,77129,1,0,0:0:0:0:
224,256,77197,1,0,0:0:0:0:
224,256,77266,1,0,0:0:0:0:
224,256,77334,1,2,0:0:0:0:
224,256,77470,1,0,0:0:0:0:
224,256,77606,1,0,0:0:0:0:
224,192,77743,1,2,0:0:0:0:
224,192,77811,1,2,0:0:0:0:
224,192,77879,1,2,0:0:0:0:
224,192,77947,1,2,0:0:0:0:
224,192,78016,1,2,0:0:0:0:
224,256,78152,1,2,0:0:0:0:
224,256,78197,1,2,0:0:0:0:
224,256,78243,1,2,0:0:0:0:
224,256,78288,1,2,0:0:0:0:
288,128,78425,1,2,0:0:0:0:
288,128,78561,1,2,0:0:0:0:
288,128,78629,1,2,0:0:0:0:
288,128,78697,1,2,0:0:0:0:
320,160,78834,1,2,0:0:0:0:
288,128,78879,1,2,0:0:0:0:
320,192,78925,1,2,0:0:0:0:
288,128,78970,1,2,0:0:0:0:
320,288,79106,1,4,0:0:0:0:
192,192,79243,1,2,0:0:0:0:
192,192,79311,1,2,0:0:0:0:
192,192,79379,1,2,0:0:0:0:
192,192,79516,1,0,0:0:0:0:
192,192,79652,1,4,0:0:0:0:
288,224,79788,1,2,0:0:0:0:
288,224,79856,1,0,0:0:0:0:
160,192,79925,1,0,0:0:0:0:
224,256,79993,1,0,0:0:0:0:
288,224,80061,1,2,0:0:0:0:
320,288,80197,1,4,0:0:0:0:
288,224,80334,1,0,0:0:0:0:
288,224,80402,1,0,0:0:0:0:
288,224,80470,1,2,0:0:0:0:
288,256,80538,1,2,0:0:0:0:
288,224,80606,1,0,0:0:0:0:
320,288,80743,1,4,0:0:0:0:
192,256,80879,1,2,0:0:0:0:
192,256,80947,1,2,0:0:0:0:
192,256,81015,1,0,0:0:0:0:
192,256,81152,1,2,0:0:0:0:
320,288,81288,1,4,0:0:0:0:
288,256,81425,1,2,0:0:0:0:
288,256,81493,1,2,0:0:0:0:
288,256,81561,1,0,0:0:0:0:
128,160,81629,1,2,0:0:0:0:
288,256,81697,1,2,0:0:0:0:
320,288,81834,1,4,0:0:0:0:
256,128,81970,1,2,0:0:0:0:
256,128,82106,1,0,0:0:0:0:
224,160,82175,1,0,0:0:0:0:
320,128,82243,1,0,0:0:0:0:
320,288,82379,1,6,0:0:0:0:
256,256,82516,1,0,0:0:0:0:
256,256,82584,1,0,0:0:0:0:
256,256,82652,1,0,0:0:0:0:
256,256,82788,1,2,0:0:0:0:
256,256,82856,1,2,0:0:0:0:
256,256,82925,1,0,0:0:0:0:
256,256,82993,1,0,0:0:0:0:
256,256,83061,1,2,0:0:0:0:
160,224,83129,1,0,0:0:0:0:
256,256,83197,1,2,0:0:0:0:
96,192,83266,1,2,0:0:0:0:
192,320,83334,1,2,0:0:0:0:
256,288,83470,1,4,0:0:0:0:
192,192,83606,1,0,0:0:0:0:
192,192,83674,1,0,0:0:0:0:
192,192,83742,1,2,0:0:0:0:
192,192,83879,1,2,0:0:0:0:
192,192,84015,1,4,0:0:0:0:
288,224,84151,1,2,0:0:0:0:
288,224,84219,1,0,0:0:0:0:
160,192,84288,1,0,0:0:0:0:
224,256,84356,1,0,0:0:0:0:
288,224,84424,1,2,0:0:0:0:
320,288,84560,1,4,0:0:0:0:
288,224,84697,1,2,0:0:0:0:
288,224,84765,1,0,0:0:0:0:
288,224,84833,1,0,0:0:0:0:
288,256,84901,1,0,0:0:0:0:
288,224,84969,1,2,0:0:0:0:
320,288,85106,1,4,0:0:0:0:
192,256,85242,1,2,0:0:0:0:
192,256,85310,1,2,0:0:0:0:
192,256,85378,1,0,0:0:0:0:
224,160,85447,1,0,0:0:0:0:
192,256,85515,1,2,0:0:0:0:
320,288,85651,1,4,0:0:0:0:
288,256,85788,1,2,0:0:0:0:
288,256,85856,1,2,0:0:0:0:
288,256,85924,1,0,0:0:0:0:
128,160,85992,1,0,0:0:0:0:
288,256,86060,1,0,0:0:0:0:
320,288,86197,1,4,0:0:0:0:
256,128,86333,1,2,0:0:0:0:
256,128,86469,1,0,0:0:0:0:
224,160,86538,1,0,0:0:0:0:
320,128,86606,1,0,0:0:0:0:
320,288,86742,1,6,0:0:0:0:
224,256,86879,1,0,0:0:0:0:
224,256,86947,1,0,0:0:0:0:
224,256,87016,1,2,0:0:0:0:
224,256,87084,1,2,0:0:0:0:
224,256,87152,1,0,0:0:0:0:
160,160,87220,1,0,0:0:0:0:
160,160,87288,1,2,0:0:0:0:
160,160,87334,1,2,0:0:0:0:
192,160,87379,1,2,0:0:0:0:
192,160,87425,1,2,0:0:0:0:
160,160,87493,1,2,0:0:0:0:
160,160,87561,1,2,0:0:0:0:
160,160,87629,1,2,0:0:0:0:
160,160,87697,1,0,0:0:0:0:
160,160,87834,1,4,0:0:0:0:
192,192,87970,1,2,0:0:0:0:
192,192,88038,1,2,0:0:0:0:
192,192,88106,1,0,0:0:0:0:
256,192,88175,1,0,0:0:0:0:
192,192,88243,1,2,0:0:0:0:
192,192,88379,1,4,0:0:0:0:
288,224,88515,1,2,0:0:0:0:
288,224,88583,1,0,0:0:0:0:
160,192,88652,1,0,0:0:0:0:
224,256,88720,1,0,0:0:0:0:
288,224,88788,1,2,0:0:0:0:
320,288,88924,1,4,0:0:0:0:
288,224,89061,1,0,0:0:0:0:
288,224,89129,1,0,0:0:0:0:
288,224,89197,1,2,0:0:0:0:
288,256,89265,1,2,0:0:0:0:
288,224,89333,1,0,0:0:0:0:
320,288,89470,1,4,0:0:0:0:
192,256,89606,1,2,0:0:0:0:
192,256,89674,1,2,0:0:0:0:
192,256,89742,1,0,0:0:0:0:
192,224,89811,1,0,0:0:0:0:
192,256,89879,1,2,0:0:0:0:
320,288,90015,1,4,0:0:0:0:
288,256,90152,1,2,0:0:0:0:
288,256,90220,1,2,0:0:0:0:
288,256,90288,1,0,0:0:0:0:
128,160,90356,1,2,0:0:0:0:
288,256,90424,1,0,0:0:0:0:
320,288,90561,1,4,0:0:0:0:
256,128,90697,1,2,0:0:0:0:
256,128,90833,1,0,0:0:0:0:
224,160,90902,1,0,0:0:0:0:
320,128,90970,1,0,0:0:0:0:
320,288,91106,1,2,0:0:0:0:
288,256,91175,1,2,0:0:0:0:
288,256,91243,1,2,0:0:0:0:
288,256,91379,1,2,0:0:0:0:
224,192,91516,1,2,0:0:0:0:
224,192,91561,1,2,0:0:0:0:
224,192,91606,1,2,0:0:0:0:
224,192,91652,1,2,0:0:0:0:
320,192,91788,1,2,0:0:0:0:
256,192,91925,1,0,0:0:0:0:
256,192,91970,1,0,0:0:0:0:
256,192,92016,1,0,0:0:0:0:
256,192,92061,1,0,0:0:0:0:
256,192,92106,1,0,0:0:0:0:
256,192,92152,1,0,0:0:0:0:
256,192,92197,1,2,0:0:0:0:
192,192,92334,1,0,0:0:0:0:
192,192,92402,1,0,0:0:0:0:
192,192,92470,1,2,0:0:0:0:
192,192,92607,1,2,0:0:0:0:
192,192,92743,1,4,0:0:0:0:
288,224,92879,1,2,0:0:0:0:
288,224,92947,1,0,0:0:0:0:
160,192,93016,1,0,0:0:0:0:
224,256,93084,1,0,0:0:0:0:
288,224,93152,1,2,0:0:0:0:
320,288,93288,1,4,0:0:0:0:
288,224,93425,1,0,0:0:0:0:
288,224,93493,1,2,0:0:0:0:
288,224,93561,1,0,0:0:0:0:
288,256,93629,1,0,0:0:0:0:
288,224,93697,1,2,0:0:0:0:
320,288,93834,1,4,0:0:0:0:
192,256,93970,1,2,0:0:0:0:
192,256,94038,1,2,0:0:0:0:
192,256,94106,1,0,0:0:0:0:
224,160,94175,1,2,0:0:0:0:
320,288,94311,1,2,0:0:0:0:
224,128,94379,1,0,0:0:0:0:
288,256,94516,1,2,0:0:0:0:
288,256,94584,1,0,0:0:0:0:
128,160,94720,1,2,0:0:0:0:
288,256,94788,1,2,0:0:0:0:
320,288,94925,1,0,0:0:0:0:
224,192,94993,1,0,0:0:0:0:
256,128,95061,1,2,0:0:0:0:
160,128,95129,1,0,0:0:0:0:
224,160,95197,1,2,0:0:0:0:
320,128,95334,1,2,0:0:0:0:
320,288,95470,1,2,0:0:0:0:
128,128,95606,1,2,0:0:0:0:
128,128,95743,1,2,0:0:0:0:
160,128,95879,1,2,0:0:0:0:
160,128,96016,1,2,0:0:0:0:
160,128,96152,1,2,0:0:0:0:
160,128,96288,1,2,0:0:0:0:
160,128,96425,1,2,0:0:0:0:
160,128,96561,1,4,0:0:0:0:
192,224,96697,1,2,0:0:0:0:
192,224,96834,1,2,0:0:0:0:
192,192,96970,1,4,0:0:0:0:
192,224,97106,1,2,0:0:0:0:
192,256,97243,1,2,0:0:0:0:
192,256,97379,1,2,0:0:0:0:
192,224,97516,1,2,0:0:0:0:
192,192,97652,1,4,0:0:0:0:
192,224,97788,1,2,0:0:0:0:
192,224,97925,1,2,0:0:0:0:
192,192,98061,1,4,0:0:0:0:
192,224,98197,1,2,0:0:0:0:
192,224,98334,1,2,0:0:0:0:
384,288,98470,1,4,0:0:0:0:
192,224,98606,1,2,0:0:0:0:
384,256,98743,1,4,0:0:0:0:
192,224,98879,1,2,0:0:0:0:
192,256,99016,1,2,0:0:0:0:
352,256,99152,1,4,0:0:0:0:
192,256,99288,1,2,0:0:0:0:
192,256,99425,1,2,0:0:0:0:
192,256,99561,1,2,0:0:0:0:
192,256,99697,1,2,0:0:0:0:
352,256,99834,1,4,0:0:0:0:
192,256,99970,1,2,0:0:0:0:
192,256,100106,1,2,0:0:0:0:
352,256,100243,1,4,0:0:0:0:
192,256,100379,1,2,0:0:0:0:
192,256,100516,1,2,0:0:0:0:
352,256,100652,1,4,0:0:0:0:
224,192,100788,1,4,0:0:0:0:
224,192,100925,1,4,0:0:0:0:
192,256,101061,1,2,0:0:0:0:
192,256,101197,1,2,0:0:0:0:
416,320,101334,1,4,0:0:0:0:
192,256,101470,1,2,0:0:0:0:
192,256,101606,1,2,0:0:0:0:
384,256,101743,1,4,0:0:0:0:
192,256,101879,1,2,0:0:0:0:
416,256,102016,1,4,0:0:0:0:
192,256,102152,1,2,0:0:0:0:
384,256,102288,1,4,0:0:0:0:
192,256,102425,1,2,0:0:0:0:
384,256,102561,1,4,0:0:0:0:
448,320,102697,1,4,0:0:0:0:
192,256,102834,1,4,0:0:0:0:
192,192,102970,1,2,0:0:0:0:
384,256,103106,1,4,0:0:0:0:
160,224,103243,1,2,0:0:0:0:
160,224,103379,1,2,0:0:0:0:
384,256,103516,1,4,0:0:0:0:
160,224,103652,1,2,0:0:0:0:
160,224,103788,1,2,0:0:0:0:
160,224,103925,1,2,0:0:0:0:
160,224,104061,1,2,0:0:0:0:
384,256,104197,1,4,0:0:0:0:
160,224,104334,1,2,0:0:0:0:
160,224,104470,1,2,0:0:0:0:
256,160,104606,1,4,0:0:0:0:
160,224,104743,1,2,0:0:0:0:
160,224,104879,1,2,0:0:0:0:
160,224,105016,1,2,0:0:0:0:
160,224,105152,1,2,0:0:0:0:
352,224,105288,1,4,0:0:0:0:
160,224,105425,1,2,0:0:0:0:
160,224,105561,1,2,0:0:0:0:
384,288,105697,1,4,0:0:0:0:
160,224,105834,1,2,0:0:0:0:
160,224,105970,1,2,0:0:0:0:
160,224,106106,1,2,0:0:0:0:
160,224,106243,1,2,0:0:0:0:
352,256,106379,1,4,0:0:0:0:
160,224,106516,1,2,0:0:0:0:
160,224,106652,1,2,0:0:0:0:
352,256,106788,1,4,0:0:0:0:
160,224,106925,1,2,0:0:0:0:
160,224,107061,1,2,0:0:0:0:
352,256,107197,1,4,0:0:0:0:
160,224,107334,1,2,0:0:0:0:
352,256,107470,1,4,0:0:0:0:
160,224,107606,1,2,0:0:0:0:
160,224,107743,1,2,0:0:0:0:
352,256,107879,1,4,0:0:0:0:
160,224,108016,1,2,0:0:0:0:
160,224,108152,1,2,0:0:0:0:
160,224,108288,1,2,0:0:0:0:
160,224,108425,1,2,0:0:0:0:
352,256,108561,1,4,0:0:0:0:
160,224,108697,1,2,0:0:0:0:
160,224,108834,1,2,0:0:0:0:
352,256,108970,1,4,0:0:0:0:
160,224,109106,1,2,0:0:0:0:
160,224,109243,1,2,0:0:0:0:
352,256,109379,1,4,0:0:0:0:
160,224,109516,1,2,0:0:0:0:
320,256,109652,1,4,0:0:0:0:
160,224,109788,1,2,0:0:0:0:
160,224,109925,1,2,0:0:0:0:
320,256,110061,1,4,0:0:0:0:
160,224,110197,1,2,0:0:0:0:
160,224,110334,1,2,0:0:0:0:
320,256,110470,1,4,0:0:0:0:
160,224,110606,1,2,0:0:0:0:
320,256,110743,1,4,0:0:0:0:
160,224,110879,1,2,0:0:0:0:
320,256,111016,1,4,0:0:0:0:
160,224,111152,1,2,0:0:0:0:
320,256,111288,1,4,0:0:0:0:
160,224,111425,1,2,0:0:0:0:
320,256,111561,1,4,0:0:0:0:
160,224,111697,1,2,0:0:0:0:
320,256,111834,1,4,0:0:0:0:
160,224,111970,1,2,0:0:0:0:
160,224,112106,1,2,0:0:0:0:
320,256,112243,1,4,0:0:0:0:
160,224,112379,1,2,0:0:0:0:
160,224,112516,1,2,0:0:0:0:
160,224,112652,1,2,0:0:0:0:
160,224,112788,1,2,0:0:0:0:
320,256,112925,1,4,0:0:0:0:
288,288,114016,1,2,0:0:0:0:
224,192,114561,1,0,0:0:0:0:
224,224,115106,1,2,0:0:0:0:
288,224,115516,1,0,0:0:0:0:
288,224,115925,1,2,0:0:0:0:
192,256,116197,1,0,0:0:0:0:
192,256,116606,1,0,0:0:0:0:
192,256,117016,1,2,0:0:0:0:
192,256,118106,1,0,0:0:0:0:
224,288,118379,1,6,0:0:0:0:
288,288,119470,1,2,0:0:0:0:
256,256,119743,1,0,0:0:0:0:
256,256,119879,1,0,0:0:0:0:
288,288,120016,1,2,0:0:0:0:
256,256,120561,1,6,0:0:0:0:
160,256,120834,1,0,0:0:0:0:
160,256,120970,1,0,0:0:0:0:
160,256,121106,1,2,0:0:0:0:
160,288,121379,1,0,0:0:0:0:
160,288,121652,1,6,0:0:0:0:
160,288,122061,1,6,0:0:0:0:
160,288,122470,1,6,0:0:0:0:
160,288,122743,1,2,0:0:0:0:
160,288,123016,1,2,0:0:0:0:
160,288,123288,1,2,0:0:0:0:
160,288,123561,1,2,0:0:0:0:
160,288,123834,1,2,0:0:0:0:
160,288,124106,1,2,0:0:0:0:
192,224,124243,1,2,0:0:0:0:
160,288,124379,1,2,0:0:0:0:
192,224,124652,1,2,0:0:0:0:
192,224,124925,1,6,0:0:0:0:
256,256,125334,1,6,0:0:0:0:
256,256,125743,1,6,0:0:0:0:
320,320,126016,1,2,0:0:0:0:
288,320,126288,1,2,0:0:0:0:
288,320,126561,1,2,0:0:0:0:
288,320,126834,1,4,0:0:0:0:
288,320,127106,1,6,0:0:0:0:
256,224,127379,1,0,0:0:0:0:
288,224,127516,1,0,0:0:0:0:
288,224,127652,1,2,0:0:0:0:
288,256,127925,1,0,0:0:0:0:
288,256,128197,1,6,0:0:0:0:
320,320,128470,1,0,0:0:0:0:
320,320,128606,1,0,0:0:0:0:
320,320,128743,1,0,0:0:0:0:
320,288,129016,1,0,0:0:0:0:
320,288,129288,1,6,0:0:0:0:
288,288,129561,1,2,0:0:0:0:
288,288,129697,1,2,0:0:0:0:
288,288,129834,1,2,0:0:0:0:
288,288,130106,1,2,0:0:0:0:
288,288,130379,1,4,0:0:0:0:
192,160,130788,1,4,0:0:0:0:
192,192,131197,1,4,0:0:0:0:
192,192,131470,1,0,0:0:0:0:
224,192,131606,1,0,0:0:0:0:
224,224,131743,1,0,0:0:0:0:
224,224,131879,1,0,0:0:0:0:
224,224,132016,1,0,0:0:0:0:
224,224,132152,1,0,0:0:0:0:
288,288,132288,1,0,0:0:0:0:
288,256,132425,1,0,0:0:0:0:
224,224,132561,1,6,0:0:0:0:
192,224,132697,1,6,0:0:0:0:
192,224,132834,1,6,0:0:0:0:
192,224,132970,1,6,0:0:0:0:
256,192,133106,8,0,133516,0:0:0:0:
224,288,133652,5,4,0:0:0:0:
288,160,133788,1,2,0:0:0:0:
288,160,133856,1,2,0:0:0:0:
288,160,133925,1,0,0:0:0:0:
288,160,133993,1,0,0:0:0:0:
288,160,134061,1,2,0:0:0:0:
288,160,134197,1,0,0:0:0:0:
288,160,134334,1,2,0:0:0:0:
288,160,134402,1,2,0:0:0:0:
288,160,134470,1,0,0:0:0:0:
288,160,134606,1,2,0:0:0:0:
224,288,134743,1,4,0:0:0:0:
288,256,134879,1,2,0:0:0:0:
288,256,134947,1,0,0:0:0:0:
288,256,135016,1,0,0:0:0:0:
288,256,135084,1,0,0:0:0:0:
288,256,135152,1,2,0:0:0:0:
288,256,135288,1,0,0:0:0:0:
288,256,135356,1,0,0:0:0:0:
288,256,135425,1,2,0:0:0:0:
288,256,135493,1,0,0:0:0:0:
288,256,135561,1,2,0:0:0:0:
288,256,135697,1,2,0:0:0:0:
224,128,135834,1,4,0:0:0:0:
320,320,135970,1,0,0:0:0:0:
320,320,136038,1,0,0:0:0:0:
320,320,136106,1,2,0:0:0:0:
320,320,136243,1,0,0:0:0:0:
320,320,136379,1,0,0:0:0:0:
288,320,136447,1,0,0:0:0:0:
288,320,136516,1,0,0:0:0:0:
288,320,136652,1,2,0:0:0:0:
288,320,136720,1,0,0:0:0:0:
288,192,136788,1,0,0:0:0:0:
224,128,136925,1,4,0:0:0:0:
288,256,137061,1,2,0:0:0:0:
288,256,137129,1,2,0:0:0:0:
288,256,137197,1,0,0:0:0:0:
288,256,137266,1,0,0:0:0:0:
288,256,137334,1,2,0:0:0:0:
288,256,137402,1,0,0:0:0:0:
288,256,137470,1,2,0:0:0:0:
320,320,137606,1,0,0:0:0:0:
320,320,137675,1,0,0:0:0:0:
320,320,137743,1,2,0:0:0:0:
320,320,137811,1,0,0:0:0:0:
320,320,137879,1,0,0:0:0:0:
224,128,138016,1,4,0:0:0:0:
256,224,138152,1,2,0:0:0:0:
256,224,138220,1,0,0:0:0:0:
256,224,138288,1,2,0:0:0:0:
256,224,138425,1,0,0:0:0:0:
256,224,138561,1,2,0:0:0:0:
128,192,138697,1,0,0:0:0:0:
128,192,138766,1,0,0:0:0:0:
128,192,138834,1,2,0:0:0:0:
128,192,138902,1,0,0:0:0:0:
128,192,138970,1,2,0:0:0:0:
224,128,139106,1,4,0:0:0:0:
288,320,139243,1,2,0:0:0:0:
288,320,139311,1,2,0:0:0:0:
288,320,139379,1,2,0:0:0:0:
288,320,139516,1,0,0:0:0:0:
288,320,139652,1,2,0:0:0:0:
288,320,139720,1,2,0:0:0:0:
288,320,139788,1,0,0:0:0:0:
288,320,139856,1,2,0:0:0:0:
320,320,139925,1,0,0:0:0:0:
320,320,140061,1,2,0:0:0:0:
224,128,140197,1,4,0:0:0:0:
288,320,140334,1,0,0:0:0:0:
288,320,140402,1,0,0:0:0:0:
288,320,140470,1,0,0:0:0:0:
288,320,140538,1,0,0:0:0:0:
288,320,140606,1,2,0:0:0:0:
288,320,140743,1,0,0:0:0:0:
288,320,140879,1,2,0:0:0:0:
288,320,140947,1,0,0:0:0:0:
288,320,141084,1,0,0:0:0:0:
288,320,141152,1,2,0:0:0:0:
224,128,141288,1,4,0:0:0:0:
224,288,141425,1,0,0:0:0:0:
224,288,141493,1,2,0:0:0:0:
224,288,141561,1,2,0:0:0:0:
224,288,141629,1,0,0:0:0:0:
224,288,141766,1,0,0:0:0:0:
224,288,141834,1,2,0:0:0:0:
224,288,141970,1,2,0:0:0:0:
224,288,142038,1,0,0:0:0:0:
224,288,142106,1,2,0:0:0:0:
224,288,142175,1,2,0:0:0:0:
224,320,142243,1,0,0:0:0:0:
224,128,142379,1,4,0:0:0:0:
320,288,142516,1,2,0:0:0:0:
288,288,142584,1,0,0:0:0:0:
288,288,142652,1,0,0:0:0:0:
288,288,142720,1,0,0:0:0:0:
288,288,142788,1,2,0:0:0:0:
288,288,142925,1,0,0:0:0:0:
288,288,143061,1,2,0:0:0:0:
352,224,143129,1,2,0:0:0:0:
288,288,143197,1,0,0:0:0:0:
288,288,143266,1,0,0:0:0:0:
288,288,143334,1,0,0:0:0:0:
224,128,143470,1,4,0:0:0:0:
256,256,143606,1,2,0:0:0:0:
288,288,143675,1,0,0:0:0:0:
256,288,143743,1,0,0:0:0:0:
288,288,143879,1,0,0:0:0:0:
288,288,144016,1,2,0:0:0:0:
288,288,144152,1,0,0:0:0:0:
288,288,144220,1,0,0:0:0:0:
288,288,144288,1,2,0:0:0:0:
288,288,144356,1,0,0:0:0:0:
288,288,144425,1,2,0:0:0:0:
224,128,144561,1,4,0:0:0:0:
192,224,144697,1,2,0:0:0:0:
192,224,144766,1,2,0:0:0:0:
192,224,144834,1,0,0:0:0:0:
192,224,144970,1,0,0:0:0:0:
192,224,145106,1,2,0:0:0:0:
192,224,145175,1,2,0:0:0:0:
192,224,145243,1,0,0:0:0:0:
192,224,145311,1,0,0:0:0:0:
192,224,145379,1,2,0:0:0:0:
192,224,145516,1,2,0:0:0:0:
224,128,145652,1,4,0:0:0:0:
224,224,145788,1,2,0:0:0:0:
224,256,145856,1,2,0:0:0:0:
224,256,145925,1,2,0:0:0:0:
192,224,146061,1,2,0:0:0:0:
256,256,146197,1,4,0:0:0:0:
288,288,146334,1,2,0:0:0:0:
256,256,146470,1,4,0:0:0:0:
288,288,146606,1,2,0:0:0:0:
224,128,146743,1,4,0:0:0:0:
320,320,146879,1,2,0:0:0:0:
320,320,146947,1,2,0:0:0:0:
320,320,147016,1,2,0:0:0:0:
320,320,147152,1,0,0:0:0:0:
320,320,147220,1,0,0:0:0:0:
320,320,147288,1,0,0:0:0:0:
320,320,147425,1,2,0:0:0:0:
288,320,147561,1,0,0:0:0:0:
288,320,147629,1,0,0:0:0:0:
288,320,147697,1,2,0:0:0:0:
224,128,147834,1,4,0:0:0:0:
320,320,147970,1,2,0:0:0:0:
288,320,148038,1,2,0:0:0:0:
288,320,148106,1,0,0:0:0:0:
288,320,148243,1,0,0:0:0:0:
288,320,148379,1,2,0:0:0:0:
288,320,148447,1,2,0:0:0:0:
288,320,148516,1,2,0:0:0:0:
288,320,148652,1,0,0:0:0:0:
288,320,148720,1,0,0:0:0:0:
288,320,148788,1,0,0:0:0:0:
224,128,148925,1,4,0:0:0:0:
288,288,149061,1,0,0:0:0:0:
288,288,149129,1,0,0:0:0:0:
288,288,149197,1,0,0:0:0:0:
288,288,149334,1,0,0:0:0:0:
288,288,149402,1,0,0:0:0:0:
288,288,149470,1,0,0:0:0:0:
320,320,149606,1,4,0:0:0:0:
320,320,149743,1,4,0:0:0:0:
320,320,149879,1,4,0:0:0:0:
320,320,150016,1,6,0:0:0:0:
320,320,150152,1,6,0:0:0:0:
320,320,150288,1,6,0:0:0:0:
288,288,150425,1,6,0:0:0:0:
224,288,151106,1,4,0:0:0:0:
288,160,151242,1,2,0:0:0:0:
288,160,151310,1,2,0:0:0:0:
288,160,151379,1,0,0:0:0:0:
288,160,151447,1,0,0:0:0:0:
288,160,151515,1,2,0:0:0:0:
288,160,151651,1,0,0:0:0:0:
288,160,151788,1,2,0:0:0:0:
288,160,151856,1,2,0:0:0:0:
288,160,151924,1,0,0:0:0:0:
288,160,152060,1,2,0:0:0:0:
224,288,152197,1,4,0:0:0:0:
288,256,152333,1,2,0:0:0:0:
288,256,152401,1,0,0:0:0:0:
288,256,152470,1,0,0:0:0:0:
288,256,152538,1,0,0:0:0:0:
288,256,152606,1,2,0:0:0:0:
288,256,152742,1,0,0:0:0:0:
288,256,152810,1,0,0:0:0:0:
288,256,152879,1,2,0:0:0:0:
288,256,152947,1,0,0:0:0:0:
288,256,153015,1,2,0:0:0:0:
288,256,153151,1,2,0:0:0:0:
224,128,153288,1,4,0:0:0:0:
320,320,153424,1,0,0:0:0:0:
320,320,153492,1,0,0:0:0:0:
320,320,153560,1,2,0:0:0:0:
320,320,153697,1,0,0:0:0:0:
320,320,153833,1,0,0:0:0:0:
288,320,153901,1,0,0:0:0:0:
288,320,153970,1,0,0:0:0:0:
288,320,154106,1,2,0:0:0:0:
288,320,154174,1,0,0:0:0:0:
288,192,154242,1,0,0:0:0:0:
224,128,154379,1,4,0:0:0:0:
288,256,154515,1,2,0:0:0:0:
288,256,154583,1,2,0:0:0:0:
288,256,154651,1,0,0:0:0:0:
288,256,154720,1,0,0:0:0:0:
288,256,154788,1,2,0:0:0:0:
288,256,154856,1,0,0:0:0:0:
288,256,154924,1,2,0:0:0:0:
352,160,154993,1,2,0:0:0:0:
320,320,155060,1,0,0:0:0:0:
320,320,155129,1,0,0:0:0:0:
320,320,155197,1,2,0:0:0:0:
320,320,155265,1,0,0:0:0:0:
320,320,155334,1,2,0:0:0:0:
224,128,155470,1,4,0:0:0:0:
256,224,155606,1,2,0:0:0:0:
256,224,155674,1,0,0:0:0:0:
256,224,155742,1,2,0:0:0:0:
256,224,155879,1,0,0:0:0:0:
256,224,156015,1,2,0:0:0:0:
128,192,156151,1,0,0:0:0:0:
128,192,156220,1,0,0:0:0:0:
128,192,156288,1,2,0:0:0:0:
128,192,156356,1,0,0:0:0:0:
128,192,156424,1,2,0:0:0:0:
224,128,156560,1,4,0:0:0:0:
288,320,156697,1,2,0:0:0:0:
288,320,156765,1,2,0:0:0:0:
288,320,156833,1,2,0:0:0:0:
288,320,156970,1,0,0:0:0:0:
288,320,157106,1,2,0:0:0:0:
288,320,157174,1,2,0:0:0:0:
288,320,157242,1,0,0:0:0:0:
288,320,157310,1,2,0:0:0:0:
320,320,157379,1,0,0:0:0:0:
320,320,157515,1,2,0:0:0:0:
224,128,157651,1,4,0:0:0:0:
288,320,157788,1,0,0:0:0:0:
288,320,157856,1,0,0:0:0:0:
288,320,157924,1,0,0:0:0:0:
288,320,157992,1,0,0:0:0:0:
288,320,158060,1,2,0:0:0:0:
288,320,158197,1,0,0:0:0:0:
288,320,158333,1,2,0:0:0:0:
288,320,158401,1,0,0:0:0:0:
288,320,158538,1,0,0:0:0:0:
288,320,158606,1,2,0:0:0:0:
224,128,158742,1,0,0:0:0:0:
160,224,158811,1,0,0:0:0:0:
224,288,158879,1,2,0:0:0:0:
224,288,158947,1,0,0:0:0:0:
224,288,159015,1,2,0:0:0:0:
224,288,159083,1,2,0:0:0:0:
224,224,159152,1,2,0:0:0:0:
224,288,159220,1,0,0:0:0:0:
224,288,159288,1,2,0:0:0:0:
224,224,159356,1,0,0:0:0:0:
224,288,159425,1,0,0:0:0:0:
224,288,159492,1,0,0:0:0:0:
192,256,159561,1,2,0:0:0:0:
192,256,159606,1,2,0:0:0:0:
192,256,159652,1,2,0:0:0:0:
192,256,159697,1,2,0:0:0:0:
192,256,159743,1,2,0:0:0:0:
192,256,159788,1,2,0:0:0:0:
192,256,159834,1,0,0:0:0:0:
320,288,159970,1,2,0:0:0:0:
288,288,160038,1,0,0:0:0:0:
288,288,160106,1,0,0:0:0:0:
288,288,160174,1,0,0:0:0:0:
288,288,160242,1,2,0:0:0:0:
288,288,160379,1,0,0:0:0:0:
288,288,160515,1,2,0:0:0:0:
352,224,160583,1,2,0:0:0:0:
288,288,160651,1,0,0:0:0:0:
288,288,160720,1,0,0:0:0:0:
288,288,160788,1,0,0:0:0:0:
224,128,160924,1,4,0:0:0:0:
256,256,161060,1,2,0:0:0:0:
288,288,161129,1,0,0:0:0:0:
256,288,161197,1,0,0:0:0:0:
288,288,161333,1,0,0:0:0:0:
288,288,161470,1,2,0:0:0:0:
288,288,161606,1,0,0:0:0:0:
288,288,161674,1,0,0:0:0:0:
288,288,161742,1,2,0:0:0:0:
288,288,161810,1,0,0:0:0:0:
288,288,161879,1,2,0:0:0:0:
224,128,162015,1,4,0:0:0:0:
192,224,162151,1,2,0:0:0:0:
192,224,162220,1,2,0:0:0:0:
192,224,162288,1,0,0:0:0:0:
192,224,162424,1,0,0:0:0:0:
192,224,162560,1,2,0:0:0:0:
192,224,162629,1,2,0:0:0:0:
192,224,162697,1,0,0:0:0:0:
192,224,162765,1,0,0:0:0:0:
192,224,162833,1,2,0:0:0:0:
192,224,162970,1,2,0:0:0:0:
224,128,163106,1,4,0:0:0:0:
224,224,163242,1,2,0:0:0:0:
224,256,163310,1,2,0:0:0:0:
224,256,163379,1,2,0:0:0:0:
192,224,163515,1,2,0:0:0:0:
256,256,163651,1,4,0:0:0:0:
288,288,163788,1,2,0:0:0:0:
256,256,163924,1,4,0:0:0:0:
288,288,164060,1,2,0:0:0:0:
224,128,164197,1,4,0:0:0:0:
320,320,164333,1,2,0:0:0:0:
320,320,164401,1,2,0:0:0:0:
320,320,164470,1,2,0:0:0:0:
320,320,164606,1,0,0:0:0:0:
320,320,164674,1,0,0:0:0:0:
320,320,164742,1,0,0:0:0:0:
320,320,164879,1,2,0:0:0:0:
224,160,165016,1,0,0:0:0:0:
224,160,165084,1,0,0:0:0:0:
224,160,165152,1,2,0:0:0:0:
224,160,165220,1,0,0:0:0:0:
224,160,165288,1,2,0:0:0:0:
224,160,165356,1,2,0:0:0:0:
224,160,165425,1,0,0:0:0:0:
224,160,165561,1,2,0:0:0:0:
224,160,165697,1,0,0:0:0:0:
224,160,165766,1,0,0:0:0:0:
224,160,165834,1,2,0:0:0:0:
224,160,165970,1,0,0:0:0:0:
224,160,166038,1,0,0:0:0:0:
224,160,166106,1,0,0:0:0:0:
224,160,166243,1,2,0:0:0:0:
288,256,166311,1,2,0:0:0:0:
160,160,166379,1,0,0:0:0:0:
256,160,166447,1,0,0:0:0:0:
256,160,166516,1,0,0:0:0:0:
256,160,166584,1,0,0:0:0:0:
256,160,166652,1,2,0:0:0:0:
256,160,166720,1,0,0:0:0:0:
256,160,166788,1,2,0:0:0:0:
256,160,166856,1,2,0:0:0:0:
256,160,166925,1,0,0:0:0:0:
256,160,166993,1,0,0:0:0:0:
256,160,167061,1,0,0:0:0:0:
256,160,167129,1,2,0:0:0:0:
256,160,167197,1,2,0:0:0:0:
256,160,167266,1,2,0:0:0:0:
256,160,167334,1,0,0:0:0:0:
256,160,167402,1,0,0:0:0:0:
256,160,167470,1,2,0:0:0:0:
320,224,167538,1,2,0:0:0:0:
320,224,167606,1,2,0:0:0:0:
320,224,167675,1,2,0:0:0:0:
320,224,167743,1,2,0:0:0:0:
320,224,167811,1,2,0:0:0:0:
256,288,167879,1,2,0:0:0:0:
256,288,167925,1,2,0:0:0:0:
256,288,167970,1,2,0:0:0:0:
256,288,168016,1,2,0:0:0:0:
320,192,168084,1,2,0:0:0:0:
320,160,168152,1,2,0:0:0:0:
320,160,168197,1,2,0:0:0:0:
320,160,168243,1,2,0:0:0:0:
320,160,168288,1,2,0:0:0:0:
288,224,168356,1,2,0:0:0:0:
288,224,168425,1,2,0:0:0:0:
288,224,168493,1,2,0:0:0:0:
224,288,168561,1,4,0:0:0:0:
288,160,168697,1,2,0:0:0:0:
288,160,168765,1,2,0:0:0:0:
288,160,168834,1,0,0:0:0:0:
288,160,168902,1,0,0:0:0:0:
288,160,168970,1,2,0:0:0:0:
288,160,169106,1,0,0:0:0:0:
288,160,169243,1,2,0:0:0:0:
288,160,169311,1,2,0:0:0:0:
288,160,169379,1,0,0:0:0:0:
288,160,169515,1,2,0:0:0:0:
224,288,169652,1,4,0:0:0:0:
288,256,169788,1,2,0:0:0:0:
288,256,169856,1,0,0:0:0:0:
288,256,169925,1,0,0:0:0:0:
288,256,169993,1,0,0:0:0:0:
288,256,170061,1,2,0:0:0:0:
288,256,170197,1,0,0:0:0:0:
288,256,170265,1,0,0:0:0:0:
288,256,170334,1,0,0:0:0:0:
288,256,170402,1,0,0:0:0:0:
288,256,170470,1,2,0:0:0:0:
288,256,170606,1,2,0:0:0:0:
224,128,170743,1,4,0:0:0:0:
320,320,170879,1,0,0:0:0:0:
320,320,170947,1,0,0:0:0:0:
320,320,171015,1,2,0:0:0:0:
320,320,171152,1,0,0:0:0:0:
320,320,171288,1,0,0:0:0:0:
288,320,171356,1,0,0:0:0:0:
288,320,171425,1,0,0:0:0:0:
288,320,171561,1,2,0:0:0:0:
288,320,171629,1,0,0:0:0:0:
288,192,171697,1,0,0:0:0:0:
224,128,171834,1,4,0:0:0:0:
288,256,171970,1,0,0:0:0:0:
288,256,172038,1,2,0:0:0:0:
288,256,172106,1,0,0:0:0:0:
288,256,172175,1,0,0:0:0:0:
288,256,172243,1,2,0:0:0:0:
288,256,172311,1,0,0:0:0:0:
288,256,172379,1,2,0:0:0:0:
352,160,172448,1,2,0:0:0:0:
320,320,172515,1,0,0:0:0:0:
320,320,172584,1,0,0:0:0:0:
320,320,172652,1,2,0:0:0:0:
320,320,172720,1,0,0:0:0:0:
320,320,172789,1,2,0:0:0:0:
288,160,172856,1,2,0:0:0:0:
224,128,172925,1,4,0:0:0:0:
256,224,173061,1,2,0:0:0:0:
256,224,173129,1,0,0:0:0:0:
256,224,173197,1,2,0:0:0:0:
256,224,173334,1,0,0:0:0:0:
256,224,173470,1,2,0:0:0:0:
128,192,173606,1,0,0:0:0:0:
128,192,173675,1,0,0:0:0:0:
128,192,173743,1,0,0:0:0:0:
128,192,173811,1,0,0:0:0:0:
128,192,173879,1,2,0:0:0:0:
224,128,174016,1,4,0:0:0:0:
288,320,174152,1,2,0:0:0:0:
288,320,174220,1,2,0:0:0:0:
288,320,174288,1,2,0:0:0:0:
288,320,174425,1,0,0:0:0:0:
288,320,174561,1,2,0:0:0:0:
288,320,174629,1,2,0:0:0:0:
288,320,174697,1,0,0:0:0:0:
288,320,174765,1,2,0:0:0:0:
320,320,174834,1,0,0:0:0:0:
320,320,174970,1,2,0:0:0:0:
224,128,175106,1,4,0:0:0:0:
288,320,175243,1,0,0:0:0:0:
288,320,175311,1,0,0:0:0:0:
288,320,175379,1,0,0:0:0:0:
288,320,175447,1,0,0:0:0:0:
288,320,175515,1,2,0:0:0:0:
288,320,175652,1,0,0:0:0:0:
288,320,175788,1,2,0:0:0:0:
288,320,175856,1,0,0:0:0:0:
288,320,175993,1,0,0:0:0:0:
288,320,176061,1,2,0:0:0:0:
224,128,176197,1,0,0:0:0:0:
160,224,176266,1,0,0:0:0:0:
224,288,176334,1,2,0:0:0:0:
224,288,176402,1,0,0:0:0:0:
224,288,176470,1,2,0:0:0:0:
224,288,176538,1,2,0:0:0:0:
224,224,176607,1,2,0:0:0:0:
224,288,176675,1,2,0:0:0:0:
224,288,176743,1,0,0:0:0:0:
224,224,176811,1,0,0:0:0:0:
224,288,176880,1,0,0:0:0:0:
224,288,176947,1,0,0:0:0:0:
192,256,177016,1,2,0:0:0:0:
192,256,177061,1,2,0:0:0:0:
192,256,177107,1,2,0:0:0:0:
192,256,177152,1,2,0:0:0:0:
192,256,177198,1,2,0:0:0:0:
192,256,177243,1,2,0:0:0:0:
192,256,177289,1,0,0:0:0:0:
320,288,177425,1,2,0:0:0:0:
288,288,177493,1,0,0:0:0:0:
288,288,177561,1,0,0:0:0:0:
288,288,177629,1,0,0:0:0:0:
288,288,177697,1,2,0:0:0:0:
288,288,177834,1,0,0:0:0:0:
288,288,177970,1,2,0:0:0:0:
352,224,178038,1,2,0:0:0:0:
288,288,178106,1,0,0:0:0:0:
288,288,178175,1,0,0:0:0:0:
288,288,178243,1,0,0:0:0:0:
224,128,178379,1,4,0:0:0:0:
256,256,178515,1,2,0:0:0:0:
288,288,178584,1,0,0:0:0:0:
256,288,178652,1,2,0:0:0:0:
288,288,178788,1,0,0:0:0:0:
288,288,178925,1,2,0:0:0:0:
288,288,179061,1,2,0:0:0:0:
288,288,179129,1,0,0:0:0:0:
288,288,179197,1,2,0:0:0:0:
288,288,179265,1,0,0:0:0:0:
288,288,179334,1,2,0:0:0:0:
224,128,179470,1,4,0:0:0:0:
192,224,179606,1,2,0:0:0:0:
192,224,179675,1,2,0:0:0:0:
192,224,179743,1,0,0:0:0:0:
192,224,179879,1,0,0:0:0:0:
192,224,180015,1,2,0:0:0:0:
192,224,180084,1,2,0:0:0:0:
192,224,180152,1,0,0:0:0:0:
192,224,180220,1,0,0:0:0:0:
192,224,180288,1,2,0:0:0:0:
192,224,180425,1,2,0:0:0:0:
224,128,180561,1,4,0:0:0:0:
224,224,180697,1,2,0:0:0:0:
224,256,180765,1,0,0:0:0:0:
224,256,180834,1,2,0:0:0:0:
192,224,180970,1,2,0:0:0:0:
256,256,181106,1,4,0:0:0:0:
288,288,181243,1,2,0:0:0:0:
256,256,181379,1,4,0:0:0:0:
288,288,181515,1,2,0:0:0:0:
224,128,181652,1,4,0:0:0:0:
320,320,181788,1,2,0:0:0:0:
320,320,181856,1,2,0:0:0:0:
320,320,181925,1,2,0:0:0:0:
160,160,182061,1,0,0:0:0:0:
160,160,182129,1,0,0:0:0:0:
160,160,182197,1,2,0:0:0:0:
224,192,182334,1,0,0:0:0:0:
224,192,182402,1,0,0:0:0:0:
224,192,182470,1,0,0:0:0:0:
192,192,182538,1,0,0:0:0:0:
192,192,182606,1,2,0:0:0:0:
160,96,182743,1,4,0:0:0:0:
256,256,182879,1,2,0:0:0:0:
256,256,182947,1,2,0:0:0:0:
256,256,183016,1,0,0:0:0:0:
256,256,183084,1,0,0:0:0:0:
256,256,183152,1,2,0:0:0:0:
256,256,183288,1,0,0:0:0:0:
256,256,183425,1,0,0:0:0:0:
256,256,183493,1,0,0:0:0:0:
256,256,183561,1,0,0:0:0:0:
256,256,183697,1,2,0:0:0:0:
160,96,183834,1,4,0:0:0:0:
256,192,183970,1,2,0:0:0:0:
192,192,184038,1,0,0:0:0:0:
192,192,184106,1,2,0:0:0:0:
192,192,184175,1,0,0:0:0:0:
192,192,184243,1,2,0:0:0:0:
192,192,184379,1,0,0:0:0:0:
192,192,184447,1,0,0:0:0:0:
192,192,184516,1,2,0:0:0:0:
192,192,184652,1,0,0:0:0:0:
192,192,184720,1,0,0:0:0:0:
192,192,184788,1,0,0:0:0:0:
384,320,184925,1,2,0:0:0:0:
384,320,185061,1,2,0:0:0:0:
384,320,185197,1,0,0:0:0:0:
384,320,185334,1,2,0:0:0:0:
384,320,185402,1,2,0:0:0:0:
384,320,185470,1,0,0:0:0:0:
384,320,185606,1,0,0:0:0:0:
384,320,185675,1,0,0:0:0:0:
384,320,185743,1,2,0:0:0:0:
160,160,185788,1,2,0:0:0:0:
160,160,185834,1,2,0:0:0:0:
160,160,185879,1,2,0:0:0:0:
160,160,185925,1,2,0:0:0:0:
160,160,185970,1,2,0:0:0:0:
160,160,186016,1,0,0:0:0:0:
288,160,186152,1,2,0:0:0:0:
288,160,186220,1,2,0:0:0:0:
288,160,186289,1,0,0:0:0:0:
288,160,186357,1,0,0:0:0:0:
288,160,186425,1,2,0:0:0:0:
288,160,186561,1,0,0:0:0:0:
288,160,186698,1,2,0:0:0:0:
288,160,186766,1,2,0:0:0:0:
288,160,186834,1,0,0:0:0:0:
288,160,186970,1,2,0:0:0:0:
224,288,187107,1,4,0:0:0:0:
288,256,187243,1,2,0:0:0:0:
288,256,187311,1,0,0:0:0:0:
288,256,187380,1,0,0:0:0:0:
288,256,187448,1,0,0:0:0:0:
288,256,187516,1,2,0:0:0:0:
288,256,187652,1,0,0:0:0:0:
288,256,187720,1,0,0:0:0:0:
288,256,187788,1,0,0:0:0:0:
288,256,187857,1,0,0:0:0:0:
288,256,187925,1,2,0:0:0:0:
288,256,188061,1,2,0:0:0:0:
224,128,188198,1,4,0:0:0:0:
320,320,188334,1,0,0:0:0:0:
320,320,188402,1,0,0:0:0:0:
320,320,188470,1,2,0:0:0:0:
320,320,188607,1,0,0:0:0:0:
320,320,188743,1,0,0:0:0:0:
288,320,188811,1,0,0:0:0:0:
288,320,188880,1,0,0:0:0:0:
288,320,189016,1,2,0:0:0:0:
288,320,189084,1,0,0:0:0:0:
288,192,189152,1,0,0:0:0:0:
224,128,189289,1,4,0:0:0:0:
288,256,189425,1,2,0:0:0:0:
288,256,189493,1,2,0:0:0:0:
288,256,189561,1,0,0:0:0:0:
288,256,189630,1,0,0:0:0:0:
288,256,189698,1,2,0:0:0:0:
288,256,189766,1,0,0:0:0:0:
288,256,189834,1,2,0:0:0:0:
352,160,189903,1,2,0:0:0:0:
320,320,189970,1,0,0:0:0:0:
320,320,190039,1,0,0:0:0:0:
320,320,190107,1,2,0:0:0:0:
320,320,190175,1,2,0:0:0:0:
320,320,190244,1,2,0:0:0:0:
224,160,190288,1,2,0:0:0:0:
224,160,190334,1,2,0:0:0:0:
224,128,190380,1,0,0:0:0:0:
256,224,190516,1,2,0:0:0:0:
256,224,190584,1,0,0:0:0:0:
256,224,190652,1,2,0:0:0:0:
256,224,190789,1,0,0:0:0:0:
256,224,190925,1,2,0:0:0:0:
128,192,191061,1,0,0:0:0:0:
128,192,191130,1,0,0:0:0:0:
128,192,191198,1,2,0:0:0:0:
128,192,191266,1,0,0:0:0:0:
128,192,191334,1,2,0:0:0:0:
224,128,191470,1,4,0:0:0:0:
288,320,191607,1,2,0:0:0:0:
288,320,191675,1,2,0:0:0:0:
288,320,191743,1,2,0:0:0:0:
288,320,191880,1,0,0:0:0:0:
288,320,192016,1,0,0:0:0:0:
288,320,192084,1,2,0:0:0:0:
288,320,192152,1,0,0:0:0:0:
288,320,192220,1,2,0:0:0:0:
320,320,192289,1,0,0:0:0:0:
320,320,192425,1,2,0:0:0:0:
224,128,192561,1,4,0:0:0:0:
288,320,192698,1,0,0:0:0:0:
288,320,192766,1,0,0:0:0:0:
288,320,192834,1,0,0:0:0:0:
288,320,192902,1,0,0:0:0:0:
288,320,192970,1,2,0:0:0:0:
288,320,193107,1,0,0:0:0:0:
288,320,193243,1,2,0:0:0:0:
288,320,193311,1,0,0:0:0:0:
288,320,193448,1,0,0:0:0:0:
288,320,193516,1,2,0:0:0:0:
224,128,193652,1,0,0:0:0:0:
160,224,193721,1,0,0:0:0:0:
224,288,193789,1,2,0:0:0:0:
224,288,193857,1,0,0:0:0:0:
224,288,193925,1,2,0:0:0:0:
224,288,193993,1,2,0:0:0:0:
224,224,194062,1,2,0:0:0:0:
224,288,194130,1,0,0:0:0:0:
224,288,194198,1,2,0:0:0:0:
224,224,194266,1,0,0:0:0:0:
224,288,194335,1,0,0:0:0:0:
224,288,194402,1,0,0:0:0:0:
192,256,194471,1,2,0:0:0:0:
192,256,194516,1,2,0:0:0:0:
192,256,194562,1,2,0:0:0:0:
192,256,194607,1,2,0:0:0:0:
192,256,194653,1,2,0:0:0:0:
192,256,194698,1,2,0:0:0:0:
192,256,194744,1,0,0:0:0:0:
320,288,194880,1,2,0:0:0:0:
288,288,194948,1,0,0:0:0:0:
288,288,195016,1,0,0:0:0:0:
288,288,195084,1,0,0:0:0:0:
288,288,195152,1,2,0:0:0:0:
288,288,195289,1,0,0:0:0:0:
288,288,195425,1,2,0:0:0:0:
352,224,195493,1,2,0:0:0:0:
288,288,195561,1,0,0:0:0:0:
288,288,195630,1,0,0:0:0:0:
288,288,195698,1,0,0:0:0:0:
224,128,195834,1,4,0:0:0:0:
256,256,195970,1,2,0:0:0:0:
288,288,196039,1,0,0:0:0:0:
256,288,196107,1,0,0:0:0:0:
288,288,196243,1,0,0:0:0:0:
288,288,196380,1,2,0:0:0:0:
288,288,196516,1,0,0:0:0:0:
288,288,196584,1,0,0:0:0:0:
288,288,196652,1,2,0:0:0:0:
288,288,196720,1,0,0:0:0:0:
288,288,196789,1,2,0:0:0:0:
224,128,196925,1,4,0:0:0:0:
192,224,197061,1,2,0:0:0:0:
192,224,197130,1,2,0:0:0:0:
192,224,197198,1,0,0:0:0:0:
192,224,197334,1,0,0:0:0:0:
192,224,197470,1,2,0:0:0:0:
192,224,197539,1,2,0:0:0:0:
192,224,197607,1,0,0:0:0:0:
192,224,197675,1,0,0:0:0:0:
192,224,197743,1,2,0:0:0:0:
192,224,197880,1,2,0:0:0:0:
224,128,198016,1,4,0:0:0:0:
224,224,198152,1,2,0:0:0:0:
224,256,198220,1,2,0:0:0:0:
224,256,198289,1,2,0:0:0:0:
192,224,198425,1,2,0:0:0:0:
256,256,198561,1,4,0:0:0:0:
288,288,198698,1,2,0:0:0:0:
256,256,198834,1,4,0:0:0:0:
288,288,198970,1,2,0:0:0:0:
224,128,199107,1,4,0:0:0:0:
320,320,199243,1,2,0:0:0:0:
320,320,199311,1,2,0:0:0:0:
320,320,199380,1,2,0:0:0:0:
256,192,199516,1,0,0:0:0:0:
256,192,199584,1,0,0:0:0:0:
256,192,199652,1,0,0:0:0:0:
224,192,199720,1,0,0:0:0:0:
224,192,199788,1,2,0:0:0:0:
224,192,199925,1,0,0:0:0:0:
224,192,199993,1,2,0:0:0:0:
224,192,200061,1,2,0:0:0:0:
128,128,200197,1,4,0:0:0:0:
288,224,200334,1,2,0:0:0:0:
288,224,200402,1,2,0:0:0:0:
288,224,200470,1,0,0:0:0:0:
288,224,200538,1,0,0:0:0:0:
288,224,200606,1,2,0:0:0:0:
288,224,200743,1,0,0:0:0:0:
288,224,200811,1,0,0:0:0:0:
288,224,200879,1,0,0:0:0:0:
288,224,201016,1,2,0:0:0:0:
288,224,201152,1,0,0:0:0:0:
128,128,201288,1,4,0:0:0:0:
320,256,201425,1,2,0:0:0:0:
320,256,201561,1,4,0:0:0:0:
320,256,201697,1,2,0:0:0:0:
320,256,201834,1,4,0:0:0:0:
320,256,202106,1,4,0:0:0:0:
320,256,202243,1,4,0:0:0:0:
128,128,202379,1,4,0:0:0:0:
256,256,202516,1,2,0:0:0:0:
256,256,202584,1,2,0:0:0:0:
256,256,202652,1,2,0:0:0:0:
256,256,202720,1,2,0:0:0:0:
256,256,202788,1,2,0:0:0:0:
256,256,202856,1,2,0:0:0:0:
256,224,202925,1,2,0:0:0:0:
256,224,202993,1,2,0:0:0:0:
256,224,203061,1,2,0:0:0:0:
256,224,203129,1,2,0:0:0:0:
256,224,203197,1,2,0:0:0:0:
256,224,203266,1,2,0:0:0:0:
256,224,203334,1,2,0:0:0:0:
256,224,203402,1,2,0:0:0:0:
256,224,203470,1,0,0:0:0:0:
320,288,203879,1,2,0:0:0:0:
320,288,204561,1,0,0:0:0:0:
352,224,204970,1,2,0:0:0:0:
224,192,205379,1,2,0:0:0:0:
224,224,205652,1,0,0:0:0:0:
320,192,206061,1,2,0:0:0:0:
192,192,206743,1,2,0:0:0:0:
320,288,207152,1,0,0:0:0:0:
320,288,207561,1,2,0:0:0:0:
352,320,207834,1,0,0:0:0:0:
320,320,208243,1,0,0:0:0:0:
352,320,208379,1,2,0:0:0:0:
320,320,208652,1,0,0:0:0:0:
320,288,208925,1,2,0:0:0:0:
320,288,209197,1,0,0:0:0:0:
320,320,209470,1,2,0:0:0:0:
320,320,209743,1,0,0:0:0:0:
256,192,210016,1,2,0:0:0:0:
256,192,210288,1,0,0:0:0:0:
256,192,210561,1,0,0:0:0:0:
256,192,210834,1,2,0:0:0:0:
256,256,211106,1,2,0:0:0:0:
256,320,211516,1,2,0:0:0:0:
256,352,211925,1,0,0:0:0:0:
256,352,212197,1,2,0:0:0:0:
256,352,212606,1,0,0:0:0:0:
256,288,213288,1,2,0:0:0:0:
256,320,213697,1,0,0:0:0:0:
224,192,214106,1,0,0:0:0:0:
224,224,214379,1,2,0:0:0:0:
320,192,214788,1,2,0:0:0:0:
288,224,215470,1,2,0:0:0:0:
288,256,215879,1,0,0:0:0:0:
320,256,216288,1,0,0:0:0:0:
320,320,216561,1,2,0:0:0:0:
320,320,217106,1,0,0:0:0:0:
320,320,217379,1,0,0:0:0:0:
320,320,217652,1,2,0:0:0:0:
320,192,218061,1,2,0:0:0:0:
224,224,218811,1,0,0:0:0:0:
288,224,219152,1,2,0:0:0:0:
320,288,219834,1,0,0:0:0:0:
320,288,220311,1,2,0:0:0:0:
320,288,220925,1,2,0:0:0:0:
352,352,222016,1,2,0:0:0:0:
352,352,222425,1,0,0:0:0:0:
96,160,222697,1,0,0:0:0:0:
96,160,222834,1,0,0:0:0:0:
96,160,223106,1,2,0:0:0:0:
160,224,223516,1,0,0:0:0:0:
160,192,223652,1,2,0:0:0:0:
128,160,223925,1,0,0:0:0:0:
128,160,224197,1,2,0:0:0:0:
288,256,225288,1,2,0:0:0:0:
128,256,226379,1,0,0:0:0:0:
96,256,227470,1,2,0:0:0:0:
96,288,228561,1,2,0:0:0:0:
224,224,229652,1,2,0:0:0:0:
224,192,229925,1,2,0:0:0:0:
224,192,230197,1,2,0:0:0:0:
192,192,230470,1,2,0:0:0:0:
192,192,230743,1,2,0:0:0:0:
192,192,231016,1,2,0:0:0:0:
192,160,231288,1,2,0:0:0:0:
192,160,231561,1,2,0:0:0:0:
192,160,231834,1,2,0:0:0:0:
320,288,232243,1,2,0:0:0:0:
288,256,232652,1,2,0:0:0:0:
288,288,232925,1,2,0:0:0:0:
288,288,233197,1,2,0:0:0:0:
288,288,233470,1,2,0:0:0:0:
288,288,233743,1,2,0:0:0:0:
288,288,234016,1,2,0:0:0:0:
288,288,234288,1,2,0:0:0:0:
288,320,234561,1,2,0:0:0:0:
288,320,234834,1,2,0:0:0:0:
288,320,235106,1,2,0:0:0:0:
288,320,235379,1,2,0:0:0:0:
288,320,235652,1,2,0:0:0:0:
288,320,235925,1,2,0:0:0:0:
288,320,236197,1,2,0:0:0:0:
288,320,236470,1,2,0:0:0:0:
288,320,236743,1,2,0:0:0:0:
288,320,237016,1,2,0:0:0:0:
256,288,237152,1,0,0:0:0:0:
224,224,237288,1,0,0:0:0:0:
224,224,237425,1,2,0:0:0:0:
224,224,237561,1,0,0:0:0:0:
224,224,237697,1,0,0:0:0:0:
224,224,237834,1,2,0:0:0:0:
256,224,237902,1,2,0:0:0:0:
256,224,237970,1,2,0:0:0:0:
256,224,238038,1,2,0:0:0:0:
256,224,238106,1,2,0:0:0:0:
256,224,238175,1,2,0:0:0:0:
256,224,238243,1,2,0:0:0:0:
256,224,238311,1,0,0:0:0:0:
320,160,238379,1,2,0:0:0:0:
320,128,238425,1,2,0:0:0:0:
320,128,238470,1,2,0:0:0:0:
320,128,238516,1,2,0:0:0:0:
320,128,238561,1,2,0:0:0:0:
320,128,238606,1,2,0:0:0:0:
320,128,238652,1,0,0:0:0:0:
320,128,238697,1,0,0:0:0:0:
320,128,238743,1,0,0:0:0:0:
320,128,238788,1,0,0:0:0:0:
320,128,238834,1,0,0:0:0:0:
320,128,238879,1,0,0:0:0:0:
320,128,238925,1,2,0:0:0:0:
320,128,238970,1,2,0:0:0:0:
320,128,239016,1,2,0:0:0:0:
320,128,239061,1,2,0:0:0:0:
320,128,239106,1,2,0:0:0:0:
320,160,239152,1,2,0:0:0:0:
320,160,239197,1,0,0:0:0:0:
256,224,239334,1,0,0:0:0:0:
128,160,239402,1,0,0:0:0:0:
256,192,239470,1,2,0:0:0:0:
192,160,239606,1,0,0:0:0:0:
128,160,239675,1,0,0:0:0:0:
128,160,239743,1,2,0:0:0:0:
128,160,239879,1,0,0:0:0:0:
128,160,239947,1,0,0:0:0:0:
160,160,240016,1,2,0:0:0:0:
160,160,240152,1,0,0:0:0:0:
128,160,240220,1,0,0:0:0:0:
160,160,240288,1,2,0:0:0:0:
128,160,240425,1,0,0:0:0:0:
224,288,240561,1,4,0:0:0:0:
288,160,240697,1,2,0:0:0:0:
288,160,240765,1,2,0:0:0:0:
288,160,240834,1,0,0:0:0:0:
288,160,240902,1,0,0:0:0:0:
288,160,240970,1,2,0:0:0:0:
256,192,241038,1,2,0:0:0:0:
288,160,241106,1,0,0:0:0:0:
288,160,241243,1,2,0:0:0:0:
288,160,241311,1,2,0:0:0:0:
288,160,241379,1,0,0:0:0:0:
256,224,241447,1,0,0:0:0:0:
288,160,241515,1,2,0:0:0:0:
224,288,241652,1,4,0:0:0:0:
288,256,241788,1,2,0:0:0:0:
288,256,241856,1,0,0:0:0:0:
288,256,241925,1,0,0:0:0:0:
288,256,241993,1,0,0:0:0:0:
288,256,242061,1,2,0:0:0:0:
288,128,242129,1,2,0:0:0:0:
288,256,242197,1,0,0:0:0:0:
288,256,242265,1,0,0:0:0:0:
288,256,242334,1,2,0:0:0:0:
288,256,242402,1,0,0:0:0:0:
288,256,242470,1,2,0:0:0:0:
288,256,242606,1,2,0:0:0:0:
224,128,242743,1,4,0:0:0:0:
320,320,242879,1,0,0:0:0:0:
320,320,242947,1,0,0:0:0:0:
320,320,243015,1,2,0:0:0:0:
256,192,243084,1,2,0:0:0:0:
320,320,243152,1,0,0:0:0:0:
256,224,243220,1,2,0:0:0:0:
320,320,243288,1,0,0:0:0:0:
288,320,243356,1,0,0:0:0:0:
288,320,243425,1,2,0:0:0:0:
288,320,243561,1,2,0:0:0:0:
288,320,243629,1,2,0:0:0:0:
288,192,243697,1,0,0:0:0:0:
224,128,243834,1,4,0:0:0:0:
288,256,243970,1,2,0:0:0:0:
288,256,244038,1,0,0:0:0:0:
288,256,244106,1,0,0:0:0:0:
288,256,244175,1,0,0:0:0:0:
288,256,244243,1,2,0:0:0:0:
288,256,244311,1,0,0:0:0:0:
288,256,244379,1,2,0:0:0:0:
352,160,244448,1,2,0:0:0:0:
320,320,244515,1,0,0:0:0:0:
320,320,244584,1,0,0:0:0:0:
320,320,244652,1,2,0:0:0:0:
320,320,244720,1,0,0:0:0:0:
320,320,244789,1,2,0:0:0:0:
224,128,244925,1,4,0:0:0:0:
256,224,245061,1,2,0:0:0:0:
256,224,245129,1,0,0:0:0:0:
256,224,245197,1,2,0:0:0:0:
256,224,245334,1,0,0:0:0:0:
288,160,245402,1,0,0:0:0:0:
256,224,245470,1,2,0:0:0:0:
160,192,245538,1,0,0:0:0:0:
128,192,245606,1,2,0:0:0:0:
128,192,245675,1,2,0:0:0:0:
128,192,245743,1,0,0:0:0:0:
128,192,245811,1,0,0:0:0:0:
128,192,245879,1,2,0:0:0:0:
224,128,246015,1,4,0:0:0:0:
288,320,246152,1,2,0:0:0:0:
288,320,246220,1,2,0:0:0:0:
160,160,246288,1,0,0:0:0:0:
160,192,246356,1,2,0:0:0:0:
288,320,246425,1,0,0:0:0:0:
192,128,246493,1,0,0:0:0:0:
288,320,246561,1,2,0:0:0:0:
288,320,246629,1,2,0:0:0:0:
288,320,246697,1,0,0:0:0:0:
288,320,246765,1,2,0:0:0:0:
320,320,246834,1,0,0:0:0:0:
320,320,246970,1,2,0:0:0:0:
224,128,247106,1,4,0:0:0:0:
288,320,247243,1,0,0:0:0:0:
288,320,247311,1,0,0:0:0:0:
288,320,247379,1,0,0:0:0:0:
288,320,247447,1,0,0:0:0:0:
288,320,247515,1,2,0:0:0:0:
288,320,247652,1,0,0:0:0:0:
256,256,247720,1,0,0:0:0:0:
288,320,247788,1,2,0:0:0:0:
288,320,247856,1,0,0:0:0:0:
288,320,247993,1,0,0:0:0:0:
288,320,248061,1,2,0:0:0:0:
224,128,248197,1,0,0:0:0:0:
160,224,248266,1,0,0:0:0:0:
224,288,248334,1,2,0:0:0:0:
224,288,248402,1,2,0:0:0:0:
224,288,248470,1,0,0:0:0:0:
224,288,248516,1,0,0:0:0:0:
224,192,248561,1,0,0:0:0:0:
224,192,248606,1,2,0:0:0:0:
256,128,248675,1,0,0:0:0:0:
192,160,248743,1,2,0:0:0:0:
192,160,248788,1,2,0:0:0:0:
192,160,248834,1,2,0:0:0:0:
192,160,248879,1,0,0:0:0:0:
192,160,248947,1,0,0:0:0:0:
192,192,249016,1,2,0:0:0:0:
160,160,249084,1,2,0:0:0:0:
160,160,249152,1,2,0:0:0:0:
160,160,249197,1,2,0:0:0:0:
160,160,249243,1,2,0:0:0:0:
160,160,249288,1,0,0:0:0:0:
320,288,249425,1,2,0:0:0:0:
288,288,249493,1,2,0:0:0:0:
288,288,249561,1,0,0:0:0:0:
288,288,249629,1,0,0:0:0:0:
288,288,249697,1,2,0:0:0:0:
224,192,249766,1,0,0:0:0:0:
288,288,249834,1,2,0:0:0:0:
128,160,249902,1,2,0:0:0:0:
288,288,249970,1,2,0:0:0:0:
352,224,250038,1,2,0:0:0:0:
288,288,250106,1,0,0:0:0:0:
288,288,250175,1,0,0:0:0:0:
288,288,250243,1,2,0:0:0:0:
224,128,250379,1,4,0:0:0:0:
256,256,250515,1,2,0:0:0:0:
288,288,250584,1,0,0:0:0:0:
256,288,250652,1,0,0:0:0:0:
96,160,250720,1,0,0:0:0:0:
288,288,250788,1,2,0:0:0:0:
288,288,250925,1,2,0:0:0:0:
128,128,250993,1,0,0:0:0:0:
288,288,251061,1,0,0:0:0:0:
288,288,251129,1,0,0:0:0:0:
288,288,251197,1,2,0:0:0:0:
288,288,251265,1,0,0:0:0:0:
288,288,251334,1,2,0:0:0:0:
224,128,251470,1,4,0:0:0:0:
192,224,251606,1,2,0:0:0:0:
192,224,251675,1,2,0:0:0:0:
192,224,251743,1,0,0:0:0:0:
192,160,251811,1,0,0:0:0:0:
192,224,251879,1,0,0:0:0:0:
192,160,251947,1,2,0:0:0:0:
192,224,252015,1,2,0:0:0:0:
192,224,252084,1,2,0:0:0:0:
192,224,252152,1,0,0:0:0:0:
192,224,252220,1,0,0:0:0:0:
192,224,252288,1,2,0:0:0:0:
192,160,252356,1,0,0:0:0:0:
192,224,252425,1,2,0:0:0:0:
224,128,252561,1,4,0:0:0:0:
224,224,252697,1,2,0:0:0:0:
224,256,252765,1,2,0:0:0:0:
224,256,252834,1,2,0:0:0:0:
288,192,252902,1,0,0:0:0:0:
192,224,252970,1,2,0:0:0:0:
256,256,253106,1,4,0:0:0:0:
288,288,253243,1,2,0:0:0:0:
256,256,253379,1,4,0:0:0:0:
288,288,253515,1,2,0:0:0:0:
224,128,253652,1,4,0:0:0:0:
320,320,253788,1,2,0:0:0:0:
320,320,253856,1,2,0:0:0:0:
320,320,253925,1,2,0:0:0:0:
320,288,253993,1,0,0:0:0:0:
320,320,254061,1,0,0:0:0:0:
320,320,254129,1,0,0:0:0:0:
320,320,254197,1,0,0:0:0:0:
320,320,254334,1,2,0:0:0:0:
224,160,254471,1,0,0:0:0:0:
224,160,254539,1,0,0:0:0:0:
224,160,254607,1,2,0:0:0:0:
224,160,254675,1,0,0:0:0:0:
224,160,254743,1,2,0:0:0:0:
224,160,254811,1,2,0:0:0:0:
224,160,254880,1,0,0:0:0:0:
224,160,255016,1,2,0:0:0:0:
224,160,255152,1,0,0:0:0:0:
224,160,255221,1,0,0:0:0:0:
224,160,255289,1,2,0:0:0:0:
224,160,255425,1,0,0:0:0:0:
224,160,255493,1,0,0:0:0:0:
224,160,255561,1,0,0:0:0:0:
224,160,255629,1,0,0:0:0:0:
224,160,255697,1,2,0:0:0:0:
224,160,255834,1,4,0:0:0:0:
192,160,255970,1,2,0:0:0:0:
192,160,256038,1,2,0:0:0:0:
192,160,256106,1,2,0:0:0:0:
192,160,256175,1,2,0:0:0:0:
192,160,256243,1,0,0:0:0:0:
192,160,256311,1,0,0:0:0:0:
192,160,256379,1,0,0:0:0:0:
192,160,256447,1,0,0:0:0:0:
192,160,256516,1,2,0:0:0:0:
192,160,256584,1,0,0:0:0:0:
192,160,256652,1,2,0:0:0:0:
192,160,256720,1,2,0:0:0:0:
192,160,256788,1,2,0:0:0:0:
160,128,256834,1,2,0:0:0:0:
160,128,256879,1,2,0:0:0:0:
160,128,256925,1,0,0:0:0:0:
288,96,256993,1,2,0:0:0:0:
256,128,257061,1,0,0:0:0:0:
256,128,257106,1,0,0:0:0:0:
256,128,257152,1,0,0:0:0:0:
256,128,257197,1,2,0:0:0:0:
320,64,257266,1,0,0:0:0:0:
320,64,257334,1,0,0:0:0:0:
320,64,257402,1,2,0:0:0:0:
320,64,257470,1,2,0:0:0:0:
320,64,257516,1,2,0:0:0:0:
128,128,257561,1,2,0:0:0:0:
128,128,257606,1,0,0:0:0:0:
288,128,257675,1,0,0:0:0:0:
320,160,257743,1,2,0:0:0:0:
320,160,257788,1,2,0:0:0:0:
320,160,257834,1,2,0:0:0:0:
320,160,257879,1,0,0:0:0:0:
352,128,257947,1,0,0:0:0:0:
352,128,258016,1,2,0:0:0:0:
192,192,258152,1,0,0:0:0:0:
192,192,258220,1,0,0:0:0:0:
192,192,258288,1,2,0:0:0:0:
192,192,258425,1,0,0:0:0:0:
192,192,258493,1,0,0:0:0:0:
192,192,258561,1,0,0:0:0:0:
192,192,258697,1,2,0:0:0:0:
192,192,258766,1,2,0:0:0:0:
192,192,258834,1,0,0:0:0:0:
192,192,258902,1,0,0:0:0:0:
192,192,258970,1,2,0:0:0:0:
256,224,259106,1,4,0:0:0:0:
256,256,259243,1,0,0:0:0:0:
256,256,259311,1,0,0:0:0:0:
256,256,259379,1,2,0:0:0:0:
256,256,259447,1,2,0:0:0:0:
256,256,259516,1,0,0:0:0:0:
256,256,259652,1,2,0:0:0:0:
256,256,259788,1,0,0:0:0:0:
256,256,259856,1,0,0:0:0:0:
256,256,259925,1,2,0:0:0:0:
256,256,259993,1,2,0:0:0:0:
256,256,260061,1,2,0:0:0:0:
256,224,260197,1,4,0:0:0:0:
288,224,260334,1,2,0:0:0:0:
256,224,260402,1,2,0:0:0:0:
256,224,260470,1,2,0:0:0:0:
256,224,260606,1,0,0:0:0:0:
256,224,260675,1,2,0:0:0:0:
256,224,260743,1,0,0:0:0:0:
256,224,260879,1,0,0:0:0:0:
256,224,260947,1,0,0:0:0:0:
256,224,261016,1,2,0:0:0:0:
256,224,261084,1,0,0:0:0:0:
256,224,261152,1,2,0:0:0:0:
256,224,261288,1,4,0:0:0:0:
288,288,261425,1,2,0:0:0:0:
288,288,261493,1,2,0:0:0:0:
288,288,261561,1,0,0:0:0:0:
288,288,261629,1,0,0:0:0:0:
288,288,261697,1,2,0:0:0:0:
288,288,261766,1,0,0:0:0:0:
288,288,261834,1,2,0:0:0:0:
288,288,261902,1,2,0:0:0:0:
288,288,261970,1,2,0:0:0:0:
288,288,262038,1,2,0:0:0:0:
288,288,262106,1,2,0:0:0:0:
320,96,262152,1,2,0:0:0:0:
288,160,262197,1,2,0:0:0:0:
288,160,262243,1,2,0:0:0:0:
288,160,262288,1,2,0:0:0:0:
288,160,262334,1,2,0:0:0:0:
256,224,262379,1,0,0:0:0:0:
160,128,262516,1,0,0:0:0:0:
160,128,262652,1,2,0:0:0:0:
160,128,262720,1,2,0:0:0:0:
160,128,262788,1,0,0:0:0:0:
160,128,262856,1,0,0:0:0:0:
160,128,262925,1,2,0:0:0:0:
160,128,263061,1,0,0:0:0:0:
160,128,263129,1,0,0:0:0:0:
160,128,263197,1,0,0:0:0:0:
160,128,263266,1,0,0:0:0:0:
160,128,263334,1,2,0:0:0:0:
256,224,263470,1,4,0:0:0:0:
256,256,263606,1,2,0:0:0:0:
256,256,263675,1,2,0:0:0:0:
256,256,263743,1,2,0:0:0:0:
256,256,263879,1,0,0:0:0:0:
256,256,263947,1,0,0:0:0:0:
256,256,264016,1,2,0:0:0:0:
256,224,264084,1,0,0:0:0:0:
256,224,264152,1,0,0:0:0:0:
224,224,264220,1,0,0:0:0:0:
224,224,264288,1,2,0:0:0:0:
224,224,264356,1,2,0:0:0:0:
224,224,264425,1,0,0:0:0:0:
256,224,264561,1,4,0:0:0:0:
288,256,264697,1,0,0:0:0:0:
288,256,264766,1,0,0:0:0:0:
288,256,264834,1,0,0:0:0:0:
288,256,264970,1,2,0:0:0:0:
288,256,265106,1,0,0:0:0:0:
288,256,265175,1,0,0:0:0:0:
288,256,265243,1,2,0:0:0:0:
288,256,265311,1,2,0:0:0:0:
288,256,265379,1,0,0:0:0:0:
256,256,265447,1,0,0:0:0:0:
256,256,265516,1,2,0:0:0:0:
256,256,265584,1,0,0:0:0:0:
256,256,265652,1,2,0:0:0:0:
128,160,265697,1,2,0:0:0:0:
128,160,265743,1,2,0:0:0:0:
256,256,265788,1,0,0:0:0:0:
256,256,265856,1,0,0:0:0:0:
256,256,265925,1,0,0:0:0:0:
256,256,265993,1,2,0:0:0:0:
256,256,266061,1,0,0:0:0:0:
192,160,266106,1,0,0:0:0:0:
192,160,266152,1,0,0:0:0:0:
256,256,266197,1,2,0:0:0:0:
256,256,266266,1,2,0:0:0:0:
192,160,266334,1,0,0:0:0:0:
192,160,266402,1,0,0:0:0:0:
256,160,266470,1,0,0:0:0:0:
256,160,266516,1,0,0:0:0:0:
256,160,266561,1,0,0:0:0:0:
256,160,266606,1,0,0:0:0:0:
256,160,266652,1,0,0:0:0:0:
256,160,266697,1,0,0:0:0:0:
256,160,266743,1,2,0:0:0:0:
192,224,266879,1,2,0:0:0:0:
256,192,267016,1,4,0:0:0:0:
256,192,267152,1,2,0:0:0:0:
256,192,267220,1,2,0:0:0:0:
256,192,267288,1,0,0:0:0:0:
256,192,267356,1,0,0:0:0:0:
256,192,267425,1,0,0:0:0:0:
256,192,267561,1,2,0:0:0:0:
256,192,267629,1,2,0:0:0:0:
256,224,267697,1,0,0:0:0:0:
256,224,267834,1,4,0:0:0:0:
256,160,267970,1,2,0:0:0:0:
256,160,268038,1,0,0:0:0:0:
256,160,268106,1,2,0:0:0:0:
256,160,268175,1,2,0:0:0:0:
256,160,268243,1,0,0:0:0:0:
256,160,268311,1,0,0:0:0:0:
256,160,268379,1,2,0:0:0:0:
256,160,268516,1,2,0:0:0:0:
256,160,268652,1,4,0:0:0:0:
256,160,268788,1,4,0:0:0:0:
256,224,268925,1,4,0:0:0:0:
224,192,269061,1,2,0:0:0:0:
224,192,269129,1,0,0:0:0:0:
224,192,269197,1,0,0:0:0:0:
224,192,269266,1,0,0:0:0:0:
224,192,269334,1,2,0:0:0:0:
224,192,269470,1,0,0:0:0:0:
224,192,269538,1,0,0:0:0:0:
224,192,269606,1,2,0:0:0:0:
224,192,269675,1,0,0:0:0:0:
224,192,269743,1,2,0:0:0:0:
224,192,269811,1,2,0:0:0:0:
224,192,269879,1,0,0:0:0:0:
256,224,270016,1,4,0:0:0:0:
288,256,270152,1,4,0:0:0:0:
288,256,270288,1,4,0:0:0:0:
288,256,270425,1,4,0:0:0:0:
288,256,270561,1,4,0:0:0:0:
288,256,270697,1,4,0:0:0:0:
288,256,270834,1,4,0:0:0:0:
192,160,270970,1,0,0:0:0:0:
192,160,271016,1,0,0:0:0:0:
192,160,271061,1,0,0:0:0:0:
192,160,271106,1,0,0:0:0:0:
320,288,271243,1,2,0:0:0:0:
288,288,271379,1,4,0:0:0:0:
288,288,271516,1,2,0:0:0:0:
288,288,271584,1,0,0:0:0:0:
288,288,271652,1,2,0:0:0:0:
288,288,271720,1,2,0:0:0:0:
288,288,271788,1,0,0:0:0:0:
288,288,271925,1,0,0:0:0:0:
288,288,271993,1,0,0:0:0:0:
288,288,272061,1,2,0:0:0:0:
256,224,272197,1,4,0:0:0:0:
320,288,272334,1,0,0:0:0:0:
288,288,272402,1,0,0:0:0:0:
288,288,272470,1,2,0:0:0:0:
288,288,272606,1,0,0:0:0:0:
288,288,272675,1,0,0:0:0:0:
288,288,272743,1,0,0:0:0:0:
288,288,272811,1,0,0:0:0:0:
288,288,272879,1,2,0:0:0:0:
288,256,272947,1,2,0:0:0:0:
288,256,273016,1,0,0:0:0:0:
288,256,273084,1,0,0:0:0:0:
288,256,273152,1,2,0:0:0:0:
288,256,273220,1,0,0:0:0:0:
288,256,273288,1,2,0:0:0:0:
128,160,273334,1,2,0:0:0:0:
128,160,273379,1,2,0:0:0:0:
288,256,273425,1,0,0:0:0:0:
288,256,273493,1,0,0:0:0:0:
288,256,273561,1,2,0:0:0:0:
128,128,273606,1,2,0:0:0:0:
128,128,273652,1,2,0:0:0:0:
288,256,273697,1,0,0:0:0:0:
288,256,273766,1,2,0:0:0:0:
288,256,273834,1,0,0:0:0:0:
288,256,273902,1,2,0:0:0:0:
288,256,273970,1,0,0:0:0:0:
288,256,274038,1,0,0:0:0:0:
288,256,274106,1,2,0:0:0:0:
288,256,274175,1,0,0:0:0:0:
288,256,274243,1,2,0:0:0:0:
288,256,274311,1,2,0:0:0:0:
288,288,274379,1,0,0:0:0:0:
288,288,274447,1,2,0:0:0:0:
192,224,274516,1,2,0:0:0:0:
192,224,274584,1,0,0:0:0:0:
192,224,274652,1,2,0:0:0:0:
192,224,274720,1,2,0:0:0:0:
192,224,274788,1,0,0:0:0:0:
192,224,274856,1,0,0:0:0:0:
192,224,274925,1,2,0:0:0:0:
192,224,274993,1,0,0:0:0:0:
192,224,275061,1,2,0:0:0:0:
192,224,275129,1,2,0:0:0:0:
192,224,275197,1,0,0:0:0:0:
192,160,275243,1,0,0:0:0:0:
192,160,275288,1,0,0:0:0:0:
192,160,275334,1,0,0:0:0:0:
192,160,275379,1,0,0:0:0:0:
192,160,275425,1,0,0:0:0:0:
256,224,275470,1,2,0:0:0:0:
352,256,275606,1,2,0:0:0:0:
384,288,275743,1,4,0:0:0:0:
192,288,275879,1,2,0:0:0:0:
192,288,275947,1,0,0:0:0:0:
192,288,276016,1,2,0:0:0:0:
192,288,276084,1,2,0:0:0:0:
192,288,276152,1,0,0:0:0:0:
192,288,276288,1,0,0:0:0:0:
192,288,276356,1,0,0:0:0:0:
192,288,276425,1,0,0:0:0:0:
288,128,276561,1,6,0:0:0:0:
320,288,276697,1,0,0:0:0:0:
320,288,276766,1,0,0:0:0:0:
320,288,276834,1,2,0:0:0:0:
320,288,276970,1,2,0:0:0:0:
288,288,277038,1,0,0:0:0:0:
288,288,277106,1,0,0:0:0:0:
288,288,277175,1,0,0:0:0:0:
288,288,277243,1,2,0:0:0:0:
288,288,277379,1,0,0:0:0:0:
288,288,277447,1,0,0:0:0:0:
288,288,277516,1,0,0:0:0:0:
128,160,277652,1,6,0:0:0:0:
320,256,277788,1,0,0:0:0:0:
320,256,277856,1,0,0:0:0:0:
320,256,277925,1,2,0:0:0:0:
320,256,277993,1,0,0:0:0:0:
320,256,278061,1,0,0:0:0:0:
320,256,278129,1,0,0:0:0:0:
320,256,278197,1,2,0:0:0:0:
320,256,278334,1,2,0:0:0:0:
320,256,278402,1,2,0:0:0:0:
320,256,278470,1,0,0:0:0:0:
320,256,278538,1,0,0:0:0:0:
320,256,278606,1,2,0:0:0:0:
128,64,278743,1,6,0:0:0:0:
224,192,278879,1,0,0:0:0:0:
256,192,278947,1,0,0:0:0:0:
256,192,279016,1,0,0:0:0:0:
256,192,279152,1,2,0:0:0:0:
256,192,279220,1,2,0:0:0:0:
256,192,279288,1,0,0:0:0:0:
256,192,279425,1,0,0:0:0:0:
192,224,279561,1,2,0:0:0:0:
192,224,279697,1,2,0:0:0:0:
160,160,279834,1,6,0:0:0:0:
288,288,279970,1,0,0:0:0:0:
288,288,280038,1,0,0:0:0:0:
288,288,280106,1,0,0:0:0:0:
288,288,280175,1,0,0:0:0:0:
288,288,280243,1,2,0:0:0:0:
288,288,280379,1,0,0:0:0:0:
288,288,280447,1,0,0:0:0:0:
288,288,280516,1,2,0:0:0:0:
288,288,280584,1,2,0:0:0:0:
288,288,280652,1,0,0:0:0:0:
288,288,280788,1,0,0:0:0:0:
224,192,280925,1,6,0:0:0:0:
320,256,281061,1,0,0:0:0:0:
320,256,281129,1,0,0:0:0:0:
320,256,281197,1,0,0:0:0:0:
320,256,281334,1,2,0:0:0:0:
320,256,281402,1,2,0:0:0:0:
320,256,281470,1,2,0:0:0:0:
320,256,281538,1,0,0:0:0:0:
320,256,281606,1,2,0:0:0:0:
320,256,281743,1,0,0:0:0:0:
320,256,281811,1,0,0:0:0:0:
320,256,281879,1,0,0:0:0:0:
224,192,282016,1,6,0:0:0:0:
320,352,282152,1,0,0:0:0:0:
320,352,282220,1,0,0:0:0:0:
320,352,282288,1,2,0:0:0:0:
320,352,282356,1,0,0:0:0:0:
320,352,282425,1,2,0:0:0:0:
320,352,282493,1,2,0:0:0:0:
320,320,282561,1,0,0:0:0:0:
320,320,282629,1,0,0:0:0:0:
320,320,282697,1,2,0:0:0:0:
320,320,282766,1,0,0:0:0:0:
320,320,282834,1,0,0:0:0:0:
288,320,282902,1,0,0:0:0:0:
288,320,282970,1,2,0:0:0:0:
288,320,283038,1,0,0:0:0:0:
288,320,283106,1,2,0:0:0:0:
288,320,283175,1,2,0:0:0:0:
288,320,283243,1,0,0:0:0:0:
288,320,283311,1,2,0:0:0:0:
288,320,283379,1,2,0:0:0:0:
320,320,283447,1,0,0:0:0:0:
320,320,283516,1,0,0:0:0:0:
320,320,283584,1,2,0:0:0:0:
320,320,283652,1,0,0:0:0:0:
320,320,283720,1,2,0:0:0:0:
320,320,283788,1,2,0:0:0:0:
320,320,283856,1,2,0:0:0:0:
320,320,283925,1,0,0:0:0:0:
192,256,283970,1,0,0:0:0:0:
192,256,284016,1,0,0:0:0:0:
192,256,284061,1,0,0:0:0:0:
224,256,284106,1,0,0:0:0:0:
224,256,284152,1,0,0:0:0:0:
224,192,284197,1,2,0:0:0:0:
256,224,284334,1,0,0:0:0:0:
192,192,284470,1,6,0:0:0:0:
288,288,284606,1,0,0:0:0:0:
288,288,284675,1,0,0:0:0:0:
288,288,284743,1,0,0:0:0:0:
288,288,284879,1,2,0:0:0:0:
288,288,284947,1,2,0:0:0:0:
288,288,285016,1,2,0:0:0:0:
288,288,285152,1,0,0:0:0:0:
256,256,285288,1,6,0:0:0:0:
288,288,285425,1,0,0:0:0:0:
288,288,285493,1,0,0:0:0:0:
288,288,285561,1,0,0:0:0:0:
288,288,285629,1,0,0:0:0:0:
288,288,285697,1,2,0:0:0:0:
288,288,285766,1,2,0:0:0:0:
288,288,285834,1,0,0:0:0:0:
288,288,285902,1,0,0:0:0:0:
288,288,285970,1,0,0:0:0:0:
288,288,286038,1,0,0:0:0:0:
288,288,286106,1,2,0:0:0:0:
288,288,286243,1,0,0:0:0:0:
256,256,286379,1,6,0:0:0:0:
320,288,286516,1,0,0:0:0:0:
320,288,286584,1,0,0:0:0:0:
320,288,286652,1,0,0:0:0:0:
320,288,286788,1,2,0:0:0:0:
320,288,286856,1,2,0:0:0:0:
320,288,286925,1,0,0:0:0:0:
320,288,286993,1,0,0:0:0:0:
288,288,287061,1,2,0:0:0:0:
288,288,287129,1,0,0:0:0:0:
288,288,287197,1,2,0:0:0:0:
288,288,287266,1,2,0:0:0:0:
288,288,287334,1,0,0:0:0:0:
256,288,287470,1,6,0:0:0:0:
288,288,287606,1,0,0:0:0:0:
288,288,287743,1,0,0:0:0:0:
288,288,287879,1,0,0:0:0:0:
288,288,288016,1,2,0:0:0:0:
288,288,288152,1,6,0:0:0:0:
288,288,288288,1,6,0:0:0:0:
288,288,288425,1,0,0:0:0:0:
256,256,288561,1,6,0:0:0:0:
256,192,288697,1,0,0:0:0:0:
224,160,288766,1,0,0:0:0:0:
224,160,288834,1,2,0:0:0:0:
224,160,288970,1,0,0:0:0:0:
224,160,289038,1,0,0:0:0:0:
224,160,289106,1,2,0:0:0:0:
224,160,289175,1,0,0:0:0:0:
224,160,289243,1,2,0:0:0:0:
224,160,289311,1,2,0:0:0:0:
224,160,289379,1,0,0:0:0:0:
224,160,289516,1,2,0:0:0:0:
256,192,289652,1,4,0:0:0:0:
192,192,289788,1,2,0:0:0:0:
192,192,289856,1,2,0:0:0:0:
192,192,289925,1,0,0:0:0:0:
192,192,290061,1,0,0:0:0:0:
192,192,290129,1,0,0:0:0:0:
192,192,290197,1,2,0:0:0:0:
192,192,290266,1,0,0:0:0:0:
192,192,290334,1,2,0:0:0:0:
192,192,290402,1,2,0:0:0:0:
192,192,290470,1,0,0:0:0:0:
160,160,290516,1,2,0:0:0:0:
160,160,290561,1,2,0:0:0:0:
192,192,290606,1,0,0:0:0:0:
192,192,290675,1,0,0:0:0:0:
192,192,290743,1,2,0:0:0:0:
160,160,290788,1,0,0:0:0:0:
128,160,290834,1,0,0:0:0:0:
192,192,290879,1,2,0:0:0:0:
192,192,290947,1,2,0:0:0:0:
288,256,291016,1,0,0:0:0:0:
288,256,291084,1,2,0:0:0:0:
288,256,291152,1,0,0:0:0:0:
288,256,291220,1,2,0:0:0:0:
288,256,291288,1,0,0:0:0:0:
288,256,291356,1,2,0:0:0:0:
288,256,291425,1,0,0:0:0:0:
288,288,291493,1,0,0:0:0:0:
288,288,291561,1,2,0:0:0:0:
288,288,291606,1,0,0:0:0:0:
128,160,291652,1,0,0:0:0:0:
288,288,291697,1,2,0:0:0:0:
288,288,291766,1,0,0:0:0:0:
288,288,291834,1,2,0:0:0:0:
256,192,291879,1,0,0:0:0:0:
160,128,291925,1,0,0:0:0:0:
256,192,291970,1,2,0:0:0:0:
256,192,292038,1,2,0:0:0:0:
256,192,292106,1,2,0:0:0:0:
256,192,292175,1,0,0:0:0:0:
256,192,292243,1,0,0:0:0:0:
256,192,292311,1,0,0:0:0:0:
256,192,292379,1,2,0:0:0:0:
256,256,292447,1,2,0:0:0:0:
256,256,292516,1,0,0:0:0:0:
256,256,292584,1,0,0:0:0:0:
224,192,292652,1,0,0:0:0:0:
224,192,292697,1,0,0:0:0:0:
224,192,292743,1,0,0:0:0:0:
224,192,292788,1,0,0:0:0:0:
224,192,292834,1,0,0:0:0:0:
224,192,292879,1,0,0:0:0:0:
256,192,292925,1,2,0:0:0:0:
384,160,293061,1,2,0:0:0:0:
384,160,293197,1,4,0:0:0:0:
256,160,293334,1,0,0:0:0:0:
256,160,293402,1,0,0:0:0:0:
256,160,293470,1,0,0:0:0:0:
256,160,293538,1,2,0:0:0:0:
256,160,293606,1,0,0:0:0:0:
256,160,293743,1,2,0:0:0:0:
256,160,293811,1,2,0:0:0:0:
256,160,293879,1,0,0:0:0:0:
256,192,294016,1,4,0:0:0:0:
288,192,294152,1,2,0:0:0:0:
288,192,294220,1,2,0:0:0:0:
288,192,294288,1,0,0:0:0:0:
288,192,294356,1,0,0:0:0:0:
288,192,294425,1,2,0:0:0:0:
288,192,294493,1,0,0:0:0:0:
288,192,294561,1,2,0:0:0:0:
288,192,294629,1,2,0:0:0:0:
288,192,294697,1,0,0:0:0:0:
288,192,294766,1,0,0:0:0:0:
288,192,294834,1,2,0:0:0:0:
320,256,294970,1,2,0:0:0:0:
192,288,295106,1,4,0:0:0:0:
320,192,295243,1,0,0:0:0:0:
320,192,295311,1,2,0:0:0:0:
320,192,295379,1,2,0:0:0:0:
320,192,295516,1,0,0:0:0:0:
320,192,295584,1,0,0:0:0:0:
320,192,295652,1,2,0:0:0:0:
320,192,295720,1,0,0:0:0:0:
320,192,295788,1,0,0:0:0:0:
320,192,295856,1,0,0:0:0:0:
320,192,295925,1,2,0:0:0:0:
352,256,296061,1,2,0:0:0:0:
192,288,296197,1,4,0:0:0:0:
160,160,296334,1,4,0:0:0:0:
160,160,296470,1,4,0:0:0:0:
288,256,296606,1,2,0:0:0:0:
288,256,296675,1,2,0:0:0:0:
288,256,296743,1,2,0:0:0:0:
288,256,296879,1,2,0:0:0:0:
256,256,297016,1,4,0:0:0:0:
256,192,297152,1,4,0:0:0:0:
256,288,297288,1,4,0:0:0:0:
288,256,297425,1,2,0:0:0:0:
288,256,297493,1,2,0:0:0:0:
288,256,297561,1,0,0:0:0:0:
288,256,297629,1,0,0:0:0:0:
288,256,297697,1,2,0:0:0:0:
288,256,297834,1,2,0:0:0:0:
288,256,297902,1,2,0:0:0:0:
288,256,297970,1,2,0:0:0:0:
288,256,298106,1,2,0:0:0:0:
256,224,298175,1,0,0:0:0:0:
288,256,298243,1,2,0:0:0:0:
160,160,298379,1,4,0:0:0:0:
256,192,298516,1,2,0:0:0:0:
256,192,298584,1,2,0:0:0:0:
256,192,298652,1,0,0:0:0:0:
256,192,298788,1,0,0:0:0:0:
256,192,298856,1,0,0:0:0:0:
256,192,298925,1,2,0:0:0:0:
256,192,298993,1,0,0:0:0:0:
256,192,299061,1,2,0:0:0:0:
256,192,299129,1,2,0:0:0:0:
256,192,299197,1,2,0:0:0:0:
320,320,299334,1,2,0:0:0:0:
160,160,299470,1,4,0:0:0:0:
320,256,299606,1,0,0:0:0:0:
320,256,299675,1,2,0:0:0:0:
320,256,299743,1,0,0:0:0:0:
320,256,299879,1,2,0:0:0:0:
320,256,299947,1,0,0:0:0:0:
288,256,300016,1,0,0:0:0:0:
288,224,300084,1,0,0:0:0:0:
288,224,300152,1,2,0:0:0:0:
288,224,300288,1,0,0:0:0:0:
288,224,300356,1,0,0:0:0:0:
288,224,300425,1,2,0:0:0:0:
288,224,300493,1,0,0:0:0:0:
288,224,300561,1,2,0:0:0:0:
288,224,300629,1,2,0:0:0:0:
288,224,300697,1,0,0:0:0:0:
288,224,300766,1,2,0:0:0:0:
288,224,300834,1,0,0:0:0:0:
256,160,300879,1,0,0:0:0:0:
256,160,300925,1,0,0:0:0:0:
288,224,300970,1,2,0:0:0:0:
288,224,301038,1,0,0:0:0:0:
288,224,301106,1,2,0:0:0:0:
192,192,301152,1,2,0:0:0:0:
192,192,301197,1,2,0:0:0:0:
288,224,301243,1,0,0:0:0:0:
288,224,301311,1,0,0:0:0:0:
288,224,301379,1,2,0:0:0:0:
288,128,301447,1,2,0:0:0:0:
256,128,301516,1,2,0:0:0:0:
288,128,301584,1,2,0:0:0:0:
160,160,301652,1,4,0:0:0:0:
256,224,301788,1,2,0:0:0:0:
256,192,301856,1,2,0:0:0:0:
256,192,301925,1,2,0:0:0:0:
256,192,302061,1,0,0:0:0:0:
256,192,302129,1,0,0:0:0:0:
256,192,302197,1,2,0:0:0:0:
256,192,302266,1,2,0:0:0:0:
256,192,302334,1,0,0:0:0:0:
256,192,302470,1,0,0:0:0:0:
256,192,302538,1,0,0:0:0:0:
256,192,302606,1,2,0:0:0:0:
160,160,302743,1,4,0:0:0:0:
256,256,302879,1,2,0:0:0:0:
256,256,302947,1,0,0:0:0:0:
256,256,303016,1,2,0:0:0:0:
256,256,303084,1,2,0:0:0:0:
256,256,303152,1,0,0:0:0:0:
256,256,303220,1,0,0:0:0:0:
256,256,303288,1,2,0:0:0:0:
256,256,303356,1,0,0:0:0:0:
256,256,303425,1,2,0:0:0:0:
256,256,303493,1,2,0:0:0:0:
256,256,303561,1,0,0:0:0:0:
128,160,303606,1,0,0:0:0:0:
160,160,303652,1,0,0:0:0:0:
256,256,303697,1,2,0:0:0:0:
160,160,303834,1,4,0:0:0:0:
288,288,303970,1,2,0:0:0:0:
288,288,304038,1,2,0:0:0:0:
288,288,304106,1,2,0:0:0:0:
288,288,304243,1,0,0:0:0:0:
288,288,304379,1,2,0:0:0:0:
288,288,304447,1,0,0:0:0:0:
288,288,304516,1,0,0:0:0:0:
288,288,304584,1,0,0:0:0:0:
288,288,304652,1,2,0:0:0:0:
288,288,304788,1,2,0:0:0:0:
160,160,304925,1,4,0:0:0:0:
320,256,305061,1,4,0:0:0:0:
320,256,305197,1,4,0:0:0:0:
320,256,305334,1,4,0:0:0:0:
320,256,305470,1,4,0:0:0:0:
160,160,306016,1,4,0:0:0:0:
320,224,306152,1,2,0:0:0:0:
320,224,306220,1,0,0:0:0:0:
320,224,306288,1,2,0:0:0:0:
320,224,306356,1,2,0:0:0:0:
320,224,306425,1,0,0:0:0:0:
352,320,306493,1,0,0:0:0:0:
352,320,306561,1,2,0:0:0:0:
352,320,306697,1,0,0:0:0:0:
352,320,306834,1,2,0:0:0:0:
352,320,306902,1,0,0:0:0:0:
352,320,306970,1,0,0:0:0:0:
160,160,307106,1,4,0:0:0:0:
320,288,307243,1,2,0:0:0:0:
192,192,307311,1,0,0:0:0:0:
192,192,307379,1,0,0:0:0:0:
192,192,307447,1,0,0:0:0:0:
192,192,307516,1,2,0:0:0:0:
192,192,307652,1,0,0:0:0:0:
192,192,307788,1,2,0:0:0:0:
192,192,307856,1,2,0:0:0:0:
192,192,307925,1,0,0:0:0:0:
192,192,307993,1,0,0:0:0:0:
192,192,308061,1,0,0:0:0:0:
320,224,308129,1,2,0:0:0:0:
256,128,308197,1,2,0:0:0:0:
256,128,308243,1,2,0:0:0:0:
256,128,308288,1,2,0:0:0:0:
256,128,308334,1,2,0:0:0:0:
320,224,308402,1,2,0:0:0:0:
320,224,308470,1,0,0:0:0:0:
160,192,308538,1,0,0:0:0:0:
256,192,308606,1,2,0:0:0:0:
192,192,308675,1,2,0:0:0:0:
288,224,308743,1,0,0:0:0:0:
288,224,308788,1,0,0:0:0:0:
288,224,308834,1,0,0:0:0:0:
288,224,308879,1,0,0:0:0:0:
320,224,308947,1,2,0:0:0:0:
320,224,309016,1,0,0:0:0:0:
320,224,309084,1,0,0:0:0:0:
320,224,309152,1,2,0:0:0:0:
160,160,309197,1,2,0:0:0:0:
160,160,309243,1,2,0:0:0:0:
160,160,309288,1,0,0:0:0:0:
288,96,309356,2,0,L|416:96,5,105
