osu file format v14

[General]
AudioFilename: audio.mp3
AudioLeadIn: 0
PreviewTime: 81234
Countdown: 0
SampleSet: Normal
StackLeniency: 0.7
Mode: 1
LetterboxInBreaks: 0
WidescreenStoryboard: 0

[Editor]
DistanceSpacing: 0.7
BeatDivisor: 4
GridSize: 32
TimelineZoom: 1

[Metadata]
Title:pinku opus w/ kjades
TitleUnicode:pinku opus w/ kjades
Artist:moo
ArtistUnicode:moo
Creator:Faputa
Version:Oni
Source:
Tags:///spookymoo notspookymoo with remix petalcollective frostrific chodeeater tkrism vox pinkucollective blossom petal opus. Yunomi feat. featuring nicamoq ロボティックガール Robotic Girl smol space loli eats bread and dies Cute Fun Kawaii J-Pop JPop Future Electronic Japanese
BeatmapID:2539408
BeatmapSetID:1220751

[Difficulty]
HPDrainRate:5.5
CircleSize:2
OverallDifficulty:5.5
ApproachRate:10
SliderMultiplier:1.4
SliderTickRate:1

[Events]
//Background and Video events
0,0,"BG.jpg",0,50
//Break Periods
//Storyboard Layer 0 (Background)
//Storyboard Layer 1 (Fail)
//Storyboard Layer 2 (Pass)
//Storyboard Layer 3 (Foreground)
//Storyboard Layer 4 (Overlay)
//Storyboard Sound Samples

[TimingPoints]
2028,511.007963207427,4,1,0,25,1,0
16719,-100,4,1,0,30,0,0
17358,-100,4,1,0,35,0,0
17869,-100,4,1,0,40,0,0
18252,-100,4,1,0,75,0,0
18380,-90.9090909090909,4,1,0,75,0,1
34732,-95.2380952380952,4,1,0,65,0,0
52873,-100,4,1,0,50,0,0
69353,-100,4,1,0,55,0,0
73441,-100,4,1,0,60,0,0
77273,-100,4,1,0,30,0,0
79828,-100,4,1,0,5,0,0
81617,-100,4,1,0,30,0,0
83661,-100,4,1,0,40,0,0
96308,-100,4,1,0,40,0,0
96564,-99.009900990099,4,1,0,40,0,0
96947,-98.0392156862745,4,1,0,40,0,0
97330,-97.0873786407767,4,1,0,40,0,0
97841,-96.1538461538461,4,1,0,50,0,0
97969,-95.2380952380952,4,1,0,50,0,0
114321,-100,4,1,0,20,0,0

[HitObjects]
256,192,2028,5,8,0:0:0:0:
256,192,3561,1,0,0:0:0:0:
256,192,6116,1,8,0:0:0:0:
256,192,7649,1,0,0:0:0:0:
256,192,10204,1,0,0:0:0:0:
256,192,11737,1,8,0:0:0:0:
256,192,14292,1,0,0:0:0:0:
256,192,15825,1,0,0:0:0:0:
256,192,16847,8,0,18124,0:0:0:0:
256,192,18380,5,12,0:0:0:0:
256,192,18635,1,8,0:0:0:0:
256,192,18763,1,8,0:0:0:0:
256,192,18891,1,0,0:0:0:0:
256,192,19146,1,8,0:0:0:0:
256,192,19274,1,8,0:0:0:0:
256,192,19402,1,0,0:0:0:0:
256,192,19785,1,8,0:0:0:0:
256,192,19913,1,0,0:0:0:0:
256,192,20168,1,8,0:0:0:0:
256,192,20296,1,8,0:0:0:0:
256,192,20424,1,8,0:0:0:0:
256,192,20552,1,8,0:0:0:0:
256,192,20679,1,0,0:0:0:0:
256,192,20935,1,0,0:0:0:0:
256,192,21190,1,8,0:0:0:0:
256,192,21318,1,8,0:0:0:0:
256,192,21446,1,0,0:0:0:0:
256,192,21829,1,0,0:0:0:0:
256,192,21957,1,8,0:0:0:0:
256,192,22468,1,8,0:0:0:0:
256,192,22596,1,8,0:0:0:0:
256,192,22723,1,8,0:0:0:0:
256,192,22851,1,8,0:0:0:0:
256,192,22979,1,0,0:0:0:0:
256,192,23234,1,8,0:0:0:0:
256,192,23362,1,8,0:0:0:0:
256,192,23490,1,0,0:0:0:0:
256,192,23745,1,8,0:0:0:0:
256,192,24001,1,0,0:0:0:0:
256,192,24256,1,8,0:0:0:0:
256,192,24384,1,8,0:0:0:0:
256,192,24512,1,8,0:0:0:0:
256,192,24640,1,8,0:0:0:0:
256,192,24767,1,8,0:0:0:0:
256,192,25023,1,0,0:0:0:0:
256,192,25151,1,8,0:0:0:0:
256,192,25278,1,0,0:0:0:0:
256,192,25534,1,8,0:0:0:0:
256,192,25789,1,8,0:0:0:0:
256,192,25917,1,8,0:0:0:0:
256,192,26045,1,0,0:0:0:0:
256,192,26173,1,0,0:0:0:0:
256,192,26300,1,0,0:0:0:0:
256,192,26556,1,12,0:0:0:0:
256,192,26811,1,8,0:0:0:0:
256,192,26939,1,8,0:0:0:0:
256,192,27067,1,0,0:0:0:0:
256,192,27322,1,0,0:0:0:0:
256,192,27450,1,0,0:0:0:0:
256,192,27578,1,8,0:0:0:0:
256,192,27961,1,0,0:0:0:0:
256,192,28089,1,8,0:0:0:0:
256,192,28344,1,8,0:0:0:0:
256,192,28472,1,8,0:0:0:0:
256,192,28600,1,8,0:0:0:0:
256,192,28728,1,8,0:0:0:0:
256,192,28855,1,0,0:0:0:0:
256,192,29111,1,0,0:0:0:0:
256,192,29366,1,8,0:0:0:0:
256,192,29494,1,0,0:0:0:0:
256,192,29622,1,8,0:0:0:0:
256,192,30133,1,8,0:0:0:0:
256,192,30388,1,0,0:0:0:0:
256,192,30644,1,8,0:0:0:0:
256,192,30772,1,8,0:0:0:0:
256,192,30899,1,8,0:0:0:0:
256,192,31027,1,8,0:0:0:0:
256,192,31155,1,0,0:0:0:0:
256,192,31410,1,8,0:0:0:0:
256,192,31538,1,0,0:0:0:0:
256,192,31666,1,8,0:0:0:0:
256,192,32177,1,0,0:0:0:0:
256,192,32432,1,8,0:0:0:0:
256,192,32560,1,8,0:0:0:0:
256,192,32688,1,0,0:0:0:0:
256,192,32816,1,8,0:0:0:0:
256,192,32943,1,0,0:0:0:0:
256,192,33199,1,8,0:0:0:0:
256,192,33327,1,8,0:0:0:0:
256,192,33454,1,0,0:0:0:0:
256,192,33582,1,0,0:0:0:0:
256,192,33710,1,8,0:0:0:0:
256,192,33965,1,0,0:0:0:0:
256,192,34093,1,0,0:0:0:0:
256,192,34221,1,8,0:0:0:0:
256,192,34477,1,8,0:0:0:0:
256,192,34732,1,4,0:0:0:0:
256,192,35243,1,0,0:0:0:0:
256,192,35499,1,8,0:0:0:0:
256,192,35754,1,0,0:0:0:0:
256,192,36137,1,0,0:0:0:0:
256,192,36265,1,8,0:0:0:0:
256,192,36521,1,0,0:0:0:0:
256,192,36776,1,8,0:0:0:0:
256,192,37032,1,0,0:0:0:0:
256,192,37287,1,0,0:0:0:0:
256,192,37543,1,0,0:0:0:0:
256,192,37798,1,8,0:0:0:0:
256,192,38181,1,0,0:0:0:0:
256,192,38309,1,8,0:0:0:0:
256,192,38437,1,8,0:0:0:0:
256,192,38565,1,0,0:0:0:0:
256,192,38820,1,8,0:0:0:0:
256,192,39331,1,0,0:0:0:0:
256,192,39587,1,0,0:0:0:0:
256,192,39842,1,8,0:0:0:0:
256,192,40098,1,8,0:0:0:0:
256,192,40225,1,0,0:0:0:0:
256,192,40353,1,8,0:0:0:0:
256,192,40609,1,0,0:0:0:0:
256,192,40864,1,8,0:0:0:0:
256,192,41120,1,0,0:0:0:0:
256,192,41375,1,8,0:0:0:0:
256,192,41631,1,8,0:0:0:0:
256,192,41886,1,8,0:0:0:0:
256,192,42397,1,0,0:0:0:0:
256,192,42653,1,8,0:0:0:0:
256,192,42908,1,0,0:0:0:0:
256,192,43036,1,0,0:0:0:0:
256,192,43164,1,8,0:0:0:0:
256,192,43419,1,0,0:0:0:0:
256,192,43675,1,8,0:0:0:0:
256,192,43802,1,8,0:0:0:0:
256,192,43930,1,0,0:0:0:0:
256,192,44313,1,8,0:0:0:0:
256,192,44441,1,0,0:0:0:0:
256,192,44697,1,8,0:0:0:0:
256,192,44952,1,0,0:0:0:0:
256,192,45208,1,8,0:0:0:0:
256,192,45335,1,0,0:0:0:0:
256,192,45463,1,8,0:0:0:0:
256,192,45719,1,0,0:0:0:0:
256,192,45846,1,0,0:0:0:0:
256,192,45974,1,8,0:0:0:0:
256,192,46357,1,0,0:0:0:0:
256,192,46485,1,8,0:0:0:0:
256,192,46613,1,8,0:0:0:0:
256,192,46741,1,0,0:0:0:0:
256,192,46996,1,8,0:0:0:0:
256,192,47507,1,8,0:0:0:0:
256,192,47763,1,0,0:0:0:0:
256,192,47890,1,0,0:0:0:0:
256,192,48018,1,8,0:0:0:0:
256,192,48401,1,8,0:0:0:0:
256,192,48529,1,0,0:0:0:0:
256,192,48785,1,0,0:0:0:0:
256,192,49040,1,8,0:0:0:0:
256,192,49296,1,0,0:0:0:0:
256,192,49551,1,0,0:0:0:0:
256,192,49807,1,8,0:0:0:0:
256,192,50062,1,8,0:0:0:0:
256,192,50318,1,0,0:0:0:0:
256,192,50446,1,8,0:0:0:0:
256,192,50573,1,0,0:0:0:0:
256,192,50829,1,0,0:0:0:0:
256,192,51084,1,8,0:0:0:0:
256,192,53128,1,8,0:0:0:0:
256,192,53895,1,0,0:0:0:0:
256,192,54917,1,0,0:0:0:0:
256,192,55172,1,8,0:0:0:0:
256,192,55428,1,0,0:0:0:0:
256,192,55683,1,8,0:0:0:0:
256,192,55939,1,8,0:0:0:0:
256,192,56450,1,0,0:0:0:0:
256,192,56961,1,0,0:0:0:0:
256,192,57216,1,8,0:0:0:0:
256,192,57727,1,8,0:0:0:0:
256,192,58238,1,0,0:0:0:0:
256,192,58749,1,8,0:0:0:0:
256,192,59005,1,0,0:0:0:0:
256,192,59260,1,0,0:0:0:0:
256,192,60027,1,8,0:0:0:0:
256,192,61304,1,8,0:0:0:0:
256,192,62071,1,0,0:0:0:0:
256,192,63093,1,0,0:0:0:0:
256,192,63348,1,8,0:0:0:0:
256,192,63604,1,8,0:0:0:0:
256,192,63859,1,0,0:0:0:0:
256,192,64115,1,0,0:0:0:0:
256,192,64626,1,8,0:0:0:0:
256,192,65137,1,8,0:0:0:0:
256,192,65392,1,0,0:0:0:0:
256,192,65903,1,8,0:0:0:0:
256,192,66415,1,0,0:0:0:0:
256,192,66926,1,8,0:0:0:0:
256,192,67181,1,0,0:0:0:0:
256,192,67437,1,0,0:0:0:0:
256,192,68203,1,8,0:0:0:0:
256,192,69225,1,0,0:0:0:0:
256,192,69481,1,8,0:0:0:0:
256,192,69992,1,8,0:0:0:0:
256,192,70503,1,0,0:0:0:0:
256,192,71014,1,8,0:0:0:0:
256,192,71269,1,0,0:0:0:0:
256,192,71525,1,0,0:0:0:0:
256,192,72291,1,0,0:0:0:0:
256,192,72802,1,8,0:0:0:0:
256,192,73313,1,0,0:0:0:0:
256,192,73569,1,8,0:0:0:0:
256,192,74080,1,8,0:0:0:0:
256,192,74591,1,0,0:0:0:0:
256,192,75102,1,8,0:0:0:0:
256,192,75357,1,0,0:0:0:0:
256,192,76379,1,0,0:0:0:0:
256,192,76890,1,8,0:0:0:0:
256,192,77401,8,0,79701,0:0:0:0:
256,192,81745,5,0,0:0:0:0:
256,192,82682,1,0,0:0:0:0:
256,192,83022,1,0,0:0:0:0:
256,192,83278,1,8,0:0:0:0:
256,192,83533,1,0,0:0:0:0:
256,192,83789,1,8,0:0:0:0:
256,192,84172,1,0,0:0:0:0:
256,192,84300,1,8,0:0:0:0:
256,192,84555,1,0,0:0:0:0:
256,192,84683,1,8,0:0:0:0:
256,192,84811,1,0,0:0:0:0:
256,192,85066,1,8,0:0:0:0:
256,192,85322,1,0,0:0:0:0:
256,192,85450,1,0,0:0:0:0:
256,192,85833,1,8,0:0:0:0:
256,192,86344,1,0,0:0:0:0:
256,192,86599,1,8,0:0:0:0:
256,192,86727,1,0,0:0:0:0:
256,192,86983,1,0,0:0:0:0:
256,192,87110,1,8,0:0:0:0:
256,192,87366,1,0,0:0:0:0:
256,192,87621,1,0,0:0:0:0:
256,192,87749,1,8,0:0:0:0:
256,192,87877,1,8,0:0:0:0:
256,192,88388,1,0,0:0:0:0:
256,192,88643,1,8,0:0:0:0:
256,192,88771,1,8,0:0:0:0:
256,192,88899,1,0,0:0:0:0:
256,192,89154,1,0,0:0:0:0:
256,192,89410,1,8,0:0:0:0:
256,192,89538,1,0,0:0:0:0:
256,192,89921,1,8,0:0:0:0:
256,192,90304,1,0,0:0:0:0:
256,192,90432,1,8,0:0:0:0:
256,192,90687,1,0,0:0:0:0:
256,192,90815,1,0,0:0:0:0:
256,192,90943,1,8,0:0:0:0:
256,192,91198,1,0,0:0:0:0:
256,192,91454,1,8,0:0:0:0:
256,192,91709,1,8,0:0:0:0:
256,192,91965,1,0,0:0:0:0:
256,192,92220,1,8,0:0:0:0:
256,192,92476,1,0,0:0:0:0:
256,192,92604,1,0,0:0:0:0:
256,192,92859,1,8,0:0:0:0:
256,192,92987,1,0,0:0:0:0:
256,192,93242,1,8,0:0:0:0:
256,192,93370,1,8,0:0:0:0:
256,192,93498,1,0,0:0:0:0:
256,192,93626,1,0,0:0:0:0:
256,192,94009,1,8,0:0:0:0:
256,192,94520,1,8,0:0:0:0:
256,192,94775,1,0,0:0:0:0:
256,192,94903,1,8,0:0:0:0:
256,192,95031,1,0,0:0:0:0:
256,192,95286,1,0,0:0:0:0:
256,192,95542,1,8,0:0:0:0:
256,192,95670,1,0,0:0:0:0:
256,192,95968,1,8,0:0:0:0:
256,192,96564,1,0,0:0:0:0:
256,192,96947,1,0,0:0:0:0:
256,192,97075,1,0,0:0:0:0:
256,192,97330,1,0,0:0:0:0:
256,192,97458,1,8,0:0:0:0:
256,192,97586,1,8,0:0:0:0:
256,192,97841,1,0,0:0:0:0:
256,192,98097,1,8,0:0:0:0:
256,192,98353,1,8,0:0:0:0:
256,192,98608,1,0,0:0:0:0:
256,192,98864,1,8,0:0:0:0:
256,192,98991,1,8,0:0:0:0:
256,192,99119,1,0,0:0:0:0:
256,192,99375,1,8,0:0:0:0:
256,192,99630,1,0,0:0:0:0:
256,192,99886,1,8,0:0:0:0:
256,192,100141,1,0,0:0:0:0:
256,192,100397,1,8,0:0:0:0:
256,192,100652,1,8,0:0:0:0:
256,192,100908,1,0,0:0:0:0:
256,192,101035,1,8,0:0:0:0:
256,192,101163,1,0,0:0:0:0:
256,192,101419,1,0,0:0:0:0:
256,192,101674,1,8,0:0:0:0:
256,192,101802,1,0,0:0:0:0:
256,192,102185,1,8,0:0:0:0:
256,192,102696,1,0,0:0:0:0:
256,192,102952,1,8,0:0:0:0:
256,192,103079,1,0,0:0:0:0:
256,192,103335,1,0,0:0:0:0:
256,192,103463,1,8,0:0:0:0:
256,192,103718,1,0,0:0:0:0:
256,192,103974,1,8,0:0:0:0:
256,192,104101,1,0,0:0:0:0:
256,192,104229,1,8,0:0:0:0:
256,192,104485,1,8,0:0:0:0:
256,192,104740,1,0,0:0:0:0:
256,192,104996,1,8,0:0:0:0:
256,192,105123,1,8,0:0:0:0:
256,192,105251,1,0,0:0:0:0:
256,192,105507,1,0,0:0:0:0:
256,192,105634,1,0,0:0:0:0:
256,192,105762,1,8,0:0:0:0:
256,192,105890,1,0,0:0:0:0:
256,192,106273,1,8,0:0:0:0:
256,192,106529,1,0,0:0:0:0:
256,192,106784,1,8,0:0:0:0:
256,192,107040,1,0,0:0:0:0:
256,192,107167,1,8,0:0:0:0:
256,192,107295,1,8,0:0:0:0:
256,192,107551,1,0,0:0:0:0:
256,192,107806,1,8,0:0:0:0:
256,192,107934,1,0,0:0:0:0:
256,192,108062,1,8,0:0:0:0:
256,192,108317,1,0,0:0:0:0:
256,192,108573,1,8,0:0:0:0:
256,192,108828,1,0,0:0:0:0:
256,192,109084,1,8,0:0:0:0:
256,192,109211,1,8,0:0:0:0:
256,192,109339,1,0,0:0:0:0:
256,192,109595,1,8,0:0:0:0:
256,192,109722,1,8,0:0:0:0:
256,192,109850,1,0,0:0:0:0:
256,192,109978,1,0,0:0:0:0:
256,192,110361,1,8,0:0:0:0:
256,192,110872,1,8,0:0:0:0:
256,192,111128,1,0,0:0:0:0:
256,192,111255,1,8,0:0:0:0:
256,192,111383,1,0,0:0:0:0:
256,192,111639,1,0,0:0:0:0:
256,192,111894,1,8,0:0:0:0:
256,192,112022,1,0,0:0:0:0:
256,192,112277,1,8,0:0:0:0:
256,192,112405,1,0,0:0:0:0:
256,192,112916,1,8,0:0:0:0:
256,192,113172,1,0,0:0:0:0:
256,192,113427,1,0,0:0:0:0:
256,192,113810,1,0,0:0:0:0:
256,192,113938,1,8,0:0:0:0:
256,192,114449,1,0,0:0:0:0:
