osu file format v14

[General]
AudioFilename: audio.mp3
AudioLeadIn: 0
PreviewTime: 32878
Countdown: 0
SampleSet: Soft
StackLeniency: 0.7
Mode: 0
LetterboxInBreaks: 0
WidescreenStoryboard: 0

[Editor]
DistanceSpacing: 1.3
BeatDivisor: 4
GridSize: 16
TimelineZoom: 1.9

[Metadata]
Title:anim3
TitleUnicode:anim3
Artist:moo
ArtistUnicode:moo
Creator:imaginative
Version:h4rd
Source:
Tags:ascended -ascended- -_ascended_- - ascended - japanese electronic nemui chodeeater notspookymoo frostrific anime maeks makes you u gay yunomi ゆのみ tkrism tkr ism religion and & spirituality normal hard insane massive
BeatmapID:3941664
BeatmapSetID:1199839

[Difficulty]
HPDrainRate:4.5
CircleSize:4
OverallDifficulty:6
ApproachRate:7.6
SliderMultiplier:1.4
SliderTickRate:1

[Events]
//Background and Video events
0,0,"ricodz inspire.jpg",0,0
//Break Periods
//Storyboard Layer 0 (Background)
//Storyboard Layer 1 (Fail)
//Storyboard Layer 2 (Pass)
//Storyboard Layer 3 (Foreground)
//Storyboard Layer 4 (Overlay)
//Storyboard Sound Samples

[TimingPoints]
655,342.857142857143,4,2,1,5,1,0
8883,-100,4,2,1,20,0,0
10255,-117.647058823529,4,2,1,35,0,0
10597,-117.647058823529,4,2,1,40,0,0
10940,-117.647058823529,4,2,1,45,0,0
11283,-117.647058823529,4,2,1,50,0,0
11626,-117.647058823529,4,2,1,55,0,0
22597,-105.263157894737,4,2,1,70,0,0
33569,-95.2380952380952,4,2,1,85,0,1
42655,-117.647058823529,4,2,1,85,0,1
42997,-95.2380952380952,4,2,1,85,0,1
44369,-95.2380952380952,4,2,1,85,0,0
44540,-95.2380952380952,4,2,1,85,0,1
53626,-125,4,2,1,85,0,1
53969,-95.2380952380952,4,2,1,85,0,1
55512,-95.2380952380952,4,2,1,85,0,0

[Colours]
Combo1 : 149,149,255
Combo2 : 190,176,238
Combo3 : 150,220,254
Combo4 : 130,173,253

[HitObjects]
256,192,8883,12,0,9912,0:0:0:0:
257,194,10255,6,0,P|213:211|149:177,1,119.000002269745,2|2,0:2|0:2,0:0:0:0:
210,50,10940,2,0,P|254:33|319:68,1,119.000002269745,2|2,0:2|0:2,0:0:0:0:
459,4,11626,6,0,B|441:38|405:56|405:56|448:161,1,178.500003404617,2|2,3:2|0:2,0:0:0:0:
501,202,12312,2,0,P|486:263|472:321,1,119.000002269745,2|0,0:2|0:0,0:0:0:0:
472,317,12826,1,2,3:2:0:0:
406,357,12997,6,0,P|358:373|306:330,1,119.000002269745,2|2,0:2|0:2,0:0:0:0:
284,264,13512,1,2,0:2:0:0:
284,264,13683,2,0,L|296:204,1,59.5000011348725,2|2,0:2|0:2,0:0:0:0:
358,160,14026,2,0,L|346:100,1,59.5000011348725,2|2,0:2|0:2,0:0:0:0:
286,34,14369,6,0,B|237:8|197:43|217:60|171:97|121:62,1,178.500003404617,2|2,3:2|0:2,0:0:0:0:
60,37,15054,1,2,0:2:0:0:
60,37,15227,1,0,3:2:0:0:
3,180,15569,1,0,3:2:0:0:
3,180,15740,6,0,B|36:251|36:251|16:265|5:293,1,119.000002269745,0|2,0:0|0:2,0:0:0:0:
81,323,16254,1,2,3:2:0:0:
81,323,16426,2,0,P|116:325|140:306,1,59.5000011348725,2|2,0:2|0:2,0:0:0:0:
203,276,16769,2,0,P|234:282|267:288,1,59.5000011348725,2|2,0:2|0:2,0:0:0:0:
347,312,17112,6,0,B|331:243|331:243|299:219|299:219|284:148,1,178.500003404617,2|2,3:2|0:2,0:0:0:0:
325,86,17797,2,0,P|379:63|427:95,1,119.000002269745,2|2,0:2|0:2,0:0:0:0:
425,93,18312,1,2,3:2:0:0:
473,160,18483,6,0,P|467:194|463:221,1,59.5000011348725,2|2,0:2|0:2,0:0:0:0:
411,276,18826,2,0,P|383:283|350:271,1,59.5000011348725,2|2,0:2|0:2,0:0:0:0:
300,218,19169,2,0,P|307:184|313:153,1,59.5000011348725,2|2,0:2|0:2,0:0:0:0:
278,89,19512,1,2,0:2:0:0:
278,89,19683,1,2,0:2:0:0:
324,12,19855,6,0,P|274:-7|215:21,2,119.000002269745,2|0|0,3:2|0:0|0:0,0:0:0:0:
380,65,20712,1,0,3:2:0:0:
298,196,21055,1,0,3:2:0:0:
217,157,21226,6,0,B|178:136|178:136|135:155,1,89.2500017023087,2|0,0:2|0:0,0:0:0:0:
100,170,21569,1,2,0:2:0:0:
144,234,21740,1,0,3:2:0:0:
95,309,21912,2,0,B|134:330|134:330|177:311,1,89.2500017023087,2|0,0:2|0:0,0:0:0:0:
212,297,22255,1,2,0:2:0:0:
380,376,22597,6,0,B|398:338|377:306|362:324|343:288|363:247,1,132.999996448517,2|8,3:2|0:2,0:0:0:0:
389,173,23112,1,0,3:2:0:0:
389,173,23283,2,0,P|354:164|322:178,1,66.4999982242585,2|0,0:2|3:2,0:0:0:0:
256,223,23626,1,8,0:2:0:0:
256,223,23797,1,0,3:2:0:0:
183,162,23970,6,0,B|219:240|219:240|197:255|185:286,1,132.999996448517,2|8,0:2|0:2,0:0:0:0:
133,341,24483,1,2,0:2:0:0:
133,341,24655,2,0,P|101:350|64:331,1,66.4999982242585,2|2,0:2|3:2,0:0:0:0:
9,277,24997,2,0,P|14:243|19:208,1,66.4999982242585,10|2,0:2|3:2,0:0:0:0:
48,175,25255,1,0,3:2:0:0:
48,175,25340,6,0,B|101:190|101:190|115:208|115:208|172:226,1,132.999996448517,2|10,3:2|0:2,0:0:0:0:
252,203,25855,1,2,0:2:0:0:
235,122,26026,1,2,0:2:0:0:
235,122,26197,2,0,P|228:85|223:53,1,66.4999982242585,2|10,3:2|0:2,0:0:0:0:
307,16,26540,6,0,P|369:-2|422:42,1,132.999996448517,2|2,3:2|0:2,0:0:0:0:
454,116,27055,1,10,0:2:0:0:
393,186,27226,1,2,3:2:0:0:
393,186,27397,2,0,P|399:222|403:256,1,66.4999982242585,2|0,0:2|3:2,0:0:0:0:
452,323,27740,1,8,0:2:0:0:
376,373,27912,5,2,3:2:0:0:
376,373,27997,1,0,3:2:0:0:
376,373,28082,2,0,B|338:391|306:370|324:355|288:336|247:356,1,132.999996448517,2|8,3:2|0:2,0:0:0:0:
170,369,28597,1,0,3:2:0:0:
170,369,28769,2,0,P|177:330|181:301,1,66.4999982242585,2|0,0:2|3:2,0:0:0:0:
236,237,29112,1,8,0:2:0:0:
236,237,29283,1,0,3:2:0:0:
194,153,29455,6,0,P|126:165|62:181,1,132.999996448517,2|8,0:2|0:2,0:0:0:0:
17,254,29969,1,2,0:2:0:0:
17,254,30140,2,0,P|8:289|24:320,1,66.4999982242585,2|2,0:2|3:2,0:0:0:0:
89,366,30483,2,0,P|123:360|155:354,1,66.4999982242585,10|2,0:2|3:2,0:0:0:0:
194,328,30740,1,0,3:2:0:0:
194,328,30826,6,0,P|263:304|308:348,1,132.999996448517,2|10,3:2|0:2,0:0:0:0:
377,290,31340,1,2,0:2:0:0:
377,290,31512,2,0,P|389:260|371:223,1,66.4999982242585,2|0,0:2|3:2,0:0:0:0:
322,162,31855,1,10,0:2:0:0:
389,97,32027,6,0,P|324:119|260:138,1,132.999996448517,2|0,3:2|0:0,0:0:0:0:
181,167,32540,1,8,0:2:0:0:
181,167,32712,1,2,3:2:0:0:
100,135,32883,5,2,0:2:0:0:
45,202,33055,1,2,3:2:0:0:
86,277,33226,1,10,0:2:0:0:
182,259,33397,5,2,3:2:0:0:
182,259,33483,1,0,3:2:0:0:
182,259,33569,2,0,B|226:239|260:263|239:278|282:302|323:277,1,146.999995513916,6|8,3:2|0:2,0:0:0:0:
410,258,34083,1,2,0:2:0:0:
351,188,34255,1,2,0:2:0:0:
351,188,34426,2,0,L|363:103,1,73.4999977569581,4|8,3:2|0:2,0:0:0:0:
433,13,34769,1,6,3:2:0:0:
316,0,34940,6,0,B|257:16|257:16|242:36|242:36|179:56,1,146.999995513916,2|10,0:2|0:2,0:0:0:0:
92,45,35455,1,2,0:2:0:0:
92,45,35626,2,0,P|88:85|116:117,1,73.4999977569581,2|2,0:2|3:2,0:0:0:0:
174,178,35969,2,0,P|164:215|157:257,1,73.4999977569581,10|2,0:2|3:2,0:0:0:0:
187,298,36226,1,0,3:2:0:0:
187,298,36312,6,0,B|225:302|248:333|248:333|259:293|291:268,1,146.999995513916,6|8,3:2|0:2,0:0:0:0:
350,200,36826,1,2,0:2:0:0:
438,247,36997,1,2,0:2:0:0:
438,247,37169,2,0,P|447:283|429:321,1,73.4999977569581,4|8,3:2|0:2,0:0:0:0:
340,383,37511,1,6,3:2:0:0:
248,320,37683,6,0,B|215:316|215:316|210:320|210:320|163:315,1,73.4999977569581,2|0,0:2|0:0,0:0:0:0:
199,215,38026,6,0,B|166:211|166:211|161:215|161:215|114:210,1,73.4999977569581,10|4,0:2|3:2,0:0:0:0:
126,108,38369,6,0,B|159:112|159:112|164:108|164:108|211:113,1,73.4999977569581,2|0,0:2|3:2,0:0:0:0:
175,10,38712,6,0,B|208:14|208:14|213:10|213:10|260:15,1,73.4999977569581,10|0,0:2|3:2,0:0:0:0:
305,15,38969,1,0,3:2:0:0:
305,15,39055,6,0,B|325:56|301:93|286:72|262:115|287:156,1,146.999995513916,6|8,3:2|0:2,0:0:0:0:
339,228,39569,1,2,0:0:0:0:
432,200,39740,1,2,0:0:0:0:
432,200,39912,2,0,P|446:166|433:133,1,73.4999977569581,4|8,3:2|0:2,0:0:0:0:
394,22,40255,1,6,3:2:0:0:
310,88,40426,5,2,0:0:0:0:
310,88,40597,1,2,0:0:0:0:
235,35,40769,1,10,0:2:0:0:
235,35,40940,1,2,0:0:0:0:
158,92,41112,2,0,P|165:128|171:165,1,73.4999977569581,2|2,0:0|3:2,0:0:0:0:
248,222,41455,2,0,P|240:258|235:295,1,73.4999977569581,10|2,0:2|3:2,0:0:0:0:
245,349,41712,1,0,3:2:0:0:
245,349,41797,6,0,P|181:368|131:302,2,146.999995513916,6|8|0,3:2|0:2|0:0,0:0:0:0:
326,296,42655,2,0,P|319:251|309:200,1,89.2500017023087,4|0,3:2|0:0,0:0:0:0:
340,162,42997,6,0,P|280:187|226:129,1,146.999995513916,6|2,3:2|0:0,0:0:0:0:
157,48,43512,1,10,0:2:0:0:
91,134,43683,6,0,B|131:219|131:219|106:234|95:257,1,146.999995513916,6|0,3:2|3:2,0:0:0:0:
76,359,44198,1,8,0:2:0:0:
179,312,44369,5,2,3:2:0:0:
179,312,44455,1,0,3:2:0:0:
179,312,44540,2,0,B|215:298|246:321|246:321|265:360|309:358,1,146.999995513916,6|8,3:2|0:2,0:0:0:0:
388,306,45055,1,2,0:0:0:0:
472,359,45226,1,2,0:0:0:0:
472,359,45397,2,0,P|484:323|465:285,1,73.4999977569581,4|8,3:2|0:2,0:0:0:0:
407,192,45740,1,4,3:2:0:0:
501,148,45912,6,0,P|422:165|343:188,1,146.999995513916,2|10,0:0|0:2,0:0:0:0:
279,238,46426,1,2,0:0:0:0:
279,238,46597,2,0,P|241:225|206:216,1,73.4999977569581,2|2,0:0|3:2,0:0:0:0:
116,242,46940,2,0,P|108:208|127:173,1,73.4999977569581,10|2,0:2|3:2,0:0:0:0:
166,142,47197,1,0,3:2:0:0:
166,142,47283,6,0,P|97:131|103:62,1,146.999995513916,6|8,3:2|0:2,0:0:0:0:
170,2,47797,1,2,0:0:0:0:
257,52,47969,1,2,0:0:0:0:
257,52,48140,2,0,P|293:44|334:37,1,73.4999977569581,4|8,3:2|0:2,0:0:0:0:
444,11,48483,1,6,3:2:0:0:
497,107,48655,6,0,B|512:139|512:139|494:178,1,73.4999977569581,2|0,0:0|0:0,0:0:0:0:
388,194,48997,6,0,B|403:226|403:226|385:265,1,73.4999977569581,10|4,0:2|3:2,0:0:0:0:
276,264,49340,6,0,B|260:229|260:229|275:197,1,73.4999977569581,2|0,0:0|3:2,0:0:0:0:
171,159,49682,6,0,B|155:124|155:124|170:92,1,73.4999977569581,10|0,0:2|3:2,0:0:0:0:
207,55,49940,1,0,3:2:0:0:
207,55,50026,6,0,B|163:75|129:51|150:36|107:12|66:37,1,146.999995513916,6|8,3:2|0:2,0:0:0:0:
2,100,50540,1,2,0:0:0:0:
73,171,50712,1,2,0:0:0:0:
73,171,50883,2,0,P|65:212|57:251,1,73.4999977569581,4|8,3:2|0:2,0:0:0:0:
27,356,51225,1,6,3:2:0:0:
130,384,51397,5,2,0:0:0:0:
130,384,51569,1,2,0:0:0:0:
224,358,51740,1,10,0:2:0:0:
224,358,51912,1,2,0:0:0:0:
314,328,52083,2,0,P|325:291|304:256,1,73.4999977569581,2|2,0:0|3:2,0:0:0:0:
274,173,52426,2,0,P|311:184|350:163,1,73.4999977569581,10|2,0:2|3:2,0:0:0:0:
386,143,52683,1,0,3:2:0:0:
386,143,52769,6,0,B|370:83|370:83|350:69|350:69|330:6,2,146.999995513916,6|8|0,3:2|0:2|0:0,0:0:0:0:
446,217,53626,2,0,P|438:263|432:309,1,84,4|0,3:2|0:0,0:0:0:0:
393,338,53969,6,0,P|332:357|282:290,1,146.999995513916,6|2,3:2|0:0,0:0:0:0:
260,192,54483,1,10,0:2:0:0:
160,244,54655,2,0,P|230:226|308:211,1,146.999995513916,6|0,3:2|3:2,0:0:0:0:
403,187,55169,1,8,0:2:0:0:
458,100,55340,5,8,0:2:0:0:
462,85,55426,1,0,3:2:0:0:
