osu file format v14

[General]
AudioFilename: audio.mp3
AudioLeadIn: 0
PreviewTime: 42348
Countdown: 0
SampleSet: None
StackLeniency: 0.7
Mode: 0
LetterboxInBreaks: 0
WidescreenStoryboard: 0

[Editor]
Bookmarks: 17289,34230,42701,63877,65995,74466,91407,99877,121054,137995,154936,192877
DistanceSpacing: 1.5
BeatDivisor: 4
GridSize: 32
TimelineZoom: 1.6

[Metadata]
Title:Rewrite
TitleUnicode:Rewrite
Artist:monochrome-coat
ArtistUnicode:monochrome-coat
Creator:Cami
Version:Somniphobia
Source:東方紺珠伝 ~ Legacy of Lunatic Kingdom.
Tags:Touhou Toho Project Doremy Sweet めらみぽっぷ Meramipop RAT1959 宇宙を飛ぶ不思議な巫女 Sora o Tobu Fushigi na Miko The Mysterious Shrine Maiden Flying Through Space 東方PARTYBOX
BeatmapID:1975651
BeatmapSetID:946149

[Difficulty]
HPDrainRate:5
CircleSize:5
OverallDifficulty:7
ApproachRate:8
SliderMultiplier:1.1
SliderTickRate:1

[Events]
//Background and Video events
0,0,"3b325dbc22f296aaa6cdddbef83b59fe.jpg",0,0
//Break Periods
//Storyboard Layer 0 (Background)
//Storyboard Layer 1 (Fail)
//Storyboard Layer 2 (Pass)
//Storyboard Layer 3 (Foreground)
//Storyboard Sound Samples

[TimingPoints]
6701,352.941176470588,6,2,1,60,1,0
6965,-100,6,2,1,5,0,0
7053,-100,6,2,1,60,0,0
20377,-100,6,2,1,5,0,0
20465,-100,6,2,1,60,0,0
29200,-100,6,2,1,5,0,0
29289,-100,6,2,1,60,0,0
33436,-100,6,2,1,5,0,0
33524,-100,6,2,1,60,0,0
34230,-100,6,2,1,45,0,0
42700,-83.3333333333333,6,2,1,75,0,1
63524,-100,6,2,1,55,0,0
65995,-100,6,2,1,60,0,0
91406,-100,6,2,1,45,0,0
99877,-83.3333333333333,6,2,1,75,0,1
121053,-100,6,2,1,55,0,0

[HitObjects]
166,261,6701,6,0,P|203:247|222:208,1,82.5,8|0,0:3|0:0,0:0:0:0:
215,194,7054,1,4,0:3:0:0:
275,271,7230,2,0,P|209:261|150:261,1,110,8|0,0:3|1:0,0:0:0:0:
26,97,7760,6,0,B|68:103|68:103|149:76,1,110,12|0,0:0|0:0,0:0:0:0:
281,132,8289,1,8,0:0:0:0:
281,132,8377,1,8,0:0:0:0:
281,132,8466,1,8,0:0:0:0:
249,63,8642,1,8,0:0:0:0:
202,125,8818,6,0,P|200:187|215:245,1,110,6|8,1:2|0:0,0:0:0:0:
293,297,9348,1,2,1:2:0:0:
331,240,9524,2,0,B|287:220|287:220|209:251,1,110,8|0,0:0|1:0,0:0:0:0:
438,341,10230,2,0,P|444:293|449:273,1,55,8|0,0:0|0:0,0:0:0:0:
432,265,10495,1,8,0:0:0:0:
432,265,10583,1,0,1:0:0:0:
358,352,10760,1,8,0:0:0:0:
235,289,10936,6,0,P|280:277|341:226,1,110,2|8,1:2|0:0,0:0:0:0:
362,171,11466,1,2,1:2:0:0:
343,262,11642,1,8,0:0:0:0:
343,262,11995,1,0,1:0:0:0:
174,251,12348,6,0,P|187:300|189:320,1,55,10|0,0:0|1:0,0:0:0:0:
271,158,12701,2,0,P|253:202|246:231,1,55,10|0,0:0|0:0,0:0:0:0:
70,160,13053,6,0,B|113:167|113:167|135:161|135:161|192:173,1,110,2|8,1:2|0:0,0:0:0:0:
118,309,13583,1,2,1:2:0:0:
68,264,13760,2,0,B|51:222|51:222|76:138,1,110,8|0,0:0|1:0,0:0:0:0:
252,43,14465,2,0,P|284:73|306:89,1,55,8|0,0:0|0:0,0:0:0:0:
297,104,14730,1,8,0:0:0:0:
297,104,14818,1,0,1:0:0:0:
373,60,14995,1,8,0:0:0:0:
405,196,15171,6,0,B|361:185|361:185|334:190|334:190|276:176,1,110,2|8,1:2|0:0,0:0:0:0:
365,254,15701,1,2,1:2:0:0:
474,188,15877,1,8,0:0:0:0:
474,188,16230,1,0,1:0:0:0:
369,338,16583,5,8,0:0:0:0:
369,338,16671,1,8,0:0:0:0:
271,255,16848,1,8,0:0:0:0:
271,255,16936,1,8,0:0:0:0:
271,255,17024,1,8,0:0:0:0:
185,345,17200,1,8,0:0:0:0:
185,345,17289,6,0,P|192:308|189:268,1,55,6|0,1:2|0:0,0:0:0:0:
68,224,17642,1,10,0:0:0:0:
21,275,17818,1,0,1:2:0:0:
121,267,17995,2,0,P|111:211|105:142,1,110,10|0,0:0|1:0,0:0:0:0:
15,11,18701,2,0,P|9:61|4:88,1,55,8|0,0:0|0:0,0:0:0:0:
21,84,18966,1,8,0:0:0:0:
21,84,19054,1,0,1:0:0:0:
110,40,19230,1,8,0:0:0:0:
159,145,19407,6,0,P|122:153|88:164,1,55,2|0,1:2|0:0,0:0:0:0:
223,215,19759,1,10,0:0:0:0:
248,156,19936,1,0,1:0:0:0:
289,263,20112,2,0,P|315:312|350:342,1,82.5,10|0,0:0|0:0,0:0:0:0:
357,341,20465,1,2,1:2:0:0:
450,142,20818,6,0,P|430:189|428:200,1,55,10|0,0:0|1:0,0:0:0:0:
315,126,21171,2,0,P|348:153|369:180,1,55,10|0,0:0|0:0,0:0:0:0:
423,337,21524,6,0,P|445:287|499:267,1,110,2|10,1:2|0:0,0:0:0:0:
504,340,22053,1,0,1:0:0:0:
358,380,22230,2,0,P|346:348|329:317,1,55,10|0,0:0|0:0,0:0:0:0:
317,227,22583,1,0,1:2:0:0:
317,227,22936,2,0,P|354:247|385:254,1,55,10|0,0:0|0:0,0:0:0:0:
383,271,23200,1,8,0:0:0:0:
383,271,23289,1,2,1:2:0:0:
367,170,23465,1,8,0:0:0:0:
252,181,23642,6,0,B|193:173|221:140|136:145,1,110,2|8,1:2|0:0,0:0:0:0:
104,203,24171,1,0,1:0:0:0:
37,102,24348,2,0,P|92:88|149:58,1,110,8|0,0:0|1:2,0:0:0:0:
266,131,25053,5,10,0:0:0:0:
266,131,25142,1,8,0:0:0:0:
340,23,25318,1,8,0:0:0:0:
340,23,25406,1,8,0:0:0:0:
340,23,25495,1,8,0:0:0:0:
186,124,25671,1,8,0:0:0:0:
186,124,25759,6,0,P|179:168|168:200,1,55,6|0,1:2|0:0,0:0:0:0:
200,299,26112,1,10,0:0:0:0:
133,320,26289,1,0,1:0:0:0:
261,239,26465,2,0,P|319:264|384:285,1,110,10|0,0:0|1:0,0:0:0:0:
461,121,27171,2,0,P|469:147|480:173,1,55,8|0,0:0|0:0,0:0:0:0:
474,198,27436,1,8,0:0:0:0:
474,198,27524,1,0,1:0:0:0:
382,174,27700,1,8,0:0:0:0:
483,289,27877,6,0,P|445:306|426:319,1,55,2|0,1:2|0:0,0:0:0:0:
304,333,28230,1,10,0:0:0:0:
356,378,28406,1,2,1:2:0:0:
345,257,28583,1,10,0:0:0:0:
345,257,28936,2,0,P|270:270|253:275,1,82.5,2|0,1:2|0:0,0:0:0:0:
197,259,29289,6,0,B|184:231|184:231|154:194,1,55,10|0,0:0|1:0,0:0:0:0:
160,64,29642,1,10,0:0:0:0:
160,64,29995,6,0,B|206:73|206:73|227:67|227:67|279:80,1,110,2|8,1:2|0:0,0:0:0:0:
231,139,30524,1,0,1:0:0:0:
327,27,30700,2,0,P|340:79|345:139,1,110,10|0,0:0|1:0,0:0:0:0:
294,327,31406,2,0,P|298:298|308:258,1,55,10|0,0:0|0:0,0:0:0:0:
282,250,31671,1,8,0:0:0:0:
282,250,31759,1,2,1:2:0:0:
370,306,31936,1,8,0:0:0:0:
476,213,32112,6,0,P|445:204|369:253,1,110,2|8,1:2|0:0,0:0:0:0:
439,282,32642,1,2,1:2:0:0:
486,189,32818,1,8,0:0:0:0:
485,189,33171,2,0,P|468:147|458:107,1,82.5,2|0,1:2|0:0,0:0:0:0:
468,86,33524,5,8,0:0:0:0:
468,86,33612,1,8,0:0:0:0:
373,148,33789,1,8,0:0:0:0:
373,148,33877,1,8,0:0:0:0:
373,148,33965,1,8,0:0:0:0:
301,27,34142,1,8,0:0:0:0:
301,27,34230,6,0,B|327:114|275:92|300:196,2,165,4|2|2,1:2|1:2|0:0,0:0:0:0:
239,66,35465,2,0,P|205:75|172:87,1,55,2|0,0:0|0:0,0:0:0:0:
103,125,35818,1,2,0:0:0:0:
103,125,35906,1,0,1:0:0:0:
103,125,35995,2,0,L|113:189,1,55,8|0,0:0|0:0,0:0:0:0:
167,246,36348,6,0,P|133:283|61:279,1,110,2|8,1:2|0:0,0:0:0:0:
9,365,36877,2,0,P|39:358|74:363,1,55,2|0,1:2|0:2,0:2:0:0:
66,363,37406,2,0,P|119:371|171:355,1,110,2|0,1:2|0:0,0:0:0:0:
256,314,37936,2,0,P|248:363|248:380,1,55,2|0,1:2|0:0,0:0:0:0:
320,351,38289,1,2,0:0:0:0:
217,248,38465,6,0,B|306:223|291:283|390:269,1,165,2|0,1:2|1:0,0:0:0:0:
376,270,39524,2,0,P|321:256|284:206,1,110,2|0,1:2|0:0,0:0:0:0:
232,116,40053,1,2,0:0:0:0:
232,116,40142,1,0,1:0:0:0:
232,116,40230,2,0,L|222:189,1,55,8|0,0:0|0:0,0:0:0:0:
99,88,40583,6,0,P|147:89|187:25,1,110,2|0,1:2|0:0,0:2:0:0:
260,44,41112,2,0,P|293:2|346:0,1,110,2|0,1:2|0:0,0:2:0:0:
401,55,41642,2,0,P|388:111|375:181,1,110,2|0,1:2|0:0,0:0:0:0:
316,119,42171,1,0,1:0:0:0:
316,119,42700,6,0,B|390:114|358:81|458:74,1,131.99999597168,4|0,1:0|1:0,0:0:0:0:
457,239,43230,1,14,0:0:0:0:
400,199,43406,1,0,1:0:0:0:
502,178,43583,1,0,1:0:0:0:
391,334,43759,6,0,P|367:289|352:273,1,65.9999979858399,14|0,0:0|1:0,0:0:0:0:
293,312,44112,1,2,1:2:0:0:
324,176,44289,1,12,0:0:0:0:
307,188,44465,2,0,L|266:184,2,32.99999899292,8|0|4,0:3|0:3|0:3,0:0:0:0:
82,70,44818,6,0,B|108:142|60:127|85:205,1,131.99999597168,6|0,1:2|1:0,0:0:0:0:
203,318,45348,1,12,0:0:0:0:
174,255,45524,1,0,1:0:0:0:
104,331,45700,1,0,1:0:0:0:
161,172,45877,6,0,P|209:190|238:191,1,65.9999979858399,14|0,0:0|1:0,0:0:0:0:
358,102,46230,1,6,1:2:0:0:
286,124,46406,1,0,1:0:0:0:
334,214,46583,1,10,0:0:0:0:
335,197,46671,1,8,0:0:0:0:
337,181,46759,1,8,0:0:0:0:
323,303,46936,6,0,P|368:334|450:303,1,131.99999597168,6|0,1:2|1:0,0:0:0:0:
490,163,47465,1,14,0:0:0:0:
435,211,47642,1,0,1:0:0:0:
507,270,47818,1,0,1:0:0:0:
418,140,47995,6,0,P|401:95|396:63,1,65.9999979858399,14|0,0:2|1:0,0:0:0:0:
336,142,48348,1,2,1:2:0:0:
465,37,48524,1,12,0:0:0:0:
479,53,48700,2,0,L|518:60,2,32.99999899292,8|8|4,0:3|0:3|0:3,0:0:0:0:
295,77,49053,6,0,B|223:83|245:114|170:133,1,131.99999597168,14|0,0:2|1:0,0:0:0:0:
226,292,49583,1,6,0:0:0:0:
259,206,49759,1,2,1:2:0:0:
189,219,49936,1,0,1:0:0:0:
94,83,50112,6,0,P|116:40|124:13,1,65.9999979858399,14|0,0:0|1:0,0:0:0:0:
110,209,50465,1,12,0:0:0:0:
26,108,50642,1,8,0:0:0:0:
26,108,50730,1,8,0:0:0:0:
26,108,50818,2,0,L|19:66,2,32.99999899292,8|8|4,0:3|0:3|0:3,0:0:0:0:
19,301,51171,6,0,B|68:296|68:296|92:311|92:311|160:306,1,131.99999597168,14|0,1:2|1:0,0:0:0:0:
283,254,51700,1,12,0:0:0:0:
216,241,51877,1,0,1:0:0:0:
267,324,52053,1,0,1:0:0:0:
362,227,52230,2,0,P|333:207|301:179,1,65.9999979858399,12|0,0:0|1:0,0:0:0:0:
297,114,52583,1,0,1:0:0:0:
474,183,52759,1,6,1:2:0:0:
454,200,52936,2,0,L|447:243,2,32.99999899292,8|8|4,0:3|0:3|0:3,0:0:0:0:
474,61,53289,6,0,P|434:98|356:72,1,131.99999597168,4|0,1:0|1:0,0:0:0:0:
202,64,53818,1,14,0:0:0:0:
257,25,53995,1,0,1:0:0:0:
283,131,54171,1,0,1:0:0:0:
136,114,54348,6,0,P|116:77|103:36,1,65.9999979858399,14|0,0:0|1:0,0:0:0:0:
164,223,54700,2,0,P|206:224|248:233,1,65.9999979858399,12|0,0:0|1:0,0:0:0:0:
56,192,55053,1,10,0:0:0:0:
45,204,55141,1,8,0:0:0:0:
34,216,55230,1,10,0:0:0:0:
301,272,55406,6,0,B|311:225|311:225|300:192|300:192|309:132,1,131.99999597168,14|0,0:2|1:0,0:0:0:0:
390,47,55936,1,14,0:0:0:0:
440,145,56112,1,0,1:0:0:0:
375,113,56289,1,0,1:0:0:0:
390,261,56465,6,0,P|440:246|478:237,1,65.9999979858399,14|0,0:0|1:0,0:0:0:0:
500,298,56818,1,0,1:0:0:0:
