osu file format v14

[General]
AudioFilename: audio.mp3
AudioLeadIn: 0
PreviewTime: 56384
Countdown: 0
SampleSet: Soft
StackLeniency: 0.7
Mode: 0
LetterboxInBreaks: 0
WidescreenStoryboard: 1

[Editor]
Bookmarks: 13828,15347,21423,39651,57879,70031,82183
DistanceSpacing: 0.9
BeatDivisor: 4
GridSize: 8
TimelineZoom: 1.3

[Metadata]
Title:Anata MAGIC (TV Size)
TitleUnicode:アナタMAGIC (TV Size)
Artist:monobright
ArtistUnicode:モノブライト
Creator:hypercyte
Version:Normal
Source:Gintama
Tags:銀魂 gintama 2006 op opening 6 blacken sam japanese anime male vocals kagura 神楽 sadaharu 定春 sakata gintoki 坂田 銀時 shimura shinpachi 志村 新八 hypercute china girl otsu concert otsuu fanclub rock jrock j-rock
BeatmapID:2568426
BeatmapSetID:1190128

[Difficulty]
HPDrainRate:4
CircleSize:3.5
OverallDifficulty:4
ApproachRate:6
SliderMultiplier:1.24
SliderTickRate:1

[Events]
//Background and Video events
0,0,"78315600_p0.jpg",0,0
Video,0,"anata MAGIC rf 24.mp4"
//Break Periods
//Storyboard Layer 0 (Background)
//Storyboard Layer 1 (Fail)
//Storyboard Layer 2 (Pass)
//Storyboard Layer 3 (Foreground)
//Storyboard Layer 4 (Overlay)
//Storyboard Sound Samples

[TimingPoints]
1687,379.746835443038,4,2,44,44,1,0
1687,-117.647058823529,4,2,44,44,0,0
12320,375,4,2,44,44,1,0
12320,-100,4,2,44,44,0,0
13444,394.736842105263,4,2,44,44,1,0
13838,379.746835443038,4,2,44,60,1,0
13838,-100,4,2,44,60,0,0
15347,-100,4,2,44,60,0,0
19913,-100,4,2,44,60,0,0
21423,379.746835443038,4,2,44,50,1,0
21423,-100,4,2,44,50,0,0
55979,405.405405405405,4,2,44,50,1,0
56384,379.746835443038,4,2,44,60,1,0
56384,-100,4,2,44,60,0,0
57879,-100,4,2,44,70,0,0
57892,379.746835443038,4,2,44,70,1,0
70043,-90.9090909090909,4,2,44,80,0,1
82195,380.952380952381,4,2,44,60,1,0
85242,379.746835443038,4,2,44,60,1,0
86760,376.175548589342,4,2,44,60,1,0
87512,377.358490566038,4,2,44,60,1,0
87889,375,4,2,44,60,1,0
88264,379.746835443038,4,2,44,60,1,0
88358,-100,4,2,44,50,0,0
89023,-100,4,2,44,40,0,0
89782,-100,4,2,44,30,0,0
90542,-100,4,2,44,20,0,0
91301,-100,4,2,44,10,0,0
91586,-100,4,2,44,5,0,0

[Colours]
Combo1 : 255,157,159
Combo2 : 156,181,245
Combo3 : 172,142,249
Combo4 : 244,159,221

[HitObjects]
293,95,1687,6,0,P|360:89|409:82,2,105.400002010345,2|0|0,0:0|0:0|0:0,0:0:0:0:
229,178,2826,1,0,0:0:0:0:
127,150,3205,2,0,P|92:98|119:51,2,105.400002010345,2|0|0,0:0|0:0|0:0,0:0:0:0:
229,178,4345,1,0,0:0:0:0:
310,244,4724,2,0,B|299:288|299:288|300:304|300:304|282:359,2,105.400002010345,2|0|0,0:0|0:0|0:0,0:0:0:0:
229,178,5864,1,0,0:0:0:0:
142,237,6243,5,2,0:0:0:0:
44,197,6623,1,0,0:0:0:0:
48,91,7003,1,2,0:0:0:0:
137,34,7383,1,0,0:0:0:0:
229,83,7762,6,0,P|333:77|359:78,2,105.400002010345,2|0|0,0:0|0:0|0:0,0:0:0:0:
172,172,8902,1,0,0:0:0:0:
79,122,9281,2,0,P|60:63|91:28,2,105.400002010345,2|0|0,0:0|0:0|0:0,0:0:0:0:
172,172,10421,1,0,0:0:0:0:
263,224,10800,2,0,P|335:211|376:205,1,105.400002010345,2|0,0:0|0:0,0:0:0:0:
397,162,11370,1,0,0:0:0:0:
397,162,11560,2,0,P|469:149|510:143,2,105.400002010345,2|0|2,0:0|0:0|0:0,0:0:0:0:
131,254,13838,6,0,P|132:223|160:197,1,62,12|0,0:1|0:0,0:0:0:0:
204,181,14217,2,0,L|276:199,1,62,12|0,0:1|0:0,0:0:0:0:
296,241,14597,2,0,L|368:259,1,62,12|0,0:1|0:0,0:0:0:0:
411,262,14977,2,0,P|430:239|431:208,1,62,12|0,0:1|0:0,0:0:0:0:
407,158,15356,5,12,0:0:0:0:
336,71,15736,2,0,B|276:80|276:80|269:85|269:85|209:94,1,124,10|2,0:1|0:0,0:0:0:0:
162,72,16306,1,10,0:0:0:0:
125,179,16686,1,8,0:1:0:0:
125,179,16875,2,0,P|193:197|201:248,1,124,10|10,0:0|0:1,0:0:0:0:
178,292,17445,1,10,0:0:0:0:
99,370,17825,1,10,0:0:0:0:
32,280,18205,1,10,0:1:0:0:
101,190,18584,6,2,L|88:125,2,62,10|10|10,0:0|0:1|0:0,0:0:0:0:
150,226,19154,1,2,0:0:0:0:
150,226,19344,1,8,0:0:0:0:
239,160,19724,5,8,0:1:0:0:
239,160,19913,2,0,P|279:144|332:204,2,124,14|14|14,0:0|0:1|0:1,0:0:0:0:
194,262,21053,2,0,L|208:326,1,62,14|8,0:1|0:1,0:0:0:0:
251,356,21423,6,0,B|287:358|311:337|309:332|338:314|376:317,2,124,14|8|8,0:0|0:1|0:0,0:0:0:0:
202,338,22372,1,8,0:0:0:0:
202,338,22562,1,8,0:1:0:0:
90,330,22941,2,0,P|56:281|87:217,1,124,10|8,0:0|0:1,0:0:0:0:
131,212,23511,5,8,0:1:0:0:
131,212,23701,2,0,P|159:168|126:109,1,124,0|8,0:0|0:1,0:0:0:0:
199,24,24460,1,10,0:0:0:0:
298,75,24840,1,8,0:1:0:0:
392,16,25220,2,0,L|455:30,1,62,10|8,0:0|0:0,0:0:0:0:
499,60,25600,1,8,0:1:0:0:
461,164,25979,1,10,0:0:0:0:
414,253,26359,2,0,L|348:238,1,62,8|8,0:1|0:1,0:0:0:0:
310,203,26739,6,0,P|257:208|254:276,2,124,0|8|10,0:0|0:1|0:0,0:0:0:0:
377,114,27878,1,8,0:1:0:0:
298,35,28258,2,0,L|163:55,1,124,8|8,0:0|0:1,0:0:0:0:
80,112,29017,2,0,P|58:196|80:220,1,124,10|8,0:0|0:1,0:0:0:0:
132,242,29587,5,8,0:1:0:0:
132,242,29777,2,0,P|195:230|232:290,1,124,0|8,0:0|0:1,0:0:0:0:
330,321,30536,2,0,L|456:295,2,124,10|10|8,0:0|0:1|0:0,0:0:0:0:
228,364,31676,1,8,0:1:0:0:
159,276,32055,2,0,P|80:276|53:330,1,124,10|8,0:0|0:1,0:0:0:0:
61,363,32625,5,8,0:1:0:0:
61,363,32815,1,0,0:0:0:0:
172,363,33195,1,8,0:1:0:0:
283,361,33574,2,0,L|419:359,1,124,10|8,0:0|0:1,0:0:0:0:
489,283,34334,2,0,P|512:208|474:178,1,124,8|8,0:0|0:1,0:0:0:0:
395,116,35093,5,10,0:0:0:0:
307,184,35473,2,0,L|220:170,1,62,10|8,0:1|0:1,0:0:0:0:
190,163,35853,2,0,P|159:103|201:58,2,124,2|8|8,0:0|0:1|0:0,0:0:0:0:
300,147,36992,2,0,P|340:160|380:151,1,62,8|2,0:1|0:0,0:0:0:0:
403,123,37372,2,0,P|411:57|354:29,1,124,10|8,0:0|0:1,0:0:0:0:
262,63,38131,1,10,0:0:0:0:
151,48,38511,2,0,B|155:91|155:91|171:120|171:120|177:188,2,124,10|2|10,0:1|0:0|0:1,0:0:0:0:
262,63,39650,6,0,B|317:49|317:49|323:42|323:42|387:24,2,124,14|8|8,0:0|0:1|0:0,0:0:0:0:
216,93,40600,1,0,0:0:0:0:
216,93,40790,1,8,0:1:0:0:
113,136,41169,2,0,P|92:192|126:241,1,124,10|8,0:0|0:1,0:0:0:0:
179,259,41739,1,8,0:1:0:0:
179,259,41929,2,0,P|305:231|329:226,1,124,0|8,0:0|0:1,0:0:0:0:
401,279,42688,5,10,0:0:0:0:
453,180,43068,1,8,0:1:0:0:
389,88,43448,2,0,L|315:103,1,62,8|8,0:0|0:0,0:0:0:0:
276,122,43828,2,0,P|226:102|231:31,1,124,8|10,0:1|0:0,0:0:0:0:
334,15,44587,2,0,L|422:34,1,62,8|8,0:1|0:1,0:0:0:0:
445,51,44967,6,0,P|485:117|448:154,2,124,2|10|10,0:0|0:1|0:0,0:0:0:0:
338,84,46106,1,8,0:1:0:0:
238,32,46486,2,0,P|172:23|119:67,1,124,8|8,0:0|0:1,0:0:0:0:
38,122,47245,2,0,L|62:252,1,124,10|8,0:0|0:1,0:0:0:0:
86,299,47815,5,8,0:1:0:0:
86,299,48005,2,0,P|149:287|186:347,1,124,0|8,0:0|0:1,0:0:0:0:
290,293,48764,2,0,P|331:246|395:263,2,124,10|10|8,0:0|0:1|0:0,0:0:0:0:
367,373,49904,1,8,0:1:0:0:
477,358,50283,2,0,B|488:336|488:336|467:209,1,124,10|8,0:0|0:1,0:0:0:0:
459,188,50853,5,8,0:1:0:0:
459,188,51043,1,2,0:0:0:0:
477,78,51423,1,10,0:1:0:0:
375,31,51802,2,0,L|233:47,1,124,10|8,0:0|0:1,0:0:0:0:
195,141,52562,1,8,0:0:0:0:
88,109,52941,1,8,0:1:0:0:
61,217,53321,6,0,P|91:272|110:348,1,124,10|8,0:0|0:1,0:0:0:0:
161,347,53891,1,8,0:1:0:0:
161,347,54081,1,0,0:0:0:0:
256,290,54460,1,8,0:1:0:0:
359,332,54840,1,10,0:0:0:0:
433,242,55220,2,0,L|439:172,1,62,8|0,0:1|0:0,0:0:0:0:
430,124,55600,2,0,P|369:87|328:133,1,124,8|8,0:0|0:1,0:0:0:0:
313,167,56181,5,0,0:0:0:0:
313,167,56384,1,10,0:1:0:0:
218,107,56763,1,10,0:1:0:0:
131,178,57143,1,10,0:1:0:0:
35,120,57523,1,10,0:1:0:0:
7,228,57892,6,0,B|28:282|28:282|26:297|26:297|47:361,1,124,14|8,0:0|0:1,0:0:0:0:
143,299,58651,2,0,P|189:285|209:293,1,62,10|0,0:0|0:0,0:0:0:0:
243,324,59031,2,0,P|289:338|309:330,1,62,8|2,0:1|0:0,0:0:0:0:
343,298,59410,5,10,0:0:0:0:
298,195,59790,1,8,0:1:0:0:
390,133,60170,2,0,P|396:91|401:62,1,62,10|2,0:0|0:0,0:0:0:0:
414,18,60550,1,8,0:1:0:0:
304,37,60929,6,0,P|228:37|166:35,1,124,10|8,0:0|0:1,0:0:0:0:
125,50,61499,1,0,0:0:0:0:
125,50,61689,2,0,P|92:102|123:159,1,124,10|8,0:0|0:1,0:0:0:0:
203,223,62448,5,10,0:0:0:0:
125,303,62828,1,10,0:1:0:0:
212,372,63208,2,0,B|247:368|247:368|252:366|252:366|282:363,1,62,14|8,0:0|0:1,0:0:0:0:
311,323,63588,2,0,B|346:327|346:327|351:329|351:329|381:332,1,62,10|8,0:1|0:1,0:0:0:0:
427,341,63967,6,0,P|457:292|423:241,1,124,14|8,0:1|0:1,0:0:0:0:
347,160,64727,1,10,0:0:0:0:
409,67,65107,1,8,0:1:0:0:
313,9,65486,6,0,P|240:11|182:14,1,124,10|8,0:0|0:1,0:0:0:0:
103,85,66246,1,10,0:0:0:0:
186,156,66626,1,8,0:1:0:0:
133,254,67005,6,0,P|98:279|68:277,1,62,10|8,0:1|0:1,0:0:0:0:
29,256,67385,2,0,P|20:211|34:188,1,62,4|4,0:3|0:3,0:0:0:0:
66,159,67765,2,0,P|94:86|56:47,1,124,10|10,0:3|0:1,0:0:0:0:
178,86,68524,6,0,P|259:79|318:73,2,124,10|8|8,0:0|0:1|0:1,0:0:0:0:
127,182,69664,2,0,P|159:212|157:250,1,62,8|8,0:1|0:1,0:0:0:0:
213,254,70043,6,0,B|257:265|291:246|280:235|317:213|351:226,1,136.400004162598,14|10,0:0|0:1,0:0:0:0:
440,290,70803,1,10,0:0:0:0:
501,183,71183,1,10,0:1:0:0:
445,73,71562,6,0,P|351:37|300:65,1,136.400004162598,10|10,0:0|0:1,0:0:0:0:
278,91,72132,1,0,0:0:0:0:
278,91,72322,2,0,L|206:81,1,68.2000020812989,10|0,0:0|0:0,0:0:0:0:
150,65,72702,1,10,0:1:0:0:
87,170,73081,5,10,0:0:0:0:
201,213,73461,1,10,0:1:0:0:
202,335,73841,1,10,0:0:0:0:
83,368,74221,1,10,0:1:0:0:
9,269,74600,2,0,P|30:159|36:122,1,136.400004162598,10|10,0:0|0:1,0:0:0:0:
132,61,75360,6,0,P|189:50|204:61,1,68.2000020812989,14|8,0:0|0:1,0:0:0:0:
248,83,75740,2,0,P|235:142|233:160,1,68.2000020812989,14|8,0:0|0:1,0:0:0:0:
259,205,76119,6,0,P|310:249|371:209,2,136.400004162598,14|10|10,0:1|0:1|0:0,0:0:0:0:
323,100,77259,1,10,0:1:0:0:
433,154,77638,5,10,0:0:0:0:
508,57,78018,1,10,0:1:0:0:
399,1,78398,1,10,0:0:0:0:
323,100,78778,1,10,0:1:0:0:
210,50,79157,6,0,P|139:54|60:57,2,136.400004162598,10|10|10,0:0|0:1|0:0,0:0:0:0:
318,107,80297,1,10,0:1:0:0:
272,221,80676,6,0,P|240:195|204:199,1,68.2000020812989,14|8,0:1|0:0,0:0:0:0:
158,220,81056,2,0,P|132:252|136:288,1,68.2000020812989,12|8,0:1|0:0,0:0:0:0:
160,332,81436,2,0,P|192:358|228:354,1,68.2000020812989,12|8,0:1|0:0,0:0:0:0:
270,327,81816,1,12,0:1:0:0:
380,314,82195,6,0,P|375:236|372:179,1,124,14|12,0:0|0:1,0:0:0:0:
395,139,82766,1,8,0:1:0:0:
395,139,82956,2,0,P|391:90|390:69,1,62,14|0,0:0|0:0,0:0:0:0:
412,25,83337,1,14,0:1:0:0:
300,14,83718,6,0,P|214:18|180:38,1,124,14|12,0:0|0:1,0:0:0:0:
150,81,84290,1,8,0:1:0:0:
150,81,84480,2,0,L|89:74,2,62,14|2|14,0:0|0:0|0:1,0:0:0:0:
225,163,85242,6,0,P|260:239|235:271,1,124,14|12,0:0|0:1,0:0:0:0:
197,297,85811,1,8,0:1:0:0:
197,297,86001,1,14,0:0:0:0:
114,221,86381,1,12,0:1:0:0:
12,267,86760,6,0,P|1:324|51:361,1,124,14|12,0:0|0:1,0:0:0:0:
102,347,87324,1,8,0:1:0:0:
102,347,87512,2,0,B|132:341|132:341|142:336|142:336|171:331,1,62,14|8,0:0|0:0,0:0:0:0:
214,352,87889,2,0,B|244:346|244:346|254:341|254:341|283:336,1,62,8|8,0:0|0:1,0:0:0:0:
326,357,88264,5,12,0:1:0:0:
256,192,88453,12,0,91586,0:0:0:0:
