osu file format v14

[General]
AudioFilename: audio.mp3
AudioLeadIn: 0
PreviewTime: 56384
Countdown: 0
SampleSet: Soft
StackLeniency: 0.4
Mode: 0
LetterboxInBreaks: 0
WidescreenStoryboard: 1

[Editor]
Bookmarks: 13838,15347,21423,39651,57879,70031,82183
DistanceSpacing: 0.9
BeatDivisor: 4
GridSize: 8
TimelineZoom: 1.9

[Metadata]
Title:Anata MAGIC (TV Size)
TitleUnicode:アナタMAGIC (TV Size)
Artist:monobright
ArtistUnicode:モノブライト
Creator:hypercyte
Version:Insane
Source:Gintama
Tags:銀魂 gintama 2006 op opening 6 blacken sam japanese anime male vocals kagura 神楽 sadaharu 定春 sakata gintoki 坂田 銀時 shimura shinpachi 志村 新八 hypercute china girl otsu concert otsuu fanclub rock jrock j-rock
BeatmapID:2676959
BeatmapSetID:1190128

[Difficulty]
HPDrainRate:5.5
CircleSize:4
OverallDifficulty:7
ApproachRate:8.5
SliderMultiplier:1.64
SliderTickRate:1

[Events]
//Background and Video events
Video,0,"anata MAGIC rf 24.mp4"
0,0,"78315600_p0.jpg",0,0
//Break Periods
//Storyboard Layer 0 (Background)
//Storyboard Layer 1 (Fail)
//Storyboard Layer 2 (Pass)
//Storyboard Layer 3 (Foreground)
//Storyboard Layer 4 (Overlay)
//Storyboard Sound Samples

[TimingPoints]
1687,379.746835443038,4,2,44,44,1,0
1687,-153.846153846153,4,2,44,44,0,0
12319,-208.333333333333,4,2,44,44,0,0
12320,375,4,2,44,44,1,0
12320,-208.333333333333,4,2,44,44,0,0
13444,394.736842105263,4,2,44,44,1,0
13838,379.746835443038,4,2,44,60,1,0
13838,-100,4,2,44,60,0,0
15347,-100,4,2,44,60,0,0
19913,-100,4,2,44,60,0,0
21423,379.746835443038,4,2,44,50,1,0
21423,-117.647058823529,4,2,44,50,0,0
55979,405.405405405405,4,2,44,50,1,0
56384,379.746835443038,4,2,44,60,1,0
57892,379.746835443038,4,2,44,70,1,0
57892,-90.9090909090909,4,2,44,70,0,0
70043,-83.3333333333333,4,2,44,80,0,1
82195,380.952380952381,4,2,44,60,1,0
82195,-83.3333333333333,4,2,44,60,0,0
85242,379.746835443038,4,2,44,60,1,0
85242,-83.3333333333333,4,2,44,60,0,0
86760,376.175548589342,4,2,44,60,1,0
86760,-83.3333333333333,4,2,44,60,0,0
87512,377.358490566038,4,2,44,60,1,0
87512,-83.3333333333333,4,2,44,60,0,0
87889,375,4,2,44,60,1,0
88264,379.746835443038,4,2,44,60,1,0
88358,-83.3333333333333,4,2,44,50,0,0
89023,-83.3333333333333,4,2,44,40,0,0
89782,-83.3333333333333,4,2,44,30,0,0
90542,-83.3333333333333,4,2,44,20,0,0
91301,-83.3333333333333,4,2,44,10,0,0
91586,-83.3333333333333,4,2,44,5,0,0

[Colours]
Combo1 : 255,157,159
Combo2 : 156,181,245
Combo3 : 172,142,249
Combo4 : 244,159,221

[HitObjects]
156,249,1687,6,0,P|209:277|259:244,1,106.599995120239,2|0,0:0|0:0,0:0:0:0:
413,362,2446,2,0,P|395:275|388:247,1,106.599995120239
354,131,3016,5,0,0:0:0:0:
354,131,3205,2,0,B|334:145|334:145|247:157,1,106.599995120239,2|0,0:0|0:0,0:0:0:0:
106,265,3965,2,0,P|82:222|110:170,1,106.599995120239
197,216,4535,5,0,0:0:0:0:
197,216,4724,2,0,P|283:224|307:227,1,106.599995120239,2|0,0:0|0:0,0:0:0:0:
410,326,5484,2,0,P|448:268|424:241,1,106.599995120239
352,173,6054,5,0,0:0:0:0:
352,173,6243,1,2,0:0:0:0:
230,301,6623,2,0,P|185:290|174:287,1,53.2999975601197
75,322,7003,2,0,P|55:281|93:228,1,106.599995120239,2|0,0:0|0:0,0:0:0:0:
184,175,7573,5,0,0:0:0:0:
184,175,7668,1,0,0:0:0:0:
184,175,7762,2,0,P|266:195|296:205,2,106.599995120239,2|0|0,0:0|0:0|0:0,0:0:0:0:
391,87,8902,1,0,0:0:0:0:
447,163,9092,5,0,0:0:0:0:
447,163,9281,2,0,P|423:237|414:279,2,106.599995120239,2|0|0,0:0|0:0|0:0,0:0:0:0:
279,147,10421,1,0,0:0:0:0:
71,132,10800,6,0,P|74:53|103:39,1,106.599995120239,2|0,0:0|0:0,0:0:0:0:
190,72,11370,1,0,0:0:0:0:
190,72,11560,2,0,P|261:63|316:57,1,106.599995120239
458,205,12320,6,0,P|475:277|403:303,1,157.44000384375,2|0,0:0|0:0,0:0:0:0:
273,198,13444,1,2,0:0:0:0:
262,202,13838,6,0,B|241:142|241:142|289:88,1,123,12|0,0:1|0:0,0:0:0:0:
337,161,14217,2,0,P|384:143|420:218,1,123,12|0,0:1|0:0,0:0:0:0:
359,255,14597,2,0,P|355:324|345:382,1,123,12|0,0:1|0:0,0:0:0:0:
273,343,14977,1,12,0:1:0:0:
273,343,15167,1,0,0:0:0:0:
431,326,15356,6,0,P|505:318|541:317,1,82,12|0,0:0|0:0,0:0:0:0:
359,255,15736,2,0,B|345:215|345:215|376:190,1,82,10|0,0:1|0:0,0:0:0:0:
423,35,16116,1,2,0:0:0:0:
355,94,16306,1,10,0:0:0:0:
447,131,16496,1,8,0:1:0:0:
447,131,16686,1,8,0:1:0:0:
294,28,16875,6,0,P|247:36|226:78,2,82,10|0|10,0:0|0:0|0:1,0:0:0:0:
340,167,17445,2,0,P|320:236|316:262,1,82,10|0,0:0|0:0,0:0:0:0:
230,144,17825,2,0,P|210:213|206:239,1,82,10|8,0:0|0:1,0:0:0:0:
117,121,18205,2,0,P|97:190|93:216,1,82,10|8,0:1|0:0,0:0:0:0:
193,382,18584,5,8,0:0:0:0:
243,278,18774,1,10,0:1:0:0:
139,283,18964,1,10,0:0:0:0:
298,359,19154,2,0,B|334:350|334:350|347:352|347:352|386:342,1,82,2|8,0:0|0:0,0:0:0:0:
426,250,19534,1,8,0:1:0:0:
426,250,19724,1,8,0:1:0:0:
325,126,19913,6,0,B|270:132|270:132|251:145|251:145|197:152,1,123,14|0,0:0|0:0,0:0:0:0:
138,221,20293,2,0,P|126:150|108:87,1,123,14|0,0:1|0:0,0:0:0:0:
46,170,20673,2,0,P|15:211|57:278,1,123,14|0,0:1|0:0,0:0:0:0:
121,317,21053,2,0,B|154:305|190:329|178:337|205:361|243:350,1,123,14|8,0:1|0:1,0:0:0:0:
333,269,21423,6,0,P|345:198|362:119,1,139.400002658844,14|8,0:0|0:1,0:0:0:0:
321,58,21992,1,0,0:0:0:0:
249,111,22182,2,0,P|192:104|166:103,1,69.700001329422,8|8,0:0|0:0,0:0:0:0:
302,194,22562,1,8,0:1:0:0:
302,194,22752,1,0,0:0:0:0:
201,296,22941,2,0,P|153:286|139:194,1,139.400002658844,10|8,0:0|0:1,0:0:0:0:
202,155,23511,1,8,0:1:0:0:
315,277,23701,6,0,P|355:266|392:258,1,69.700001329422,0|8,0:0|0:0,0:0:0:0:
265,367,24081,2,0,P|231:374|197:384,1,69.700001329422,8|0,0:1|0:0,0:0:0:0:
301,220,24460,6,0,B|327:247|327:247|313:281,1,69.700001329422,10|0,0:0|0:0,0:0:0:0:
411,384,24840,2,0,P|417:345|425:307,1,69.700001329422,8|0,0:1|0:0,0:0:0:0:
439,215,25220,1,10,0:0:0:0:
439,215,25410,1,8,0:0:0:0:
295,256,25600,2,0,P|258:257|230:225,1,69.700001329422,8|0,0:1|0:0,0:0:0:0:
159,95,25979,2,0,P|91:106|75:176,1,139.400002658844,10|8,0:0|0:1,0:0:0:0:
145,217,26549,1,8,0:1:0:0:
275,140,26739,6,0,P|358:157|419:169,1,139.400002658844,0|8,0:0|0:1,0:0:0:0:
229,364,27498,6,0,P|188:282|215:247,1,139.400002658844,10|8,0:0|0:1,0:0:0:0:
289,226,28068,1,0,0:0:0:0:
410,289,28258,2,0,P|407:228|408:137,1,139.400002658844,8|8,0:0|0:1,0:0:0:0:
462,48,28828,1,0,0:0:0:0:
462,48,29017,2,0,P|477:84|409:151,1,139.400002658844,10|8,0:0|0:1,0:0:0:0:
356,74,29587,1,8,0:1:0:0:
246,171,29777,6,0,P|203:164|172:158,1,69.700001329422,0|8,0:0|0:0,0:0:0:0:
100,47,30157,2,0,P|121:78|106:107,1,69.700001329422,8|0,0:1|0:0,0:0:0:0:
45,251,30536,6,0,B|57:229|57:229|28:103,1,139.400002658844,10|10,0:0|0:1,0:0:0:0:
34,360,31296,1,8,0:0:0:0:
34,360,31486,1,8,0:0:0:0:
116,322,31676,2,0,P|172:329|194:331,1,69.700001329422,8|0,0:1|0:0,0:0:0:0:
319,384,32055,6,0,P|339:330|278:286,1,139.400002658844,10|8,0:0|0:1,0:0:0:0:
197,346,32625,1,8,0:1:0:0:
231,182,32815,6,0,P|239:141|242:101,1,69.700001329422,0|8,0:0|0:0,0:0:0:0:
154,99,33195,2,0,P|146:140|143:180,1,69.700001329422,8|8,0:1|0:0,0:0:0:0:
27,224,33574,6,0,B|63:204|101:236|89:246|120:265|164:247,1,139.400002658844,10|8,0:0|0:1,0:0:0:0:
378,338,34334,1,8,0:0:0:0:
378,338,34524,1,8,0:0:0:0:
339,263,34714,2,0,P|282:261|269:278,1,69.700001329422,8|0,0:1|0:0,0:0:0:0:
408,138,35093,6,0,B|435:163|435:163|418:203,1,69.700001329422,10|8,0:0|0:0,0:0:0:0:
337,170,35473,1,10,0:1:0:0:
337,170,35663,1,8,0:1:0:0:
248,44,35853,2,0,P|216:81|252:161,1,139.400002658844,2|8,0:0|0:1,0:0:0:0:
319,274,36612,6,0,P|308:317|223:301,1,139.400002658844,8|8,0:0|0:1,0:0:0:0:
120,202,37182,1,2,0:0:0:0:
53,260,37372,2,0,P|49:233|37:186,1,69.700001329422,10|8,0:0|0:0,0:0:0:0:
144,117,37752,2,0,P|182:130|191:163,1,69.700001329422,8|0,0:1|0:0,0:0:0:0:
212,254,38131,5,10,0:0:0:0:
212,254,38321,1,8,0:0:0:0:
328,145,38511,6,0,P|374:158|400:166,1,69.700001329422,10|8,0:1|0:1,0:0:0:0:
239,243,38891,2,0,P|285:256|311:264,1,69.700001329422,2|8,0:0|0:0,0:0:0:0:
140,336,39271,2,0,P|186:349|212:357,1,69.700001329422,10|0,0:1|0:0,0:0:0:0:
402,324,39650,6,0,P|410:271|334:224,1,139.400002658844,14|8,0:0|0:1,0:0:0:0:
180,105,40410,1,8,0:0:0:0:
180,105,40600,1,0,0:0:0:0:
247,59,40790,2,0,P|294:68|327:73,1,69.700001329422,8|0,0:1|0:0,0:0:0:0:
181,121,41169,2,0,P|123:152|125:222,1,139.400002658844,10|8,0:0|0:1,0:0:0:0:
206,223,41739,1,8,0:1:0:0:
359,174,41929,6,0,P|388:208|382:236,1,69.700001329422,0|8,0:0|0:0,0:0:0:0:
311,268,42309,2,0,P|282:234|288:206,1,69.700001329422,8|8,0:1|0:0,0:0:0:0:
308,96,42688,6,0,B|286:113|286:113|176:81,1,139.400002658844,10|8,0:0|0:1,0:0:0:0:
55,199,43448,1,8,0:0:0:0:
55,199,43638,1,8,0:0:0:0:
117,148,43828,2,0,P|166:161|174:195,1,69.700001329422,8|0,0:1|0:0,0:0:0:0:
242,310,44207,2,0,B|255:255|255:255|254:242|254:242|270:173,1,139.400002658844,10|8,0:0|0:1,0:0:0:0:
339,132,44777,1,8,0:1:0:0:
436,267,44967,5,2,0:0:0:0:
357,234,45157,1,10,0:0:0:0:
426,186,45347,1,10,0:1:0:0:
431,279,45536,1,10,0:0:0:0:
309,328,45726,6,0,P|221:316|153:309,1,139.400002658844,10|8,0:0|0:1,0:0:0:0:
26,203,46486,2,0,P|11:149|79:88,1,139.400002658844,8|8,0:0|0:1,0:0:0:0:
154,106,47055,1,0,0:0:0:0:
186,222,47245,2,0,P|232:210|345:188,1,139.400002658844,10|8,0:0|0:1,0:0:0:0:
285,276,47815,1,8,0:1:0:0:
256,118,48005,6,0,P|270:67|296:56,1,69.700001329422,0|8,0:0|0:0,0:0:0:0:
365,58,48385,2,0,P|392:80|398:113,1,69.700001329422,8|0,0:1|0:0,0:0:0:0:
449,297,48764,6,0,P|463:210|475:157,1,139.400002658844,10|10,0:0|0:1,0:0:0:0:
307,124,49524,1,8,0:0:0:0:
342,197,49714,1,8,0:0:0:0:
273,250,49904,2,0,L|198:241,1,69.700001329422,8|0,0:1|0:0,0:0:0:0:
68,109,50283,1,10,0:0:0:0:
68,109,50473,1,0,0:0:0:0:
143,126,50663,2,0,L|127:204,1,69.700001329422,8|8,0:1|0:1,0:0:0:0:
233,342,51043,5,2,0:0:0:0:
276,269,51233,1,10,0:0:0:0:
352,314,51423,1,10,0:1:0:0:
352,314,51612,1,10,0:0:0:0:
449,241,51802,6,0,P|476:170|423:116,1,139.400002658844,10|8,0:0|0:1,0:0:0:0:
352,314,52562,1,8,0:0:0:0:
352,314,52752,1,8,0:0:0:0:
314,234,52941,2,0,P|268:239|256:261,1,69.700001329422,8|0,0:1|0:0,0:0:0:0:
381,179,53321,1,10,0:0:0:0:
123,219,53701,1,8,0:1:0:0:
123,219,53891,1,8,0:1:0:0:
193,303,54081,2,0,P|202:221|212:143,1,139.400002658844,0|8,0:0|0:1,0:0:0:0:
69,61,54840,6,0,P|100:44|138:57,1,69.700001329422,10|0,0:0|0:0,0:0:0:0:
199,188,55220,2,0,P|209:139|217:107,1,69.700001329422,8|0,0:1|0:0,0:0:0:0:
349,57,55600,2,0,B|315:67|315:67|281:48,1,69.700001329422,8|0,0:0|0:0,0:0:0:0:
190,191,55979,1,8,0:1:0:0:
218,114,56181,1,0,0:0:0:0:
158,268,56384,5,10,0:1:0:0:
158,268,56763,5,10,0:1:0:0:
158,268,57143,5,10,0:1:0:0:
158,268,57523,5,10,0:1:0:0:
303,361,57892,6,0,B|317:304|317:304|327:290|327:290|343:228,1,135.300004129028,14|0,0:0|0:0,0:0:0:0:
343,209,58271,2,0,P|288:190|265:215,1,90.2000027526856,8|8,0:1|0:0,0:0:0:0:
181,305,58651,1,10,0:0:0:0:
102,235,58841,1,0,0:0:0:0:
174,142,59031,2,0,L|156:35,1,90.2000027526856,8|2,0:1|0:0,0:0:0:0:
343,209,59410,6,0,P|399:209|412:160,1,90.2000027526856,10|0,0:0|0:0,0:0:0:0:
301,53,59790,2,0,P|290:107|281:157,1,90.2000027526856,8|0,0:1|0:0,0:0:0:0:
249,263,60170,1,10,0:0:0:0:
249,263,60265,1,2,0:0:0:0:
249,263,60360,1,2,0:0:0:0:
157,187,60550,2,0,P|100:194|56:199,1,90.2000027526856,8|0,0:1|0:0,0:0:0:0:
257,273,60929,6,0,P|299:223|366:255,1,135.300004129028,10|0,0:0|0:0,0:0:0:0:
385,248,61309,2,0,P|417:211|400:167,1,90.2000027526856,8|0,0:1|0:0,0:0:0:0:
298,49,61689,2,0,P|316:120|324:157,1,90.2000027526856,10|2,0:0|0:0,0:0:0:0:
258,273,62069,2,0,P|188:288|172:256,1,90.2000027526856,8|0,0:1|0:0,0:0:0:0:
123,171,62448,1,10,0:0:0:0:
42,233,62638,1,0,0:0:0:0:
42,233,62733,1,2,0:0:0:0:
42,233,62828,2,0,P|21:183|45:129,1,90.2000027526856,10|0,0:1|0:0,0:0:0:0:
201,49,63208,1,14,0:0:0:0:
315,184,63398,5,8,0:1:0:0:
332,187,63493,1,8,0:1:0:0:
350,188,63588,1,10,0:1:0:0:
367,184,63683,1,8,0:1:0:0:
385,172,63778,1,8,0:1:0:0:
398,154,63873,1,8,0:1:0:0:
404,133,63967,6,0,P|391:68|347:53,1,90.2000027526856,14|0,0:1|0:0,0:0:0:0:
235,152,64347,2,0,P|157:141|119:137,1,90.2000027526856,8|0,0:1|0:0,0:0:0:0:
312,274,64727,2,0,P|320:205|326:145,1,90.2000027526856,10|0,0:0|0:0,0:0:0:0:
374,57,65107,2,0,P|425:68|435:125,1,90.2000027526856,8|0,0:1|0:0,0:0:0:0:
469,321,65486,6,0,B|420:349|378:304|395:295|359:245|298:280,1,180.400005505371,10|8,0:0|0:1,0:0:0:0:
185,358,66056,1,2,0:0:0:0:
185,358,66151,1,2,0:0:0:0:
185,358,66246,2,0,P|163:320|117:315,1,90.2000027526856,10|0,0:0|0:0,0:0:0:0:
14,188,66626,2,0,P|66:203|117:211,1,90.2000027526856,8|0,0:1|0:0,0:0:0:0:
37,346,67005,5,10,0:1:0:0:
27,325,67100,1,8,0:1:0:0:
31,302,67195,1,8,0:1:0:0:
44,284,67290,1,8,0:1:0:0:
65,278,67385,2,0,P|94:280|112:297,3,45.1000013763428,6|4|4|4,0:3|0:3|0:3|0:3,0:0:0:0:
37,201,67765,2,0,L|32:151,3,45.1000013763428,10|8|8|8,0:3|0:3|0:3|0:3,0:0:0:0:
80,97,68145,5,10,0:1:0:0:
102,93,68240,1,8,0:1:0:0:
124,95,68335,1,8,0:1:0:0:
143,105,68429,1,8,0:1:0:0:
156,122,68524,2,0,P|152:195|150:241,1,90.2000027526856,10|8,0:0|0:1,0:0:0:0:
275,56,68904,5,8,0:1:0:0:
306,58,68999,1,8,0:1:0:0:
332,74,69094,1,8,0:1:0:0:
350,98,69189,1,8,0:1:0:0:
350,126,69284,2,0,L|336:176,3,45.1000013763428,8|8|8|8,0:1|0:1|0:1|0:1,0:0:0:0:
265,204,69664,2,0,L|276:258,3,45.1000013763428,8|8|8|8,0:1|0:1|0:1|0:1,0:0:0:0:
342,302,70043,6,0,B|383:287|415:326|393:336|430:372|475:351,1,147.599995495606,14|0,0:0|0:0,0:0:0:0:
499,325,70423,2,0,P|488:268|477:221,1,98.3999969970704,10|0,0:1|0:0,0:0:0:0:
416,79,70803,2,0,B|400:95|400:95|310:110,1,98.3999969970704,10|0,0:0|0:0,0:0:0:0:
238,207,71183,2,0,P|183:201|173:152,1,98.3999969970704,10|0,0:1|0:0,0:0:0:0:
360,358,71562,6,0,B|351:341|351:341|376:215,1,147.599995495606,10|0,0:0|0:0,0:0:0:0:
396,190,71942,2,0,P|453:210|450:261,1,98.3999969970704,10|0,0:1|0:0,0:0:0:0:
259,313,72322,2,0,P|193:328|154:336,1,98.3999969970704,10|0,0:0|0:0,0:0:0:0:
310,131,72702,2,0,P|306:183|302:237,1,98.3999969970704,10|0,0:1|0:0,0:0:0:0:
114,215,73081,6,0,P|57:180|77:95,1,147.599995495606,10|0,0:0|0:0,0:0:0:0:
85,94,73461,2,0,P|131:87|172:134,1,98.3999969970704,10|0,0:1|0:0,0:0:0:0:
294,234,73841,1,10,0:0:0:0:
218,273,74031,1,0,0:0:0:0:
290,143,74221,2,0,P|300:94|313:47,1,98.3999969970704,10|0,0:1|0:0,0:0:0:0:
383,244,74600,6,0,P|422:231|433:172,1,98.3999969970704,10|0,0:0|0:0,0:0:0:0:
248,236,74980,2,0,P|188:252|97:271,1,147.599995495606,10|0,0:1|0:0,0:0:0:0:
93,280,75360,5,14,0:0:0:0:
18,215,75550,1,8,0:1:0:0:
112,92,75740,1,14,0:0:0:0:
55,29,75929,5,8,0:1:0:0:
55,29,76024,1,8,0:1:0:0:
55,29,76119,2,0,P|67:91|75:131,1,98.3999969970704,14|0,0:1|0:0,0:0:0:0:
250,239,76499,2,0,P|291:238|301:174,1,98.3999969970704,10|0,0:1|0:0,0:0:0:0:
114,186,76879,2,0,P|125:271|129:339,1,147.599995495606,10|0,0:0|0:0,0:0:0:0:
129,353,77259,2,0,P|174:370|196:321,1,98.3999969970704,10|0,0:1|0:0,0:0:0:0:
309,189,77638,6,0,B|321:199|321:199|406:216,1,98.3999969970704,10|0,0:0|0:0,0:0:0:0:
488,98,78018,2,0,P|480:56|430:39,1,98.3999969970704,10|0,0:1|0:0,0:0:0:0:
307,164,78398,2,0,P|296:109|283:66,1,98.3999969970704,10|0,0:0|0:0,0:0:0:0:
123,62,78778,1,10,0:1:0:0:
250,253,79157,6,0,B|194:227|148:275|170:285|134:329|69:302,1,196.799993994141,10|10,0:0|0:1,0:0:0:0:
20,149,79727,1,0,0:0:0:0:
20,149,79917,2,0,P|24:98|74:72,1,98.3999969970704,10|0,0:0|0:0,0:0:0:0:
161,62,80297,2,0,B|171:75|171:75|304:98,1,147.599995495606,10|0,0:1|0:0,0:0:0:0:
320,98,80676,6,0,P|342:56|311:20,1,98.3999969970704,14|8,0:1|0:0,0:0:0:0:
219,221,81056,1,12,0:1:0:0:
135,159,81246,1,8,0:0:0:0:
51,286,81436,2,0,P|97:295|116:338,1,98.3999969970704,12|8,0:1|0:0,0:0:0:0:
219,221,81816,1,12,0:1:0:0:
323,268,82005,5,8,0:1:0:0:
323,268,82100,1,8,0:1:0:0:
323,268,82195,2,0,P|334:319|212:350,1,196.799993994141,14|12,0:0|0:1,0:0:0:0:
172,293,82766,1,8,0:1:0:0:
285,154,82956,6,0,P|259:114|209:114,1,98.3999969970704,14|0,0:0|0:0,0:0:0:0:
163,206,83337,2,0,P|96:191|78:217,1,98.3999969970704,14|0,0:1|0:0,0:0:0:0:
297,363,83718,6,0,P|316:288|325:259,1,98.3999969970704,14|0,0:0|0:0,0:0:0:0:
421,219,84099,1,12,0:1:0:0:
421,219,84290,1,8,0:1:0:0:
342,57,84480,5,14,0:0:0:0:
260,132,84671,1,2,0:0:0:0:
361,64,84861,2,0,P|408:106|395:157,1,98.3999969970704,14|2,0:1|0:0,0:0:0:0:
260,227,85242,6,0,P|185:221|54:211,1,196.799993994141,14|12,0:0|0:1,0:0:0:0:
151,141,85811,1,8,0:1:0:0:
100,296,86001,6,0,P|139:357|218:340,1,147.599995495606,14|0,0:0|0:0,0:0:0:0:
213,333,86381,2,0,P|262:316|292:360,1,98.3999969970704,12|0,0:1|0:0,0:0:0:0:
457,253,86760,6,0,P|446:316|438:357,1,98.3999969970704,14|0,0:0|0:0,0:0:0:0:
373,193,87136,1,12,0:1:0:0:
433,115,87324,1,8,0:1:0:0:
466,246,87512,5,14,0:0:0:0:
356,187,87700,2,0,L|295:182,2,49.1999984985352,8|8|8,0:0|0:0|0:0,0:0:0:0:
512,174,88076,5,8,0:1:0:0:
512,174,88170,1,8,0:1:0:0:
512,174,88264,1,12,0:1:0:0:
256,192,88358,12,0,91586,0:0:0:0:
