osu file format v14

[General]
AudioFilename: audio.mp3
AudioLeadIn: 0
PreviewTime: 56384
Countdown: 0
SampleSet: Soft
StackLeniency: 0.7
Mode: 0
LetterboxInBreaks: 0
WidescreenStoryboard: 1

[Editor]
Bookmarks: 13828,15347,21423,39651,57879,70031,82183
DistanceSpacing: 1
BeatDivisor: 4
GridSize: 8
TimelineZoom: 1.3

[Metadata]
Title:Anata MAGIC (TV Size)
TitleUnicode:アナタMAGIC (TV Size)
Artist:monobright
ArtistUnicode:モノブライト
Creator:hypercyte
Version:Easy
Source:Gintama
Tags:銀魂 gintama 2006 op opening 6 blacken sam japanese anime male vocals kagura 神楽 sadaharu 定春 sakata gintoki 坂田 銀時 shimura shinpachi 志村 新八 hypercute china girl otsu concert otsuu fanclub rock jrock j-rock
BeatmapID:2606074
BeatmapSetID:1190128

[Difficulty]
HPDrainRate:2
CircleSize:3
OverallDifficulty:2
ApproachRate:3
SliderMultiplier:0.94
SliderTickRate:1

[Events]
//Background and Video events
0,0,"78315600_p0.jpg",0,0
Video,0,"anata MAGIC rf 24.mp4"
//Break Periods
//Storyboard Layer 0 (Background)
//Storyboard Layer 1 (Fail)
//Storyboard Layer 2 (Pass)
//Storyboard Layer 3 (Foreground)
//Storyboard Layer 4 (Overlay)
//Storyboard Sound Samples

[TimingPoints]
1687,379.746835443038,4,2,44,44,1,0
12320,375,4,2,44,44,1,0
13444,394.736842105263,4,2,44,44,1,0
13828,-100,4,2,44,60,0,0
13838,379.746835443038,4,2,44,60,1,0
21423,379.746835443038,4,2,44,50,1,0
21423,-100,4,2,44,50,0,0
55979,405.405405405405,4,2,44,50,1,0
56384,379.746835443038,4,2,44,60,1,0
57879,-100,4,2,44,70,0,0
57892,379.746835443038,4,2,44,70,1,0
70043,-100,4,2,44,80,0,1
82195,380.952380952381,4,2,44,60,1,0
85242,379.746835443038,4,2,44,60,1,0
86760,376.175548589342,4,2,44,60,1,0
87512,377.358490566038,4,2,44,60,1,0
87889,375,4,2,44,60,1,0
88264,379.746835443038,4,2,44,60,1,0
88358,-100,4,2,44,50,0,0
89023,-100,4,2,44,40,0,0
89782,-100,4,2,44,30,0,0
90542,-100,4,2,44,20,0,0
91301,-100,4,2,44,10,0,0
91586,-100,4,2,44,5,0,0

[Colours]
Combo1 : 255,157,159
Combo2 : 156,181,245
Combo3 : 172,142,249
Combo4 : 244,159,221

[HitObjects]
406,122,1687,5,2,0:0:0:0:
297,239,2446,1,0,0:0:0:0:
161,154,3205,1,2,0:0:0:0:
34,252,3965,1,0,0:0:0:0:
169,336,4724,1,2,0:0:0:0:
303,249,5484,1,0,0:0:0:0:
458,143,6243,2,0,B|400:161|370:114|391:98|350:52|302:68,1,188,2|2,0:0|0:0,0:0:0:0:
215,100,7383,1,0,0:0:0:0:
132,56,7762,5,2,0:0:0:0:
22,209,8522,1,0,0:0:0:0:
188,296,9281,1,2,0:0:0:0:
280,132,10041,1,0,0:0:0:0:
448,214,10800,1,2,0:0:0:0:
361,380,11560,1,0,0:0:0:0:
189,303,12320,1,2,0:0:0:0:
462,45,13838,5,12,0:1:0:0:
392,108,14217,1,12,0:1:0:0:
310,60,14597,1,12,0:1:0:0:
237,119,14977,1,12,0:1:0:0:
158,68,15356,6,0,P|93:79|83:198,1,188,12|2,0:0|0:0,0:0:0:0:
219,302,16875,1,10,0:0:0:0:
282,232,17255,2,0,P|344:244|428:262,1,141,10|10,0:1|0:0,0:0:0:0:
493,201,18205,1,10,0:1:0:0:
394,99,18774,2,0,P|382:50|420:15,2,94,10|2|8,0:1|0:0|0:1,0:0:0:0:
394,193,19913,1,14,0:0:0:0:
320,251,20293,1,14,0:1:0:0:
226,245,20673,1,14,0:1:0:0:
176,165,21053,1,14,0:1:0:0:
90,126,21423,6,0,P|11:147|17:252,2,188,14|8|10,0:0|0:0|0:0,0:0:0:0:
252,221,23701,1,0,0:0:0:0:
325,162,24081,1,8,0:1:0:0:
407,206,24460,2,0,B|439:297|439:297|347:337,1,188,10|10,0:0|0:0,0:0:0:0:
266,300,25600,1,8,0:1:0:0:
187,350,25979,1,10,0:0:0:0:
41,231,26739,5,0,0:0:0:0:
77,144,27119,1,8,0:1:0:0:
116,58,27498,2,0,B|165:31|215:66|200:78|251:119|296:86,2,188,10|8|10,0:0|0:0|0:0,0:0:0:0:
164,239,29777,1,0,0:0:0:0:
208,322,30157,1,8,0:1:0:0:
128,371,30536,2,0,B|81:354|34:365|34:365|54:311|31:268,1,188,10|8,0:0|0:0,0:0:0:0:
8,184,31676,1,8,0:1:0:0:
40,95,32055,1,10,0:0:0:0:
212,20,32815,5,0,0:0:0:0:
256,102,33195,1,8,0:1:0:0:
342,64,33574,2,0,P|465:52|535:44,1,188,10|8,0:0|0:0,0:0:0:0:
474,224,35093,2,0,P|404:234|368:238,1,94,10|10,0:0|0:1,0:0:0:0:
316,305,35853,1,2,0:0:0:0:
225,280,36233,1,8,0:1:0:0:
147,332,36612,1,8,0:0:0:0:
363,51,38131,5,10,0:0:0:0:
325,137,38511,1,10,0:1:0:0:
232,154,38891,1,2,0:0:0:0:
176,229,39271,1,10,0:1:0:0:
83,243,39650,6,0,P|30:200|89:102,2,188,14|8|10,0:0|0:0|0:0,0:0:0:0:
270,229,41929,1,0,0:0:0:0:
356,264,42309,1,8,0:1:0:0:
441,225,42688,2,0,B|462:177|424:151|424:151|423:141|423:141|374:109|405:44,1,188,10|8,0:0|0:0,0:0:0:0:
313,19,43828,1,8,0:1:0:0:
253,91,44207,1,10,0:0:0:0:
146,246,44967,5,2,0:0:0:0:
223,298,45347,1,10,0:1:0:0:
301,246,45726,2,0,P|351:236|414:340,2,188,10|8|10,0:0|0:0|0:0,0:0:0:0:
124,310,48005,1,0,0:0:0:0:
87,223,48385,1,8,0:1:0:0:
160,164,48764,2,0,B|202:80|202:80|269:159,1,188,10|8,0:0|0:0,0:0:0:0:
309,233,49904,1,8,0:1:0:0:
263,315,50283,1,10,0:0:0:0:
448,346,51043,5,2,0:0:0:0:
475,256,51423,1,10,0:1:0:0:
404,193,51802,2,0,B|372:160|407:107|421:118|456:67|403:11,1,188,10|8,0:0|0:0,0:0:0:0:
321,48,52941,1,8,0:1:0:0:
227,37,53321,1,10,0:0:0:0:
86,161,54081,5,0,0:0:0:0:
161,216,54460,1,8,0:1:0:0:
87,274,54840,2,0,P|54:291|41:350,1,94,10|8,0:0|0:1,0:0:0:0:
125,379,55600,2,0,P|178:372|231:366,1,94,8|8,0:0|0:1,0:0:0:0:
259,282,56384,5,10,0:1:0:0:
338,231,56763,1,10,0:1:0:0:
304,141,57143,1,10,0:1:0:0:
386,95,57523,1,10,0:1:0:0:
460,152,57892,6,0,P|477:204|446:240,1,94,14|8,0:0|0:1,0:0:0:0:
385,295,58651,2,0,P|313:288|273:285,1,94,10|8,0:0|0:1,0:0:0:0:
206,326,59410,1,10,0:0:0:0:
140,258,59790,1,8,0:1:0:0:
166,167,60170,1,10,0:0:0:0:
101,98,60550,1,8,0:1:0:0:
176,42,60929,6,0,P|244:58|280:68,1,94,10|8,0:0|0:1,0:0:0:0:
352,22,61689,2,0,P|420:38|456:48,1,94,10|8,0:0|0:1,0:0:0:0:
489,126,62448,1,10,0:0:0:0:
408,175,62828,1,10,0:1:0:0:
411,268,63208,1,14,0:0:0:0:
326,309,63588,1,10,0:1:0:0:
267,235,63967,6,0,P|211:217|182:245,1,94,14|8,0:1|0:1,0:0:0:0:
144,319,64727,2,0,P|102:352|51:331,1,94,10|8,0:0|0:1,0:0:0:0:
44,252,65486,1,10,0:0:0:0:
112,188,65866,1,8,0:1:0:0:
183,127,66246,1,10,0:0:0:0:
253,188,66626,1,8,0:1:0:0:
335,142,67005,6,0,B|381:140|413:185|413:185|432:134|480:121,2,188,10|10|10,0:1|0:3|0:0,0:0:0:0:
224,294,69284,2,0,P|165:287|117:283,1,94,8|8,0:1|0:1,0:0:0:0:
36,292,70043,5,14,0:0:0:0:
17,199,70423,1,10,0:1:0:0:
70,121,70803,1,10,0:0:0:0:
163,114,71183,1,10,0:1:0:0:
232,177,71562,2,0,P|291:180|340:182,1,94,10|10,0:0|0:1,0:0:0:0:
379,258,72322,2,0,P|379:338|378:362,1,94,10|10,0:0|0:1,0:0:0:0:
290,318,73081,5,10,0:0:0:0:
209,366,73461,1,10,0:1:0:0:
128,317,73841,1,10,0:0:0:0:
142,224,74221,1,10,0:1:0:0:
231,194,74600,2,0,P|286:224|331:206,1,94,10|10,0:0|0:1,0:0:0:0:
359,135,75360,2,0,P|422:150|450:132,1,94,14|14,0:0|0:0,0:0:0:0:
443,43,76119,5,14,0:1:0:0:
360,2,76499,1,10,0:1:0:0:
266,10,76879,1,10,0:0:0:0:
199,76,77259,1,10,0:1:0:0:
245,157,77638,2,0,B|291:179|284:237|284:237|231:273|252:335,1,188,10|10,0:0|0:0,0:0:0:0:
166,363,78778,1,10,0:1:0:0:
95,300,79157,6,0,P|99:215|103:187,1,94,10|10,0:0|0:1,0:0:0:0:
177,152,79917,2,0,P|181:67|185:39,1,94,10|10,0:0|0:1,0:0:0:0:
268,20,80676,1,14,0:1:0:0:
360,36,81056,1,12,0:1:0:0:
407,117,81436,1,12,0:1:0:0:
364,200,81816,1,12,0:1:0:0:
271,214,82195,6,0,B|213:213|190:273|207:271|184:330|121:331,1,188,14|14,0:0|0:0,0:0:0:0:
52,288,83337,1,14,0:1:0:0:
104,209,83718,2,0,B|112:131|112:131|128:113|128:113|136:23,1,188,14|14,0:0|0:0,0:0:0:0:
222,62,84861,1,14,0:1:0:0:
309,27,85242,6,0,P|394:16|509:3,2,188,14|14|14,0:0|0:0|0:0,0:0:0:0:
260,107,87136,1,12,0:1:0:0:
322,177,87512,1,14,0:0:0:0:
295,267,87889,1,8,0:0:0:0:
201,275,88264,1,12,0:1:0:0:
256,192,88643,12,0,91586,0:0:0:0:
