osu file format v14

[General]
AudioFilename: audio.mp3
AudioLeadIn: 0
PreviewTime: 56384
Countdown: 0
SampleSet: Soft
StackLeniency: 0.7
Mode: 0
LetterboxInBreaks: 0
WidescreenStoryboard: 1

[Editor]
Bookmarks: 13838,15356,21423,39651,57879,70031,82183
DistanceSpacing: 0.9
BeatDivisor: 4
GridSize: 8
TimelineZoom: 1.9

[Metadata]
Title:Anata MAGIC (TV Size)
TitleUnicode:アナタMAGIC (TV Size)
Artist:monobright
ArtistUnicode:モノブライト
Creator:hypercyte
Version:Blacken's Hard
Source:Gintama
Tags:銀魂 gintama 2006 op opening 6 blacken sam japanese anime male vocals kagura 神楽 sadaharu 定春 sakata gintoki 坂田 銀時 shimura shinpachi 志村 新八 hypercute china girl otsu concert otsuu fanclub rock jrock j-rock
BeatmapID:2495619
BeatmapSetID:1190128

[Difficulty]
HPDrainRate:5
CircleSize:4
OverallDifficulty:6
ApproachRate:8
SliderMultiplier:1.54
SliderTickRate:1

[Events]
//Background and Video events
0,0,"78315600_p0.jpg",0,0
Video,0,"anata MAGIC rf 24.mp4"
//Break Periods
//Storyboard Layer 0 (Background)
//Storyboard Layer 1 (Fail)
//Storyboard Layer 2 (Pass)
//Storyboard Layer 3 (Foreground)
//Storyboard Layer 4 (Overlay)
//Storyboard Sound Samples

[TimingPoints]
1687,379.746835443038,4,2,44,44,1,0
1687,-133.333333333333,4,2,44,44,0,0
12320,375,4,2,44,44,1,0
12320,-147.058823529412,4,2,44,44,0,0
13444,394.736842105263,4,2,44,44,1,0
13838,379.746835443038,4,2,44,60,1,0
13838,-83.3333333333333,4,2,44,60,0,0
15356,-100,4,2,44,60,0,0
19913,-100,4,2,44,60,0,0
21423,379.746835443038,4,2,44,50,1,0
21423,-117.647058823529,4,2,44,50,0,0
55979,405.405405405405,4,2,44,50,1,0
56384,379.746835443038,4,2,44,60,1,0
56384,-117.647058823529,4,2,44,60,0,0
57879,-111.111111111111,4,2,44,70,0,0
57892,379.746835443038,4,2,44,70,1,0
57892,-111.111111111111,4,2,44,70,0,0
70043,-90.9090909090909,4,2,44,80,0,1
82195,380.952380952381,4,2,44,60,1,0
82195,-100,4,2,44,60,0,0
85242,379.746835443038,4,2,44,60,1,0
86760,376.175548589342,4,2,44,60,1,0
87512,377.358490566038,4,2,44,60,1,0
87889,375,4,2,44,60,1,0
88264,379.746835443038,4,2,44,60,1,0
88358,-100,4,2,44,50,0,0
89023,-100,4,2,44,40,0,0
89782,-100,4,2,44,30,0,0
90542,-100,4,2,44,20,0,0
91301,-100,4,2,44,10,0,0
91586,-100,4,2,44,5,0,0

[Colours]
Combo1 : 255,157,159
Combo2 : 156,181,245
Combo3 : 172,142,249
Combo4 : 244,159,221

[HitObjects]
47,98,1687,6,0,P|100:81|162:119,1,115.500004405976,2|0,0:0|0:0,0:0:0:0:
141,266,2446,2,0,P|88:283|26:245,1,115.500004405976
44,181,3016,5,0,0:0:0:0:
44,181,3205,2,0,P|97:164|159:202,1,115.500004405976,2|0,0:0|0:0,0:0:0:0:
304,234,3965,2,0,P|279:194|305:124,1,115.500004405976
377,110,4535,5,0,0:0:0:0:
377,110,4724,2,0,P|424:147|420:210,1,115.500004405976,2|0,0:0|0:0,0:0:0:0:
315,302,5484,1,0,0:0:0:0:
199,206,5864,1,0,0:0:0:0:
50,268,6243,6,0,P|22:221|49:155,1,115.500004405976,2|0,0:0|0:0,0:0:0:0:
103,116,6813,1,0,0:0:0:0:
103,116,7003,2,0,B|128:120|128:120|162:126|161:114|192:119|192:119|229:127,1,115.500004405976,2|0,0:0|0:0,0:0:0:0:
362,54,7762,6,0,L|374:173,1,115.500004405976,2|0,0:0|0:0,0:0:0:0:
236,255,8522,2,0,L|247:140,1,115.500004405976
210,73,9092,5,0,0:0:0:0:
210,73,9281,2,0,P|149:75|123:132,1,115.500004405976,2|0,0:0|0:0,0:0:0:0:
89,276,10041,2,0,P|28:274|2:217,1,115.500004405976
174,213,10800,6,0,P|238:226|314:237,1,115.500004405976,2|0,0:0|0:0,0:0:0:0:
369,274,11370,1,0,0:0:0:0:
369,274,11560,2,0,P|433:261|509:250,1,115.500004405976,2|0,0:0|0:0,0:0:0:0:
512,118,12320,6,0,P|497:47|370:36,1,209.44000127832,2|0,0:0|0:0,0:0:0:0:
143,334,13838,5,12,0:1:0:0:
118,94,14217,1,12,0:1:0:0:
356,62,14597,1,12,0:1:0:0:
400,302,14977,1,12,0:1:0:0:
400,302,15167,1,0,0:0:0:0:
364,209,15356,6,0,P|318:203|263:203,1,77,12|0,0:0|0:0,0:0:0:0:
192,169,15736,2,0,P|168:124|177:94,1,77,10|0,0:1|0:0,0:0:0:0:
110,21,16116,2,0,P|64:22|40:52,1,77,2|10,0:0|0:0,0:0:0:0:
13,141,16496,1,8,0:1:0:0:
13,141,16686,1,8,0:1:0:0:
94,198,16875,2,0,P|113:250|97:279,2,77,10|0|10,0:0|0:0|0:1,0:0:0:0:
10,253,17445,1,10,0:0:0:0:
176,364,17825,6,0,B|224:361|224:361|281:335|281:335|329:333,1,154,10|10,0:0|0:1,0:0:0:0:
417,369,18394,1,8,0:0:0:0:
466,283,18584,1,8,0:0:0:0:
466,283,18774,2,0,L|454:195,1,77,10|10,0:1|0:0,0:0:0:0:
361,169,19154,2,0,L|371:92,1,77,2|8,0:0|0:0,0:0:0:0:
448,27,19534,1,8,0:1:0:0:
448,27,19724,1,8,0:1:0:0:
497,125,19913,5,14,0:0:0:0:
330,204,20293,1,14,0:1:0:0:
191,81,20673,1,14,0:1:0:0:
46,195,21053,1,14,0:1:0:0:
152,189,21243,5,8,0:1:0:0:
152,189,21338,1,8,0:1:0:0:
152,189,21423,2,0,B|195:176|235:223|195:290,1,130.900002496719,14|8,0:0|0:1,0:0:0:0:
351,359,22182,2,0,B|390:360|409:326|401:316|420:281|464:285,1,130.900002496719,8|8,0:0|0:1,0:0:0:0:
495,214,22752,1,0,0:0:0:0:
495,214,22941,2,0,P|485:146|418:130,1,130.900002496719,10|8,0:0|0:1,0:0:0:0:
363,174,23511,1,8,0:1:0:0:
287,134,23701,6,0,B|260:161|260:161|153:143,1,130.900002496719,0|8,0:0|0:1,0:0:0:0:
19,64,24460,2,0,P|40:168|46:210,1,130.900002496719,10|8,0:0|0:1,0:0:0:0:
104,351,25220,1,10,0:0:0:0:
104,351,25410,1,8,0:0:0:0:
163,290,25600,2,0,B|196:299|196:299|226:285,1,65.4500012483597,8|0,0:1|0:0,0:0:0:0:
308,271,25979,2,0,P|289:174|279:121,1,130.900002496719,10|8,0:0|0:1,0:0:0:0:
309,61,26549,1,8,0:1:0:0:
229,28,26739,6,0,P|174:39|87:53,1,130.900002496719,0|8,0:0|0:1,0:0:0:0:
43,211,27498,2,0,B|79:224|111:202|97:186|128:160|174:179,1,130.900002496719,10|8,0:0|0:1,0:0:0:0:
306,264,28258,1,8,0:0:0:0:
306,264,28448,1,0,0:0:0:0:
389,249,28638,2,0,L|376:313,1,65.4500012483597,8|0,0:1|0:0,0:0:0:0:
311,368,29017,2,0,B|297:346|272:349|272:349|186:360,1,130.900002496719,10|8,0:0|0:1,0:0:0:0:
109,326,29587,1,8,0:1:0:0:
38,375,29777,6,0,P|17:342|18:314,1,65.4500012483597,0|8,0:0|0:0,0:0:0:0:
71,250,30157,2,0,P|90:223|91:191,1,65.4500012483597,8|0,0:1|0:0,0:0:0:0:
57,113,30536,2,0,P|89:70|157:95,1,130.900002496719,10|10,0:0|0:1,0:0:0:0:
191,261,31296,1,8,0:0:0:0:
191,261,31486,1,8,0:0:0:0:
234,187,31676,2,0,P|260:180|250:209,1,65.4500012483597,8|0,0:1|0:0,0:0:0:0:
277,289,32055,2,0,B|338:274|338:274|345:261|345:261|415:243,1,130.900002496719,10|8,0:0|0:1,0:0:0:0:
452,182,32625,1,8,0:1:0:0:
499,252,32815,6,0,B|514:284|514:284|498:315,1,65.4500012483597,0|8,0:0|0:0,0:0:0:0:
415,308,33195,2,0,B|400:276|400:276|416:245,1,65.4500012483597,8|8,0:1|0:0,0:0:0:0:
359,183,33574,2,0,L|226:200,1,130.900002496719,10|8,0:0|0:1,0:0:0:0:
123,257,34334,5,8,0:0:0:0:
123,257,34524,1,8,0:0:0:0:
61,324,34714,2,0,P|33:301|25:258,1,65.4500012483597,8|0,0:1|0:0,0:0:0:0:
20,188,35093,2,0,P|34:145|71:120,1,65.4500012483597,10|8,0:0|0:0,0:0:0:0:
97,61,35473,2,0,P|126:91|129:139,1,65.4500012483597,10|8,0:1|0:1,0:0:0:0:
167,191,35853,2,0,P|129:200|83:179,2,65.4500012483597,2|0|8,0:0|0:0|0:1,0:0:0:0:
236,118,36423,1,0,0:0:0:0:
236,118,36612,2,0,B|277:112|295:149|286:154|309:184|352:174,1,130.900002496719,8|8,0:0|0:1,0:0:0:0:
458,285,37372,5,10,0:0:0:0:
458,285,37562,1,8,0:0:0:0:
381,247,37752,2,0,L|358:387,1,130.900002496719,8|10,0:1|0:0,0:0:0:0:
279,365,38321,5,8,0:0:0:0:
279,365,38511,2,0,L|291:292,1,65.4500012483597,10|8,0:1|0:1,0:0:0:0:
231,237,38891,2,0,P|202:260|192:294,1,65.4500012483597,2|8,0:0|0:0,0:0:0:0:
144,356,39271,2,0,P|113:334|105:299,1,65.4500012483597,10|0,0:1|0:0,0:0:0:0:
131,218,39650,6,0,B|139:180|101:153|94:163|61:144|72:87,1,130.900002496719,14|8,0:0|0:1,0:0:0:0:
219,24,40410,1,8,0:0:0:0:
219,24,40600,1,0,0:0:0:0:
285,76,40790,2,0,L|348:62,1,65.4500012483597,8|0,0:1|0:0,0:0:0:0:
433,48,41169,2,0,P|480:84|464:158,1,130.900002496719,10|8,0:0|0:1,0:0:0:0:
401,198,41739,1,8,0:1:0:0:
333,145,41929,6,0,B|292:127|242:177|286:251,1,130.900002496719,0|8,0:0|0:1,0:0:0:0:
169,361,42688,2,0,B|130:348|130:348|121:315,1,65.4500012483597,10|0,0:0|0:0,0:0:0:0:
190,270,43068,2,0,B|178:233|178:233|191:209,1,65.4500012483597,8|0,0:1|0:0,0:0:0:0:
119,162,43448,2,0,B|145:134|145:134|187:130,1,65.4500012483597,8|8,0:0|0:0,0:0:0:0:
252,142,43828,2,0,B|281:128|281:128|254:108,1,65.4500012483597,8|0,0:1|0:0,0:0:0:0:
215,31,44207,2,0,B|202:58|174:58|174:58|91:57,1,130.900002496719,10|8,0:0|0:1,0:0:0:0:
34,216,44967,6,0,P|33:184|52:158,1,65.4500012483597,2|10,0:0|0:0,0:0:0:0:
144,183,45347,2,0,P|148:215|131:242,1,65.4500012483597,10|10,0:1|0:0,0:0:0:0:
71,303,45726,2,0,P|143:288|213:287,1,130.900002496719,10|8,0:0|0:1,0:0:0:0:
324,168,46486,5,8,0:0:0:0:
324,168,46676,1,0,0:0:0:0:
392,217,46866,2,0,L|398:282,1,65.4500012483597,8|0,0:1|0:0,0:0:0:0:
482,297,47245,2,0,L|469:167,1,130.900002496719,10|8,0:0|0:1,0:0:0:0:
491,84,47815,1,8,0:1:0:0:
416,42,48005,6,0,P|361:51|334:55,1,65.4500012483597,0|8,0:0|0:0,0:0:0:0:
272,21,48385,2,0,B|257:50|257:50|277:92,1,65.4500012483597,8|0,0:1|0:0,0:0:0:0:
324,146,48764,2,0,L|304:212,1,65.4500012483597,10|0,0:0|0:0,0:0:0:0:
219,209,49144,2,0,L|197:137,1,65.4500012483597,10|0,0:1|0:0,0:0:0:0:
133,100,49524,1,8,0:0:0:0:
133,100,49714,1,8,0:0:0:0:
91,174,49904,2,0,P|31:163|14:91,1,130.900002496719,8|10,0:1|0:0,0:0:0:0:
65,37,50473,5,0,0:0:0:0:
143,81,50663,1,8,0:1:0:0:
143,81,50853,1,8,0:1:0:0:
223,54,51043,6,0,P|246:86|238:128,1,65.4500012483597,2|10,0:0|0:0,0:0:0:0:
172,164,51423,2,0,L|183:238,1,65.4500012483597,10|10,0:1|0:0,0:0:0:0:
133,299,51802,2,0,B|177:291|197:333|187:340|212:368|263:352,1,130.900002496719,10|8,0:0|0:1,0:0:0:0:
353,227,52562,5,8,0:0:0:0:
353,227,52752,1,8,0:0:0:0:
382,306,52941,2,0,P|347:318|307:309,1,65.4500012483597,8|0,0:1|0:0,0:0:0:0:
262,236,53321,2,0,L|296:165,1,65.4500012483597,10|8,0:0|0:0,0:0:0:0:
329,93,53701,2,0,L|373:157,1,65.4500012483597,8|8,0:1|0:1,0:0:0:0:
418,222,54081,2,0,L|339:228,1,65.4500012483597
262,236,54460,1,8,0:1:0:0:
157,101,54840,6,0,L|161:168,1,65.4500012483597,10|0,0:0|0:0,0:0:0:0:
108,38,55220,2,0,P|141:19|175:23,1,65.4500012483597,8|0,0:1|0:0,0:0:0:0:
237,77,55600,2,0,P|270:96|304:92,1,65.4500012483597,8|0,0:0|0:0,0:0:0:0:
357,35,55979,1,8,0:1:0:0:
501,125,56384,5,10,0:1:0:0:
501,125,56763,5,10,0:1:0:0:
501,125,57143,5,10,0:1:0:0:
501,125,57523,5,10,0:1:0:0:
329,205,57892,6,0,B|298:179|298:179|328:95,1,103.949996827698,14|0,0:0|0:0,0:0:0:0:
346,82,58271,2,0,B|421:84,1,69.2999978851319,8|8,0:1|0:0,0:0:0:0:
479,148,58651,2,0,P|498:190|484:220,1,69.2999978851319,10|0,0:0|0:0,0:0:0:0:
439,283,59031,2,0,L|360:282,1,69.2999978851319,8|2,0:1|0:0,0:0:0:0:
286,245,59410,6,0,B|247:247|228:275|234:296|213:321|169:321,1,138.599995770264,10|8,0:0|0:1,0:0:0:0:
96,292,59980,1,0,0:0:0:0:
96,292,60170,2,0,P|75:255|81:216,1,69.2999978851319,10|2,0:0|0:0,0:0:0:0:
174,162,60550,2,0,P|195:199|149:198,1,103.949996827698,8|0,0:1|0:0,0:0:0:0:
127,161,60929,6,0,P|126:114|141:8,1,138.599995770264,10|8,0:0|0:1,0:0:0:0:
214,70,61499,1,0,0:0:0:0:
297,103,61689,2,0,L|369:92,1,69.2999978851319,10|2,0:0|0:0,0:0:0:0:
454,106,62069,2,0,P|446:146|414:170,1,69.2999978851319,8|0,0:1|0:0,0:0:0:0:
366,232,62448,2,0,P|340:211|330:178,1,69.2999978851319,10|0,0:0|0:0,0:0:0:0:
295,104,62828,2,0,P|327:90|360:97,1,69.2999978851319,10|0,0:1|0:0,0:0:0:0:
330,178,63208,6,0,L|286:188,3,34.649998942566,14|8|8|8,0:0|0:1|0:1|0:1,0:0:0:0:
264,210,63588,2,0,L|221:200,3,34.649998942566,10|8|8|8,0:1|0:1|0:1|0:1,0:0:0:0:
186,213,63967,6,0,P|158:258|166:296,1,69.2999978851319,14|0,0:1|0:0,0:0:0:0:
210,346,64347,2,0,L|287:338,1,69.2999978851319,8|0,0:1|0:0,0:0:0:0:
362,290,64727,2,0,L|442:298,1,69.2999978851319,10|0,0:0|0:0,0:0:0:0:
467,214,65107,2,0,P|465:172|407:124,1,103.949996827698,8|0,0:1|0:0,0:0:0:0:
394,106,65486,6,0,B|382:67|409:38|409:38|451:30|488:80,1,138.599995770264,10|8,0:0|0:1,0:0:0:0:
404,248,66246,2,0,B|382:275|382:275|402:326,1,69.2999978851319,10|0,0:0|0:0,0:0:0:0:
304,343,66626,2,0,B|282:316|282:316|305:256,1,69.2999978851319,8|0,0:1|0:0,0:0:0:0:
236,205,67005,5,10,0:1:0:0:
236,205,67100,1,8,0:1:0:0:
236,205,67195,1,8,0:1:0:0:
164,241,67385,2,0,L|114:233,3,34.649998942566,4|4|4|4,0:3|0:3|0:3|0:3,0:0:0:0:
86,258,67765,2,0,B|74:278|74:278|75:304,3,34.649998942566,10|8|8|8,0:3|0:3|0:3|0:3,0:0:0:0:
94,334,68145,2,0,L|134:341,3,34.649998942566,10|8|8|8,0:1|0:1|0:1|0:1,0:0:0:0:
173,320,68524,2,0,P|205:252|164:178,1,138.599995770264,10|8,0:0|0:1,0:0:0:0:
160,111,69094,5,8,0:1:0:0:
160,111,69189,1,8,0:1:0:0:
160,111,69284,2,0,L|196:105,3,34.649998942566,8|8|8|8,0:1|0:1|0:1|0:1,0:0:0:0:
227,77,69664,2,0,L|271:85,3,34.649998942566,8|8|8|8,0:1|0:1|0:1|0:1,0:0:0:0:
320,72,70043,6,0,B|352:99|380:92|380:92|350:100|328:150,1,127.050003877258,14|0,0:0|0:0,0:0:0:0:
298,174,70423,2,0,L|200:177,1,84.7000025848389,10|0,0:1|0:0,0:0:0:0:
108,142,70803,2,0,P|76:179|88:242,1,84.7000025848389,10|0,0:0|0:0,0:0:0:0:
178,246,71183,2,0,P|211:209|198:146,1,84.7000025848389,10|0,0:1|0:0,0:0:0:0:
84,310,71562,6,0,B|137:300|165:346|155:346|174:390|242:379,1,169.400005169678,10|10,0:0|0:1,0:0:0:0:
309,305,72132,1,0,0:0:0:0:
297,213,72322,2,0,P|251:225|226:256,1,84.7000025848389,10|0,0:0|0:0,0:0:0:0:
314,309,72702,1,10,0:1:0:0:
436,163,73081,6,0,B|465:203|465:203|419:322,1,169.400005169678,10|10,0:0|0:1,0:0:0:0:
328,352,73651,1,0,0:0:0:0:
328,352,73841,2,0,P|320:298|349:260,1,84.7000025848389,10|0,0:0|0:0,0:0:0:0:
431,248,74221,2,0,P|442:208|367:151,1,127.050003877258,10|0,0:1|0:0,0:0:0:0:
346,114,74600,6,0,L|249:106,1,84.7000025848389,10|0,0:0|0:0,0:0:0:0:
197,15,74980,2,0,L|104:11,1,84.7000025848389,10|0,0:1|0:0,0:0:0:0:
22,82,75360,2,0,B|0:41|0:41|27:-3,1,84.7000025848389,14|8,0:0|0:1,0:0:0:0:
119,97,75740,1,12,0:0:0:0:
64,169,75929,5,8,0:1:0:0:
64,169,76024,1,8,0:1:0:0:
64,169,76119,2,0,L|74:340,1,169.400005169678,14|10,0:1|0:1,0:0:0:0:
167,371,76689,1,0,0:0:0:0:
203,276,76879,2,0,B|257:256|280:309|271:316|307:356|352:330,1,169.400005169678,10|10,0:0|0:1,0:0:0:0:
450,157,77638,6,0,P|467:200|443:244,1,84.7000025848389,10|0,0:0|0:0,0:0:0:0:
364,284,78018,2,0,P|318:277|292:234,1,84.7000025848389,10|0,0:1|0:0,0:0:0:0:
279,139,78398,2,0,P|309:88|398:98,1,127.050003877258,10|0,0:0|0:0,0:0:0:0:
409,118,78778,1,10,0:1:0:0:
286,301,79157,6,0,B|247:319|247:319|203:299,1,84.7000025848389,10|0,0:0|0:0,0:0:0:0:
130,237,79537,2,0,B|110:256|110:256|128:311,1,84.7000025848389,10|0,0:1|0:0,0:0:0:0:
26,314,79917,2,0,B|6:295|6:295|24:240,1,84.7000025848389,10|0,0:0|0:0,0:0:0:0:
88,162,80297,2,0,P|109:120|42:54,1,127.050003877258,10|0,0:1|0:0,0:0:0:0:
17,60,80676,5,14,0:1:0:0:
162,225,81056,1,12,0:1:0:0:
381,219,81436,1,12,0:1:0:0:
512,58,81816,1,12,0:1:0:0:
419,19,82005,5,8,0:1:0:0:
419,19,82100,1,8,0:1:0:0:
419,19,82195,2,0,P|382:38|375:77,1,77,14|0,0:0|0:0,0:0:0:0:
432,158,82575,1,12,0:1:0:0:
432,158,82766,1,8,0:1:0:0:
337,210,82956,2,0,L|257:199,1,77,14|0,0:0|0:0,0:0:0:0:
208,285,83337,2,0,L|346:304,1,115.5,14|0,0:1|0:0,0:0:0:0:
369,327,83718,6,0,B|406:321|406:321|412:316|412:316|466:307,2,77,14|0|12,0:0|0:0|0:1,0:0:0:0:
283,379,84290,1,8,0:1:0:0:
210,317,84480,1,14,0:0:0:0:
210,317,84671,1,2,0:0:0:0:
116,351,84861,1,14,0:1:0:0:
138,151,85242,6,0,B|192:126|213:184|207:189|234:229|293:196,1,154,14|12,0:0|0:1,0:0:0:0:
345,143,85811,1,8,0:1:0:0:
415,214,86001,2,0,P|407:272|403:315,1,77,14|0,0:0|0:0,0:0:0:0:
501,302,86381,2,0,P|505:263|510:225,1,77,12|0,0:1|0:0,0:0:0:0:
453,130,86760,6,0,P|455:72|481:50,1,77,14|0,0:0|0:0,0:0:0:0:
415,214,87136,2,0,P|372:229|321:198,1,77,12|8,0:1|0:1,0:0:0:0:
301,129,87512,1,14,0:0:0:0:
217,185,87700,2,0,L|225:238,2,38.5,8|8|8,0:0|0:0|0:0,0:0:0:0:
144,131,88076,1,8,0:1:0:0:
144,131,88170,1,8,0:1:0:0:
144,131,88264,1,12,0:1:0:0:
256,192,88453,12,0,91586,0:0:0:0:
