osu file format v14

[General]
AudioFilename: audio.mp3
AudioLeadIn: 0
PreviewTime: 54432
Countdown: 0
SampleSet: Soft
StackLeniency: 0.2
Mode: 0
LetterboxInBreaks: 0
WidescreenStoryboard: 1

[Editor]
DistanceSpacing: 0.8
BeatDivisor: 4
GridSize: 8
TimelineZoom: 2.3

[Metadata]
Title:Long Time Traveler (TV Size)
TitleUnicode:ロングタイムトラベラー (TV Size)
Artist:mono palette.
ArtistUnicode:mono palette.
Creator:Lunala
Version:Paradise Seeker
Source:不機嫌なモノノケ庵 續
Tags:モノパレット Fukigen na Mononokean Tokuma Japan Communications 堀江晶太 Japanese Anime opening 雪見 あげいん 3部 Rim モノパレ
BeatmapID:2472562
BeatmapSetID:1032966

[Difficulty]
HPDrainRate:6
CircleSize:4
OverallDifficulty:8
ApproachRate:9.2
SliderMultiplier:1.6
SliderTickRate:1

[Events]
//Background and Video events
0,0,"1.jpg",0,0
//Break Periods
//Storyboard Layer 0 (Background)
//Storyboard Layer 1 (Fail)
//Storyboard Layer 2 (Pass)
//Storyboard Layer 3 (Foreground)
//Storyboard Layer 4 (Overlay)
//Storyboard Sound Samples

[TimingPoints]
3228,326.086956521739,4,2,1,75,1,0
3228,-83.3333333333333,4,2,1,75,0,0
4124,-83.3333333333333,4,2,1,5,0,0
4206,-83.3333333333333,4,2,1,75,0,0
6733,-83.3333333333333,4,2,1,5,0,0
6814,-83.3333333333333,4,2,1,75,0,0
7874,-83.3333333333333,4,2,1,5,0,0
7956,-83.3333333333333,4,2,1,75,0,0
9342,-83.3333333333333,4,2,1,5,0,0
9423,-83.3333333333333,4,2,1,75,0,0
11298,-83.3333333333333,4,2,1,5,0,0
11380,-83.3333333333333,4,2,1,75,0,0
11624,-83.3333333333333,4,2,1,5,0,0
11706,-83.3333333333333,4,2,1,75,0,0
11950,-83.3333333333333,4,2,1,5,0,0
12032,-83.3333333333333,4,2,1,75,0,0
12276,-83.3333333333333,4,2,1,5,0,0
12358,-83.3333333333333,4,2,1,75,0,0
13336,-133.333333333333,4,2,1,45,0,0
16189,-133.333333333333,4,2,1,5,0,0
16271,-133.333333333333,4,2,1,45,0,0
24097,-100,4,2,1,60,0,0
26624,-100,4,2,1,5,0,0
26706,-100,4,2,1,60,0,0
28907,-100,4,2,1,5,0,0
28988,-100,4,2,1,60,0,0
44967,-100,4,2,1,65,0,0
50184,-90.9090909090909,4,2,1,70,0,0
54749,-133.333333333333,4,2,1,45,0,0
54994,-133.333333333333,4,2,1,5,0,0
55075,-133.333333333333,4,2,1,45,0,0
55320,-133.333333333333,4,2,1,5,0,0
55401,-76.9230769230769,4,2,1,85,0,1
55646,-76.9230769230769,4,2,1,5,0,1
55727,-76.9230769230769,4,2,1,85,0,1
56298,-76.9230769230769,4,2,1,5,0,1
56380,-76.9230769230769,4,2,1,85,0,1
56624,-76.9230769230769,4,2,1,5,0,1
56706,-76.9230769230769,4,2,1,85,0,1
58255,-76.9230769230769,4,2,1,5,0,1
58336,-76.9230769230769,4,2,1,85,0,1
60863,-76.9230769230769,4,2,1,5,0,1
60945,-76.9230769230769,4,2,1,85,0,1
61516,-76.9230769230769,4,2,1,5,0,1
61597,-76.9230769230769,4,2,1,85,0,1
61842,-76.9230769230769,4,2,1,5,0,1
61923,-76.9230769230769,4,2,1,85,0,1
63472,-76.9230769230769,4,2,1,5,0,1
63554,-76.9230769230769,4,2,1,85,0,1
66081,-76.9230769230769,4,2,1,5,0,1
66162,-76.9230769230769,4,2,1,85,0,1
66733,-76.9230769230769,4,2,1,5,0,1
66814,-76.9230769230769,4,2,1,85,0,1
67059,-76.9230769230769,4,2,1,5,0,1
67141,-76.9230769230769,4,2,1,85,0,1
68689,-76.9230769230769,4,2,1,5,0,1
68771,-76.9230769230769,4,2,1,85,0,1
69342,-76.9230769230769,4,2,1,5,0,1
69423,-76.9230769230769,4,2,1,85,0,1
69668,-76.9230769230769,4,2,1,5,0,1
69749,-76.9230769230769,4,2,1,85,0,1
70646,-76.9230769230769,4,2,1,5,0,1
70727,-76.9230769230769,4,2,1,85,0,1
71135,-76.9230769230769,4,2,1,5,0,1
71217,-76.9230769230769,4,2,1,85,0,1
75293,-83.3333333333333,4,2,1,75,0,0
77168,-83.3333333333333,4,2,1,5,0,0
77249,-83.3333333333333,4,2,1,75,0,0
79776,-83.3333333333333,4,2,1,5,0,0
79858,-83.3333333333333,4,2,1,75,0,0
80918,-83.3333333333333,4,2,1,5,0,0
80999,-83.3333333333333,4,2,1,75,0,0
82385,-83.3333333333333,4,2,1,5,0,0
82467,-83.3333333333333,4,2,1,75,0,0

[Colours]
Combo1 : 179,109,255
Combo2 : 81,255,239

[HitObjects]
153,190,2738,5,2,0:2:0:0:
244,248,2901,1,2,0:2:0:0:
244,137,3064,1,2,0:2:0:0:
76,73,3228,6,0,L|65:204,1,95.9999970703126,6|0,3:2|0:2,0:2:0:0:
67,205,3472,1,2,0:2:0:0:
67,205,3554,1,8,0:2:0:0:
137,331,3717,1,0,0:2:0:0:
287,306,3880,2,0,P|269:246|181:258,1,143.999995605469,2|0,3:2|0:2,0:2:0:0:
180,252,4206,1,8,0:2:0:0:
344,185,4369,6,0,P|416:153|392:30,1,191.999994140625,2|2,0:2|0:2,0:2:0:0:
288,28,4858,1,8,2:2:0:0:
154,112,5021,2,0,L|177:230,1,95.9999970703126,2|0,0:2|0:2,0:2:0:0:
319,262,5347,2,0,L|298:374,1,95.9999970703126,8|0,0:2|0:2,0:2:0:0:
135,318,5673,5,2,0:2:0:0:
112,312,5755,1,2,0:2:0:0:
86,307,5836,2,0,L|202:278,1,95.9999970703126,2|0,3:2|0:2,0:2:0:0:
214,275,6081,1,2,0:2:0:0:
214,275,6162,1,8,2:2:0:0:
308,342,6325,1,2,0:2:0:0:
443,287,6488,2,0,P|349:216|362:170,1,143.999995605469,2|0,3:2|0:2,0:2:0:0:
361,191,6814,1,8,2:2:0:0:
296,46,6977,6,0,P|227:177|168:180,1,191.999994140625,2|2,0:2|0:2,0:2:0:0:
43,86,7467,1,2,3:2:0:0:
81,214,7630,2,0,P|77:283|60:400,1,143.999995605469,8|0,0:2|0:2,0:2:0:0:
64,377,7956,5,2,3:2:0:0:
168,353,8119,1,2,0:2:0:0:
251,289,8282,1,2,0:2:0:0:
303,195,8445,6,0,P|308:149|295:87,1,95.9999970703126,6|0,3:2|0:2,0:2:0:0:
296,71,8689,1,2,0:2:0:0:
296,71,8771,1,10,0:2:0:0:
174,47,8934,1,2,0:2:0:0:
95,189,9097,2,0,P|209:156|216:101,1,143.999995605469,2|0,3:2|0:2,0:2:0:0:
211,126,9423,1,10,0:2:0:0:
328,21,9586,6,0,P|397:152|456:155,1,191.999994140625,2|2,0:2|0:2,0:2:0:0:
511,89,10075,1,8,2:2:0:0:
508,211,10238,2,0,L|479:342,1,95.9999970703126,2|0,0:2|0:2,0:2:0:0:
388,362,10564,5,8,0:2:0:0:
373,320,10645,1,8,0:2:0:0:
345,288,10727,1,8,0:2:0:0:
307,269,10808,1,8,0:2:0:0:
263,266,10890,1,8,0:2:0:0:
223,280,10971,1,8,0:2:0:0:
191,309,11054,6,2,P|178:222|121:184,1,143.999995605469,6|2,3:2|0:2,0:2:0:0:
69,233,11380,2,0,P|66:146|115:111,1,143.999995605469,2|0,3:2|0:2,0:2:0:0:
130,24,11706,2,0,B|199:44|199:44|186:147,1,143.999995605469,6|0,3:2|0:2,0:2:0:0:
239,191,12032,2,0,L|420:169,1,143.999995605469,2|0,3:2|0:2,0:2:0:0:
428,192,12358,5,6,3:2:0:0:
476,317,12521,5,8,0:2:0:0:
431,304,12602,1,8,0:2:0:0:
391,316,12684,1,10,0:2:0:0:
243,371,12847,1,8,0:2:0:0:
278,348,12929,1,8,0:2:0:0:
303,307,13010,2,0,L|285:248,3,47.9999985351563,10|0|0|0,0:2|0:2|0:2|0:2,0:2:0:0:
196,186,13336,6,0,L|207:106,1,60.0000022888184,2|0,0:2|0:2,0:2:0:0:
48,65,13662,6,0,P|77:163|77:194,1,120.000004577637,2|0,3:2|0:2,0:2:0:0:
3,287,14151,1,0,0:2:0:0:
3,287,14314,2,0,L|143:262,1,120.000004577637,2|0,0:2|0:2,0:2:0:0:
133,259,14804,1,0,0:2:0:0:
224,313,14967,2,0,L|244:377,1,60.0000022888184,2|0,0:2|0:2,0:2:0:0:
360,261,15293,2,0,L|342:337,1,60.0000022888184,2|0,0:2|0:2,0:2:0:0:
478,192,15945,6,0,P|410:134|411:114,1,90.0000034332277,0|0,0:2|0:2,0:2:0:0:
421,62,16271,6,0,P|406:129|298:155,1,180.000006866455,2|0,0:2|0:2,0:2:0:0:
215,119,16923,2,0,P|268:147|247:274,1,180.000006866455,2|0,0:2|0:2,0:2:0:0:
158,328,17575,2,0,L|165:262,1,60.0000022888184,2|0,0:2|0:2,0:2:0:0:
51,370,17901,2,0,L|30:290,1,60.0000022888184,2|0,0:2|0:2,0:2:0:0:
38,166,18554,5,0,0:2:0:0:
121,179,18717,1,0,0:2:0:0:
203,185,18880,6,0,L|335:143,1,120.000004577637,2|0,0:2|0:2,0:2:0:0:
413,182,19369,1,0,0:2:0:0:
512,137,19532,2,0,P|518:83|424:17,1,180.000006866455,2|0,0:2|0:2,0:2:0:0:
329,99,20184,2,0,L|347:185,1,60.0000022888184,2|0,0:2|0:2,0:2:0:0:
221,76,20510,2,0,L|209:161,1,60.0000022888184,2|0,0:2|0:2,0:2:0:0:
147,378,21162,5,2,0:2:0:0:
162,376,21488,6,0,P|235:331|232:246,1,180.000006866455,2|0,0:2|0:2,0:2:0:0:
140,198,22141,2,0,P|66:242|70:328,1,180.000006866455,2|0,0:2|0:2,0:2:0:0:
162,376,22793,1,2,0:2:0:0:
303,319,23771,5,0,3:2:0:0:
218,183,23934,1,0,0:2:0:0:
134,253,24097,6,0,B|237:271|237:271|303:219,1,160,6|0,3:2|0:2,0:2:0:0:
370,88,24586,1,0,0:2:0:0:
345,15,24749,2,0,P|292:67|327:154,1,160,2|0,0:2|0:2,0:2:0:0:
422,190,25238,1,0,0:2:0:0:
304,254,25401,2,0,L|198:239,1,80,2|0,3:2|0:2,0:2:0:0:
145,356,25727,2,0,L|244:341,1,80,0|0,0:2|0:2,0:2:0:0:
53,225,26054,2,0,P|68:315|69:341,1,80,2|0,0:2|0:2,0:2:0:0:
184,236,26380,2,0,P|217:150|209:116,1,120,0|0,0:2|0:2,0:2:0:0:
161,60,26706,6,0,P|243:122|320:99,1,160,2|0,3:2|0:2,0:2:0:0:
403,45,27195,1,0,0:2:0:0:
479,97,27358,2,0,L|449:268,1,160,2|2,0:2|0:2,0:2:0:0:
285,318,27847,1,0,0:2:0:0:
299,225,28010,1,2,3:2:0:0:
395,283,28173,1,0,0:2:0:0:
202,372,28336,2,0,L|183:273,1,80,2|0,0:2|0:2,0:2:0:0:
70,155,28662,2,0,P|82:256|76:304,1,120,2|0,0:2|0:2,0:2:0:0:
72,293,28988,5,0,0:2:0:0:
70,381,29151,1,0,0:2:0:0:
190,303,29314,6,0,P|308:280|344:224,1,160,6|0,3:2|0:2,0:2:0:0:
325,142,29804,1,0,0:2:0:0:
226,48,29967,2,0,B|184:80|184:80|200:220,1,160,2|0,0:2|0:2,0:2:0:0:
341,246,30456,1,0,0:2:0:0:
449,172,30619,2,0,L|366:157,1,80,2|0,3:2|0:2,0:2:0:0:
434,309,30945,2,0,L|522:284,1,80,0|2,0:2|0:2,0:2:0:0:
306,372,31271,2,0,P|324:280|324:276,1,80,2|0,0:2|0:2,0:2:0:0:
210,167,31597,2,0,P|234:258|247:275,1,80,0|0,0:2|0:2,0:2:0:0:
155,337,31923,6,0,P|94:282|-8:292,1,160,2|0,3:2|0:2,0:2:0:0:
7,368,32412,1,0,0:2:0:0:
106,206,32575,2,0,P|125:119|115:31,1,160,2|0,0:2|0:2,0:2:0:0:
28,103,33064,1,8,0:2:0:0:
14,116,33146,1,8,0:2:0:0:
1,128,33227,6,0,L|171:100,1,160,6|0,3:2|0:2,0:2:0:0:
311,76,33717,1,8,0:2:0:0:
213,20,33880,1,0,3:2:0:0:
205,167,34043,1,0,0:0:0:0:
391,142,34206,1,8,0:2:0:0:
393,118,34287,1,8,0:2:0:0:
397,93,34369,1,8,0:2:0:0:
400,64,34450,1,8,0:2:0:0:
405,34,34532,6,0,P|425:131|446:222,1,160,2|0,3:2|0:2,0:2:0:0:
373,322,35021,1,0,0:2:0:0:
489,275,35184,2,0,P|428:228|329:259,1,160,2|0,0:2|0:2,0:2:0:0:
275,348,35673,1,0,0:2:0:0:
147,375,35836,2,0,P|163:295|164:261,1,80,2|0,3:2|0:2,0:2:0:0:
54,179,36162,2,0,P|78:269|83:281,1,80,0|0,0:2|0:2,0:2:0:0:
260,278,36488,6,0,P|242:181|233:164,1,80,2|0,0:2|0:2,0:2:0:0:
179,52,36814,2,0,P|164:146|166:165,1,80,0|0,0:2|0:2,0:2:0:0:
164,155,37059,5,8,0:2:0:0:
166,152,37141,2,0,P|212:115|332:148,1,160,10|0,0:2|0:2,0:2:0:0:
416,211,37630,1,0,0:2:0:0:
323,353,37793,2,0,B|287:283|287:283|330:194,1,160,2|0,0:2|0:2,0:2:0:0:
403,311,38282,1,0,0:2:0:0:
239,363,38445,2,0,L|145:347,1,80,2|0,3:2|0:2,0:2:0:0:
36,265,38771,2,0,L|138:247,1,80,0|0,0:2|0:2,0:2:0:0:
242,157,39097,5,2,0:2:0:0:
132,126,39260,1,8,0:2:0:0:
195,244,39423,1,2,0:2:0:0:
311,112,39586,1,2,0:2:0:0:
316,93,39668,1,2,0:2:0:0:
322,69,39749,6,0,P|327:142|337:179,1,80,6|0,0:2|0:2,0:2:0:0:
402,314,40075,2,0,P|362:282|306:263,1,80,0|0,0:2|0:2,0:2:0:0:
120,273,40401,2,0,L|210:252,1,80,2|0,0:2|0:2,0:2:0:0:
2,134,40727,2,0,L|171:161,1,160,2|0,0:2|3:2,0:2:0:0:
286,221,41217,1,0,0:0:0:0:
288,79,41380,6,0,P|278:2|265:-21,1,80,2|0,0:2|0:2,0:2:0:0:
406,147,41706,2,0,P|472:79|476:62,1,80,2|0,0:2|0:2,0:2:0:0:
395,266,42032,2,0,P|430:278|477:281,1,80,2|0,0:2|0:2,0:2:0:0:
512,287,42276,5,8,0:2:0:0:
512,287,42358,2,0,P|469:296|418:331,1,80,10|0,0:2|0:2,0:2:0:0:
376,138,42684,2,0,P|342:204|341:224,1,80,0|0,0:2|0:2,0:2:0:0:
184,130,43010,2,0,P|214:227|224:237,1,80,2|0,0:2|0:2,0:2:0:0:
50,275,43336,2,0,P|106:314|142:320,1,80,0|0,0:2|0:2,0:2:0:0:
293,346,43662,1,0,3:2:0:0:
263,151,43825,6,0,P|201:255|213:303,1,160,2|0,0:2|0:2,0:2:0:0:
322,250,44314,5,8,0:2:0:0:
272,343,44477,1,8,0:2:0:0:
406,219,44641,1,8,0:2:0:0:
353,384,44804,1,8,0:2:0:0:
214,270,44967,6,0,P|70:295|32:301,1,160,6|0,3:2|0:2,0:2:0:0:
43,77,45456,2,0,P|56:183|85:200,1,120,2|0,0:2|0:2,0:2:0:0:
86,198,45782,1,0,0:2:0:0:
214,127,45945,2,0,P|229:84|209:15,1,80,0|0,3:2|0:2,0:2:0:0:
211,12,46189,1,8,0:2:0:0:
211,12,46271,2,0,P|267:70|375:64,1,160,10|0,0:2|3:2,0:2:0:0:
484,70,46760,5,0,0:2:0:0:
363,167,46923,1,2,0:2:0:0:
402,28,47086,1,0,0:2:0:0:
453,195,47249,1,2,0:2:0:0:
280,108,47412,1,8,0:2:0:0:
289,100,47494,1,8,0:2:0:0:
297,92,47575,6,0,L|104:77,1,160,2|0,3:2|0:2,0:2:0:0:
17,123,48064,2,0,P|46:188|53:217,1,80,2|0,0:2|0:2,0:2:0:0:
0,274,48391,1,0,0:2:0:0:
97,370,48554,2,0,P|144:316|180:305,1,80,0|0,3:2|0:2,0:2:0:0:
195,309,48798,1,8,0:2:0:0:
195,309,48880,2,0,B|286:296|257:361|370:326,1,160,10|0,0:2|3:2,0:2:0:0:
459,256,49369,1,8,0:2:0:0:
324,144,49532,6,0,P|346:229|347:234,1,80,2|0,0:2|0:2,0:2:0:0:
490,134,49858,1,8,0:2:0:0:
451,126,49939,1,8,0:2:0:0:
421,99,50021,1,8,0:2:0:0:
409,62,50102,1,8,0:2:0:0:
424,22,50184,6,0,P|414:109|409:129,1,88.000002685547,2|0,3:2|0:2,0:2:0:0:
326,235,50510,2,0,P|327:150|316:113,1,88.000002685547,8|0,0:2|0:2,0:2:0:0:
258,0,50836,2,0,P|252:78|239:117,1,88.000002685547,2|0,3:2|0:2,0:2:0:0:
177,257,51162,2,0,P|182:187|176:152,1,88.000002685547,8|0,0:2|0:2,0:2:0:0:
14,43,51488,2,0,P|119:38|147:114,1,176.000005371094,2|0,3:2|0:2,0:2:0:0:
96,209,51977,5,8,0:2:0:0:
82,219,52059,1,8,0:2:0:0:
69,228,52141,2,0,L|171:200,1,88.000002685547,10|0,3:2|0:2,0:2:0:0:
429,183,52467,2,0,L|315:169,1,88.000002685547,10|0,0:2|0:2,0:2:0:0:
198,129,52793,6,0,P|181:50|173:32,1,88.000002685547,2|0,3:2|0:2,0:2:0:0:
321,179,53119,2,0,P|337:83|336:68,1,88.000002685547,0|0,3:2|0:2,0:2:0:0:
108,215,53445,2,0,P|93:162|68:113,1,88.000002685547,2|0,3:2|0:2,0:2:0:0:
410,245,53771,2,0,P|432:165|432:137,1,88.000002685547,0|0,3:2|0:2,0:2:0:0:
295,32,54097,5,10,0:2:0:0:
263,132,54260,1,10,0:2:0:0:
228,229,54423,1,10,0:2:0:0:
228,229,54749,6,0,P|218:298|217:316,1,60.0000022888184,0|0,0:2|0:2,0:2:0:0:
119,322,55075,2,0,P|124:351|130:380,1,60.0000022888184,0|0,0:2|0:2,0:2:0:0:
342,365,55401,6,0,P|424:309|490:319,1,155.999992858887,0|0,3:2|0:2,0:2:0:0:
512,318,55727,2,0,P|473:227|481:194,1,103.999995239258,10|0,0:2|0:2,0:2:0:0:
426,41,56054,2,0,P|399:116|330:145,1,155.999992858887,0|0,3:2|0:2,0:2:0:0:
302,148,56380,2,0,P|405:186|421:238,1,155.999992858887,10|0,0:2|0:2,0:2:0:0:
425,256,56706,2,0,L|176:237,1,207.999990478516,0|10,3:2|0:2,0:2:0:0:
75,288,57195,5,0,0:2:0:0:
37,93,57358,2,0,P|72:149|87:234,1,103.999995239258,0|0,3:2|0:2,0:2:0:0:
158,373,57684,2,0,P|184:260|202:229,1,103.999995239258,10|0,0:2|0:2,0:2:0:0:
350,89,58010,2,0,P|336:183|252:229,1,155.999992858887,0|0,3:2|0:2,0:2:0:0:
266,224,58336,2,0,P|353:246|377:267,1,103.999995239258,10|0,0:2|0:2,0:2:0:0:
504,295,58662,6,0,P|486:210|497:163,1,103.999995239258,0|0,3:2|0:2,0:2:0:0:
413,22,58988,2,0,P|420:94|396:164,1,103.999995239258,2|0,0:2|0:2,0:2:0:0:
213,177,59314,5,0,3:2:0:0:
322,114,59477,1,0,0:2:0:0:
281,259,59641,1,2,0:2:0:0:
146,134,59804,1,8,0:2:0:0:
151,123,59885,1,8,0:2:0:0:
157,114,59967,2,0,L|173:1,1,103.999995239258,0|0,3:2|0:2,0:2:0:0:
51,126,60293,1,2,0:2:0:0:
110,301,60456,5,8,0:2:0:0:
121,289,60537,1,8,0:2:0:0:
129,278,60619,2,0,L|320:243,1,155.999992858887,2|0,3:2|0:2,0:2:0:0:
316,235,60945,2,0,P|292:303|308:375,1,103.999995239258,10|0,0:2|0:2,0:2:0:0:
491,280,61271,2,0,P|467:186|376:149,1,155.999992858887,0|0,3:2|0:2,0:2:0:0:
381,149,61597,2,0,P|469:119|480:59,1,155.999992858887,10|0,0:2|0:2,0:2:0:0:
499,36,61923,2,0,L|272:70,1,207.999990478516,0|10,3:2|0:2,0:2:0:0:
126,138,62412,5,0,0:2:0:0:
12,20,62575,2,0,P|43:108|48:156,1,103.999995239258,0|0,3:2|0:2,0:2:0:0:
215,142,62901,2,0,P|187:232|180:273,1,103.999995239258,10|0,0:2|0:2,0:2:0:0:
123,384,63227,2,0,P|262:363|299:364,1,155.999992858887,0|0,3:2|0:2,0:2:0:0:
318,355,63554,2,0,P|308:273|338:241,1,103.999995239258,10|0,0:2|0:2,0:2:0:0:
421,137,63880,6,0,P|448:181|433:251,1,103.999995239258,2|0,3:2|0:2,0:2:0:0:
302,184,64206,1,2,0:2:0:0:
319,73,64369,1,0,0:2:0:0:
192,23,64532,5,8,0:2:0:0:
189,53,64613,1,8,0:2:0:0:
186,83,64695,1,8,0:2:0:0:
182,113,64776,1,8,0:2:0:0:
154,158,64858,5,8,0:2:0:0:
157,188,64939,1,8,0:2:0:0:
160,218,65021,1,8,0:2:0:0:
164,248,65102,1,8,0:2:0:0:
169,278,65184,6,0,P|223:234|237:193,1,103.999995239258,0|0,3:2|0:2,0:2:0:0:
338,356,65510,2,0,P|344:269|327:218,1,103.999995239258,8|0,0:2|0:2,0:2:0:0:
472,192,65755,1,0,0:0:0:0:
490,209,65836,6,0,P|379:137|376:81,1,155.999992858887,0|0,3:2|0:2,0:2:0:0:
369,76,66162,2,0,P|337:171|311:182,1,103.999995239258,10|0,0:2|0:2,0:2:0:0:
151,29,66488,2,0,P|228:143|211:172,1,155.999992858887,0|0,3:2|0:2,0:2:0:0:
220,180,66814,2,0,P|133:167|101:92,1,155.999992858887,10|0,0:2|0:2,0:2:0:0:
68,108,67141,2,0,P|105:240|106:328,1,207.999990478516,0|10,3:2|0:2,0:2:0:0:
19,263,67630,5,0,0:2:0:0:
176,354,67793,2,0,P|299:340|325:340,1,103.999995239258,0|0,3:2|0:2,0:2:0:0:
417,222,68119,2,0,P|352:239|289:258,1,103.999995239258,10|0,0:2|0:2,0:2:0:0:
214,159,68445,6,0,P|227:63|230:-5,1,155.999992858887,0|0,3:2|0:2,0:2:0:0:
207,6,68771,2,0,P|167:66|96:95,1,103.999995239258,10|0,0:2|0:2,0:2:0:0:
28,186,69097,2,0,P|142:262|135:294,1,155.999992858887,0|0,3:2|0:2,0:2:0:0:
143,298,69423,2,0,P|187:234|265:247,1,155.999992858887,10|0,0:2|0:2,0:2:0:0:
283,243,69749,2,0,P|303:301|462:307,1,207.999990478516,0|10,3:2|0:2,0:2:0:0:
411,68,70401,6,0,P|391:237|395:250,1,155.999992858887,0|0,3:2|0:2,0:2:0:0:
395,237,70727,1,10,0:2:0:0:
349,364,70891,2,0,P|291:289|217:279,1,155.999992858887,0|0,3:2|0:2,0:2:0:0:
193,271,71217,2,0,P|182:336|171:388,1,103.999995239258,10|0,0:0|0:0,0:0:0:0:
0,369,71543,5,2,3:2:0:0:
85,301,71706,1,2,0:2:0:0:
115,192,71869,1,0,0:2:0:0:
92,83,72032,1,8,0:2:0:0:
0,26,72195,6,0,P|17:108|42:168,1,103.999995239258,2|0,0:2|3:2,0:2:0:0:
281,188,72521,2,0,P|153:149|113:195,1,207.999990478516,8|0,0:2|0:2,0:2:0:0:
394,221,73010,6,0,P|399:113|391:79,1,103.999995239258,2|0,3:2|0:2,0:2:0:0:
460,309,73336,1,8,0:2:0:0:
262,340,73499,2,0,L|490:295,1,207.999990478516,0|2,3:2|0:2,0:2:0:0:
254,242,73988,1,0,0:2:0:0:
161,372,74151,1,10,0:2:0:0:
150,177,74314,1,0,3:2:0:0:
262,340,74477,1,0,0:2:0:0:
45,203,74641,2,0,P|52:99|52:79,1,103.999995239258,10|0,0:2|0:2,0:2:0:0:
242,10,74967,5,8,0:2:0:0:
168,263,75130,1,8,0:2:0:0:
401,138,75782,5,2,0:2:0:0:
313,194,75945,1,2,0:2:0:0:
315,77,76108,1,2,0:2:0:0:
499,81,76271,6,0,P|486:179|485:211,1,95.9999970703126,6|0,3:2|0:2,0:2:0:0:
491,199,76516,1,2,0:2:0:0:
489,200,76597,1,10,0:2:0:0:
452,307,76760,1,2,0:2:0:0:
278,246,76923,2,0,P|360:195|404:225,1,143.999995605469,2|0,3:2|0:2,0:2:0:0:
402,225,77249,1,8,0:2:0:0:
178,272,77412,6,0,P|153:147|204:84,1,191.999994140625,2|2,0:2|0:2,0:2:0:0:
263,254,77901,1,8,0:2:0:0:
234,377,78064,2,0,P|136:348|108:345,1,95.9999970703126,2|0,0:2|3:2,0:2:0:0:
0,287,78391,2,0,P|103:259|124:246,1,95.9999970703126,2|8,0:2|0:2,0:2:0:0:
197,146,78717,5,0,0:2:0:0:
213,126,78798,1,0,0:2:0:0:
229,107,78880,2,0,P|209:215|209:220,1,95.9999970703126,2|0,3:2|0:2,0:2:0:0:
222,236,79124,1,2,0:2:0:0:
222,236,79206,1,10,0:2:0:0:
319,315,79369,1,2,0:2:0:0:
431,241,79532,2,0,P|442:159|374:128,1,143.999995605469,2|0,3:2|0:2,0:2:0:0:
372,122,79858,1,8,0:2:0:0:
179,159,80021,6,0,P|280:102|273:41,1,191.999994140625,2|2,0:2|0:2,0:2:0:0:
102,60,80510,1,10,0:2:0:0:
41,193,80673,2,0,P|66:292|73:373,1,143.999995605469,2|0,0:2|0:2,0:2:0:0:
71,356,80999,5,2,0:2:0:0:
177,337,81162,1,10,0:2:0:0:
256,274,81325,1,2,0:2:0:0:
334,193,81488,6,0,P|353:256|415:284,1,95.9999970703126,6|0,3:2|0:2,0:2:0:0:
403,279,81733,1,2,0:2:0:0:
403,279,81814,1,10,0:2:0:0:
492,189,81977,1,2,0:2:0:0:
341,105,82141,2,0,P|254:142|250:215,1,143.999995605469,0|0,3:2|0:2,0:2:0:0:
247,207,82467,1,8,0:2:0:0:
245,353,82630,6,0,P|194:282|74:270,1,191.999994140625,2|2,0:2|0:2,0:2:0:0:
5,326,83119,1,10,0:2:0:0:
100,183,83282,2,0,P|110:117|103:80,1,95.9999970703126,2|8,0:2|0:2,0:2:0:0:
222,27,83608,5,8,0:2:0:0:
243,62,83689,1,8,0:2:0:0:
278,88,83771,1,8,0:2:0:0:
319,98,83852,1,8,0:2:0:0:
361,92,83934,1,8,0:2:0:0:
399,69,84015,1,8,0:2:0:0:
413,32,84097,6,0,P|413:92|409:135,1,95.9999970703126,2|0,3:2|0:2,0:2:0:0:
333,258,84342,1,8,0:2:0:0:
333,258,84423,2,0,B|311:215|311:215|336:153,1,95.9999970703126,10|0,0:2|0:2,0:2:0:0:
468,227,84749,1,10,0:2:0:0:
473,257,84831,1,8,0:2:0:0:
478,286,84912,1,8,0:2:0:0:
360,378,85075,5,10,0:2:0:0:
337,336,85156,1,8,0:2:0:0:
296,312,85238,1,8,0:2:0:0:
249,311,85319,1,8,0:2:0:0:
208,335,85401,1,10,0:2:0:0:
80,297,85564,1,8,0:2:0:0:
196,148,85727,5,10,0:2:0:0:
194,173,85809,1,8,0:2:0:0:
190,197,85891,1,8,0:2:0:0:
187,222,85972,1,8,0:2:0:0:
184,245,86054,6,0,P|203:306|207:329,1,47.9999985351563,2|0,3:2|0:2,0:2:0:0:
289,220,86217,2,0,P|288:296|287:308,1,47.9999985351563,0|0,3:2|0:2,0:2:0:0:
393,231,86380,2,0,P|383:266|365:318,1,47.9999985351563,2|0,3:2|0:2,0:2:0:0:
493,277,86543,2,0,P|478:305|447:355,1,47.9999985351563,0|0,3:2|0:2,0:2:0:0:
