osu file format v14

[General]
AudioFilename: audio.mp3
AudioLeadIn: 0
PreviewTime: 54432
Countdown: 0
SampleSet: Soft
StackLeniency: 0.3
Mode: 0
LetterboxInBreaks: 0
WidescreenStoryboard: 1

[Editor]
DistanceSpacing: 0.8
BeatDivisor: 4
GridSize: 8
TimelineZoom: 2.3

[Metadata]
Title:Long Time Traveler (TV Size)
TitleUnicode:ロングタイムトラベラー (TV Size)
Artist:mono palette.
ArtistUnicode:mono palette.
Creator:Lunala
Version:Hard
Source:不機嫌なモノノケ庵 續
Tags:モノパレット Fukigen na Mononokean Tokuma Japan Communications 堀江晶太 Japanese Anime opening 雪見 あげいん 3部 Rim モノパレ
BeatmapID:2470549
BeatmapSetID:1032966

[Difficulty]
HPDrainRate:5
CircleSize:3.5
OverallDifficulty:7
ApproachRate:8
SliderMultiplier:1.4
SliderTickRate:1

[Events]
//Background and Video events
0,0,"1.jpg",0,0
//Break Periods
//Storyboard Layer 0 (Background)
//Storyboard Layer 1 (Fail)
//Storyboard Layer 2 (Pass)
//Storyboard Layer 3 (Foreground)
//Storyboard Layer 4 (Overlay)
//Storyboard Sound Samples

[TimingPoints]
3228,326.086956521739,4,2,1,75,1,0
3228,-100,4,2,1,75,0,0
13336,-117.647058823529,4,2,1,55,0,0
13662,-133.333333333333,4,2,1,45,0,0
24097,-111.111111111111,4,2,1,60,0,0
44967,-111.111111111111,4,2,1,65,0,0
50184,-100,4,2,1,70,0,0
54749,-133.333333333333,4,2,1,45,0,0
54994,-133.333333333333,4,2,1,5,0,0
55075,-133.333333333333,4,2,1,45,0,0
55320,-133.333333333333,4,2,1,5,0,0
55401,-90.9090909090909,4,2,1,85,0,1
75293,-100,4,2,1,75,0,0
84097,-90.9090909090909,4,2,1,75,0,0

[Colours]
Combo1 : 255,0,128
Combo2 : 81,255,239
Combo3 : 179,109,255

[HitObjects]
120,113,2738,6,0,L|98:191,2,70,2|2|2,0:2|0:2|0:2,0:0:0:0:
196,42,3228,6,0,P|224:102|216:132,1,70,6|0,3:2|0:2,0:0:0:0:
219,153,3472,1,2,0:2:0:0:
219,153,3554,2,0,L|317:134,1,70,8|0,0:2|0:2,0:0:0:0:
362,219,3880,2,0,L|203:256,1,140,2|8,3:2|0:2,0:0:0:0:
141,307,4369,6,0,L|155:405,1,70,2|0,0:2|0:0,0:0:0:0:
40,339,4695,1,2,0:2:0:0:
28,250,4858,1,8,2:2:0:0:
114,200,5021,2,0,P|128:135|85:67,1,140,2|8,0:2|0:2,0:0:0:0:
38,146,5510,1,0,0:2:0:0:
114,200,5673,5,2,0:2:0:0:
114,200,5755,1,2,0:2:0:0:
114,200,5836,2,0,L|209:183,1,70,2|0,3:2|0:2,0:0:0:0:
238,176,6081,1,2,0:2:0:0:
238,176,6162,2,0,L|232:269,1,70,8|2,2:2|0:2,0:0:0:0:
300,324,6488,2,0,P|376:294|439:329,1,140,2|8,3:2|2:2,0:0:0:0:
505,258,6977,6,0,L|492:166,1,70,2|0,0:2|0:0,0:0:0:0:
397,133,7304,1,2,0:2:0:0:
390,230,7467,1,2,3:2:0:0:
298,178,7630,2,0,B|275:114|275:114|321:41,1,140,8|2,0:2|3:2,0:0:0:0:
397,133,8119,1,2,0:2:0:0:
390,230,8282,1,2,0:2:0:0:
298,178,8445,6,0,L|207:173,1,70,6|0,3:2|0:2,0:0:0:0:
185,172,8689,1,2,0:2:0:0:
185,172,8771,2,0,P|173:220|186:258,1,70,10|2,0:2|0:2,0:0:0:0:
195,345,9097,2,0,L|39:325,1,140,2|10,3:2|0:2,0:0:0:0:
0,219,9586,6,0,L|83:232,1,70,2|0,0:2|0:0,0:0:0:0:
125,142,9912,1,2,0:2:0:0:
117,54,10075,1,8,2:2:0:0:
218,7,10238,2,0,L|202:123,1,70,2|0,0:2|0:2,0:0:0:0:
255,167,10564,2,0,L|251:212,2,35,8|8|8,0:2|0:2|0:2,0:0:0:0:
339,74,10891,5,8,0:2:0:0:
339,74,10972,1,8,0:2:0:0:
339,74,11054,2,0,P|436:87|454:70,1,105,6|2,3:2|0:2,0:0:0:0:
473,69,11380,2,0,L|456:163,1,70,2|0,3:2|0:0,0:0:0:0:
379,215,11706,2,0,L|382:340,1,105,6|0,3:2|0:2,0:0:0:0:
376,369,12032,2,0,L|282:350,1,70,2|0,3:2|0:0,0:0:0:0:
260,260,12358,6,0,L|257:221,2,35,6|0|8,3:2|0:0|0:2,0:0:0:0:
197,350,12684,2,0,L|200:389,2,35,10|0|8,0:2|0:0|0:2,0:0:0:0:
112,265,13010,2,0,L|109:226,2,35,10|0|0,0:2|0:2|0:2,0:0:0:0:
170,151,13336,6,0,P|185:128|182:70,1,59.5000011348725,2|0,0:2|0:2,0:0:0:0:
227,222,13662,2,0,B|318:196|302:264|384:230,1,157.500006008148,2|0,3:2|0:2,0:0:0:0:
489,182,14314,2,0,B|504:238|504:238|470:287,1,105.000004005432,2|0,0:2|0:2,0:0:0:0:
411,338,14804,1,0,0:2:0:0:
411,338,14967,1,2,0:2:0:0:
305,283,15293,1,2,0:2:0:0:
96,336,15945,5,0,0:2:0:0:
22,219,16271,2,0,L|14:100,1,105.000004005432,2|0,0:2|0:0,0:0:0:0:
71,38,16760,1,0,0:2:0:0:
155,84,16923,2,0,B|260:65|208:141|340:102,1,157.500006008148,2|0,0:2|0:2,0:0:0:0:
413,111,17575,2,0,L|394:52,1,52.5000020027161,2|0,0:2|0:2,0:0:0:0:
313,24,17901,1,2,0:2:0:0:
470,213,18554,6,0,L|407:194,1,52.5000020027161,0|0,0:2|0:2,0:0:0:0:
313,186,18880,2,0,P|337:241|325:314,1,105.000004005432,2|0,0:2|0:2,0:0:0:0:
283,366,19369,1,0,0:2:0:0:
208,307,19532,2,0,L|28:291,1,157.500006008148,2|0,0:2|0:2,0:0:0:0:
7,215,20184,2,0,L|23:162,1,52.5000020027161,2|0,0:2|0:2,0:0:0:0:
110,189,20510,1,2,0:2:0:0:
264,266,21162,5,2,0:2:0:0:
264,266,21488,2,0,P|355:257|384:166,1,157.500006008148,2|0,0:2|0:2,0:0:0:0:
469,137,22141,2,0,B|496:195|496:195|477:297,1,157.500006008148,2|0,0:2|0:2,0:0:0:0:
422,370,22793,1,2,0:2:0:0:
93,49,23771,5,0,3:2:0:0:
93,49,23934,1,0,0:2:0:0:
187,24,24097,6,0,P|217:86|201:141,1,125.999996154785,6|0,3:2|0:2,0:0:0:0:
150,229,24586,1,0,0:2:0:0:
261,226,24749,2,0,P|326:195|392:220,1,125.999996154785,2|0,0:2|0:2,0:0:0:0:
434,300,25238,1,0,0:2:0:0:
335,357,25401,2,0,L|321:273,1,62.9999980773926,2|0,3:2|0:2,0:0:0:0:
261,226,25727,2,0,P|233:247|188:250,1,62.9999980773926,0|0,0:2|0:2,0:0:0:0:
40,187,26054,2,0,P|98:218|103:299,1,125.999996154785,2|0,0:2|0:2,0:0:0:0:
13,314,26543,1,0,0:0:0:0:
88,383,26706,6,0,L|232:356,1,125.999996154785,2|0,3:2|0:2,0:0:0:0:
324,356,27195,1,0,0:2:0:0:
297,259,27358,2,0,P|281:171|240:146,1,125.999996154785,2|2,0:2|0:2,0:0:0:0:
152,135,27847,1,0,0:2:0:0:
215,52,28010,2,0,L|291:41,1,62.9999980773926,2|0,3:2|0:2,0:0:0:0:
394,7,28336,2,0,L|377:88,1,62.9999980773926,2|0,0:2|0:2,0:0:0:0:
374,115,28581,1,0,0:0:0:0:
374,115,28662,2,0,P|441:139|451:211,1,125.999996154785,2|0,0:2|0:2,0:0:0:0:
422,277,29151,1,0,0:2:0:0:
342,351,29314,6,0,B|309:304|309:304|329:209,1,125.999996154785,6|0,3:2|0:2,0:0:0:0:
283,152,29804,1,0,0:2:0:0:
208,222,29967,2,0,P|138:265|79:251,1,125.999996154785,2|0,0:2|0:2,0:0:0:0:
15,204,30456,1,0,0:2:0:0:
99,107,30619,2,0,P|123:163|119:189,1,62.9999980773926,2|0,3:2|0:2,0:0:0:0:
208,222,30945,2,0,P|288:178|341:188,1,125.999996154785,0|2,0:2|0:2,0:0:0:0:
399,5,31597,5,0,0:2:0:0:
399,5,31923,2,0,P|429:63|396:133,1,125.999996154785,2|0,3:2|0:2,0:0:0:0:
314,164,32412,1,0,0:2:0:0:
398,231,32575,2,0,L|543:217,1,125.999996154785,2|0,0:2|0:2,0:0:0:0:
458,318,33064,1,8,0:2:0:0:
458,318,33146,1,8,0:2:0:0:
458,318,33227,2,0,L|328:328,1,125.999996154785,6|0,3:2|0:2,0:0:0:0:
228,343,33717,1,8,0:2:0:0:
116,291,33880,6,0,P|107:234|118:208,1,62.9999980773926,0|0,3:2|0:0,0:0:0:0:
179,132,34206,1,8,0:2:0:0:
179,132,34287,1,8,0:2:0:0:
179,132,34369,1,8,0:2:0:0:
236,223,34532,6,0,P|248:284|216:357,1,125.999996154785,2|0,3:2|0:2,0:0:0:0:
116,291,35021,1,0,0:2:0:0:
38,207,35184,2,0,P|26:146|58:73,1,125.999996154785,2|0,0:2|0:2,0:0:0:0:
149,40,35673,1,0,0:2:0:0:
210,124,35836,2,0,L|126:146,2,62.9999980773926,2|0|0,3:2|0:2|0:2,0:0:0:0:
301,25,36488,6,0,L|316:105,1,62.9999980773926,2|0,0:2|0:2,0:0:0:0:
400,149,36814,2,0,L|393:231,1,62.9999980773926,0|0,0:2|0:2,0:0:0:0:
388,263,37059,5,8,0:2:0:0:
388,263,37141,2,0,P|449:236|527:264,1,125.999996154785,10|0,0:2|0:2,0:0:0:0:
462,339,37630,1,0,0:2:0:0:
359,363,37793,2,0,L|231:336,1,125.999996154785,2|0,0:2|0:2,0:0:0:0:
156,275,38282,1,0,0:2:0:0:
59,319,38445,2,0,L|73:385,2,62.9999980773926,2|0|0,3:2|0:2|0:2,0:0:0:0:
17,99,39097,6,0,L|100:116,1,62.9999980773926,2|8,0:2|0:2,0:0:0:0:
190,29,39423,2,0,L|180:114,1,62.9999980773926,2|2,0:2|0:2,0:0:0:0:
180,141,39668,5,2,0:2:0:0:
186,142,39749,2,0,P|293:103|322:112,1,125.999996154785,6|0,0:2|0:2,0:0:0:0:
389,156,40238,1,0,0:2:0:0:
360,243,40401,2,0,L|340:315,1,62.9999980773926,2|0,0:2|0:2,0:0:0:0:
451,366,40727,2,0,P|461:227|459:212,1,125.999996154785,2|0,0:2|3:2,0:0:0:0:
443,37,41380,6,0,L|352:67,1,62.9999980773926,2|0,0:2|0:2,0:0:0:0:
300,120,41706,2,0,L|201:91,1,62.9999980773926,2|0,0:2|0:2,0:0:0:0:
156,33,42032,2,0,L|55:53,1,62.9999980773926,2|0,0:2|0:2,0:0:0:0:
53,54,42276,5,8,0:2:0:0:
53,54,42358,2,0,P|73:107|78:131,1,62.9999980773926,10|0,0:2|0:2,0:0:0:0:
167,144,42684,2,0,P|155:196|143:216,1,62.9999980773926,0|0,0:2|0:2,0:0:0:0:
256,230,43010,2,0,P|229:277|204:294,1,62.9999980773926,2|0,0:2|0:2,0:0:0:0:
157,384,43336,2,0,P|226:367|305:361,1,125.999996154785,0|0,0:2|3:2,0:0:0:0:
404,373,43825,2,0,P|384:270|388:234,1,125.999996154785,2|0,0:2|0:2,0:0:0:0:
418,210,44233,5,0,0:0:0:0:
418,210,44314,2,0,L|344:220,1,62.9999980773926,8|8,0:2|0:2,0:0:0:0:
209,265,44641,2,0,L|298:271,1,62.9999980773926,8|8,0:2|0:2,0:0:0:0:
174,152,44967,6,0,L|316:172,1,125.999996154785,6|0,3:2|0:2,0:0:0:0:
318,47,45456,2,0,P|271:77|266:107,1,62.9999980773926,2|0,0:2|0:0,0:0:0:0:
174,152,45782,2,0,P|153:92|140:85,1,62.9999980773926,0|0,0:2|3:2,0:0:0:0:
44,147,46108,1,0,0:2:0:0:
53,144,46189,1,8,0:2:0:0:
62,142,46271,2,0,L|49:285,1,125.999996154785,10|0,0:2|3:2,0:0:0:0:
134,344,46760,5,0,0:2:0:0:
224,249,46923,1,2,0:2:0:0:
146,264,47086,1,0,0:2:0:0:
209,379,47249,1,2,0:2:0:0:
265,319,47412,5,8,0:2:0:0:
272,313,47494,1,8,0:2:0:0:
279,307,47575,2,0,L|406:288,1,125.999996154785,2|0,3:2|0:2,0:0:0:0:
471,198,48064,2,0,L|384:205,1,62.9999980773926,2|0,0:2|0:2,0:0:0:0:
310,139,48391,1,0,0:2:0:0:
380,69,48554,2,0,P|402:117|399:140,1,62.9999980773926,0|0,3:2|0:2,0:0:0:0:
230,112,48880,6,0,P|216:46|257:-7,1,125.999996154785,10|0,0:2|3:2,0:0:0:0:
310,139,49369,1,8,0:2:0:0:
226,213,49532,2,0,L|151:207,1,62.9999980773926,2|0,0:2|0:2,0:0:0:0:
36,141,49858,5,8,0:2:0:0:
40,130,49939,1,8,0:2:0:0:
44,119,50021,1,8,0:2:0:0:
48,108,50102,1,8,0:2:0:0:
52,97,50184,6,0,L|58:189,1,70,2|0,3:2|0:2,0:0:0:0:
21,287,50510,2,0,L|117:263,1,70,8|0,0:2|0:2,0:0:0:0:
196,343,50836,2,0,L|186:257,1,70,2|0,3:2|0:2,0:0:0:0:
242,158,51162,2,0,L|154:174,1,70,8|0,0:2|0:2,0:0:0:0:
324,225,51488,2,0,P|381:221|428:147,1,140,2|0,3:2|0:2,0:0:0:0:
416,47,51977,5,8,0:2:0:0:
406,54,52059,1,8,0:2:0:0:
396,61,52141,2,0,P|326:75|289:49,1,105,10|0,3:2|0:0,0:0:0:0:
259,43,52467,2,0,L|181:34,1,70,10|0,0:2|0:2,0:0:0:0:
64,63,52793,6,0,L|88:164,1,70,2|0,3:2|0:2,0:0:0:0:
137,286,53119,2,0,L|152:196,1,70,0|0,3:2|0:2,0:0:0:0:
239,151,53445,2,0,L|140:133,1,70,2|0,3:2|0:2,0:0:0:0:
0,225,53771,2,0,L|71:206,1,70,0|0,3:2|0:2,0:0:0:0:
210,239,54097,5,10,0:2:0:0:
305,201,54260,1,10,0:2:0:0:
339,107,54423,1,10,0:2:0:0:
133,166,55401,6,0,L|258:159,1,115.50000352478,0|0,3:2|0:2,0:0:0:0:
288,159,55727,2,0,L|201:143,1,77.0000023498536,10|0,0:2|0:2,0:0:0:0:
78,103,56054,2,0,P|50:175|78:228,1,115.50000352478,0|0,3:2|0:2,0:0:0:0:
77,251,56380,2,0,L|53:345,1,77.0000023498536,10|0,0:2|0:0,0:0:0:0:
171,357,56706,2,0,P|241:334|307:380,1,154.000004699707,0|10,3:2|0:2,0:0:0:0:
410,355,57195,5,0,0:2:0:0:
476,258,57358,2,0,L|464:176,1,77.0000023498536,0|0,3:2|0:2,0:0:0:0:
365,120,57684,2,0,L|378:217,1,77.0000023498536,10|0,0:2|0:2,0:0:0:0:
270,157,58010,2,0,P|265:80|302:31,1,115.50000352478,0|0,3:2|0:2,0:0:0:0:
320,20,58336,2,0,L|232:28,1,77.0000023498536,10|0,0:2|0:2,0:0:0:0:
106,100,58662,6,0,P|95:170|123:270,1,154.000004699707,0|2,3:2|0:2,0:0:0:0:
207,316,59151,1,0,0:2:0:0:
113,375,59314,2,0,L|6:363,1,77.0000023498536,0|0,3:2|0:2,0:0:0:0:
207,316,59641,2,0,L|302:302,1,77.0000023498536,2|8,0:2|0:2,0:0:0:0:
400,283,59967,2,0,P|411:224|382:157,1,115.50000352478,0|0,3:2|0:0,0:0:0:0:
352,147,60293,2,0,L|453:135,1,77.0000023498536,2|8,0:2|0:2,0:0:0:0:
472,123,60537,5,8,0:2:0:0:
472,123,60619,2,0,L|334:96,1,115.50000352478,2|0,3:2|0:2,0:0:0:0:
308,86,60945,2,0,P|308:28|338:-5,1,77.0000023498536,10|0,0:2|0:2,0:0:0:0:
260,161,61271,2,0,P|189:177|127:139,1,115.50000352478,0|0,3:2|0:2,0:0:0:0:
107,142,61597,2,0,L|100:236,1,77.0000023498536,10|0,0:2|0:0,0:0:0:0:
8,274,61923,2,0,L|18:94,1,154.000004699707,0|10,3:2|0:2,0:0:0:0:
100,35,62412,5,0,0:2:0:0:
191,118,62575,2,0,L|182:205,1,77.0000023498536,0|0,3:2|0:2,0:0:0:0:
267,260,62901,2,0,L|255:344,1,77.0000023498536,10|0,0:2|0:2,0:0:0:0:
131,384,63227,2,0,P|94:326|108:281,1,115.50000352478,0|0,3:2|0:2,0:0:0:0:
121,241,63554,2,0,L|37:260,1,77.0000023498536,10|0,0:2|0:2,0:0:0:0:
197,304,63880,6,0,L|281:289,1,77.0000023498536,2|0,3:2|0:2,0:0:0:0:
350,197,64206,2,0,L|266:209,1,77.0000023498536,2|0,0:2|0:2,0:0:0:0:
216,94,64532,2,0,L|207:50,2,38.5000011749268,8|8|8,0:2|0:2|0:2,0:0:0:0:
305,37,64858,2,0,L|296:-7,2,38.5000011749268,8|8|8,0:2|0:2|0:2,0:0:0:0:
362,118,65184,2,0,L|340:249,1,115.50000352478,0|0,3:2|0:0,0:0:0:0:
329,276,65510,2,0,L|427:255,1,77.0000023498536,8|0,0:2|0:2,0:0:0:0:
453,254,65755,5,0,0:0:0:0:
453,254,65836,2,0,P|407:270|377:346,1,115.50000352478,0|0,3:2|0:2,0:0:0:0:
379,371,66162,2,0,L|281:388,1,77.0000023498536,10|0,0:2|0:2,0:0:0:0:
191,325,66488,2,0,L|47:304,1,115.50000352478,0|0,3:2|0:2,0:0:0:0:
29,303,66814,2,0,P|36:242|21:205,1,77.0000023498536,10|0,0:2|0:0,0:0:0:0:
126,100,67141,2,0,P|109:191|154:235,1,154.000004699707,0|10,3:2|0:2,0:0:0:0:
255,260,67630,5,0,0:2:0:0:
263,142,67793,2,0,L|171:163,1,77.0000023498536,0|0,3:2|0:2,0:0:0:0:
292,53,68119,2,0,L|196:71,1,77.0000023498536,10|0,0:2|0:2,0:0:0:0:
358,132,68445,6,0,P|399:66|377:12,1,115.50000352478,0|0,3:2|0:2,0:0:0:0:
378,9,68771,2,0,L|479:15,1,77.0000023498536,10|0,0:2|0:2,0:0:0:0:
485,112,69097,2,0,P|469:211|495:243,1,115.50000352478,0|0,3:2|0:2,0:0:0:0:
495,265,69423,2,0,L|409:255,1,77.0000023498536,10|0,0:2|0:0,0:0:0:0:
302,298,69749,2,0,P|230:308|176:240,1,154.000004699707,0|10,3:2|0:2,0:0:0:0:
260,228,70238,1,0,0:0:0:0:
114,308,70401,6,0,L|108:408,1,77.0000023498536,0|0,3:2|0:0,0:0:0:0:
18,306,70727,1,10,0:2:0:0:
61,205,70891,2,0,L|69:122,1,77.0000023498536,0|0,3:2|0:0,0:0:0:0:
168,48,71217,2,0,B|208:117|208:117|158:212,1,154.000004699707,10|2,0:0|3:2,0:0:0:0:
235,266,71706,2,0,L|316:258,1,77.0000023498536,2|0,0:2|0:2,0:0:0:0:
394,150,72032,2,0,L|292:159,1,77.0000023498536,8|2,0:2|0:2,0:0:0:0:
407,256,72358,1,0,3:2:0:0:
483,168,72521,2,0,P|473:91|395:61,1,154.000004699707,8|0,0:2|0:2,0:0:0:0:
307,156,73010,6,0,L|324:245,1,77.0000023498536,2|0,3:2|0:2,0:0:0:0:
265,328,73336,1,8,0:2:0:0:
216,211,73499,2,0,L|197:118,1,77.0000023498536,0|0,3:2|0:0,0:0:0:0:
225,37,73825,1,2,0:2:0:0:
330,57,73988,1,0,0:2:0:0:
307,156,74151,1,10,0:2:0:0:
201,136,74314,2,0,L|116:131,1,77.0000023498536,0|0,3:2|0:2,0:0:0:0:
31,220,74641,2,0,L|122:227,1,77.0000023498536,10|0,0:2|0:2,0:0:0:0:
210,304,74967,5,8,0:2:0:0:
235,215,75130,1,8,0:2:0:0:
453,286,75782,6,0,L|448:370,2,70,2|2|2,0:2|0:2|0:2,0:0:0:0:
394,198,76271,6,0,P|396:135|414:114,1,70,6|0,3:2|0:2,0:0:0:0:
425,89,76516,1,2,0:2:0:0:
425,89,76597,2,0,L|330:96,1,70,10|2,0:2|0:2,0:0:0:0:
282,31,76923,2,0,P|254:99|295:166,1,140,2|8,3:2|0:2,0:0:0:0:
362,229,77412,6,0,L|345:298,1,70,2|0,0:2|0:0,0:0:0:0:
296,381,77738,1,2,0:2:0:0:
260,284,77901,1,8,0:2:0:0:
166,321,78064,2,0,L|13:293,1,140,2|2,0:2|0:2,0:0:0:0:
3,204,78554,1,8,0:2:0:0:
92,108,78717,5,0,0:2:0:0:
92,108,78798,1,0,0:2:0:0:
92,108,78880,2,0,P|109:161|92:192,1,70,2|0,3:2|0:2,0:0:0:0:
103,223,79124,1,2,0:2:0:0:
103,223,79206,2,0,L|200:209,1,70,10|2,0:2|0:2,0:0:0:0:
282,254,79532,2,0,P|336:291|416:245,1,140,2|8,3:2|0:2,0:0:0:0:
485,188,80021,6,0,L|468:104,1,70,2|0,0:2|0:0,0:0:0:0:
382,32,80347,1,2,0:2:0:0:
385,129,80510,1,10,0:2:0:0:
294,82,80673,2,0,B|227:59|227:59|148:103,1,140,2|2,0:2|0:2,0:0:0:0:
118,170,81162,1,10,0:2:0:0:
199,232,81325,1,2,0:2:0:0:
307,215,81488,6,0,L|301:296,1,70,6|0,3:2|0:2,0:0:0:0:
304,338,81733,1,2,0:2:0:0:
302,337,81814,2,0,P|262:330|218:346,1,70,10|2,0:2|0:2,0:0:0:0:
135,327,82141,2,0,P|117:274|19:260,1,140,0|8,3:2|0:2,0:0:0:0:
2,158,82630,6,0,L|18:70,1,70,2|0,0:2|0:0,0:0:0:0:
105,10,82956,1,2,0:2:0:0:
114,97,83119,1,10,0:2:0:0:
187,167,83282,2,0,L|277:153,1,70,2|8,0:2|0:2,0:0:0:0:
333,72,83608,2,0,L|321:34,2,35,8|8|8,0:2|0:2|0:2,0:0:0:0:
419,143,83934,5,8,0:2:0:0:
419,143,84016,1,8,0:2:0:0:
419,143,84097,2,0,L|408:263,1,115.50000352478,2|8,3:2|0:2,0:0:0:0:
405,302,84423,2,0,L|494:285,1,77.0000023498536,10|0,0:2|0:2,0:0:0:0:
343,384,84749,1,10,0:2:0:0:
343,384,84831,1,8,0:2:0:0:
343,384,84912,1,8,0:2:0:0:
258,278,85075,2,0,L|258:240,3,38.5000011749268,10|8|8|8,0:2|0:2|0:2|0:2,0:0:0:0:
213,304,85401,6,0,L|114:294,1,77.0000023498536,10|8,0:2|0:2,0:0:0:0:
33,206,85727,1,10,0:2:0:0:
43,198,85809,1,8,0:2:0:0:
55,191,85891,1,8,0:2:0:0:
67,184,85972,1,8,0:2:0:0:
77,178,86054,2,0,L|65:266,1,77.0000023498536,2|0,3:2|3:2,0:0:0:0:
189,131,86380,2,0,L|175:226,1,77.0000023498536,2|0,3:2|3:2,0:0:0:0:
