osu file format v14

[General]
AudioFilename: audio.mp3
AudioLeadIn: 0
PreviewTime: 54432
Countdown: 0
SampleSet: Soft
StackLeniency: 0.4
Mode: 0
LetterboxInBreaks: 0
WidescreenStoryboard: 1

[Editor]
DistanceSpacing: 1
BeatDivisor: 4
GridSize: 8
TimelineZoom: 2.3

[Metadata]
Title:Long Time Traveler (TV Size)
TitleUnicode:ロングタイムトラベラー (TV Size)
Artist:mono palette.
ArtistUnicode:mono palette.
Creator:Lunala
Version:Normal
Source:不機嫌なモノノケ庵 續
Tags:モノパレット Fukigen na Mononokean Tokuma Japan Communications 堀江晶太 Japanese Anime opening 雪見 あげいん 3部 Rim モノパレ
BeatmapID:2165903
BeatmapSetID:1032966

[Difficulty]
HPDrainRate:4
CircleSize:3
OverallDifficulty:5
ApproachRate:6
SliderMultiplier:1.1
SliderTickRate:1

[Events]
//Background and Video events
0,0,"1.jpg",0,0
//Break Periods
//Storyboard Layer 0 (Background)
//Storyboard Layer 1 (Fail)
//Storyboard Layer 2 (Pass)
//Storyboard Layer 3 (Foreground)
//Storyboard Layer 4 (Overlay)
//Storyboard Sound Samples

[TimingPoints]
3228,326.086956521739,4,2,1,75,1,0
13662,-125,4,2,1,45,0,0
23771,-100,4,2,1,45,0,0
24097,-100,4,2,1,60,0,0
44967,-100,4,2,1,65,0,0
50184,-100,4,2,1,70,0,0
54749,-100,4,2,1,45,0,0
55401,-100,4,2,1,85,0,1
75293,-100,4,2,1,75,0,0

[Colours]
Combo1 : 255,0,128
Combo2 : 81,255,239
Combo3 : 179,109,255

[HitObjects]
84,119,2738,6,0,L|77:29,2,55,2|2|2,0:2|0:2|0:2,0:0:0:0:
120,160,3228,6,0,L|113:296,1,110,6|8,3:2|0:2,0:0:0:0:
100,323,3717,2,0,L|180:308,1,55,0|2,0:2|3:2,0:0:0:0:
268,312,4206,1,8,0:2:0:0:
268,312,4369,2,0,P|327:291|392:342,1,110,2|2,0:2|0:2,0:0:0:0:
402,351,4858,1,8,2:2:0:0:
456,341,5021,2,0,B|481:301|481:301|461:214,1,110,2|8,0:2|0:2,0:0:0:0:
372,194,5673,5,2,0:2:0:0:
372,194,5836,2,0,P|324:206|250:145,1,110,2|8,3:2|2:2,0:0:0:0:
216,187,6325,2,0,L|147:201,1,55,2|2,0:2|3:2,0:0:0:0:
69,149,6814,1,8,2:2:0:0:
69,149,6977,2,0,P|47:95|98:18,1,110,2|2,0:2|0:2,0:0:0:0:
101,11,7467,2,0,L|176:7,1,55,2|8,3:2|0:2,0:0:0:0:
254,55,7956,2,0,L|325:54,2,55,2|2|2,3:2|0:2|0:2,0:0:0:0:
231,107,8445,6,0,L|254:269,1,110,6|10,3:2|0:2,0:0:0:0:
276,262,8934,2,0,L|265:356,1,55,2|2,0:2|3:2,0:0:0:0:
180,379,9423,1,10,0:2:0:0:
180,379,9586,2,0,P|114:348|53:382,1,110,2|2,0:2|0:2,0:0:0:0:
27,369,10075,1,8,2:2:0:0:
2,319,10238,2,0,L|24:172,1,110,2|8,0:2|0:2,0:0:0:0:
8,104,10891,5,8,0:2:0:0:
8,104,11054,2,0,L|119:129,1,110,6|2,3:2|3:2,0:0:0:0:
224,136,11706,2,0,L|348:103,1,110,6|2,3:2|3:2,0:0:0:0:
408,29,12358,5,6,3:2:0:0:
506,76,12684,1,10,0:2:0:0:
512,184,13010,1,10,0:2:0:0:
417,240,13336,1,2,0:2:0:0:
323,196,13662,6,0,B|126:227,1,176,2|2,3:2|0:2,0:0:0:0:
56,269,14641,1,0,0:2:0:0:
3,184,14967,2,0,L|18:62,1,88,2|2,0:2|0:2,0:0:0:0:
241,60,15945,5,0,0:2:0:0:
311,144,16271,2,0,L|301:296,1,132,2|0,0:2|0:2,0:0:0:0:
298,326,16923,2,0,P|231:299|159:357,1,132,2|0,0:2|0:2,0:0:0:0:
144,357,17575,2,0,L|128:292,2,44,2|0|2,0:2|0:2|0:2,0:0:0:0:
332,226,18554,6,0,L|315:153,1,44,0|0,0:2|0:2,0:0:0:0:
307,132,18880,2,0,P|269:176|189:165,1,132,2|0,0:2|0:2,0:0:0:0:
150,153,19532,2,0,L|183:322,1,132,2|0,0:2|0:2,0:0:0:0:
189,333,20184,2,0,L|134:322,1,44,2|0,0:2|0:2,0:0:0:0:
94,312,20510,1,2,0:2:0:0:
213,137,21162,5,2,0:2:0:0:
274,50,21488,2,0,P|322:121|310:181,1,132,2|0,0:2|0:2,0:0:0:0:
297,211,22141,2,0,L|465:179,1,132,2|0,0:2|0:2,0:0:0:0:
477,201,22793,1,2,0:2:0:0:
83,237,23771,6,0,L|91:157,1,55,0|0,3:2|0:2,0:0:0:0:
81,127,24097,6,0,P|142:147|225:76,1,165,6|0,3:2|0:2,0:0:0:0:
244,44,24749,1,2,0:2:0:0:
351,65,25075,2,0,L|446:86,1,55,0|0,0:2|0:2,0:0:0:0:
457,92,25401,2,0,P|465:175|432:216,1,110,2|0,3:2|0:2,0:0:0:0:
358,250,26054,1,2,0:2:0:0:
421,336,26380,1,0,0:2:0:0:
316,371,26706,6,0,L|154:341,1,165,2|0,3:2|0:2,0:0:0:0:
103,319,27358,2,0,P|89:239|133:190,1,110,2|2,0:2|0:2,0:0:0:0:
143,182,27847,1,0,0:2:0:0:
143,182,28010,2,0,L|214:193,1,55,2|0,3:2|0:2,0:0:0:0:
254,194,28336,2,0,L|252:104,2,55,2|0|2,0:2|0:2|0:2,0:0:0:0:
361,216,28988,6,0,L|371:289,1,55,0|0,0:2|0:2,0:0:0:0:
399,316,29314,2,0,P|452:289|462:223,1,110,6|0,3:2|0:2,0:0:0:0:
463,188,29804,1,0,0:2:0:0:
426,146,29967,2,0,P|375:118|276:176,1,165,2|0,0:2|0:2,0:0:0:0:
253,205,30619,1,2,3:2:0:0:
154,177,30945,2,0,L|173:331,1,110,0|2,0:2|0:2,0:0:0:0:
66,335,31597,1,0,0:2:0:0:
0,247,31923,6,0,P|9:177|94:126,1,165,2|0,3:2|0:2,0:0:0:0:
137,124,32575,2,0,P|201:151|248:128,1,110,2|0,0:2|0:2,0:0:0:0:
290,119,33064,1,8,0:2:0:0:
290,119,33227,2,0,L|298:265,1,110,6|0,3:2|0:2,0:0:0:0:
308,330,33880,1,0,3:2:0:0:
415,308,34206,1,8,0:2:0:0:
479,218,34532,6,0,P|474:121|442:93,1,110,2|0,3:2|0:2,0:0:0:0:
425,81,35021,1,0,0:2:0:0:
425,81,35184,2,0,L|291:99,1,110,2|0,0:2|0:2,0:0:0:0:
261,91,35673,1,0,0:2:0:0:
261,91,35836,2,0,L|274:162,1,55,2|0,3:2|0:2,0:0:0:0:
161,268,36488,1,2,0:2:0:0:
106,172,36814,2,0,L|115:99,1,55,0|0,0:2|0:2,0:0:0:0:
113,62,37141,6,0,P|188:106|251:79,1,110,10|0,0:2|0:2,0:0:0:0:
261,91,37630,1,0,0:2:0:0:
261,91,37793,2,0,L|393:106,1,110,2|0,0:2|0:2,0:0:0:0:
424,110,38282,1,0,0:2:0:0:
424,110,38445,2,0,L|424:189,2,55,2|0|0,3:2|0:2|0:2,0:0:0:0:
342,183,39097,2,0,L|360:266,1,55,2|8,0:2|0:2,0:0:0:0:
371,288,39423,2,0,L|300:276,1,55,2|2,0:2|0:2,0:0:0:0:
262,286,39749,6,0,P|229:306|134:273,1,110,6|0,0:2|0:2,0:0:0:0:
86,216,40401,2,0,P|119:196|214:229,1,110,2|2,0:2|0:2,0:0:0:0:
262,286,41054,1,0,3:2:0:0:
321,193,41380,2,0,L|330:52,2,110,2|2|2,0:2|0:2|0:2,0:0:0:0:
362,294,42358,5,10,0:2:0:0:
431,208,42684,1,0,0:2:0:0:
361,122,43010,1,2,0:2:0:0:
259,164,43336,1,0,0:2:0:0:
265,264,43662,2,0,L|246:352,2,55,0|2|0,3:2|0:2|0:0,0:0:0:0:
176,199,44314,6,0,L|104:219,1,55,8|8,0:2|0:2,0:0:0:0:
68,204,44641,2,0,L|74:118,1,55,8|8,0:2|0:2,0:0:0:0:
81,94,44967,2,0,P|142:100|193:57,1,110,6|0,3:2|0:2,0:0:0:0:
222,42,45456,2,0,L|240:170,1,110,2|0,0:2|0:2,0:0:0:0:
247,204,45945,2,0,L|322:179,2,55,0|0|10,3:2|0:2|0:2,0:0:0:0:
181,291,46597,1,0,3:2:0:0:
284,329,46923,6,0,L|274:395,2,55,2|0|2,0:2|0:2|0:2,0:0:0:0:
317,285,47412,1,8,0:2:0:0:
317,285,47575,2,0,P|384:304|443:252,1,110,2|0,3:2|0:2,0:0:0:0:
458,251,48064,2,0,L|461:120,1,110,2|0,0:2|0:2,0:0:0:0:
450,86,48554,2,0,L|511:105,2,55,0|0|10,3:2|0:2|0:2,0:0:0:0:
357,27,49206,2,0,L|288:9,1,55,0|8,3:2|0:2,0:0:0:0:
249,5,49532,6,0,L|259:109,1,55,2|0,0:2|0:2,0:0:0:0:
286,107,49858,2,0,L|285:178,1,55,8|8,0:2|0:2,0:0:0:0:
289,216,50184,1,2,3:2:0:0:
213,296,50510,1,8,0:2:0:0:
114,248,50836,1,2,3:2:0:0:
129,138,51162,1,8,0:2:0:0:
237,120,51488,2,0,P|308:141|344:113,1,110,2|0,3:2|0:2,0:0:0:0:
401,37,52141,6,0,P|330:16|294:44,1,110,10|10,3:2|0:2,0:0:0:0:
237,120,52793,1,2,3:2:0:0:
285,222,53119,1,0,3:2:0:0:
204,295,53445,1,2,3:2:0:0:
107,241,53771,1,0,3:2:0:0:
129,135,54097,2,0,L|123:58,2,55,10|10|10,0:2|0:2|0:2,0:0:0:0:
216,201,54749,6,0,L|206:329,1,110,0|0,0:2|0:2,0:0:0:0:
312,361,55401,6,0,L|432:340,1,110,0|10,3:2|0:2,0:0:0:0:
456,237,56054,2,0,L|335:257,1,110,0|10,3:2|0:2,0:0:0:0:
244,215,56706,2,0,P|228:143|284:89,1,110,0|10,3:2|0:2,0:0:0:0:
278,72,57195,1,0,0:2:0:0:
278,72,57358,2,0,L|267:-6,2,55,0|0|10,3:2|0:2|0:2,0:0:0:0:
373,126,58010,6,0,L|493:100,1,110,0|10,3:2|0:2,0:0:0:0:
445,206,58662,2,0,P|362:234|312:200,2,110,0|2|0,3:2|0:2|3:2,0:0:0:0:
373,126,59641,1,2,0:2:0:0:
268,161,59967,1,0,3:2:0:0:
246,267,60293,2,0,L|265:340,1,55,2|8,0:2|0:2,0:0:0:0:
280,370,60619,6,0,L|162:352,1,110,2|10,3:2|0:2,0:0:0:0:
72,306,61271,2,0,P|58:219|99:179,1,110,0|10,3:2|0:2,0:0:0:0:
153,137,61923,2,0,P|167:224|126:264,1,110,0|10,3:2|0:2,0:0:0:0:
187,284,62412,1,0,0:2:0:0:
187,284,62575,2,0,L|264:279,2,55,0|0|10,3:2|0:2|0:2,0:0:0:0:
128,190,63227,6,0,L|-4:196,1,110,0|10,3:2|0:2,0:0:0:0:
17,84,63880,2,0,P|46:38|115:14,2,110,2|2|8,3:2|0:2|0:2,0:0:0:0:
120,120,64858,1,8,0:2:0:0:
198,189,65184,1,0,3:2:0:0:
297,141,65510,1,8,0:2:0:0:
384,207,65836,6,0,L|374:341,1,110,0|10,3:2|0:2,0:0:0:0:
481,286,66488,2,0,L|491:152,1,110,0|10,3:2|0:2,0:0:0:0:
474,66,67141,2,0,P|427:91|357:69,1,110,0|10,3:2|0:2,0:0:0:0:
323,58,67630,1,0,0:2:0:0:
323,58,67793,2,0,L|314:-3,2,55,0|0|10,3:2|0:2|0:2,0:0:0:0:
240,130,68445,6,0,L|260:258,1,110,0|10,3:2|0:2,0:0:0:0:
219,342,69097,1,0,3:2:0:0:
144,261,69423,1,10,0:2:0:0:
256,238,69749,2,0,L|388:254,1,110,0|10,3:2|0:2,0:0:0:0:
432,164,70401,6,0,L|317:147,1,110,0|10,3:2|0:2,0:0:0:0:
269,136,70891,1,0,3:2:0:0:
269,136,71054,2,0,L|277:59,1,55,0|10,0:0|0:0,0:0:0:0:
173,123,71543,2,0,L|160:193,2,55,2|2|0,3:2|0:2|0:2,0:0:0:0:
169,68,72032,2,0,L|100:91,1,55,8|2,0:2|0:2,0:0:0:0:
67,108,72358,1,0,3:2:0:0:
67,108,72521,2,0,L|51:173,1,55,8|0,0:2|0:0,0:0:0:0:
115,252,73010,6,0,L|244:238,1,110,2|8,3:2|0:2,0:0:0:0:
278,228,73499,2,0,L|273:306,1,55,0|0,3:2|0:0,0:0:0:0:
312,322,73825,2,0,L|307:392,2,55,2|0|10,0:2|0:2|0:2,0:0:0:0:
359,294,74314,2,0,L|364:227,2,55,0|0|10,3:2|0:2|0:2,0:0:0:0:
403,330,74804,1,0,0:2:0:0:
403,330,74967,2,0,L|483:320,1,55,8|8,0:2|0:2,0:0:0:0:
428,119,75782,6,0,L|435:29,2,55,2|2|2,0:2|0:2|0:2,0:0:0:0:
392,160,76272,6,0,L|399:296,1,110,6|0,3:2|0:0,0:0:0:0:
412,323,76761,2,0,L|332:308,1,55,2|0,0:2|0:0,0:0:0:0:
252,316,77250,1,8,0:2:0:0:
252,316,77413,2,0,P|221:351|131:329,1,110,2|2,0:2|0:2,0:0:0:0:
106,345,77901,1,8,0:2:0:0:
58,317,78064,2,0,B|40:273|40:273|75:175,1,110,2|2,0:2|0:2,0:0:0:0:
87,165,78554,1,8,0:2:0:0:
30,70,78880,6,0,P|76:50|166:93,1,110,2|10,3:2|0:2,0:0:0:0:
185,76,79369,2,0,L|253:60,1,55,2|2,0:2|3:2,0:0:0:0:
351,51,79858,1,8,0:2:0:0:
351,50,80021,2,0,P|408:58|456:29,1,110,2|2,0:2|0:2,0:0:0:0:
498,3,80511,2,0,L|491:68,1,55,10|0,0:2|0:0,0:0:0:0:
435,151,81000,6,0,L|370:171,2,55,2|0|0,0:2|0:0|0:0,0:0:0:0:
482,178,81489,2,0,L|479:295,1,110,6|0,3:2|0:0,0:0:0:0:
440,327,81978,2,0,L|448:402,1,55,2|0,0:2|3:2,0:0:0:0:
341,384,82467,1,8,0:2:0:0:
341,384,82630,2,0,P|292:359|269:311,1,110,2|2,0:2|0:2,0:0:0:0:
219,284,83119,1,10,0:2:0:0:
164,294,83282,2,0,L|13:320,1,110,2|8,0:2|0:2,0:0:0:0:
5,220,83934,5,8,0:2:0:0:
5,220,84097,2,0,L|137:201,1,110,2|10,3:2|0:2,0:0:0:0:
217,168,84749,2,0,L|347:183,1,110,10|10,0:2|0:2,0:0:0:0:
426,226,85401,5,10,0:2:0:0:
503,148,85727,1,10,0:2:0:0:
469,43,86053,1,2,3:2:0:0:
362,17,86379,1,2,3:2:0:0:
