osu file format v14

[General]
AudioFilename: audio.mp3
AudioLeadIn: 0
PreviewTime: -1
Countdown: 1
SampleSet: Soft
StackLeniency: 0.7
Mode: 3
LetterboxInBreaks: 0
SpecialStyle: 0
WidescreenStoryboard: 0

[Editor]
Bookmarks: 25313,56323
DistanceSpacing: 0.5
BeatDivisor: 8
GridSize: 16
TimelineZoom: 2.6

[Metadata]
Title:in your arms
TitleUnicode:in your arms
Artist:monk.
ArtistUnicode:monk.
Creator:Nick Wilde
Version:leaving
Source:
Tags:chill sv
BeatmapID:1607640
BeatmapSetID:764541

[Difficulty]
HPDrainRate:9
CircleSize:4
OverallDifficulty:8
ApproachRate:5
SliderMultiplier:1.8
SliderTickRate:1

[Events]
//Background and Video events
//Break Periods
//Storyboard Layer 0 (Background)
//Storyboard Layer 1 (Fail)
//Storyboard Layer 2 (Pass)
//Storyboard Layer 3 (Foreground)
//Storyboard Sound Samples

[TimingPoints]
8460,674.157303370787,4,2,0,0,1,0
8634,-333.333333333333,4,2,0,0,0,0
10819,-100,4,2,0,0,0,0
10903,-333.333333333333,4,2,0,0,0,0
11493,-100,4,2,0,0,0,0
11577,-333.333333333333,4,2,0,0,0,0
11830,-10,4,2,0,0,0,0
11854,-333.333333333333,4,2,0,0,0,0
12167,-100,4,2,0,0,0,0
12252,-333.333333333333,4,2,0,0,0,0
12842,-100,4,2,0,0,0,0
12926,-333.333,4,2,0,0,0,0
13179,-10,4,2,0,0,0,0
13203,-333.333,4,2,0,0,0,0
13516,-100,4,2,0,0,0,0
13600,-333.333,4,2,0,0,0,0
14190,-100,4,2,0,0,0,0
14275,-333.333,4,2,0,0,0,0
14527,-10,4,2,0,0,0,0
14551,-333.333,4,2,0,0,0,0
14864,-100,4,2,0,0,0,0
14948,-333.333,4,2,0,0,0,0
15201,-66.6666666666667,4,2,0,0,0,0
15285,-333.333333333333,4,2,0,0,0,0
15538,-66.6666666666667,4,2,0,0,0,0
15622,-333.333333333333,4,2,0,0,0,0
15875,-10,4,2,0,0,0,0
15899,-333.333,4,2,0,0,0,0
16212,-100,4,2,0,0,0,0
16296,-333.333,4,2,0,0,0,0
16886,-100,4,2,0,0,0,0
16970,-333.333,4,2,0,0,0,0
17224,-10,4,2,0,0,0,0
17248,-333.333,4,2,0,0,0,0
17560,-100,4,2,0,0,0,0
17645,-333.333,4,2,0,0,0,0
18235,-100,4,2,0,0,0,0
18319,-333.333,4,2,0,0,0,0
18572,-10,4,2,0,0,0,0
18596,-333.333,4,2,0,0,0,0
18909,-100,4,2,0,0,0,0
18993,-333.333,4,2,0,0,0,0
19583,-100,4,2,0,0,0,0
19668,-333.333,4,2,0,0,0,0
19920,-10,4,2,0,0,0,0
19944,-333.333,4,2,0,0,0,0
20258,-100,4,2,0,0,0,0
20342,-333.333,4,2,0,0,0,0
20594,-66.6666666666667,4,2,0,0,0,0
20679,-333.333,4,2,0,0,0,0
20931,-66.6666666666667,4,2,0,0,0,0
21016,-333.333,4,2,0,0,0,0
21268,-10,4,2,0,0,0,0
21292,-333.333,4,2,0,0,0,0
21606,-100,4,2,0,0,0,0
21690,-333.333,4,2,0,0,0,0
22280,-100,4,2,0,0,0,0
22364,-333.333,4,2,0,0,0,0
22617,-10,4,2,0,0,0,0
22641,-333.333,4,2,0,0,0,0
22954,-100,4,2,0,0,0,0
23039,-333.333,4,2,0,0,0,0
23629,-100,4,2,0,0,0,0
23713,-333.333,4,2,0,0,0,0
23965,-10,4,2,0,0,0,0
23989,-333.333,4,2,0,0,0,0
24303,-100,4,2,0,0,0,0
24387,-333.333,4,2,0,0,0,0
24977,-100,4,2,0,0,0,0
25061,-333.333333333333,4,2,0,0,0,0
25313,5.78320942537098E+80,4,2,0,0,1,0
25988,674.157303370787,4,2,0,0,1,0
25988,-66.6666666666667,4,2,0,0,0,0
26072,-333.333333333333,4,2,0,0,0,0
26325,-66.6666666666667,4,2,0,0,0,0
26409,-333.333333333333,4,2,0,0,0,0
26662,-10,4,2,0,0,0,0
26686,-333.333333333333,4,2,0,0,0,0
26999,-100,4,2,0,0,0,0
27083,-333.333,4,2,0,0,0,0
27336,674.157303370787,4,2,0,0,1,0
27336,-333.333333333333,4,2,0,0,0,0
27673,-100,4,2,0,0,0,0
27757,-333.333,4,2,0,0,0,0
28010,-10,4,2,0,0,0,0
28034,-333.333,4,2,0,0,0,0
28347,-100,4,2,0,0,0,0
28432,-333.333,4,2,0,0,0,0
29022,-100,4,2,0,0,0,0
29106,-333.333,4,2,0,0,0,0
29359,-10,4,2,0,0,0,0
29383,-333.333,4,2,0,0,0,0
29696,-100,4,2,0,0,0,0
29780,-333.333,4,2,0,0,0,0
30370,-100,4,2,0,0,0,0
30455,-333.333,4,2,0,0,0,0
30707,-10,4,2,0,0,0,0
30731,-333.333,4,2,0,0,0,0
31044,-100,4,2,0,0,0,0
31128,-333.333,4,2,0,0,0,0
32392,-100,4,2,0,0,0,0
32476,-333.333,4,2,0,0,0,0
33066,-100,4,2,0,0,0,0
33150,-333.333,4,2,0,0,0,0
33404,-10,4,2,0,0,0,0
33428,-333.333,4,2,0,0,0,0
33740,-100,4,2,0,0,0,0
33825,-333.333,4,2,0,0,0,0
34415,-100,4,2,0,0,0,0
34499,-333.333,4,2,0,0,0,0
34752,-10,4,2,0,0,0,0
34776,-333.333,4,2,0,0,0,0
35089,-100,4,2,0,0,0,0
35173,-333.333,4,2,0,0,0,0
35763,-100,4,2,0,0,0,0
35848,-333.333,4,2,0,0,0,0
36100,-10,4,2,0,0,0,0
36124,-333.333,4,2,0,0,0,0
36438,-100,4,2,0,0,0,0
36522,-333.333,4,2,0,0,0,0
36774,-66.667,4,2,0,0,0,0
36859,-333.333,4,2,0,0,0,0
37111,-66.667,4,2,0,0,0,0
37196,-333.333,4,2,0,0,0,0
37448,-10,4,2,0,0,0,0
37472,-333.333,4,2,0,0,0,0
37785,-100,4,2,0,0,0,0
37869,-333.333,4,2,0,0,0,0
38459,-100,4,2,0,0,0,0
38543,-333.333,4,2,0,0,0,0
38796,-10,4,2,0,0,0,0
38820,-333.333,4,2,0,0,0,0
39133,-100,4,2,0,0,0,0
39218,-333.333,4,2,0,0,0,0
39808,-100,4,2,0,0,0,0
39892,-333.333,4,2,0,0,0,0
40145,-10,4,2,0,0,0,0
40169,-333.333,4,2,0,0,0,0
40482,-100,4,2,0,0,0,0
40566,-333.333,4,2,0,0,0,0
41156,-100,4,2,0,0,0,0
41241,-333.333,4,2,0,0,0,0
41493,-10,4,2,0,0,0,0
41517,-333.333,4,2,0,0,0,0
41830,-100,4,2,0,0,0,0
41914,-333.333,4,2,0,0,0,0
42167,-66.667,4,2,0,0,0,0
42251,-333.333,4,2,0,0,0,0
42504,-66.667,4,2,0,0,0,0
42588,-333.333,4,2,0,0,0,0
42841,-10,4,2,0,0,0,0
42865,-333.333,4,2,0,0,0,0
43178,-100,4,2,0,0,0,0
43262,-333.333,4,2,0,0,0,0
43852,-100,4,2,0,0,0,0
43936,-333.333,4,2,0,0,0,0
44190,-10,4,2,0,0,0,0
44214,-333.333,4,2,0,0,0,0
44526,-100,4,2,0,0,0,0
44611,-333.333,4,2,0,0,0,0
45201,-100,4,2,0,0,0,0
45285,-333.333,4,2,0,0,0,0
45538,-10,4,2,0,0,0,0
45562,-333.333,4,2,0,0,0,0
45875,-100,4,2,0,0,0,0
45959,-333.333,4,2,0,0,0,0
46549,-100,4,2,0,0,0,0
46634,-333.333,4,2,0,0,0,0
46886,5.78320942537098E+80,4,2,0,0,1,0
47560,674.157303370787,4,2,0,5,1,0
47560,-66.667,4,2,0,0,0,0
47645,-333.333,4,2,0,0,0,0
47897,-66.667,4,2,0,0,0,0
47982,-333.333,4,2,0,0,0,0
48234,-10,4,2,0,0,0,0
48258,-333.333,4,2,0,0,0,0
48571,-100,4,2,0,0,0,0
48655,-333.333,4,2,0,0,0,0
48908,674.157303370787,4,2,0,5,1,0
48908,-333.333333333333,4,2,0,5,0,0
49245,-100,4,2,0,0,0,0
49329,-333.333,4,2,0,0,0,0
49582,-10,4,2,0,0,0,0
49606,-333.333,4,2,0,0,0,0
49919,-100,4,2,0,0,0,0
50004,-333.333,4,2,0,0,0,0
50594,-100,4,2,0,0,0,0
50678,-333.333,4,2,0,0,0,0
50931,-10,4,2,0,0,0,0
50955,-333.333,4,2,0,0,0,0
51268,-100,4,2,0,0,0,0
51352,-333.333,4,2,0,0,0,0
51942,-100,4,2,0,0,0,0
52027,-333.333,4,2,0,0,0,0
52279,-10,4,2,0,0,0,0
52303,-333.333,4,2,0,0,0,0
52616,-100,4,2,0,0,0,0
52700,-333.333,4,2,0,0,0,0
52952,-1000,4,2,0,0,0,0
53290,-166.666666666667,4,2,0,0,0,0
53374,-1000,4,2,0,0,0,0
53458,-66.6666666666667,4,2,0,0,0,0
53542,-1000,4,2,0,0,0,0
53627,-66.6666666666667,4,2,0,0,0,0
53711,-1000,4,2,0,0,0,0
53964,-166.666666666667,4,2,0,0,0,0
54048,-1000,4,2,0,0,0,0
54301,-66.6666666666667,4,2,0,0,0,0
54385,-1000,4,2,0,0,0,0
54638,-166.666666666667,4,2,0,0,0,0
54722,-1000,4,2,0,0,0,0
54975,-66.6666666666667,4,2,0,0,0,0
55059,-1000,4,2,0,0,0,0
55312,-166.666666666667,4,2,0,0,0,0
55396,-1000,4,2,0,0,0,0
55649,-66.6666666666667,4,2,0,0,0,0
55733,-1000,4,2,0,0,0,0
56323,674.157303370787,4,2,0,0,1,0
56324,-100,4,2,0,0,0,0
56408,-333.333333333333,4,2,0,0,0,0
56661,-100,4,2,0,0,0,0
56745,-333.333,4,2,0,0,0,0
56997,-10,4,2,0,0,0,0
57021,-333.333,4,2,0,0,0,0
57335,-100,4,2,0,0,0,0
57420,-333.333,4,2,0,0,0,0
57671,-66.6666666666667,4,2,0,0,0,0
57755,-333.333,4,2,0,0,0,0
58010,-66.6666666666667,4,2,0,0,0,0
58094,-333.333,4,2,0,0,0,0
58345,-10,4,2,0,0,0,0
58369,-333.333,4,2,0,0,0,0
58682,-100,4,2,0,0,0,0
58766,-333.333,4,2,0,0,0,0
59356,-100,4,2,0,0,0,0
59440,-333.333,4,2,0,0,0,0
59693,-10,4,2,0,0,0,0
59717,-333.333,4,2,0,0,0,0
60030,-100,4,2,0,0,0,0
60115,-333.333,4,2,0,0,0,0
60705,-100,4,2,0,0,0,0
60789,-333.333,4,2,0,0,0,0
61042,-10,4,2,0,0,0,0
61066,-333.333,4,2,0,0,0,0
61379,-100,4,2,0,0,0,0
61463,-333.333,4,2,0,0,0,0
62053,-100,4,2,0,0,0,0
62138,-333.333,4,2,0,0,0,0
62390,-10,4,2,0,0,0,0
62414,-333.333,4,2,0,0,0,0
62727,-100,4,2,0,0,0,0
62811,-333.333,4,2,0,0,0,0
63064,-66.667,4,2,0,0,0,0
63148,-333.333,4,2,0,0,0,0
63401,-66.667,4,2,0,0,0,0
63485,-333.333,4,2,0,0,0,0
63738,-10,4,2,0,0,0,0
63762,-333.333,4,2,0,0,0,0
64075,-100,4,2,0,0,0,0
64159,-333.333,4,2,0,0,0,0
64749,-100,4,2,0,0,0,0
64833,-333.333,4,2,0,0,0,0
65087,-10,4,2,0,0,0,0
65111,-333.333,4,2,0,0,0,0
65423,-100,4,2,0,0,0,0
65508,-333.333,4,2,0,0,0,0
66098,-100,4,2,0,0,0,0
66182,-333.333,4,2,0,0,0,0
66435,-10,4,2,0,0,0,0
66459,-333.333,4,2,0,0,0,0
66772,-100,4,2,0,0,0,0
66856,-333.333,4,2,0,0,0,0
67446,-100,4,2,0,0,0,0
67531,-333.333,4,2,0,0,0,0
67783,5.78320942537098E+80,4,2,0,0,1,0
68457,674.157303370787,4,2,0,5,1,0
68457,-66.6666666666667,4,2,0,0,0,0
68542,-333.333,4,2,0,0,0,0
68794,-66.667,4,2,0,0,0,0
68879,-333.333,4,2,0,0,0,0
69131,-10,4,2,0,0,0,0
69155,-333.333,4,2,0,0,0,0
69468,-100,4,2,0,0,0,0
69552,-333.333,4,2,0,0,0,0
69805,674.157303370787,4,2,0,5,1,0
69805,-333.333333333333,4,2,0,5,0,0
70142,-100,4,2,0,0,0,0
70226,-333.333,4,2,0,0,0,0
70479,-10,4,2,0,0,0,0
70503,-333.333,4,2,0,0,0,0
70816,-100,4,2,0,0,0,0
70901,-333.333,4,2,0,0,0,0
71491,-100,4,2,0,0,0,0
71575,-333.333,4,2,0,0,0,0
71828,-10,4,2,0,0,0,0
71852,-333.333,4,2,0,0,0,0
72165,-100,4,2,0,0,0,0
72249,-333.333,4,2,0,0,0,0
72839,-100,4,2,0,0,0,0
72924,-333.333,4,2,0,0,0,0
73176,-10,4,2,0,0,0,0
73200,-333.333,4,2,0,0,0,0
73513,-100,4,2,0,0,0,0
73597,-333.333,4,2,0,0,0,0
74861,-100,4,2,0,0,0,0
74945,-333.333,4,2,0,0,0,0
75535,-100,4,2,0,0,0,0
75619,-333.333,4,2,0,0,0,0
75873,-10,4,2,0,0,0,0
75897,-333.333,4,2,0,0,0,0
76209,-100,4,2,0,0,0,0
76294,-333.333,4,2,0,0,0,0
76884,-100,4,2,0,0,0,0
76968,-333.333,4,2,0,0,0,0
77221,-10,4,2,0,0,0,0
77245,-333.333,4,2,0,0,0,0
77558,-100,4,2,0,0,0,0
77642,-333.333,4,2,0,0,0,0
78232,-100,4,2,0,0,0,0
78317,-333.333,4,2,0,0,0,0
78569,-10,4,2,0,0,0,0
78593,-333.333,4,2,0,0,0,0
78907,-100,4,2,0,0,0,0
78991,-333.333,4,2,0,0,0,0
79243,-66.667,4,2,0,0,0,0
79328,-333.333,4,2,0,0,0,0
79580,-66.667,4,2,0,0,0,0
79665,-333.333,4,2,0,0,0,0
79917,-10,4,2,0,0,0,0
79941,-333.333,4,2,0,0,0,0
80254,-100,4,2,0,0,0,0
80338,-333.333,4,2,0,0,0,0
80928,-100,4,2,0,0,0,0
81012,-333.333,4,2,0,0,0,0
81265,-10,4,2,0,0,0,0
81289,-333.333,4,2,0,0,0,0
81602,-100,4,2,0,0,0,0
81687,-333.333,4,2,0,0,0,0
82277,-100,4,2,0,0,0,0
82361,-333.333,4,2,0,0,0,0
82614,-10,4,2,0,0,0,0
82638,-333.333,4,2,0,0,0,0
82951,-100,4,2,0,0,0,0
83035,-333.333,4,2,0,0,0,0
83625,-100,4,2,0,0,0,0
83710,-333.333,4,2,0,0,0,0
83962,-10,4,2,0,0,0,0
83986,-333.333,4,2,0,0,0,0
84299,-100,4,2,0,0,0,0
84383,-333.333,4,2,0,0,0,0
84636,-66.667,4,2,0,0,0,0
84720,-333.333,4,2,0,0,0,0
84973,-66.667,4,2,0,0,0,0
85057,-333.333,4,2,0,0,0,0
85310,-10,4,2,0,0,0,0
85334,-333.333,4,2,0,0,0,0
85647,-100,4,2,0,0,0,0
85731,-333.333,4,2,0,0,0,0
86321,-100,4,2,0,0,0,0
86405,-333.333,4,2,0,0,0,0
86659,-10,4,2,0,0,0,0
86683,-333.333,4,2,0,0,0,0
86995,-100,4,2,0,0,0,0
87080,-333.333,4,2,0,0,0,0
87670,-100,4,2,0,0,0,0
87754,-333.333,4,2,0,0,0,0
88007,-10,4,2,0,0,0,0
88031,-333.333,4,2,0,0,0,0
88344,-100,4,2,0,0,0,0
88428,-333.333,4,2,0,0,0,0
89018,-100,4,2,0,0,0,0
89103,-333.333,4,2,0,0,0,0
89355,5.78320942537098E+80,4,2,0,0,1,0
90029,674.157303370787,4,2,0,0,1,0
90029,-66.667,4,2,0,0,0,0
90114,-333.333,4,2,0,0,0,0
90366,-66.667,4,2,0,0,0,0
90451,-333.333,4,2,0,0,0,0
90703,-10,4,2,0,0,0,0
90727,-333.333,4,2,0,0,0,0
91040,-100,4,2,0,0,0,0
91124,-333.333,4,2,0,0,0,0
91377,674.157303370787,4,2,0,0,1,0
91377,-333.333333333333,4,2,0,0,0,0
91714,-100,4,2,0,0,0,0
91798,-333.333333333333,4,2,0,0,0,0
92051,-10,4,2,0,0,0,0
92075,-333.333333333333,4,2,0,0,0,0
92388,-100,4,2,0,0,0,0
92472,-333.333333333333,4,2,0,0,0,0
93062,-100,4,2,0,0,0,0
93146,-333.333333333333,4,2,0,0,0,0
93399,-10,4,2,0,0,0,0
93423,-333.333333333333,4,2,0,0,0,0
93736,-100,4,2,0,0,0,0
93820,-333.333333333333,4,2,0,0,0,0
94410,-100,4,2,0,0,0,0
94494,-333.333333333333,4,2,0,0,0,0
94747,-10,4,2,0,0,0,0
94771,-333.333333333333,4,2,0,0,0,0
95538,674.157303370787,4,2,0,0,1,0
95538,-333.333333333333,4,2,0,0,0,0

[HitObjects]
192,192,10988,5,0,0:0:0:0:
64,192,10988,1,0,0:0:0:0:
448,192,11156,1,0,0:0:0:0:
320,192,11156,1,0,0:0:0:0:
448,192,11830,1,0,0:0:0:0:
192,192,11830,1,0,0:0:0:0:
64,192,11830,1,0,0:0:0:0:
448,192,12504,1,0,0:0:0:0:
320,192,12504,1,0,0:0:0:0:
320,192,13179,1,0,0:0:0:0:
64,192,13179,1,0,0:0:0:0:
192,192,13179,1,0,0:0:0:0:
192,192,13684,1,0,0:0:0:0:
64,192,13684,1,0,0:0:0:0:
448,192,13853,1,0,0:0:0:0:
320,192,13853,1,0,0:0:0:0:
448,192,14527,1,0,0:0:0:0:
320,192,14527,1,0,0:0:0:0:
64,192,14527,1,0,0:0:0:0:
192,192,15201,1,0,0:0:0:0:
64,192,15201,1,0,0:0:0:0:
64,192,15538,1,0,0:0:0:0:
448,192,15538,1,0,0:0:0:0:
448,192,15875,1,0,0:0:0:0:
320,192,15875,1,0,0:0:0:0:
192,192,15875,1,0,0:0:0:0:
192,192,16381,1,0,0:0:0:0:
320,192,16381,1,0,0:0:0:0:
64,192,16549,1,0,0:0:0:0:
448,192,16549,1,0,0:0:0:0:
448,192,17224,1,0,0:0:0:0:
320,192,17224,1,0,0:0:0:0:
192,192,17224,1,0,0:0:0:0:
192,192,17898,1,0,0:0:0:0:
64,192,17898,1,0,0:0:0:0:
448,192,18572,1,0,0:0:0:0:
320,192,18572,1,0,0:0:0:0:
64,192,18572,1,0,0:0:0:0:
192,192,19077,1,0,0:0:0:0:
320,192,19077,1,0,0:0:0:0:
448,192,19246,1,0,0:0:0:0:
64,192,19246,1,0,0:0:0:0:
448,192,19920,1,0,0:0:0:0:
192,192,19920,1,0,0:0:0:0:
64,192,19920,1,0,0:0:0:0:
320,192,20594,1,0,0:0:0:0:
192,192,20594,1,0,0:0:0:0:
448,192,20931,1,0,0:0:0:0:
64,192,20931,1,0,0:0:0:0:
448,192,21268,1,0,0:0:0:0:
320,192,21268,1,0,0:0:0:0:
192,192,21268,1,0,0:0:0:0:
448,192,21774,1,0,0:0:0:0:
320,192,21774,1,0,0:0:0:0:
64,192,21943,1,0,0:0:0:0:
192,192,21943,1,0,0:0:0:0:
448,192,22617,1,0,0:0:0:0:
320,192,22617,1,0,0:0:0:0:
64,192,22617,1,0,0:0:0:0:
320,192,23291,1,0,0:0:0:0:
192,192,23291,1,0,0:0:0:0:
448,192,23965,1,0,0:0:0:0:
192,192,23965,1,0,0:0:0:0:
64,192,23965,1,0,0:0:0:0:
448,192,24471,1,0,0:0:0:0:
192,192,24471,1,0,0:0:0:0:
320,192,24639,1,0,0:0:0:0:
64,192,24639,1,0,0:0:0:0:
448,192,25313,1,0,0:0:0:0:
320,192,25313,1,0,0:0:0:0:
64,192,25313,1,0,0:0:0:0:
448,192,25988,1,0,0:0:0:0:
64,192,25988,1,0,0:0:0:0:
192,192,26325,1,0,0:0:0:0:
320,192,26325,1,0,0:0:0:0:
448,192,26662,1,0,0:0:0:0:
64,192,26662,1,0,0:0:0:0:
192,192,26662,1,0,0:0:0:0:
448,192,27167,1,0,0:0:0:0:
192,192,27167,1,0,0:0:0:0:
320,192,27336,1,0,0:0:0:0:
64,192,27336,1,0,0:0:0:0:
448,192,28010,1,0,0:0:0:0:
64,192,28010,1,0,0:0:0:0:
192,192,28010,1,0,0:0:0:0:
320,192,28684,1,0,0:0:0:0:
192,192,28684,1,0,0:0:0:0:
320,192,29358,1,0,0:0:0:0:
448,192,29358,1,0,0:0:0:0:
64,192,29358,1,0,0:0:0:0:
192,192,29864,1,0,0:0:0:0:
64,192,29864,1,0,0:0:0:0:
448,192,30032,1,0,0:0:0:0:
320,192,30032,1,0,0:0:0:0:
192,192,30706,1,0,0:0:0:0:
64,192,30706,1,0,0:0:0:0:
320,192,30706,1,0,0:0:0:0:
448,192,31380,1,0,0:0:0:0:
320,192,31423,1,0,0:0:0:0:
64,192,31437,1,0,0:0:0:0:
192,192,32055,1,0,0:0:0:0:
448,192,32560,1,0,0:0:0:0:
64,192,32560,1,0,0:0:0:0:
320,192,32729,1,0,0:0:0:0:
192,192,32729,1,0,0:0:0:0:
192,192,33403,1,0,0:0:0:0:
64,192,33403,1,0,0:0:0:0:
448,192,33403,1,0,0:0:0:0:
448,192,34077,1,0,0:0:0:0:
64,192,34077,1,0,0:0:0:0:
448,192,34751,1,0,0:0:0:0:
320,192,34751,1,0,0:0:0:0:
192,192,34751,1,0,0:0:0:0:
192,192,35257,1,0,0:0:0:0:
64,192,35257,1,0,0:0:0:0:
448,192,35425,1,0,0:0:0:0:
320,192,35425,1,0,0:0:0:0:
192,192,36100,1,0,0:0:0:0:
448,192,36100,1,0,0:0:0:0:
64,192,36100,1,0,0:0:0:0:
448,192,36774,1,0,0:0:0:0:
320,192,36774,1,0,0:0:0:0:
64,192,37111,1,0,0:0:0:0:
192,192,37111,1,0,0:0:0:0:
448,192,37448,1,0,0:0:0:0:
320,192,37448,1,0,0:0:0:0:
192,192,37448,1,0,0:0:0:0:
448,192,37953,1,0,0:0:0:0:
64,192,37953,1,0,0:0:0:0:
320,192,38122,1,0,0:0:0:0:
192,192,38122,1,0,0:0:0:0:
192,192,38796,1,0,0:0:0:0:
64,192,38796,1,0,0:0:0:0:
448,192,38796,1,0,0:0:0:0:
448,192,39470,1,0,0:0:0:0:
320,192,39470,1,0,0:0:0:0:
448,192,40144,1,0,0:0:0:0:
320,192,40144,1,0,0:0:0:0:
64,192,40144,1,0,0:0:0:0:
448,192,40650,1,0,0:0:0:0:
192,192,40650,1,0,0:0:0:0:
64,192,40819,1,0,0:0:0:0:
320,192,40819,1,0,0:0:0:0:
448,192,41493,1,0,0:0:0:0:
320,192,41493,1,0,0:0:0:0:
192,192,41493,1,0,0:0:0:0:
448,192,42167,1,0,0:0:0:0:
64,192,42167,1,0,0:0:0:0:
320,192,42504,1,0,0:0:0:0:
192,192,42504,1,0,0:0:0:0:
448,192,42841,1,0,0:0:0:0:
192,192,42841,1,0,0:0:0:0:
64,192,42841,1,0,0:0:0:0:
448,192,43347,1,0,0:0:0:0:
320,192,43347,1,0,0:0:0:0:
192,192,43515,1,0,0:0:0:0:
64,192,43515,1,0,0:0:0:0:
448,192,44189,1,0,0:0:0:0:
320,192,44189,1,0,0:0:0:0:
64,192,44189,1,0,0:0:0:0:
192,192,44864,1,0,0:0:0:0:
448,192,44864,1,0,0:0:0:0:
320,192,45538,1,0,0:0:0:0:
64,192,45538,1,0,0:0:0:0:
192,192,45538,1,0,0:0:0:0:
192,192,46043,1,0,0:0:0:0:
320,192,46043,1,0,0:0:0:0:
448,192,46212,1,0,0:0:0:0:
64,192,46212,1,0,0:0:0:0:
448,192,46886,1,0,0:0:0:0:
320,192,46886,1,0,0:0:0:0:
192,192,46886,1,0,0:0:0:0:
448,192,47560,1,0,0:0:0:0:
64,192,47560,1,0,0:0:0:0:
320,192,47897,1,0,0:0:0:0:
192,192,47897,1,0,0:0:0:0:
192,192,48234,1,0,0:0:0:0:
64,192,48234,1,0,0:0:0:0:
448,192,48234,1,0,0:0:0:0:
448,192,48739,1,0,0:0:0:0:
320,192,48739,1,0,0:0:0:0:
192,192,48908,1,0,0:0:0:0:
64,192,48908,1,0,0:0:0:0:
320,192,49582,1,0,0:0:0:0:
448,192,49582,1,0,0:0:0:0:
64,192,49582,1,0,0:0:0:0:
192,192,50256,1,0,0:0:0:0:
64,192,50256,1,0,0:0:0:0:
448,192,50930,1,0,0:0:0:0:
320,192,50930,1,0,0:0:0:0:
192,192,50930,1,0,0:0:0:0:
320,192,51436,1,0,0:0:0:0:
64,192,51436,1,0,0:0:0:0:
448,192,51604,1,0,0:0:0:0:
192,192,51604,1,0,0:0:0:0:
320,192,52278,1,0,0:0:0:0:
64,192,52278,1,0,0:0:0:0:
448,192,52278,1,0,0:0:0:0:
192,192,53458,1,0,0:0:0:0:
64,192,53458,1,0,0:0:0:0:
448,192,53627,1,0,0:0:0:0:
320,192,53627,1,0,0:0:0:0:
448,192,54301,1,0,0:0:0:0:
320,192,54301,1,0,0:0:0:0:
192,192,54301,1,0,0:0:0:0:
448,192,54975,1,0,0:0:0:0:
64,192,54975,1,0,0:0:0:0:
192,192,55649,1,0,0:0:0:0:
64,192,55649,1,0,0:0:0:0:
320,192,55649,1,0,0:0:0:0:
192,192,56323,1,0,0:0:0:0:
448,192,56997,1,0,0:0:0:0:
320,192,56997,1,0,0:0:0:0:
64,192,56997,1,0,0:0:0:0:
192,192,57671,1,0,0:0:0:0:
448,192,57671,1,0,0:0:0:0:
64,192,58008,1,0,0:0:0:0:
320,192,58008,1,0,0:0:0:0:
448,192,58345,1,0,0:0:0:0:
192,192,58345,1,0,0:0:0:0:
320,192,58345,1,0,0:0:0:0:
192,192,58851,1,0,0:0:0:0:
64,192,58851,1,0,0:0:0:0:
448,192,59019,1,0,0:0:0:0:
320,192,59019,1,0,0:0:0:0:
448,192,59693,1,0,0:0:0:0:
192,192,59693,1,0,0:0:0:0:
64,192,59693,1,0,0:0:0:0:
320,192,60367,1,0,0:0:0:0:
192,192,60367,1,0,0:0:0:0:
448,192,61042,1,0,0:0:0:0:
320,192,61042,1,0,0:0:0:0:
64,192,61042,1,0,0:0:0:0:
448,192,61547,1,0,0:0:0:0:
192,192,61547,1,0,0:0:0:0:
320,192,61716,1,0,0:0:0:0:
64,192,61716,1,0,0:0:0:0:
192,192,62390,1,0,0:0:0:0:
448,192,62390,1,0,0:0:0:0:
64,192,62390,1,0,0:0:0:0:
448,192,63064,1,0,0:0:0:0:
320,192,63064,1,0,0:0:0:0:
192,192,63401,1,0,0:0:0:0:
64,192,63401,1,0,0:0:0:0:
320,192,63738,1,0,0:0:0:0:
192,192,63738,1,0,0:0:0:0:
448,192,63738,1,0,0:0:0:0:
448,192,64244,1,0,0:0:0:0:
64,192,64244,1,0,0:0:0:0:
320,192,64412,1,0,0:0:0:0:
192,192,64412,1,0,0:0:0:0:
320,192,65087,1,0,0:0:0:0:
64,192,65087,1,0,0:0:0:0:
448,192,65087,1,0,0:0:0:0:
192,192,65761,1,0,0:0:0:0:
64,192,65761,1,0,0:0:0:0:
192,192,66435,1,0,0:0:0:0:
448,192,66435,1,0,0:0:0:0:
320,192,66435,1,0,0:0:0:0:
64,192,66940,1,0,0:0:0:0:
320,192,66940,1,0,0:0:0:0:
448,192,67109,1,0,0:0:0:0:
192,192,67109,1,0,0:0:0:0:
448,192,67783,1,0,0:0:0:0:
320,192,67783,1,0,0:0:0:0:
64,192,67783,1,0,0:0:0:0:
448,192,68457,1,0,0:0:0:0:
64,192,68457,1,0,0:0:0:0:
320,192,68794,1,0,0:0:0:0:
192,192,68794,1,0,0:0:0:0:
448,192,69131,1,0,0:0:0:0:
192,192,69131,1,0,0:0:0:0:
64,192,69131,1,0,0:0:0:0:
448,192,69636,1,0,0:0:0:0:
320,192,69636,1,0,0:0:0:0:
192,192,69805,1,0,0:0:0:0:
64,192,69805,1,0,0:0:0:0:
448,192,70479,1,0,0:0:0:0:
320,192,70479,1,0,0:0:0:0:
64,192,70479,1,0,0:0:0:0:
320,192,71153,1,0,0:0:0:0:
192,192,71153,1,0,0:0:0:0:
448,192,71827,1,0,0:0:0:0:
192,192,71827,1,0,0:0:0:0:
64,192,71827,1,0,0:0:0:0:
320,192,72333,1,0,0:0:0:0:
64,192,72333,1,0,0:0:0:0:
192,192,72501,1,0,0:0:0:0:
448,192,72501,1,0,0:0:0:0:
320,192,73175,1,0,0:0:0:0:
448,192,73175,1,0,0:0:0:0:
64,192,73175,1,0,0:0:0:0:
64,192,73849,1,0,0:0:0:0:
192,192,73892,1,0,0:0:0:0:
320,192,73906,1,0,0:0:0:0:
448,192,74524,1,0,0:0:0:0:
192,192,75029,1,0,0:0:0:0:
64,192,75029,1,0,0:0:0:0:
320,192,75198,1,0,0:0:0:0:
448,192,75198,1,0,0:0:0:0:
320,192,75872,1,0,0:0:0:0:
192,192,75872,1,0,0:0:0:0:
64,192,75872,1,0,0:0:0:0:
448,192,76546,1,0,0:0:0:0:
64,192,76546,1,0,0:0:0:0:
448,192,77220,1,0,0:0:0:0:
192,192,77220,1,0,0:0:0:0:
320,192,77220,1,0,0:0:0:0:
448,192,77726,1,0,0:0:0:0:
192,192,77726,1,0,0:0:0:0:
320,192,77894,1,0,0:0:0:0:
64,192,77894,1,0,0:0:0:0:
448,192,78569,1,0,0:0:0:0:
192,192,78569,1,0,0:0:0:0:
64,192,78569,1,0,0:0:0:0:
192,192,79243,1,0,0:0:0:0:
64,192,79243,1,0,0:0:0:0:
320,192,79580,1,0,0:0:0:0:
448,192,79580,1,0,0:0:0:0:
320,192,79917,1,0,0:0:0:0:
192,192,79917,1,0,0:0:0:0:
64,192,79917,1,0,0:0:0:0:
448,192,80422,1,0,0:0:0:0:
320,192,80422,1,0,0:0:0:0:
192,192,80591,1,0,0:0:0:0:
64,192,80591,1,0,0:0:0:0:
448,192,81265,1,0,0:0:0:0:
320,192,81265,1,0,0:0:0:0:
64,192,81265,1,0,0:0:0:0:
320,192,81939,1,0,0:0:0:0:
192,192,81939,1,0,0:0:0:0:
192,192,82613,1,0,0:0:0:0:
64,192,82613,1,0,0:0:0:0:
448,192,82613,1,0,0:0:0:0:
448,192,83119,1,0,0:0:0:0:
320,192,83119,1,0,0:0:0:0:
192,192,83288,1,0,0:0:0:0:
64,192,83288,1,0,0:0:0:0:
448,192,83962,1,0,0:0:0:0:
320,192,83962,1,0,0:0:0:0:
64,192,83962,1,0,0:0:0:0:
448,192,84636,1,0,0:0:0:0:
192,192,84636,1,0,0:0:0:0:
320,192,84973,1,0,0:0:0:0:
64,192,84973,1,0,0:0:0:0:
448,192,85310,1,0,0:0:0:0:
64,192,85310,1,0,0:0:0:0:
192,192,85310,1,0,0:0:0:0:
448,192,85816,1,0,0:0:0:0:
64,192,85816,1,0,0:0:0:0:
320,192,85984,1,0,0:0:0:0:
192,192,85984,1,0,0:0:0:0:
448,192,86658,1,0,0:0:0:0:
192,192,86658,1,0,0:0:0:0:
64,192,86658,1,0,0:0:0:0:
448,192,87333,1,0,0:0:0:0:
320,192,87333,1,0,0:0:0:0:
320,192,88007,1,0,0:0:0:0:
192,192,88007,1,0,0:0:0:0:
64,192,88007,1,0,0:0:0:0:
320,192,88512,1,0,0:0:0:0:
192,192,88512,1,0,0:0:0:0:
448,192,88681,1,0,0:0:0:0:
64,192,88681,1,0,0:0:0:0:
320,192,89355,1,0,0:0:0:0:
192,192,89355,1,0,0:0:0:0:
64,192,89355,1,0,0:0:0:0:
448,192,90029,1,0,0:0:0:0:
64,192,90029,1,0,0:0:0:0:
320,192,90366,1,0,0:0:0:0:
192,192,90366,1,0,0:0:0:0:
64,192,90703,1,0,0:0:0:0:
448,192,90703,1,0,0:0:0:0:
192,192,90703,1,0,0:0:0:0:
448,192,91208,1,0,0:0:0:0:
320,192,91208,1,0,0:0:0:0:
192,192,91377,1,0,0:0:0:0:
64,192,91377,1,0,0:0:0:0:
448,192,92051,1,0,0:0:0:0:
320,192,92051,1,0,0:0:0:0:
64,192,92051,1,0,0:0:0:0:
192,192,92725,1,0,0:0:0:0:
64,192,92725,1,0,0:0:0:0:
448,192,93399,1,0,0:0:0:0:
64,192,93399,1,0,0:0:0:0:
320,192,93905,1,0,0:0:0:0:
192,192,94073,1,0,0:0:0:0:
448,192,94747,1,0,0:0:0:0:
320,192,94747,1,0,0:0:0:0:
64,192,95538,1,0,0:0:0:0:
192,192,95580,1,0,0:0:0:0:
448,192,95594,1,0,0:0:0:0:
320,192,96212,1,0,0:0:0:0:
