osu file format v14

[General]
AudioFilename: audio.mp3
AudioLeadIn: 0
PreviewTime: 199937
Countdown: 0
SampleSet: Drum
StackLeniency: 0.5
Mode: 0
LetterboxInBreaks: 0
WidescreenStoryboard: 1

[Editor]
Bookmarks: 11723,23152,45279,54580,91723,106009,127779,140294,163152,177437,197690,200294,223152,234580,246009
DistanceSpacing: 1.6
BeatDivisor: 4
GridSize: 4
TimelineZoom: 1

[Metadata]
Title:ZYPRESSEN no Hanataba
TitleUnicode:ZYPRESSENの花束
Artist:monet
ArtistUnicode:monet
Creator:Gust
Version:I.Yoshino's Normal
Source:サクラノ詩 -櫻の森の上を舞う-
Tags:sakura no uta - sakura no mori no ue o mau - makura 枕 eroge galgame higawa rina kawachino yuumi ending japanese video game すかぢ SCA-ji ピクセルビー Pixelbee visual novel rock pop Niwasaka_Rira Niwasaka Rira Yorita Yoshino
BeatmapID:2778418
BeatmapSetID:1251587

[Difficulty]
HPDrainRate:3
CircleSize:4
OverallDifficulty:4
ApproachRate:5
SliderMultiplier:1.2
SliderTickRate:1

[Events]
//Background and Video events
0,0,"Normal.jpg",0,0
//Break Periods
2,94765,104079
2,177622,187294
//Storyboard Layer 0 (Background)
//Storyboard Layer 1 (Fail)
//Storyboard Layer 2 (Pass)
//Storyboard Layer 3 (Foreground)
//Storyboard Layer 4 (Overlay)
//Storyboard Sound Samples

[TimingPoints]
280,714.285714285714,4,3,1,30,1,0
5994,-100,4,3,1,15,0,0
6172,-100,4,3,1,22,0,0
6351,-100,4,3,1,30,0,0
6529,-100,4,3,1,37,0,0
6708,-100,4,3,1,45,0,0
6887,-100,4,3,1,40,0,0
7065,-100,4,3,1,35,0,0
7244,-100,4,3,1,30,0,0
7422,-100,4,3,1,25,0,0
7779,-100,4,3,1,15,0,0
8137,-100,4,3,1,22,0,0
8494,-100,4,3,1,30,0,0
8851,-100,4,3,1,40,0,0
9208,-100,4,3,1,30,0,0
9565,-100,4,3,1,45,0,0
9922,-100,4,3,1,30,0,0
10279,-100,4,3,1,50,0,0
10637,-100,4,3,1,30,0,0
10994,-100,4,3,1,25,0,0
11172,-100,4,3,1,15,0,0
11351,-100,4,3,1,20,0,0
11529,-100,4,3,1,30,0,0
11708,-100,4,3,2,30,0,0
14208,-100,4,3,2,15,0,0
14565,-100,4,3,2,30,0,0
15815,-100,4,3,2,15,0,0
15994,-100,4,3,2,30,0,0
16351,-100,4,3,2,20,0,0
16529,-100,4,3,2,10,0,0
16708,-100,4,3,2,30,0,0
17065,-100,4,3,2,10,0,0
17244,-100,4,3,2,20,0,0
17422,-100,4,3,2,30,0,0
19922,-100,4,3,2,20,0,0
20101,-100,4,3,2,30,0,0
20279,-100,4,3,2,40,0,0
20458,-100,4,3,2,30,0,0
21351,-100,4,3,2,20,0,0
21529,-100,4,3,2,30,0,0
21708,-100,4,3,2,40,0,0
22065,-100,4,3,2,30,0,0
45994,-100,4,2,0,30,0,0
46172,-100,4,3,2,30,0,0
47244,-100,4,3,2,15,0,0
47601,-100,4,3,2,20,0,0
48137,-100,4,3,2,30,0,0
48494,-100,4,3,2,20,0,0
48672,-100,4,3,2,30,0,0
50101,-100,4,3,2,20,0,0
50458,-100,4,3,2,30,0,0
54029,-100,4,3,2,40,0,0
54565,-100,4,2,0,50,0,0
54744,-100,4,3,2,50,0,0
57422,-100,4,2,0,50,0,0
57601,-100,4,3,2,50,0,0
68851,-100,4,2,0,50,0,0
69029,-100,4,3,2,50,0,0
80279,-100,4,2,0,50,0,0
80458,-100,4,3,2,50,0,0
81351,-100,4,2,0,50,0,0
81529,-100,4,3,2,50,0,0
82779,-100,4,2,0,50,0,0
82958,-100,4,3,2,50,0,0
84208,-100,4,2,0,50,0,0
84387,-100,4,3,2,50,0,0
85994,-100,4,2,0,50,0,0
86172,-100,4,3,2,50,0,0
88851,-100,4,2,0,50,0,0
89029,-100,4,3,2,50,0,0
91708,-100,4,2,0,50,0,0
105279,-100,4,3,2,40,0,0
105994,-100,4,2,0,30,0,0
106172,-100,4,3,2,30,0,0
115458,-100,4,3,2,15,0,0
115637,-100,4,3,2,22,0,0
115815,-100,4,3,2,30,0,0
115994,-100,4,3,2,22,0,0
116172,-100,4,3,2,30,0,0
116351,-100,4,3,2,22,0,0
116529,-100,4,3,2,30,0,0
127244,-100,4,3,2,22,0,0
127601,-100,4,3,2,30,0,0
128851,-100,4,2,0,30,0,0
129029,-100,4,3,2,30,0,0
130101,-100,4,3,2,15,0,0
130458,-100,4,3,2,25,0,0
130994,-100,4,3,2,30,0,0
131351,-100,4,3,2,20,0,0
131529,-100,4,3,2,30,0,0
132958,-100,4,3,2,20,0,0
133315,-100,4,3,2,30,0,0
136887,-100,4,3,2,40,0,0
137422,-100,4,2,0,50,0,0
137601,-100,4,3,2,50,0,0
137779,-100,4,3,2,30,0,0
138137,-100,4,3,2,40,0,0
138493,-100,4,3,2,50,0,0
139565,-100,4,3,2,60,0,0
139922,-100,4,3,2,50,0,0
140279,-100,4,2,0,50,0,0
140458,-100,4,3,2,50,0,0
148851,-100,4,2,0,50,0,0
149029,-100,4,3,2,50,0,0
163137,-100,4,2,0,50,0,0
163315,-100,4,3,2,50,0,0
164387,-100,4,2,0,50,0,0
164565,-100,4,3,2,50,0,0
165994,-100,4,2,0,50,0,0
166172,-100,4,3,2,50,0,0
168851,-100,4,2,0,50,0,0
169029,-100,4,3,2,50,0,0
170101,-100,4,2,0,50,0,0
170279,-100,4,3,2,50,0,0
171708,-100,4,2,0,50,0,0
171887,-100,4,3,2,50,0,0
177422,-100,4,2,0,40,0,0
177779,-100,4,3,2,40,0,0
183137,-100,4,2,0,40,0,0
183315,-100,4,3,2,40,0,0
191708,-100,4,2,0,40,0,0
191887,-100,4,3,2,40,0,0
194565,-100,4,2,0,40,0,0
194744,-100,4,3,2,40,0,0
195994,-100,4,2,0,50,0,0
196172,-100,4,3,2,50,0,0
197422,-100,4,2,0,60,0,0
197601,-100,4,3,2,60,0,0
198494,-100,4,2,0,60,0,0
198672,-100,4,3,2,60,0,0
198851,-100,4,2,0,60,0,0
199029,-100,4,3,2,60,0,0
199208,-100,4,3,2,70,0,0
200279,-100,4,2,0,50,0,0
200458,-100,4,3,2,50,0,0
223137,-100,4,2,0,50,0,0
223494,-100,4,3,1,50,0,0
224208,-100,4,2,0,50,0,0
224922,-100,4,3,2,50,0,0
225637,-100,4,2,0,50,0,0
226351,-100,4,3,2,50,0,0
227065,-100,4,2,0,50,0,0
227958,-100,4,3,2,50,0,0
228851,-100,4,2,0,50,0,0
229208,-100,4,3,2,50,0,0
231708,-100,4,2,0,50,0,0
232065,-100,4,3,2,50,0,0
234565,-100,4,3,2,40,0,0
245994,-100,4,3,1,30,0,0
246172,-100,4,3,1,22,0,0
246351,-100,4,3,1,30,0,0
246887,-100,4,3,1,22,0,0
247065,-100,4,3,1,15,0,0
247779,-100,4,3,1,30,0,0
248494,-100,4,3,1,22,0,0
248851,-100,4,3,1,30,0,0
249029,-100,4,3,1,22,0,0
249208,-100,4,3,1,15,0,0
249922,-100,4,3,1,30,0,0
250637,-100,4,3,1,22,0,0
250994,-100,4,3,1,15,0,0
251529,-100,4,3,1,22,0,0
251708,-100,4,3,1,30,0,0
251887,-100,4,3,1,22,0,0
252065,-100,4,3,1,30,0,0
252244,-100,4,3,1,22,0,0
252422,-100,4,3,1,30,0,0
252601,-100,4,3,1,22,0,0
252779,-100,4,3,1,15,0,0
253315,-100,4,3,1,22,0,0
254387,-100,4,3,1,30,0,0
254922,-100,4,3,1,22,0,0
255279,-100,4,3,1,15,0,0
255637,-100,4,3,1,22,0,0
255994,-100,4,3,1,30,0,0
256351,-100,4,3,1,22,0,0
256708,-100,4,3,1,15,0,0
257065,-100,4,3,1,10,0,0

[Colours]
Combo1 : 255,255,45
Combo2 : 0,125,0
Combo3 : 254,90,201
Combo4 : 208,0,5
Combo5 : 187,187,187
Combo6 : 128,64,0
Combo7 : 109,233,63
Combo8 : 213,0,106

[HitObjects]
0,345,11529,5,0,0:0:0:0:
0,345,11708,2,0,P|87:300|146:315,1,120,6|10,0:0|0:0,0:0:0:0:
280,380,13137,2,0,L|272:281,1,60,4|6,0:0|0:0,0:0:0:0:
358,273,13851,2,0,L|366:174,1,60,10|2,0:0|0:0,0:0:0:0:
312,131,14565,2,0,P|359:62|428:83,1,120,6|8,0:0|0:0,0:0:0:0:
409,154,15637,1,2,0:0:0:0:
341,222,15994,2,0,L|187:204,1,120,4|8,0:0|0:0,0:0:0:0:
163,25,17422,6,0,L|9:43,1,120,6|8,0:0|0:0,0:0:0:0:
44,231,18851,2,0,P|59:276|46:323,1,60,6|4,0:0|0:0,0:0:0:0:
122,359,19565,2,0,L|201:348,1,60,10|2,0:0|0:0,0:0:0:0:
253,287,20279,2,0,P|331:309|352:377,2,120,6|10|6,0:0|0:0|0:0,0:0:0:0:
161,118,22422,2,0,L|175:32,1,60,10|2,0:0|0:0,0:0:0:0:
257,17,23137,6,0,L|273:179,1,120,6|10,0:0|0:0,0:0:0:0:
360,164,24208,1,2,0:0:0:0:
446,205,24565,2,0,L|428:341,1,120,6|10,0:0|0:0,0:0:0:0:
340,357,25637,1,2,0:0:0:0:
255,311,25994,2,0,B|219:299|219:299|123:326,1,120,6|10,0:0|0:0,0:0:0:0:
49,353,27065,1,2,0:0:0:0:
59,257,27422,2,0,P|69:186|41:129,1,120,6|8,0:0|0:0,0:0:0:0:
35,47,28494,2,0,L|87:54,1,30,2|0,0:0|0:0,0:0:0:0:
101,81,28851,6,0,B|132:94|132:94|244:77,1,120,6|10,0:0|0:0,0:0:0:0:
299,31,29922,1,0,0:0:0:0:
306,126,30279,2,0,B|333:108|360:114|360:114|388:143|421:137,1,120,6|10,0:0|0:0,0:0:0:0:
498,311,31708,1,6,0:0:0:0:
308,343,32422,1,8,0:0:0:0:
361,158,33137,1,6,0:0:0:0:
308,343,33851,2,0,L|211:337,1,60,10|2,0:0|0:0,0:0:0:0:
157,370,34565,6,0,P|129:293|75:283,1,120,6|10,0:0|0:0,0:0:0:0:
15,233,35637,1,2,0:0:0:0:
99,186,35994,2,0,L|91:51,1,120,6|10,0:0|0:0,0:0:0:0:
180,28,37065,1,2,0:0:0:0:
267,66,37422,2,0,P|326:81|391:37,1,120,6|10,0:0|0:0,0:0:0:0:
459,5,38494,1,2,0:0:0:0:
506,88,38851,2,0,L|493:210,1,120,6|8,0:0|0:0,0:0:0:0:
421,271,39922,2,0,L|375:267,1,30,2|0,0:0|0:0,0:0:0:0:
358,303,40279,6,0,L|216:316,1,120,6|10,0:0|0:0,0:0:0:0:
158,367,41351,1,0,0:0:0:0:
69,329,41708,2,0,P|50:241|75:199,1,120,6|10,0:0|0:0,0:0:0:0:
156,221,42779,1,2,0:0:0:0:
156,221,43137,1,6,0:0:0:0:
5,101,43851,1,10,0:0:0:0:
184,34,44565,1,6,0:0:0:0:
156,221,45279,2,0,P|203:211|233:222,1,60,4|4,0:0|0:0,0:0:0:0:
284,147,45994,5,6,0:0:0:0:
308,239,46351,1,2,0:0:0:0:
333,331,46708,1,10,0:0:0:0:
406,269,47065,2,0,P|435:214|417:149,1,120,6|4,0:0|0:0,0:0:0:0:
359,88,48137,2,0,P|393:68|407:31,1,60,10|4,0:0|0:0,0:0:0:0:
318,6,48851,2,0,L|124:29,1,180,6|4,0:0|0:0,0:0:0:0:
50,62,50279,2,0,P|40:97|50:139,1,60,2|4,0:0|0:0,0:0:0:0:
117,180,50994,1,8,0:0:0:0:
20,346,51708,6,0,L|139:337,1,120,4|10,0:0|0:0,0:0:0:0:
228,374,52779,2,0,P|289:315|377:375,1,180,4|8,0:0|0:0,0:0:0:0:
454,310,54208,1,8,0:3:0:0:
454,310,54565,5,6,0:0:0:0:
475,216,54922,1,2,0:0:0:0:
413,142,55279,1,10,0:0:0:0:
434,48,55636,1,2,0:0:0:0:
343,14,55994,2,0,L|219:27,1,120,2|8,0:0|0:0,0:0:0:0:
136,65,57065,2,0,P|123:93|128:114,1,30,10|10,0:0|0:0,0:0:0:0:
153,129,57422,6,0,L|140:248,1,120,4|8,0:0|0:0,0:0:0:0:
199,323,58494,2,0,P|142:357|92:318,1,120,4|6,0:0|0:0,0:0:0:0:
48,253,59565,2,0,L|57:180,1,60,10|6,0:0|0:0,0:0:0:0:
110,114,60279,6,0,B|172:97|172:97|244:131,1,120,6|8,0:0|0:0,0:0:0:0:
301,174,61351,2,0,P|321:107|280:52,1,120,6|6,0:0|0:0,0:0:0:0:
377,10,62422,2,0,L|439:21,1,60,10|6,0:0|0:0,0:0:0:0:
487,101,63137,6,0,L|345:124,1,120,6|10,0:0|0:0,0:0:0:0:
352,214,64208,1,2,0:0:0:0:
434,263,64565,2,0,P|430:319|418:339,1,60,2|4,0:0|0:0,0:0:0:0:
340,359,65279,2,0,P|336:303|324:283,1,60,10|6,0:0|0:0,0:0:0:0:
243,269,65994,6,0,L|104:287,1,120,6|10,0:0|0:0,0:0:0:0:
38,327,67065,1,2,0:0:0:0:
38,327,67244,2,0,P|6:272|14:170,1,150,10|8,0:0|0:0,0:0:0:0:
13,91,68494,2,0,L|71:95,1,30,2|2,0:0|0:0,0:0:0:0:
79,62,68851,6,0,P|133:62|152:142,1,120,4|8,0:0|0:0,0:0:0:0:
107,194,69922,2,0,B|97:254|97:254|137:324,1,120,6|6,0:0|0:0,0:0:0:0:
211,349,70994,2,0,L|286:333,1,60,8|4,0:0|0:0,0:0:0:0:
364,351,71708,6,0,P|352:296|402:231,1,120,6|8,0:0|0:0,0:0:0:0:
459,186,72779,2,0,P|471:131|421:66,1,120,6|6,0:0|0:0,0:0:0:0:
350,44,73851,2,0,L|276:55,1,60,10|6,0:0|0:0,0:0:0:0:
200,21,74565,6,0,B|145:49|145:49|72:22,1,120,6|8,0:0|0:0,0:0:0:0:
24,98,75637,1,6,0:0:0:0:
11,193,75994,2,0,P|29:236|50:241,1,60,2|2,0:0|0:0,0:0:0:0:
49,334,76708,2,0,P|92:351|110:340,1,60,10|6,0:0|0:0,0:0:0:0:
194,369,77422,6,0,L|312:351,1,120,6|10,0:0|0:0,0:0:0:0:
406,329,78494,1,6,0:0:0:0:
406,329,78672,2,0,P|366:265|370:192,1,150,8|8,0:0|0:0,0:0:0:0:
441,128,79922,1,6,0:0:0:0:
405,38,80279,6,0,L|468:26,2,60,6|2|8,0:0|0:0|0:0,0:0:0:0:
308,33,81351,2,0,B|245:24|245:24|202:62|202:62|130:54,1,180,6|10,0:0|0:0,0:0:0:0:
52,87,82779,2,0,P|37:146|65:215,1,120,6|0,0:0|0:0,0:0:0:0:
137,248,83851,1,8,0:0:0:0:
110,340,84208,2,0,P|172:330|235:352,1,120,4|6,0:0|0:0,0:0:0:0:
308,314,85279,2,0,P|314:267|302:240,1,60,10|6,0:0|0:0,0:0:0:0:
222,218,85994,6,0,P|199:278|215:345,1,120,6|8,0:0|0:0,0:0:0:0:
117,364,87065,1,2,0:0:0:0:
117,364,87244,2,0,B|45:340|45:340|3:254,1,150,8|8,0:0|0:0,0:0:0:0:
85,210,88494,1,2,0:0:0:0:
53,119,88851,2,0,P|130:116|176:90,2,120,6|10|2,0:0|0:0|0:0,0:0:0:0:
189,253,90994,2,0,L|179:322,1,60,10|10,0:0|0:0,0:0:0:0:
256,192,91708,12,4,94565,0:0:0:0:
503,363,105279,6,0,L|514:284,1,60,4|0,0:0|0:0,0:0:0:0:
488,210,105994,2,0,P|413:199|365:238,1,120,6|10,0:0|0:0,0:0:0:0:
397,314,107065,1,0,0:0:0:0:
303,336,107422,2,0,B|264:320|237:334|237:334|205:351|172:337,1,120,6|10,0:0|0:0,0:0:0:0:
107,287,108494,1,2,0:0:0:0:
28,341,108851,2,0,B|8:283|8:283|36:213,1,120,6|10,0:0|0:0,0:0:0:0:
83,148,109922,1,2,0:0:0:0:
37,63,110279,2,0,P|105:57|157:8,1,120,6|8,0:0|0:0,0:0:0:0:
237,0,111351,2,0,L|286:8,1,30,2|0,0:0|0:0,0:0:0:0:
296,42,111708,6,0,P|357:57|420:28,1,120,6|10,0:0|0:0,0:0:0:0:
503,23,112779,2,0,P|504:107|480:151,1,120,0|4,0:0|0:0,0:0:0:0:
416,200,113851,1,10,0:0:0:0:
440,292,114208,2,0,B|409:281|409:281|307:307,1,120,0|4,0:0|0:0,0:0:0:0:
252,365,115279,2,0,P|207:359|185:370,1,60,10|2,0:0|0:0,0:0:0:0:
171,270,115994,2,0,P|135:242|110:240,1,60,6|6,0:0|0:0,0:0:0:0:
130,144,116708,2,0,P|112:102|92:88,1,60,10|2,0:0|0:0,0:0:0:0:
39,166,117422,6,0,L|53:298,1,120,6|10,0:0|0:0,0:0:0:0:
108,362,118494,1,2,0:0:0:0:
157,279,118851,2,0,P|235:271|279:314,1,120,6|10,0:0|0:0,0:0:0:0:
335,359,119922,1,2,0:0:0:0:
430,350,120279,2,0,P|448:289|424:232,1,120,6|10,0:0|0:0,0:0:0:0:
365,165,121351,1,0,0:0:0:0:
301,236,121708,2,0,P|283:297|307:354,1,120,6|8,0:0|0:0,0:0:0:0:
397,354,122779,2,0,L|406:317,1,30,2|0,0:0|0:0,0:0:0:0:
442,295,123137,6,0,L|424:170,1,120,6|10,0:0|0:0,0:0:0:0:
418,80,124208,2,0,P|344:83|306:31,1,120,0|4,0:0|0:0,0:0:0:0:
227,11,125279,2,0,P|178:17|169:41,1,60,10|2,0:0|0:0,0:0:0:0:
115,98,125994,2,0,L|44:88,2,60,6|4|10,0:0|0:0|0:0,0:0:0:0:
195,150,127065,2,0,P|201:198|190:230,1,60,2|6,0:0|0:0,0:0:0:0:
117,258,127779,2,0,P|72:239|50:213,1,60,8|4,0:0|0:0,0:0:0:0:
62,137,128494,1,4,0:0:0:0:
62,137,128851,5,4,0:0:0:0:
150,99,129208,1,0,0:0:0:0:
239,64,129565,1,8,0:0:0:0:
327,27,129922,2,0,P|357:64|439:49,1,120,4|4,0:0|0:0,0:0:0:0:
493,128,130994,2,0,L|474:206,1,60,8|4,0:0|0:0,0:0:0:0:
386,213,131708,2,0,B|404:313|404:313|382:367|321:344,1,180,4|4,0:0|0:0,0:0:0:0:
250,324,133137,2,0,L|164:331,2,60,2|4|8,0:0|0:0|0:0,0:0:0:0:
81,231,134565,6,0,P|55:197|76:117,1,120,2|8,0:0|0:0,0:0:0:0:
134,55,135637,2,0,B|184:73|184:73|262:48|262:48|318:73,1,180,4|8,0:0|0:0,0:0:0:0:
390,106,137065,1,4,0:0:0:0:
390,106,137422,5,6,0:0:0:0:
438,189,137779,1,2,0:0:0:0:
390,273,138137,1,2,0:0:0:0:
294,273,138493,1,10,0:0:0:0:
246,189,138851,2,0,L|259:70,1,120,10|10,0:0|0:0,0:0:0:0:
181,12,139922,2,0,P|157:7|138:21,1,30,10|10,0:0|0:0,0:0:0:0:
108,27,140279,6,0,P|52:47|29:111,1,120,6|8,0:0|0:0,0:0:0:0:
106,155,141351,2,0,P|162:175|185:239,1,120,6|6,0:0|0:0,0:0:0:0:
121,299,142422,2,0,L|49:306,1,60,10|4,0:0|0:0,0:0:0:0:
19,218,143137,6,0,P|17:149|29:78,1,120,6|8,0:0|0:0,0:0:0:0:
106,49,144208,2,0,P|177:60|242:56,1,120,6|6,0:0|0:0,0:0:0:0:
314,23,145279,2,0,L|393:28,1,60,10|6,0:0|0:0,0:0:0:0:
453,80,145994,6,0,B|434:122|434:122|451:215,1,120,6|10,0:0|0:0,0:0:0:0:
487,281,147065,1,6,0:0:0:0:
404,332,147422,2,0,L|330:328,1,60,2|2,0:0|0:0,0:0:0:0:
275,260,148137,2,0,L|201:264,1,60,10|2,0:0|0:0,0:0:0:0:
139,322,148851,6,0,P|61:311|42:267,1,120,6|8,0:0|0:0,0:0:0:0:
96,200,149922,1,6,0:0:0:0:
96,200,150101,2,0,P|141:139|112:63,1,150,10|8,0:0|0:0,0:0:0:0:
27,56,151351,2,0,L|34:104,1,30,6|4,0:0|0:0,0:0:0:0:
17,131,151708,6,0,L|8:261,1,120,6|8,0:0|0:0,0:0:0:0:
74,320,152779,2,0,B|107:335|132:320|132:320|175:292|211:325,1,120,6|6,0:0|0:0,0:0:0:0:
278,344,153851,2,0,P|321:348|353:330,1,60,10|6,0:0|0:0,0:0:0:0:
417,292,154565,6,0,L|408:172,1,120,6|8,0:0|0:0,0:0:0:0:
456,89,155637,2,0,B|398:67|398:67|340:107,1,120,6|6,0:0|0:0,0:0:0:0:
273,41,156708,2,0,L|193:48,1,60,10|4,0:0|0:0,0:0:0:0:
119,27,157422,6,0,P|45:49|30:93,1,120,6|10,0:0|0:0,0:0:0:0:
12,178,158494,1,2,0:0:0:0:
79,246,158851,2,0,L|163:233,1,60,2|6,0:0|0:0,0:0:0:0:
214,295,159565,2,0,L|298:308,1,60,10|4,0:0|0:0,0:0:0:0:
362,340,160279,6,0,P|357:273|381:210,1,120,6|10,0:0|0:0,0:0:0:0:
452,169,161351,1,6,0:0:0:0:
452,169,161529,2,0,P|454:97|419:20,1,150,8|8,0:0|0:0,0:0:0:0:
330,48,162779,1,6,0:0:0:0:
234,60,163137,6,0,L|148:49,2,60,6|2|8,0:0|0:0|0:0,0:0:0:0:
294,134,164208,1,2,0:0:0:0:
294,134,164387,2,0,L|406:122,1,90,6|4,0:0|0:0,0:0:0:0:
466,173,165279,2,0,P|482:219|480:245,1,60,10|0,0:0|0:0,0:0:0:0:
388,251,165994,6,0,L|395:326,2,60,6|2|8,0:0|0:0|0:0,0:0:0:0:
308,197,167065,1,2,0:0:0:0:
236,260,167422,2,0,L|243:335,2,60,4|0|8,0:0|0:0|0:0,0:0:0:0:
156,206,168493,1,2,0:0:0:0:
87,273,168851,6,0,L|94:348,2,60,6|2|8,0:0|0:0|0:0,0:0:0:0:
4,224,169922,1,2,0:0:0:0:
4,224,170101,2,0,L|18:111,1,90,6|4,0:0|0:0,0:0:0:0:
70,56,170994,2,0,P|125:41|138:53,1,60,10|4,0:0|0:0,0:0:0:0:
208,81,171708,6,0,L|342:91,1,120,4|8,0:0|0:0,0:0:0:0:
412,135,172779,2,0,B|460:158|504:111|504:111|443:177|478:249,1,240,6|6,0:0|0:0,0:0:0:0:
256,192,174565,12,6,177422,0:0:0:0:
51,0,188494,6,0,L|58:44,1,30,2|4,0:0|0:0,0:0:0:0:
91,61,188851,2,0,L|83:133,1,60,2|2,0:0|0:0,0:0:0:0:
25,196,189565,1,10,0:0:0:0:
92,263,189922,2,0,P|157:247|205:286,1,120,6|6,0:0|0:0,0:0:0:0:
216,369,190994,2,0,L|275:373,1,60,10|6,0:0|0:0,0:0:0:0:
340,302,191708,6,0,P|337:273|309:238,2,60,6|0|10,0:0|0:0|0:0,0:0:0:0:
431,330,192779,2,0,L|446:201,1,120,6|0,0:0|0:0,0:0:0:0:
496,129,193851,2,0,L|484:65,1,60,10|6,0:0|0:0,0:0:0:0:
396,33,194565,6,0,L|258:45,1,120,6|10,0:0|0:0,0:0:0:0:
200,102,195637,1,2,0:0:0:0:
112,61,195994,2,0,B|60:49|60:49|36:136|86:187,1,180,6|10,0:0|0:0,0:0:0:0:
31,257,197422,5,6,0:0:0:0:
124,279,197779,1,2,0:0:0:0:
192,347,198137,1,10,0:0:0:0:
250,271,198494,1,6,0:0:0:0:
345,265,198851,2,0,P|418:283|443:340,1,120,6|10,0:0|0:0,0:0:0:0:
499,242,199922,2,0,L|510:197,1,30,8|8,0:0|0:0,0:0:0:0:
484,170,200279,6,0,L|468:48,1,120,6|8,0:0|0:0,0:0:0:0:
380,11,201351,2,0,P|301:17|276:71,1,120,2|6,0:0|0:0,0:0:0:0:
231,128,202422,2,0,P|188:116|172:95,1,60,10|6,0:0|0:0,0:0:0:0:
96,55,203137,6,0,B|72:113|72:113|97:195|94:188,1,120,6|8,0:0|0:0,0:0:0:0:
156,235,204208,2,0,L|285:210,1,120,6|6,0:0|0:0,0:0:0:0:
336,139,205279,2,0,P|336:110|303:64,1,60,10|6,0:0|0:0,0:0:0:0:
398,21,205994,6,0,P|467:30|492:102,1,120,6|10,0:0|0:0,0:0:0:0:
450,155,207065,1,2,0:0:0:0:
508,230,207422,2,0,P|467:242|446:241,1,60,2|6,0:0|0:0,0:0:0:0:
437,336,208137,2,0,P|407:334|379:324,1,60,8|6,0:0|0:0,0:0:0:0:
296,372,208851,6,0,L|123:350,1,120,6|8,0:0|0:0,0:0:0:0:
81,350,209922,1,6,0:0:0:0:
81,350,210101,2,0,P|49:253|71:190,1,150,10|8,0:0|0:0,0:0:0:0:
127,141,211351,2,0,L|164:134,1,30,2|2,0:0|0:0,0:0:0:0:
183,95,211708,6,0,P|124:95|41:82,1,120,6|8,0:0|0:0,0:0:0:0:
6,164,212779,2,0,P|8:221|25:287,1,120,4|6,0:0|0:0,0:0:0:0:
106,330,213851,2,0,L|183:320,1,60,10|6,0:0|0:0,0:0:0:0:
255,356,214565,6,0,B|290:365|312:346|312:346|340:326|390:350,1,120,2|8,0:0|0:0,0:0:0:0:
464,357,215637,2,0,P|448:297|464:230,1,120,6|6,0:0|0:0,0:0:0:0:
473,146,216708,2,0,P|462:99|440:80,1,60,10|6,0:0|0:0,0:0:0:0:
377,34,217422,6,0,L|249:46,1,120,2|10,0:0|0:0,0:0:0:0:
210,128,218494,1,6,0:0:0:0:
119,95,218851,2,0,P|109:46|122:22,1,60,2|6,0:0|0:0,0:0:0:0:
17,54,219565,2,0,P|7:103|20:127,1,60,10|6,0:0|0:0,0:0:0:0:
25,205,220279,6,0,L|148:201,1,120,2|10,0:0|0:0,0:0:0:0:
157,296,221351,1,6,0:0:0:0:
157,296,221529,2,0,P|79:322|4:285,1,150,8|10,0:0|0:0,0:0:0:0:
25,205,222779,1,6,0:0:0:0:
17,109,223137,6,0,L|10:31,2,60,6|2|0,0:0|0:0|0:0,0:0:0:0:
98,159,224208,2,0,L|81:350,1,180,6|8,0:0|0:0,0:0:0:0:
176,355,225637,2,0,P|219:302|275:305,1,120,6|2,0:0|0:0,0:0:0:0:
349,348,226708,1,8,0:0:0:0:
433,302,227065,2,0,L|414:159,1,120,6|2,0:0|0:0,0:0:0:0:
472,104,228137,2,0,P|426:75|406:79,1,60,10|2,0:0|0:0,0:0:0:0:
333,40,228851,6,0,L|214:64,1,120,6|8,0:0|0:0,0:0:0:0:
120,50,229922,1,4,0:0:0:0:
120,50,230101,2,0,B|97:88|97:88|110:217,1,150,8|8,0:0|0:0,0:0:0:0:
59,276,231351,1,10,0:0:0:0:
133,336,231708,2,0,P|210:333|256:307,2,120,6|10|2,0:0|0:0|0:0,0:0:0:0:
44,165,233851,2,0,L|52:105,1,60,10|10,0:0|0:0,0:0:0:0:
256,192,234565,12,6,237422,0:0:0:0:
