osu file format v14

[General]
AudioFilename: audio.mp3
AudioLeadIn: 0
PreviewTime: 31366
Countdown: 0
SampleSet: Soft
StackLeniency: 0.7
Mode: 0
LetterboxInBreaks: 0
WidescreenStoryboard: 0

[Editor]
Bookmarks: 64903,109781,141000,172220,205391,252220
DistanceSpacing: 1
BeatDivisor: 4
GridSize: 8
TimelineZoom: 1

[Metadata]
Title:Noborenai Sakamichi
TitleUnicode:登れない坂道
Artist:monet
ArtistUnicode:monet
Creator:Mirash
Version:Insane
Source:素晴らしき日々~不連続存在~
Tags:Delis SubaHibi Subarashiki Hibi ~Furenzoku Sonzai~ Wonderful Everyday ~Diskontinuierliches Dasein~ Naglfar no Senjou nite すかぢ SCA-ji ピクセルビー Pixelbee visual novel vn
BeatmapID:1424776
BeatmapSetID:671607

[Difficulty]
HPDrainRate:6
CircleSize:4
OverallDifficulty:7
ApproachRate:8
SliderMultiplier:2
SliderTickRate:1

[Events]
//Background and Video events
0,0,"himawari.jpg",0,0
//Break Periods
2,172952,183177
//Storyboard Layer 0 (Background)
//Storyboard Layer 1 (Fail)
//Storyboard Layer 2 (Pass)
//Storyboard Layer 3 (Foreground)
//Storyboard Sound Samples

[TimingPoints]
513,487.80487804878,4,2,1,20,1,0
513,-200,4,2,1,20,0,0
15147,-66.6666666666667,4,2,1,60,0,0
16122,-66.6666666666667,4,2,1,70,0,0
29781,-100,4,2,1,50,0,0
31488,-200,4,3,1,30,0,0
31732,-100,4,3,1,55,0,0
47342,-125,4,3,1,55,0,0
49293,-100,4,3,1,55,0,0
60025,-100,4,3,1,60,0,0
60269,-100,4,3,1,65,0,0
60512,-100,4,3,1,70,0,0
62952,-100,4,2,1,60,0,0
64903,-66.6666666666667,4,2,1,70,0,1
65025,-66.6666666666667,4,2,1,70,0,0
78561,-66.6666666666667,4,2,1,70,0,1
78683,-66.6666666666667,4,2,1,70,0,0
100025,-66.6666666666667,4,3,1,70,0,0
101976,-66.6666666666667,4,2,1,70,0,0
107830,-66.6666666666667,4,3,1,70,0,0
109781,-100,4,3,1,55,0,0
138317,-100,4,3,1,60,0,0
138561,-100,4,3,1,65,0,0
138805,-100,4,3,1,70,0,0
139049,-100,4,3,1,60,0,0
141000,-66.6666666666667,4,2,1,70,0,1
141122,-66.6666666666667,4,2,1,70,0,0
156610,-66.6666666666667,4,2,1,70,0,1
156732,-66.6666666666667,4,2,1,70,0,0
172220,-200,4,2,1,40,0,0
204171,-100,4,2,1,60,0,0
205391,-66.6666666666667,4,2,1,70,0,1
205512,-66.6666666666667,4,2,1,70,0,0
221000,-66.6666666666667,4,2,1,70,0,1
221122,-66.6666666666667,4,2,1,70,0,0
234659,-66.6666666666667,4,3,1,70,0,0
235634,-66.6666666666667,4,2,1,70,0,0
242464,-66.6666666666667,4,3,1,70,0,0
244415,-66.6666666666667,4,2,1,70,0,0
250269,-66.6666666666667,4,3,1,70,0,0
252220,508.474576271186,4,2,1,70,1,0
252982,495.867768595041,4,2,1,70,1,0
254221,521.739130434783,4,2,1,70,1,0
255003,500,4,2,1,70,1,0
256253,508.474576271186,4,2,1,70,1,0
264388,526.315789473684,4,2,1,70,1,0
265703,555.555555555556,4,2,1,70,1,0
265980,600,4,2,1,70,1,0
266280,821.917808219178,4,2,1,70,1,0
266690,810.810810810811,4,2,1,70,1,0

[Colours]
Combo1 : 0,128,64
Combo2 : 145,220,31
Combo3 : 14,170,254
Combo4 : 252,128,27
Combo5 : 70,194,61
Combo6 : 0,128,128

[HitObjects]
64,342,513,70,0,L|153:338,2,75,2|0|0,0:0|0:0|0:0,0:0:0:0:
208,285,1488,1,0,0:0:0:0:
270,325,1732,1,0,0:0:0:0:
317,266,1976,1,0,0:0:0:0:
256,221,2220,1,0,0:0:0:0:
379,178,2464,6,0,B|417:180|455:198,2,75,2|0|0,0:0|0:0|0:0,0:0:0:0:
322,128,3439,2,0,P|284:129|253:137,1,50,0|0,0:0|0:0,0:0:0:0:
197,145,3927,2,0,P|178:164|162:200,1,50,0|0,0:0|0:0,0:0:0:0:
71,286,4415,70,0,P|76:247|90:197,2,75,2|0|0,0:0|0:0|0:0,0:0:0:0:
40,137,5391,1,0,0:0:0:0:
110,111,5634,1,0,0:0:0:0:
154,50,5878,1,0,0:0:0:0:
227,33,6122,1,0,0:0:0:0:
359,81,6366,6,0,P|322:80|285:79,2,75,2|0|0,0:0|0:0|0:0,0:0:0:0:
224,123,7342,2,0,P|222:184|226:243,1,100,0|0,0:0|0:0,0:0:0:0:
282,269,8073,1,0,0:0:0:0:
432,236,8317,70,0,P|395:230|344:228,2,75,2|0|0,0:0|0:0|0:0,0:0:0:0:
442,162,9537,1,0,0:0:0:0:
432,236,9781,1,0,0:0:0:0:
423,310,10025,1,0,0:0:0:0:
253,341,10269,6,0,P|313:331|340:329,2,75,2|0|2,0:0|0:0|0:0,0:0:0:0:
114,317,11244,1,0,0:0:0:0:
188,302,11488,1,0,0:0:0:0:
167,229,11732,1,0,0:0:0:0:
94,244,11976,1,0,0:0:0:0:
262,248,12220,70,0,P|256:188|247:155,2,75,2|0|0,0:0|0:0|0:0,0:0:0:0:
316,119,13195,1,0,0:0:0:0:
332,131,13439,1,0,0:0:0:0:
345,120,13683,1,0,0:0:0:0:
330,109,13927,1,0,0:0:0:0:
325,50,14171,6,0,P|331:102|319:260,1,200,2|0,0:0|1:0,0:0:0:0:
261,295,15269,1,4,0:0:0:0:
186,285,15391,1,0,1:0:0:0:
4,195,15634,5,0,1:0:0:0:
0,269,15756,1,2,0:0:0:0:
48,326,15878,1,0,1:0:0:0:
123,325,16000,1,0,1:0:0:0:
186,285,16122,2,0,P|251:277|376:294,1,150.000005722046,6|8,1:0|1:0,0:0:0:0:
389,335,16488,2,0,P|384:257|394:165,1,150.000005722046,2|2,0:1|1:0,0:0:0:0:
446,134,16854,2,0,P|345:142|221:97,1,225.000008583069,8|2,1:0|1:1,0:0:0:0:
204,31,17342,2,0,L|179:110,1,75.0000028610231,10|0,1:0|1:0,0:0:0:0:
119,145,17586,2,0,L|132:246,1,75.0000028610231,2|0,0:1|1:0,0:0:0:0:
182,272,17830,2,0,L|168:365,1,75.0000028610231,10|0,1:0|1:0,0:0:0:0:
296,334,18073,6,0,L|316:166,1,150.000005722046,2|8,1:1|1:0,0:0:0:0:
389,191,18439,2,0,L|380:273,1,75.0000028610231,2|0,0:1|1:0,0:0:0:0:
467,197,18683,1,0,0:0:0:0:
467,197,18805,2,0,L|479:41,1,150.000005722046,10|0,1:0|0:0,0:0:0:0:
407,22,19171,1,0,0:0:0:0:
360,80,19293,1,10,1:0:0:0:
285,77,19415,1,0,0:0:0:0:
229,26,19537,1,2,1:1:0:0:
154,36,19659,1,0,0:0:0:0:
107,94,19781,5,10,1:0:0:0:
107,94,19903,1,2,0:1:0:0:
107,94,20025,2,0,B|147:210|46:174|97:313,1,225.000008583069,6|10,1:0|0:1,0:0:0:0:
95,308,20512,2,0,P|189:287|273:293,1,150.000005722046,0|8,0:1|1:0,0:0:0:0:
285,350,20878,2,0,P|371:320|456:317,1,150.000005722046,2|0,0:1|0:0,0:0:0:0:
467,249,21244,2,0,P|411:243|376:241,1,75.0000028610231,10|0,1:0|0:0,0:0:0:0:
357,174,21488,2,0,P|313:184|280:197,1,75.0000028610231,2|0,0:1|0:0,0:0:0:0:
438,113,21732,5,8,1:0:0:0:
438,113,21854,1,0,1:0:0:0:
438,113,21976,2,0,P|383:84|254:64,2,150.000005722046,4|8|4,1:2|1:0|1:2,0:0:0:0:
214,72,22708,2,0,L|221:151,1,75.0000028610231,8|12,1:0|1:0,0:0:0:0:
162,273,23073,2,0,L|149:172,1,75.0000028610231,0|8,1:2|1:0,0:0:0:0:
106,331,23317,1,0,1:2:0:0:
178,350,23439,2,0,L|271:340,1,75.0000028610231,8|0,1:0|1:0,0:0:0:0:
311,276,23683,37,8,1:0:0:0:
385,287,23805,1,8,1:0:0:0:
439,232,23927,2,0,P|404:309|425:369,1,150.000005722046,6|8,1:0|1:0,0:0:0:0:
484,321,24293,2,0,L|490:162,1,150.000005722046,2|0,0:1|1:1,0:0:0:0:
433,120,24659,1,10,1:0:0:0:
433,120,24781,2,0,L|270:113,1,150.000005722046,0|2,0:0|1:0,0:0:0:0:
208,124,25147,2,0,L|209:224,1,75.0000028610231,8|2,1:0|1:0,0:0:0:0:
163,259,25391,2,0,L|165:350,1,75.0000028610231,2|0,0:1|1:0,0:0:0:0:
96,221,25634,5,8,1:0:0:0:
96,221,25756,1,2,1:0:0:0:
96,221,25878,2,0,L|97:58,1,150.000005722046,0|8,1:0|1:0,0:0:0:0:
154,21,26244,2,0,P|238:22|351:42,1,150.000005722046,2|2,1:0|0:1,0:0:0:0:
378,21,26610,2,0,B|344:72|344:72|355:172,1,150.000005722046,8|0,1:0|0:0,0:0:0:0:
309,221,26976,1,2,0:1:0:0:
358,277,27098,1,8,1:0:0:0:
351,351,27220,1,2,1:1:0:0:
277,363,27342,1,0,0:0:0:0:
240,297,27464,1,2,1:1:0:0:
167,314,27586,5,8,1:0:0:0:
167,314,27708,1,2,1:1:0:0:
167,314,27830,2,0,P|142:248|163:124,1,150.000005722046,6|8,1:0|1:0,0:0:0:0:
209,130,28195,2,0,P|107:138|56:115,1,150.000005722046,2|0,0:1|0:0,0:0:0:0:
4,166,28561,1,8,1:0:0:0:
46,228,28683,2,0,L|57:363,1,75.0000028610231,2|0,1:0|0:0,0:0:0:0:
32,28,29049,6,0,L|109:23,1,75.0000028610231,8|0,1:0|1:0,0:0:0:0:
173,58,29293,2,0,L|264:62,1,75.0000028610231,0|0,0:0|1:0,0:0:0:0:
314,25,29537,1,8,1:0:0:0:
387,37,29659,1,0,1:0:0:0:
460,53,29781,2,0,P|458:139|442:269,1,200,4|2,0:0|0:0,0:0:0:0:
359,303,30512,2,0,L|287:308,1,50,2|2,0:0|0:0,0:0:0:0:
227,248,30878,2,0,L|166:243,1,50,2|2,0:0|0:0,0:0:0:0:
90,294,31244,1,2,0:0:0:0:
97,107,31488,6,0,L|92:144,1,25,4|0,0:0|0:0,0:0:0:0:
97,107,31732,6,0,P|162:102|231:108,1,100,4|10,0:2|0:0,0:0:0:0:
236,134,32098,2,0,P|313:132|362:127,1,100,0|0,0:0|0:0,0:0:0:0:
385,118,32464,1,10,0:0:0:0:
382,167,32586,1,0,0:0:0:0:
379,216,32708,1,0,0:0:0:0:
375,265,32830,1,0,0:0:0:0:
397,309,32952,6,0,L|331:300,1,50,10|0,0:0|0:0,0:0:0:0:
276,267,33195,2,0,L|209:273,1,50
153,320,33439,37,10,0:0:0:0:
153,320,33561,1,0,0:0:0:0:
153,320,33683,2,0,P|143:252|146:200,1,100,2|10,0:2|0:0,0:0:0:0:
172,179,34049,2,0,P|177:115|173:67,1,100,2|0,0:2|0:0,0:0:0:0:
143,39,34415,1,10,0:0:0:0:
92,39,34537,1,0,0:0:0:0:
52,70,34659,1,0,0:0:0:0:
54,119,34781,1,0,0:0:0:0:
93,149,34903,2,0,L|76:216,1,50,10|0,0:0|0:0,0:0:0:0:
159,242,35147,2,0,L|161:302,1,50,0|0,0:0|0:0,0:0:0:0:
254,308,35391,2,0,L|266:358,1,50,10|0,0:0|0:0,0:0:0:0:
403,341,35634,6,0,P|398:272|306:227,1,150,4|10,0:2|0:0,0:0:0:0:
286,223,36122,1,0,0:0:0:0:
246,191,36244,1,0,0:0:0:0:
249,141,36366,1,10,0:0:0:0:
284,105,36488,1,0,0:0:0:0:
333,101,36610,2,0,L|394:115,1,50,0|0,0:0|0:0,0:0:0:0:
482,59,36854,2,0,L|419:46,1,50,10|0,0:0|0:0,0:0:0:0:
333,25,37098,2,0,P|269:26|208:41,1,100,0|10,0:0|0:0,0:0:0:0:
78,23,37586,6,0,P|92:121|89:157,1,100,2|10,0:2|0:0,0:0:0:0:
55,156,37952,2,0,P|60:206|81:287,1,100,2|0,0:2|0:0,0:0:0:0:
108,287,38317,1,10,0:0:0:0:
156,273,38439,1,0,0:0:0:0:
205,270,38561,1,0,0:0:0:0:
254,277,38683,1,0,0:0:0:0:
289,311,38805,1,10,0:0:0:0:
330,283,38927,1,0,0:0:0:0:
379,285,39049,2,0,P|426:246|443:177,1,100,0|10,0:0|0:0,0:0:0:0:
402,98,39415,5,0,0:0:0:0:
402,98,39537,2,0,P|338:111|275:104,1,100,4|10,0:2|0:0,0:0:0:0:
229,66,39903,1,0,0:0:0:0:
229,66,40025,2,0,P|197:120|159:148,1,100,0|10,0:0|0:0,0:0:0:0:
118,145,40391,1,0,0:0:0:0:
98,190,40512,2,0,L|101:243,1,50,0|0,0:0|0:0,0:0:0:0:
203,316,40756,2,0,L|268:313,1,50,10|0,0:0|0:0,0:0:0:0:
350,234,41000,2,0,L|344:124,1,100,0|10,0:0|0:0,0:0:0:0:
473,196,41488,38,0,L|478:334,1,100,2|10,0:2|0:0,0:0:0:0:
402,327,41854,1,0,0:0:0:0:
402,327,41976,2,0,L|398:227,1,100,2|10,0:2|0:0,0:0:0:0:
324,205,42342,1,0,0:0:0:0:
324,205,42464,2,0,L|327:304,1,100,2|10,0:2|0:0,0:0:0:0:
289,338,42830,1,0,0:0:0:0:
244,360,42952,2,0,L|191:361,1,50,0|0,0:0|0:0,0:0:0:0:
129,311,43195,2,0,L|70:315,1,50,10|0,0:0|0:0,0:0:0:0:
20,205,43439,6,0,L|161:201,1,100,4|10,0:2|0:0,0:0:0:0:
167,219,43805,2,0,P|153:160|166:90,1,100,0|0,0:0|0:0,0:0:0:0:
186,80,44171,1,10,0:0:0:0:
235,72,44293,1,0,0:0:0:0:
276,100,44415,2,0,L|283:160,1,50,0|0,0:0|0:0,0:0:0:0:
363,225,44659,2,0,L|357:172,1,50,10|0,0:0|0:0,0:0:0:0:
441,82,44903,2,0,L|452:207,1,100,0|10,0:0|0:0,0:0:0:0:
485,254,45269,1,0,0:0:0:0:
429,343,45391,5,8,0:0:0:0:
357,302,45512,2,0,L|173:316,1,150,12|8,0:1|0:0,0:0:0:0:
207,313,46244,2,0,L|202:254,3,50,8|10|8|8,0:1|0:0|0:1|0:0,0:0:0:0:
131,227,46854,1,8,0:1:0:0:
144,178,46976,1,8,0:0:0:0:
158,129,47098,1,8,0:1:0:0:
115,58,47342,6,0,P|179:57|259:66,1,120,8|8,0:0|0:2,0:0:0:0:
275,128,47830,2,0,P|353:122|380:119,1,80,8|12,0:2|0:2,0:0:0:0:
354,121,48561,37,0,0:2:0:0:
342,203,48805,1,2,0:2:0:0:
329,282,49049,1,2,0:2:0:0:
265,329,49293,6,0,B|183:316|196:367|113:352,1,150,4|10,0:2|0:0,0:0:0:0:
76,329,49781,1,0,0:0:0:0:
64,280,49903,1,0,0:0:0:0:
100,245,50025,1,10,0:0:0:0:
86,196,50147,1,0,0:0:0:0:
113,153,50269,2,0,L|98:98,1,50,0|0,0:0|0:0,0:0:0:0:
196,163,50512,2,0,L|201:108,1,50,10|0,0:0|0:0,0:0:0:0:
262,214,50756,2,0,L|298:104,1,100,0|10,0:0|0:0,0:0:0:0:
389,92,51122,5,0,0:0:0:0:
389,92,51244,2,0,P|413:92|448:108,1,50,2|0,0:2|0:0,0:0:0:0:
363,170,51488,1,10,0:0:0:0:
363,170,51610,2,0,P|385:225|373:273,1,100,2|0,0:2|0:0,0:0:0:0:
292,315,51976,2,0,P|234:301|206:256,1,100,10|0,0:0|0:0,0:0:0:0:
66,46,52464,6,0,L|59:121,1,50,10|0,0:0|0:0,0:0:0:0:
140,123,52708,2,0,L|197:127,1,50,0|0,0:0|0:0,0:0:0:0:
271,103,52952,2,0,L|272:46,1,50,10|0,0:0|0:0,0:0:0:0:
166,201,53195,38,0,L|155:320,1,100,4|0,0:2|0:0,0:0:0:0:
263,338,53561,1,10,0:0:0:0:
263,338,53683,2,0,L|259:227,1,100,2|10,0:2|0:0,0:0:0:0:
360,189,54049,1,0,0:0:0:0:
360,189,54171,2,0,L|356:300,1,100,2|10,0:2|0:0,0:0:0:0:
421,345,54537,1,0,0:0:0:0:
421,345,54659,1,2,0:2:0:0:
467,119,54903,5,10,0:0:0:0:
467,119,55025,1,0,0:0:0:0:
467,119,55147,2,0,L|360:110,1,100,4|0,0:2|0:0,0:0:0:0:
318,120,55512,1,10,0:0:0:0:
268,116,55634,1,0,0:0:0:0:
233,79,55756,1,0,0:0:0:0:
183,82,55878,1,10,0:0:0:0:
144,113,56000,1,0,0:0:0:0:
144,113,56122,2,0,L|156:181,1,50,0|0,0:0|0:0,0:0:0:0:
91,225,56366,2,0,L|106:297,1,50,10|0,0:0|0:0,0:0:0:0:
171,325,56610,2,0,L|224:317,1,50,0|0,0:0|0:0,0:0:0:0:
275,256,56854,2,0,L|262:197,1,50,10|0,0:0|0:0,0:0:0:0:
355,276,57098,6,0,L|379:399,2,100,2|10|2,0:2|0:0|0:2,0:0:0:0:
387,237,57708,1,0,0:0:0:0:
375,188,57830,1,10,0:0:0:0:
408,150,57952,1,0,0:0:0:0:
455,164,58073,1,2,0:2:0:0:
497,137,58195,1,0,0:0:0:0:
499,87,58317,1,10,0:0:0:0:
464,51,58439,1,0,0:0:0:0:
414,57,58561,2,0,P|337:62|267:62,1,100,0|8,0:0|0:0,0:0:0:0:
190,41,58927,5,0,0:2:0:0:
214,47,59049,2,0,P|220:108|210:187,1,100,12|8,0:2|0:0,0:0:0:0:
106,193,59415,2,0,P|104:251|123:319,1,100,12|8,0:2|0:0,0:0:0:0:
191,325,59781,1,12,0:2:0:0:
240,321,59903,1,0,0:0:0:0:
289,317,60025,1,8,0:0:0:0:
381,354,60269,1,8,0:0:0:0:
436,271,60512,1,8,0:0:0:0:
347,225,60756,1,8,0:0:0:0:
389,129,61000,37,4,0:2:0:0:
389,129,61122,1,8,0:0:0:0:
282,70,61366,1,8,0:0:0:0:
282,70,61488,1,8,0:0:0:0:
456,53,61732,6,0,L|460:123,1,50,8|8,0:2|0:0,0:0:0:0:
270,199,61976,2,0,L|270:137,1,50,8|8,0:0|0:0,0:0:0:0:
365,53,62220,1,8,0:2:0:0:
376,152,62464,5,8,0:0:0:0:
382,201,62586,1,8,0:1:0:0:
410,242,62708,1,8,0:0:0:0:
415,291,62830,1,8,0:1:0:0:
415,291,62952,2,0,L|343:299,1,50,0|0,1:0|0:0,0:0:0:0:
292,268,63195,2,0,L|227:273,1,50,0|0,1:0|0:0,0:0:0:0:
153,341,63439,2,0,L|208:338,3,50,0|0|0|0,1:0|0:0|1:0|0:0,0:0:0:0:
143,350,63927,2,0,L|141:278,1,50,0|0,1:0|0:0,0:0:0:0:
208,191,64171,5,0,1:0:0:0:
233,147,64293,1,0,0:0:0:0:
192,117,64415,1,0,1:0:0:0:
147,140,64537,1,8,0:1:0:0:
98,151,64659,1,0,1:0:0:0:
55,124,64781,1,8,0:1:0:0:
47,74,64903,6,0,P|118:42|191:55,1,150.000005722046,4|8,1:0|1:0,0:0:0:0:
256,83,65269,1,0,0:0:0:0:
326,58,65391,2,0,P|366:58|412:67,1,75.0000028610231,0|0,0:0|1:0,0:0:0:0:
452,118,65634,1,8,1:0:0:0:
435,191,65756,2,0,P|400:271|439:377,1,150.000005722046,0|0,0:0|0:0,0:0:0:0:
343,369,66122,5,8,1:0:0:0:
267,367,66244,1,0,1:0:0:0:
191,365,66366,1,0,0:0:0:0:
115,365,66488,1,0,1:0:0:0:
68,305,66610,5,8,1:0:0:0:
68,305,66732,1,0,1:0:0:0:
68,305,66854,2,0,B|61:171|138:227|130:92,1,225.000008583069,4|8,1:2|1:0,0:0:0:0:
130,96,67342,2,0,P|173:96|211:97,1,75.0000028610231,0|0,1:0|0:0,0:0:0:0:
262,145,67586,1,8,1:0:0:0:
323,101,67708,2,0,P|363:99|499:109,1,150.000005722046,0|0,1:0|0:0,0:0:0:0:
510,169,68073,2,0,P|501:208|497:253,1,75.0000028610231,8|0,1:0|1:0,0:0:0:0:
422,250,68317,2,0,P|427:294|427:334,1,75.0000028610231,0|0,0:0|1:0,0:0:0:0:
363,364,68561,37,8,1:0:0:0:
363,364,68683,1,0,1:0:0:0:
363,364,68805,2,0,P|277:353|196:353,1,150.000005722046,4|8,1:2|1:0,0:0:0:0:
157,301,69171,2,0,P|164:215|157:141,1,150.000005722046,0|0,0:0|1:0,0:0:0:0:
103,99,69537,1,8,1:0:0:0:
103,99,69659,2,0,P|202:98|264:104,1,150.000005722046,0|0,0:0|0:0,0:0:0:0:
293,166,70025,1,8,1:0:0:0:
367,174,70147,1,0,1:0:0:0:
429,132,70269,1,8,1:0:0:0:
416,58,70391,1,0,1:0:0:0:
349,25,70512,1,8,1:0:0:0:
322,95,70634,1,0,1:0:0:0:
293,166,70756,5,4,1:0:0:0:
311,238,70878,1,0,0:0:0:0:
333,309,71000,1,8,1:0:0:0:
355,380,71122,1,0,0:0:0:0:
355,380,71244,2,0,P|280:372|175:370,1,150.000005722046,0|8,1:0|1:0,0:0:0:0:
130,363,71610,2,0,B|131:279|176:296|172:207,1,150.000005722046,0|0,1:0|0:0,0:0:0:0:
143,151,71976,2,0,L|211:121,1,75.0000028610231,8|0,1:0|0:0,0:0:0:0:
266,173,72220,2,0,L|338:205,1,75.0000028610231,0|0,0:0|1:0,0:0:0:0:
238,258,72464,5,8,1:0:0:0:
172,221,72586,1,0,1:0:0:0:
101,247,72708,2,0,P|67:217|53:99,1,150.000005722046,4|8,1:0|1:0,0:0:0:0:
93,59,73073,1,0,0:0:0:0:
165,79,73195,2,0,P|236:85|323:66,1,150.000005722046,0|8,1:0|1:0,0:0:0:0:
386,51,73561,2,0,P|443:100|451:192,1,150.000005722046,0|0,1:0|0:0,0:0:0:0:
393,212,73927,1,8,1:0:0:0:
362,280,74049,1,0,1:0:0:0:
369,354,74171,1,0,0:0:0:0:
443,364,74293,1,0,1:0:0:0:
439,289,74415,5,8,1:0:0:0:
362,280,74537,1,0,1:0:0:0:
287,268,74659,2,0,L|202:285,1,75.0000028610231,4|0,1:0|0:0,0:0:0:0:
174,217,74903,2,0,L|281:194,1,75.0000028610231,8|0,1:0|0:0,0:0:0:0:
98,157,75147,38,0,L|101:343,1,150.000005722046,0|8,1:0|1:0,0:0:0:0:
362,280,75512,2,0,L|359:94,1,150.000005722046,8|8,1:0|1:0,0:0:0:0:
299,82,75878,6,0,L|220:84,1,75.0000028610231,8|0,1:0|0:0,0:0:0:0:
166,367,76122,2,0,L|252:363,1,75.0000028610231,8|0,1:0|0:0,0:0:0:0:
206,153,76366,2,0,L|126:177,1,75.0000028610231,8|0,1:0|0:0,0:0:0:0:
225,293,76610,2,0,L|306:270,1,75.0000028610231,4|0,1:0|0:0,0:0:0:0:
146,300,76854,6,0,L|88:232,1,75.0000028610231,0|8,1:0|1:0,0:0:0:0:
286,148,77098,2,0,L|339:215,1,75.0000028610231,0|8,1:0|1:0,0:0:0:0:
346,327,77342,2,0,L|274:372,1,75.0000028610231,0|8,1:0|1:0,0:0:0:0:
116,137,77586,2,0,L|195:98,1,75.0000028610231,8|0,1:0|1:0,0:0:0:0:
220,196,77830,5,8,1:0:0:0:
243,225,77952,1,0,1:0:0:0:
215,249,78073,1,8,1:0:0:0:
190,221,78195,1,0,1:0:0:0:
259,188,78317,37,8,1:0:0:0:
250,263,78439,1,0,1:0:0:0:
176,257,78561,2,0,L|183:175,1,75.0000028610231,4|0,1:0|0:0,0:0:0:0:
351,127,78805,2,0,L|332:300,2,150.000005722046,8|0|8,1:0|0:0|1:0,0:0:0:0:
418,92,79415,1,0,1:0:0:0:
493,90,79537,2,0,L|483:175,1,75.0000028610231,0|0,1:0|0:0,0:0:0:0:
431,218,79781,2,0,L|414:374,1,150.000005722046,8|0,1:0|1:0,0:0:0:0:
339,363,80147,1,0,0:0:0:0:
264,359,80269,1,8,1:0:0:0:
189,353,80391,1,0,0:0:0:0:
119,380,80512,6,0,P|119:297|141:215,1,150.000005722046,4|8,1:2|1:0,0:0:0:0:
205,205,80878,1,0,1:0:0:0:
273,173,81000,2,0,P|284:86|269:24,1,150.000005722046,0|8,1:0|1:0,0:0:0:0:
194,20,81366,1,0,0:0:0:0:
120,33,81488,1,0,1:0:0:0:
104,106,81610,1,0,0:0:0:0:
62,168,81732,1,8,1:0:0:0:
4,216,81854,1,0,0:0:0:0:
8,290,81976,2,0,P|34:333|56:351,1,75.0000028610231,0|0,1:0|1:0,0:0:0:0:
183,288,82220,2,0,P|152:259|120:243,1,75.0000028610231,8|0,1:0|1:0,0:0:0:0:
173,379,82464,6,0,P|261:373|310:319,1,150.000005722046,4|8,1:0|1:0,0:0:0:0:
314,257,82830,1,0,1:0:0:0:
372,210,82952,2,0,P|428:213|475:229,1,75.0000028610231,0|0,1:0|0:0,0:0:0:0:
480,284,83195,1,8,1:0:0:0:
480,284,83317,2,0,P|394:289|327:265,1,150.000005722046,0|0,1:0|1:0,0:0:0:0:
285,211,83683,1,8,1:0:0:0:
225,165,83805,1,0,0:0:0:0:
150,173,83927,2,0,P|104:176|49:168,1,75.0000028610231,0|0,1:0|0:0,0:0:0:0:
170,83,84171,5,8,1:0:0:0:
244,79,84293,1,0,0:0:0:0:
312,109,84415,2,0,P|400:116|464:102,1,150.000005722046,4|8,1:2|1:0,0:0:0:0:
490,172,84781,2,0,P|477:255|476:331,1,150.000005722046,4|0,1:2|1:0,0:0:0:0:
414,365,85147,1,8,1:0:0:0:
414,365,85269,1,0,0:0:0:0:
98,365,85512,37,0,1:0:0:0:
98,365,85634,1,8,1:0:0:0:
98,365,85756,1,0,0:0:0:0:
98,365,85878,2,0,L|102:265,1,75.0000028610231,8|0,1:0|0:0,0:0:0:0:
162,245,86122,1,0,1:0:0:0:
148,171,86244,1,8,1:0:0:0:
127,98,86366,2,0,B|214:88|214:88|252:118|252:118|351:108,1,225.000008583069,4|8,1:0|1:0,0:0:0:0:
411,81,86854,2,0,P|413:121|426:154,1,75.0000028610231,0|0,1:0|0:0,0:0:0:0:
370,204,87098,1,8,1:0:0:0:
295,197,87220,2,0,P|294:279|253:348,1,150.000005722046,0|0,0:0|0:0,0:0:0:0:
331,368,87586,5,8,1:0:0:0:
378,310,87708,1,0,0:0:0:0:
453,310,87830,1,0,1:0:0:0:
498,369,87952,1,0,1:0:0:0:
423,379,88073,5,8,1:0:0:0:
453,310,88195,1,0,0:0:0:0:
480,240,88317,2,0,P|477:195|459:159,1,75.0000028610231,4|0,1:2|0:0,0:0:0:0:
328,64,88561,1,8,1:0:0:0:
268,109,88683,1,0,1:0:0:0:
231,174,88805,2,0,P|231:236|284:328,1,150.000005722046,0|8,1:0|1:0,0:0:0:0:
411,331,89171,2,0,P|401:243|362:178,1,150.000005722046,0|0,1:0|0:0,0:0:0:0:
304,155,89537,5,8,1:0:0:0:
231,174,89659,1,0,1:0:0:0:
167,213,89781,1,0,1:0:0:0:
91,211,89903,1,0,0:0:0:0:
28,169,90025,2,0,L|70:100,1,75.0000028610231,8|0,1:0|0:0,0:0:0:0:
50,324,90269,37,4,1:0:0:0:
121,302,90391,2,0,L|210:335,1,75.0000028610231,2|8,0:0|1:0,0:0:0:0:
261,301,90634,1,2,0:0:0:0:
327,266,90756,2,0,L|417:296,1,75.0000028610231,8|2,1:0|0:0,0:0:0:0:
464,337,91000,5,8,1:0:0:0:
464,337,91122,2,0,L|464:149,1,150.000005722046,8|8,1:0|1:0,0:0:0:0:
464,112,91488,1,8,1:0:0:0:
464,36,91610,1,0,1:0:0:0:
388,35,91732,1,8,1:0:0:0:
312,35,91854,1,0,1:0:0:0:
235,42,91976,5,8,1:0:0:0:
235,42,92098,1,0,1:0:0:0:
235,42,92220,2,0,P|194:105|187:131,1,75.0000028610231,8|2,0:0|0:0,0:0:0:0:
221,205,92464,2,0,P|253:168|264:136,1,75.0000028610231,8|2,0:0|0:0,0:0:0:0:
147,178,92708,6,0,P|118:247|116:274,1,75.0000028610231,8|2,0:0|0:0,0:0:0:0:
240,335,92952,2,0,P|264:292|269:259,1,75.0000028610231,8|2,0:0|0:0,0:0:0:0:
157,347,93195,2,0,P|229:375|347:357,1,150.000005722046,4|8,1:0|1:0,0:0:0:0:
372,348,93561,1,0,1:0:0:0:
430,301,93683,1,8,1:0:0:0:
429,225,93805,1,0,1:0:0:0:
493,186,93927,1,8,1:0:0:0:
485,111,94049,1,8,1:0:0:0:
419,147,94171,38,0,B|343:143|354:193|265:189,1,150.000005722046,6|8,1:0|1:0,0:0:0:0:
224,242,94537,1,0,1:0:0:0:
150,257,94659,2,0,P|145:184|216:130,1,150.000005722046,2|10,0:1|1:0,0:0:0:0:
270,115,95025,2,0,L|286:278,1,150.000005722046,2|0,1:0|0:0,0:1:0:0:
272,338,95391,2,0,L|188:320,1,75.0000028610231,8|0,1:0|0:0,0:0:0:0:
345,318,95634,2,0,L|397:257,1,75.0000028610231,2|0,0:1|1:0,0:0:0:0:
252,358,95878,2,0,L|174:335,1,75.0000028610231,8|0,1:0|1:0,0:0:0:0:
104,359,96122,6,2,B|107:277|107:277|147:234|147:234|148:142,1,225.000008583069,4|0,1:2|1:0,0:1:0:0:
104,87,96610,2,0,P|160:95|202:90,1,75.0000028610231,2|0,0:1|0:0,0:0:0:0:
245,58,96854,2,0,P|351:58|427:78,2,150.000005722046,8|2|8,1:0|0:1|1:0,0:0:0:0:
241,133,97464,1,0,1:0:0:0:
268,202,97586,1,2,0:1:0:0:
228,265,97708,1,0,0:0:0:0:
268,327,97830,1,10,1:0:0:0:
340,307,97952,1,0,0:0:0:0:
337,232,98073,6,0,P|405:222|492:228,1,150.000005722046,6|8,1:0|1:0,0:0:0:0:
184,189,98561,2,0,P|107:191|29:210,1,150.000005722046,2|10,0:1|1:0,0:0:0:0:
5,276,98927,2,0,B|17:224|17:224|0:111,1,150.000005722046,0|2,1:0|0:1,0:0:0:0:
30,58,99293,1,8,1:0:0:0:
96,92,99415,1,2,1:1:0:0:
170,80,99537,1,0,0:0:0:0:
235,43,99659,1,0,1:1:0:0:
309,54,99781,1,10,1:0:0:0:
371,96,99903,1,0,0:1:0:0:
441,70,100025,22,0,L|418:240,2,150.000005722046,4|8|8,1:2|0:0|0:0,0:0:0:0:
343,188,100756,2,0,L|334:266,1,75.0000028610231,0|8,0:0|0:0,0:0:0:0:
203,336,101122,5,0,0:0:0:0:
203,336,101244,1,8,0:0:0:0:
207,261,101366,1,0,0:0:0:0:
217,186,101488,1,8,0:0:0:0:
227,111,101610,1,0,0:0:0:0:
159,77,101732,5,8,0:0:0:0:
148,151,101854,1,8,0:0:0:0:
135,224,101976,2,0,L|123:314,1,75.0000028610231,6|0,1:0|0:0,0:0:0:0:
279,347,102220,2,0,L|446:365,2,150.000005722046,8|2|10,1:0|0:1|1:0,0:0:0:0:
210,315,102830,2,0,L|122:333,1,75.0000028610231,0|2,1:1|0:1,0:0:0:0:
69,364,103073,1,0,0:0:0:0:
6,321,103195,2,0,P|8:276|18:244,1,75.0000028610231,8|0,1:0|0:0,0:0:0:0:
87,221,103439,1,2,0:1:0:0:
130,159,103561,1,0,1:0:0:0:
117,85,103683,2,0,P|113:41|98:13,1,75.0000028610231,8|0,1:0|1:0,0:0:0:0:
202,125,103927,6,2,P|287:100|402:116,1,150.000005722046,4|8,1:2|1:0,0:1:0:0:
222,275,104415,2,0,P|321:281|396:263,1,150.000005722046,2|10,0:1|1:0,0:0:0:0:
415,210,104781,2,0,B|400:267|400:267|416:368,1,150.000005722046,0|0,1:0|0:0,0:0:0:0:
489,366,105147,5,10,1:0:0:0:
492,291,105269,1,0,1:0:0:0:
492,215,105391,1,2,0:1:0:0:
454,150,105512,1,0,1:0:0:0:
458,75,105634,1,8,1:0:0:0:
461,0,105756,1,0,0:0:0:0:
391,27,105878,6,0,L|304:31,1,75.0000028610231,6|0,1:0|0:0,0:0:0:0:
261,83,106122,2,0,L|104:72,1,150.000005722046,8|2,1:0|0:1,0:0:0:0:
111,72,106610,2,0,L|114:154,1,75.0000028610231,10|2,1:0|0:1,0:0:0:0:
203,280,106976,37,0,0:0:0:0:
203,280,107098,1,10,1:0:0:0:
276,294,107220,1,0,0:0:0:0:
349,308,107342,1,2,0:1:0:0:
361,233,107464,1,0,0:0:0:0:
284,220,107586,5,8,1:0:0:0:
209,214,107708,1,0,0:0:0:0:
133,202,107830,2,0,L|55:193,1,75.0000028610231,0|8,0:0|0:0,0:0:0:0:
234,129,108195,2,0,L|320:139,1,75.0000028610231,0|8,0:0|0:0,0:0:0:0:
118,218,108561,6,0,L|40:209,1,75.0000028610231,0|8,0:0|0:0,0:0:0:0:
248,116,108805,2,0,L|334:126,1,75.0000028610231,0|8,0:0|0:0,0:0:0:0:
133,98,109171,5,8,0:0:0:0:
133,98,109293,2,0,L|145:22,1,75.0000028610231,8|0,0:0|0:0,0:0:0:0:
237,250,109537,2,0,L|222:333,1,75.0000028610231,8|0,0:0|0:0,0:0:0:0:
223,323,109781,6,0,P|283:325|333:339,1,100,4|10,0:2|0:0,0:0:0:0:
369,351,110147,2,0,P|357:299|363:234,1,100,0|0,0:0|0:0,0:0:0:0:
389,212,110512,1,10,0:0:0:0:
436,197,110634,1,0,0:0:0:0:
460,153,110756,1,0,0:0:0:0:
432,111,110878,1,0,0:0:0:0:
382,114,111000,1,10,0:0:0:0:
332,105,111122,1,0,0:0:0:0:
284,121,111244,2,0,L|227:120,1,50,0|0,0:0|0:0,0:0:0:0:
86,49,111488,5,10,0:0:0:0:
127,76,111610,1,0,0:0:0:0:
147,121,111732,2,0,P|167:176|172:228,1,100,2|10,0:2|0:0,0:0:0:0:
135,252,112098,2,0,P|180:286|241:302,1,100,0|0,0:0|0:0,0:0:0:0:
268,282,112464,1,10,0:0:0:0:
317,275,112586,1,0,0:0:0:0:
360,298,112708,1,0,0:0:0:0:
388,339,112830,1,0,0:0:0:0:
431,364,112952,5,10,0:0:0:0:
441,315,113073,1,0,0:0:0:0:
470,274,113195,2,0,L|461:223,1,50
393,197,113439,2,0,L|396:126,1,50,10|0,0:0|0:0,0:0:0:0:
422,71,113683,38,0,B|342:59|359:105|259:90,1,150,4|10,0:2|0:0,0:0:0:0:
218,43,114171,2,0,P|174:56|161:64,1,50,0|0,0:0|0:0,0:0:0:0:
125,125,114415,2,0,P|116:160|116:181,1,50,10|0,0:0|0:0,0:0:0:0:
184,225,114659,2,0,P|249:216|294:174,1,100,0|10,0:0|0:0,0:0:0:0:
101,296,115147,2,0,P|163:308|232:298,1,100,0|10,0:0|0:0,0:0:0:0:
467,267,115634,6,0,P|449:326|417:369,1,100,4|10,0:2|0:0,0:0:0:0:
378,347,116000,2,0,P|313:327|257:326,1,100,0|0,0:0|0:0,0:0:0:0:
234,344,116366,1,10,0:0:0:0:
200,306,116488,1,0,0:0:0:0:
218,259,116610,1,0,0:0:0:0:
259,231,116732,1,0,0:0:0:0:
276,184,116854,1,10,0:0:0:0:
259,136,116976,1,0,0:0:0:0:
222,102,117098,2,0,P|198:77|186:54,1,50,0|0,0:0|0:0,0:0:0:0:
391,93,117342,5,10,0:0:0:0:
365,135,117464,1,0,0:0:0:0:
371,184,117586,2,0,P|375:235|409:289,1,100,4|0,0:2|0:0,0:0:0:0:
446,291,117952,1,10,0:0:0:0:
458,339,118073,1,0,0:0:0:0:
419,370,118195,1,0,0:0:0:0:
370,356,118317,2,0,P|344:356|312:364,1,50,10|0,0:0|0:0,0:0:0:0:
249,316,118561,2,0,P|194:323|125:351,2,100,0|10|0,0:0|0:0|0:0,0:0:0:0:
280,276,119171,5,0,0:0:0:0:
277,226,119293,1,10,0:0:0:0:
233,200,119415,1,0,0:0:0:0:
187,221,119537,2,0,L|119:237,1,50,2|0,0:2|0:0,0:0:0:0:
37,208,119781,1,10,0:0:0:0:
37,157,119903,1,0,0:0:0:0:
63,114,120025,2,0,L|122:107,1,50,2|0,0:2|0:0,0:0:0:0:
253,152,120269,1,10,0:0:0:0:
253,101,120391,1,0,0:0:0:0:
227,58,120513,2,0,L|168:51,1,50,2|0,0:2|0:0,0:0:0:0:
301,25,120756,37,10,0:0:0:0:
350,34,120878,1,0,0:0:0:0:
399,43,121000,1,2,0:2:0:0:
448,52,121122,1,0,0:0:0:0:
467,98,121244,2,0,L|454:153,1,50,10|0,0:0|0:0,0:0:0:0:
375,211,121488,6,0,L|388:340,1,100,4|10,0:2|0:0,0:0:0:0:
348,344,121854,2,0,L|242:338,1,100,0|0,0:0|0:0,0:0:0:0:
209,305,122220,1,10,0:0:0:0:
158,305,122342,1,0,0:0:0:0:
122,340,122464,1,0,0:0:0:0:
76,361,122586,1,0,0:0:0:0:
28,345,122708,1,10,0:0:0:0:
20,295,122830,1,0,0:0:0:0:
45,252,122952,2,0,L|104:250,1,50,0|0,0:0|0:0,0:0:0:0:
168,212,123195,5,8,0:0:0:0:
168,212,123317,1,0,0:0:0:0:
168,212,123439,1,4,0:2:0:0:
168,212,123561,1,0,0:0:0:0:
324,278,123805,1,0,0:0:0:0:
324,278,123927,1,2,0:0:0:0:
324,278,124049,1,0,0:0:0:0:
278,180,124293,5,0,0:0:0:0:
278,180,124415,2,0,L|335:172,1,50,6|0,0:0|0:0,0:0:0:0:
367,75,124659,1,0,0:0:0:0:
318,63,124781,1,0,0:0:0:0:
270,78,124903,2,0,L|211:86,1,50,4|0,0:1|0:0,0:0:0:0:
161,136,125147,37,0,0:0:0:0:
161,136,125269,1,0,0:0:0:0:
161,136,125391,2,0,L|47:130,1,100,4|0,0:1|0:0,0:0:0:0:
61,130,125756,2,0,L|68:291,1,150,0|4,0:0|0:0,0:0:0:0:
68,279,126610,6,0,L|146:267,1,50,8|0,0:0|0:0,0:0:0:0:
199,283,126854,2,0,L|263:309,1,50,0|0,0:0|0:0,0:0:0:0:
311,343,127098,2,0,L|353:404,1,50,8|0,0:0|0:0,0:0:0:0:
316,264,127342,6,0,L|442:285,1,100,2|10,0:2|0:0,0:0:0:0:
470,211,127708,1,0,0:0:0:0:
470,211,127830,2,0,L|358:193,1,100,2|10,0:2|0:0,0:0:0:0:
350,112,128195,1,0,0:0:0:0:
350,112,128317,2,0,L|448:127,1,100,2|10,0:2|0:0,0:0:0:0:
475,54,128683,1,0,0:0:0:0:
475,54,128805,1,2,0:2:0:0:
281,38,129049,5,10,0:0:0:0:
231,43,129171,1,0,0:0:0:0:
181,49,129293,2,0,P|176:82|183:109,1,50,4|0,0:2|0:0,0:0:0:0:
246,162,129537,1,10,0:0:0:0:
246,162,129659,2,0,P|248:203|241:223,1,50,0|0,0:0|0:0,0:0:0:0:
168,263,129903,1,0,0:0:0:0:
168,263,130025,2,0,P|166:304|196:368,1,100,10|0,0:0|0:0,0:0:0:0:
286,355,130391,37,0,0:0:0:0:
286,355,130512,2,0,L|306:294,1,50,10|0,0:0|0:0,0:0:0:0:
384,336,130756,2,0,L|386:279,1,50,0|0,0:0|0:0,0:0:0:0:
477,291,131000,2,0,L|456:232,1,50,10|0,0:0|0:0,0:0:0:0:
490,141,131244,6,0,B|433:144|433:144|401:170|401:170|339:176,1,150,4|10,0:2|0:0,0:0:0:0:
349,174,131732,2,0,L|356:233,1,50,4|0,0:2|0:0,0:0:0:0:
269,142,131976,2,0,L|276:205,1,50,10|0,0:0|0:0,0:0:0:0:
206,276,132220,2,0,L|152:264,1,50,4|0,0:2|0:0,0:0:0:0:
117,163,132464,2,0,L|180:103,1,50,10|0,0:0|0:0,0:0:0:0:
23,257,132708,6,0,L|43:386,1,100,2|10,0:2|0:0,0:0:0:0:
88,359,133073,1,0,0:0:0:0:
137,363,133195,2,0,L|159:252,1,100,4|10,0:2|0:0,0:0:0:0:
206,263,133561,1,0,0:0:0:0:
206,263,133683,2,0,L|270:269,1,50,0|0,0:0|0:0,0:0:0:0:
341,269,133927,1,10,0:0:0:0:
341,269,134049,2,0,L|457:242,1,100,0|0,0:0|0:0,0:0:0:0:
473,209,134415,5,10,0:0:0:0:
469,159,134537,1,0,0:0:0:0:
420,145,134659,1,0,0:0:0:0:
391,185,134781,1,0,0:0:0:0:
340,185,134903,1,10,0:0:0:0:
316,140,135025,1,0,0:0:0:0:
332,92,135147,2,0,P|381:62|440:68,2,100,2|10|2,0:2|0:0|0:2,0:0:0:0:
105,125,135878,37,10,0:0:0:0:
105,125,136000,1,0,0:0:0:0:
105,125,136122,2,0,L|129:190,1,50,2|2,0:2|0:2,0:0:0:0:
189,217,136366,2,0,L|180:276,1,50,10|2,0:0|0:2,0:0:0:0:
102,350,136610,2,0,L|91:237,1,100,2|10,0:2|0:0,0:0:0:0:
287,247,137098,6,0,P|339:243|416:259,1,100,4|8,0:2|0:0,0:0:0:0:
428,276,137464,1,0,0:0:0:0:
471,301,137586,2,0,P|465:243|471:188,2,100,0|8|8,0:0|0:0|0:0,0:0:0:0:
356,38,138317,6,0,L|409:62,1,50,8|0,0:0|0:0,0:0:0:0:
283,131,138561,2,0,L|281:67,1,50,8|0,0:1|0:0,0:0:0:0:
413,153,138805,2,0,L|365:178,1,50,8|0,0:1|0:0,0:0:0:0:
267,247,139049,6,0,L|137:243,1,100,4|0,0:2|0:0,0:0:0:0:
167,243,139415,1,0,0:0:0:0:
167,243,139537,1,8,0:1:0:0:
167,243,139659,1,0,0:0:0:0:
167,243,139781,1,8,0:1:0:0:
92,112,140025,37,8,0:1:0:0:
135,137,140147,1,0,0:0:0:0:
183,126,140269,1,8,0:1:0:0:
215,87,140391,1,0,0:1:0:0:
250,51,140512,1,0,1:0:0:0:
286,84,140634,1,8,0:1:0:0:
302,131,140756,1,0,1:0:0:0:
288,179,140878,1,8,0:1:0:0:
252,212,141000,54,0,P|272:283|341:328,1,150.000005722046,4|8,1:0|1:0,0:0:0:0:
404,305,141366,1,0,0:0:0:0:
459,254,141488,2,0,P|443:180|381:134,1,150.000005722046,0|8,0:0|1:0,0:0:0:0:
311,141,141854,1,0,0:0:0:0:
270,77,141976,2,0,P|223:79|177:89,1,75.0000028610231,0|0,0:0|0:0,0:0:0:0:
139,135,142220,2,0,P|122:166|114:220,1,75.0000028610231,8|0,1:0|1:0,0:0:0:0:
171,259,142464,1,0,0:0:0:0:
241,286,142586,1,0,1:0:0:0:
294,233,142708,1,8,1:0:0:0:
225,202,142830,1,0,1:0:0:0:
171,259,142952,6,0,P|186:341|279:344,1,150.000005722046,4|8,1:2|1:0,0:0:0:0:
313,336,143317,1,0,0:0:0:0:
366,283,143439,2,0,P|419:269|470:271,1,75.0000028610231,0|0,1:0|0:0,0:0:0:0:
485,208,143683,1,8,1:0:0:0:
412,187,143805,2,0,P|337:167|286:108,1,150.000005722046,0|0,1:0|1:0,0:0:0:0:
327,49,144171,5,8,1:0:0:0:
254,29,144293,1,0,1:0:0:0:
200,82,144415,1,8,1:0:0:0:
129,55,144537,1,0,1:0:0:0:
77,109,144659,1,8,1:0:0:0:
9,75,144781,1,0,1:0:0:0:
9,150,144903,38,0,B|64:272|-28:248|24:376,1,225.000008583069,4|8,1:0|1:0,0:0:0:0:
20,367,145391,2,0,P|69:354|104:349,1,75.0000028610231,0|0,1:0|0:0,0:0:0:0:
153,305,145634,1,8,1:0:0:0:
222,334,145756,2,0,P|278:340|377:318,1,150.000005722046,0|0,0:0|0:0,0:0:0:0:
369,321,146122,2,0,P|353:266|343:247,1,75.0000028610231,8|0,1:0|1:0,0:0:0:0:
300,190,146366,2,0,P|306:142|317:117,1,75.0000028610231,0|0,0:0|1:0,0:0:0:0:
388,96,146610,1,8,1:0:0:0:
460,113,146732,1,0,1:0:0:0:
472,186,146854,6,0,P|460:268|470:363,1,150.000005722046,4|8,1:2|1:0,0:0:0:0:
392,359,147220,2,0,P|311:342|228:337,1,150.000005722046,0|0,1:0|0:0,0:0:0:0:
173,365,147586,1,8,1:0:0:0:
173,365,147708,2,0,B|198:319|198:319|194:205,1,150.000005722046,0|0,1:0|0:0,0:0:0:0:
240,161,148073,5,8,1:0:0:0:
312,180,148195,1,0,0:0:0:0:
371,134,148317,1,0,0:0:0:0:
365,59,148439,1,0,1:0:0:0:
293,36,148561,1,8,1:0:0:0:
233,81,148683,1,0,1:0:0:0:
153,59,148805,5,4,1:0:0:0:
165,132,148927,1,0,0:0:0:0:
178,205,149049,1,8,1:0:0:0:
198,284,149171,1,0,0:0:0:0:
198,284,149293,2,0,L|354:276,1,150.000005722046,0|8,1:0|1:0,0:0:0:0:
379,358,149659,2,0,L|221:364,1,150.000005722046,0|0,1:0|0:0,0:0:0:0:
153,357,150025,37,8,1:0:0:0:
111,294,150147,1,0,0:0:0:0:
71,230,150269,2,0,L|95:147,1,75.0000028610231,0|0,0:0|1:0,0:0:0:0:
70,77,150512,1,8,1:0:0:0:
145,75,150634,1,0,1:0:0:0:
220,76,150756,2,0,L|398:79,1,150.000005722046,4|8,1:0|1:0,0:0:0:0:
434,118,151122,5,0,0:0:0:0:
387,177,151244,2,0,L|405:256,1,75.0000028610231,0|0,1:0|0:0,0:0:0:0:
345,297,151488,1,8,1:0:0:0:
281,351,151610,2,0,L|246:186,1,150.000005722046,8|8,1:0|1:0,0:0:0:0:
185,164,151976,1,8,1:0:0:0:
110,153,152098,1,0,0:0:0:0:
74,218,152220,1,8,1:0:0:0:
147,234,152342,1,0,0:0:0:0:
185,164,152464,5,8,1:0:0:0:
218,96,152586,1,0,0:0:0:0:
252,29,152708,2,0,P|306:28|341:34,1,75.0000028610231,4|0,1:0|0:0,0:0:0:0:
371,106,152952,2,0,P|321:106|288:101,1,75.0000028610231,0|8,1:0|1:0,0:0:0:0:
236,236,153195,6,0,P|323:244|401:237,1,150.000005722046,0|0,1:0|1:0,0:0:0:0:
392,312,153561,2,0,P|293:321|227:309,1,150.000005722046,8|0,1:0|1:0,0:0:0:0:
171,290,153927,2,0,P|171:325|176:369,1,75.0000028610231,8|0,1:0|0:0,0:0:0:0:
74,305,154171,2,0,P|84:262|85:227,1,75.0000028610231,8|0,1:0|0:0,0:0:0:0:
44,167,154415,2,0,P|55:131|73:98,1,75.0000028610231,8|0,1:0|0:0,0:0:0:0:
182,104,154659,38,0,P|255:74|336:88,1,150.000005722046,4|8,1:2|1:0,0:0:0:0:
365,145,155025,1,0,1:0:0:0:
434,116,155147,1,0,1:0:0:0:
393,52,155269,1,0,1:0:0:0:
323,82,155391,2,0,L|364:145,1,75.0000028610231,8|0,1:0|1:0,0:0:0:0:
422,191,155634,5,0,1:0:0:0:
407,264,155756,1,8,1:0:0:0:
355,318,155878,2,0,L|277:326,1,75.0000028610231,8|8,1:0|1:0,0:0:0:0:
191,245,156122,2,0,L|280:238,1,75.0000028610231,0|8,1:0|1:0,0:0:0:0:
194,333,156366,5,8,1:0:0:0:
119,324,156488,1,0,1:0:0:0:
59,278,156610,2,0,B|56:189|104:221|99:117,1,150.000005722046,4|8,1:0|1:0,0:0:0:0:
77,64,156976,1,0,1:0:0:0:
150,79,157098,2,0,P|207:85|232:85,1,75.0000028610231,0|0,1:0|0:0,0:0:0:0:
291,49,157342,2,0,P|318:49|370:54,1,75.0000028610231,8|0,1:0|0:0,0:0:0:0:
443,131,157586,2,0,P|457:176|457:207,1,75.0000028610231,0|0,1:0|0:0,0:0:0:0:
352,224,157830,2,0,P|341:182|344:142,1,75.0000028610231,8|0,1:0|0:0,0:0:0:0:
412,290,158073,5,0,1:0:0:0:
341,314,158195,1,0,1:0:0:0:
270,289,158317,1,8,1:0:0:0:
251,216,158439,1,0,1:0:0:0:
251,216,158561,2,0,P|176:220|76:273,1,150.000005722046,4|8,1:2|1:0,0:0:0:0:
33,231,158927,37,0,1:0:0:0:
51,158,159049,2,0,P|143:123|217:110,1,150.000005722046,0|8,1:0|1:0,0:0:0:0:
265,133,159415,1,0,1:0:0:0:
340,133,159537,1,0,0:0:0:0:
379,69,159659,1,0,1:0:0:0:
452,55,159781,1,8,1:0:0:0:
506,106,159903,1,0,0:0:0:0:
493,180,160025,2,0,L|465:265,1,75.0000028610231,0|0,1:0|0:0,0:0:0:0:
367,291,160269,2,0,L|398:198,1,75.0000028610231,8|0,1:0|0:0,0:0:0:0:
287,256,160512,6,0,L|111:288,1,150.000005722046,4|8,1:0|1:0,0:0:0:0:
79,329,160878,1,0,1:0:0:0:
66,254,161000,2,0,P|41:185|51:108,1,150.000005722046,0|8,1:0|1:0,0:0:0:0:
103,56,161366,2,0,L|260:29,1,150.000005722046,0|0,0:0|1:0,0:0:0:0:
320,59,161732,2,0,L|333:141,1,75.0000028610231,8|0,1:0|0:0,0:0:0:0:
250,191,161976,2,0,L|238:115,1,75.0000028610231,8|0,1:0|0:0,0:0:0:0:
329,219,162220,2,0,L|418:206,1,75.0000028610231,0|8,1:0|1:0,0:0:0:0:
322,301,162464,6,0,L|154:334,1,150.000005722046,4|8,1:2|1:0,0:0:0:0:
127,271,162830,2,0,P|201:217|286:244,1,150.000005722046,0|0,1:0|0:0,0:0:0:0:
329,219,163195,2,0,P|431:216|467:170,1,150.000005722046,8|0,1:0|0:0,0:0:0:0:
436,113,163561,5,0,0:0:0:0:
364,88,163683,1,8,1:0:0:0:
312,142,163805,1,0,0:0:0:0:
237,138,163927,1,0,1:0:0:0:
203,70,164049,1,0,0:0:0:0:
130,50,164171,1,8,1:0:0:0:
69,94,164293,1,0,0:0:0:0:
76,168,164415,2,0,P|95:226|67:339,1,150.000005722046,4|8,1:0|1:0,0:0:0:0:
149,347,164781,37,0,1:0:0:0:
188,283,164903,2,0,L|271:289,1,75.0000028610231,0|0,1:0|0:0,0:0:0:0:
337,299,165147,1,8,1:0:0:0:
386,355,165269,2,0,L|402:191,1,150.000005722046,0|0,1:0|0:0,0:0:0:0:
459,159,165634,5,8,1:0:0:0:
389,130,165756,1,0,1:0:0:0:
323,166,165878,1,0,1:0:0:0:
251,189,166000,1,0,0:0:0:0:
189,146,166122,2,0,P|185:101|169:65,1,75.0000028610231,8|0,1:0|0:0,0:0:0:0:
45,106,166366,2,0,P|38:186|95:272,1,150.000005722046,4|8,1:2|1:0,0:0:0:0:
131,288,166732,5,8,1:0:0:0:
204,274,166854,1,0,1:0:0:0:
267,313,166976,1,8,1:0:0:0:
339,293,167098,1,8,1:0:0:0:
339,293,167220,2,0,B|341:211|388:229|387:143,1,150.000005722046,0|0,1:0|0:0,0:0:0:0:
317,93,167586,2,0,P|309:144|310:174,1,75.0000028610231,8|0,1:0|1:0,0:0:0:0:
461,174,167830,2,0,P|459:107|457:92,1,75.0000028610231,8|0,1:0|1:0,0:0:0:0:
306,19,168073,6,0,L|214:19,1,75.0000028610231,8|0,1:0|1:0,0:0:0:0:
156,32,168317,1,8,1:0:0:0:
109,90,168439,2,0,L|209:145,1,75.0000028610231,2|8,0:0|1:0,0:0:0:0:
241,161,168683,1,2,0:0:0:0:
270,230,168805,2,0,L|128:264,1,75.0000028610231,8|2,1:0|0:0,0:0:0:0:
131,285,169049,1,8,1:0:0:0:
175,346,169171,2,0,L|349:346,1,150.000005722046,8|0,1:0|0:0,0:0:0:0:
400,342,169537,37,8,1:0:0:0:
462,300,169659,1,0,1:0:0:0:
464,224,169781,1,8,1:0:0:0:
398,187,169903,1,0,1:0:0:0:
338,232,170025,1,8,1:0:0:0:
269,263,170147,1,0,1:0:0:0:
197,241,170269,2,0,P|151:220|124:199,1,75.0000028610231,8|0,0:0|0:0,0:0:0:0:
192,109,170512,2,0,P|240:133|261:150,1,75.0000028610231,8|0,0:0|0:0,0:0:0:0:
91,128,170756,2,0,L|128:50,1,75.0000028610231,8|0,0:0|0:0,0:0:0:0:
293,226,171000,2,0,L|255:324,1,75.0000028610231,8|0,0:0|0:0,0:0:0:0:
195,322,171244,6,0,L|33:254,1,150.000005722046,12|8,0:1|0:3,0:0:0:0:
34,191,171610,1,0,1:0:0:0:
87,138,171732,1,8,0:3:0:0:
82,63,171854,1,0,1:0:0:0:
139,14,171976,1,8,1:0:0:0:
196,69,172098,5,4,0:2:0:0:
178,144,172220,1,8,1:0:0:0:
84,187,183927,6,0,L|204:198,1,100,2|8,0:0|0:0,0:0:0:0:
229,175,184659,1,2,0:0:0:0:
275,155,184903,2,0,L|395:166,1,100,2|8,0:0|0:0,0:0:0:0:
420,144,185634,1,2,0:0:0:0:
484,68,185878,2,0,P|498:124|498:161,2,75,4|2|2,0:0|0:0|0:0,0:0:0:0:
484,68,187098,1,4,0:3:0:0:
438,89,187342,2,0,L|343:81,1,75,4|0,0:0|0:0,0:0:0:0:
332,61,187830,6,0,L|336:134,1,50,4|0,0:1|0:0,0:0:0:0:
316,128,188195,2,0,L|320:183,1,50,2|0,0:0|0:0,0:0:0:0:
307,199,188561,2,0,L|312:260,1,50,2|0,0:0|0:0,0:0:0:0:
384,296,189049,1,4,0:3:0:0:
384,296,189293,1,2,0:0:0:0:
384,296,189537,1,2,0:0:0:0:
259,327,189781,6,0,L|186:331,1,50,4|0,0:0|0:0,0:0:0:0:
192,311,190147,2,0,L|137:315,1,50,2|0,0:0|0:0,0:0:0:0:
121,302,190512,2,0,L|60:307,1,50,2|0,0:0|0:0,0:0:0:0:
13,258,191000,1,4,0:3:0:0:
13,258,191244,1,4,0:0:0:0:
13,258,191488,1,8,0:0:0:0:
81,218,191732,6,0,L|77:145,1,50,4|0,0:0|0:0,0:0:0:0:
97,151,192098,2,0,L|93:96,1,50,2|0,0:0|0:0,0:0:0:0:
106,80,192464,2,0,L|101:19,1,50,2|2,0:0|0:0,0:0:0:0:
173,2,192952,1,4,0:3:0:0:
244,32,193195,1,8,0:0:0:0:
312,66,193439,1,4,0:0:0:0:
305,178,193683,38,0,L|306:219,1,25,2|0,0:0|0:0,0:0:0:0:
463,244,193927,2,0,L|461:200,1,25,2|0,0:0|0:0,0:0:0:0:
384,192,194171,2,0,L|380:260,1,50,2|0,0:0|0:0,0:0:0:0:
231,356,194781,5,8,3:0:0:0:
231,356,194903,2,0,L|230:285,1,50,4|8,0:3|0:0,0:0:0:0:
161,232,195391,5,2,0:0:0:0:
161,232,195634,2,0,L|79:242,2,75,4|0|0,0:0|0:0|0:0,0:0:0:0:
223,180,196610,2,0,L|284:183,1,50,8|4,0:0|0:3,0:0:0:0:
316,156,197098,2,0,L|384:162,1,50,2|2,0:0|0:0,0:0:0:0:
457,36,197586,6,0,P|449:77|445:131,2,75,4|0|0,0:0|0:0|0:0,0:0:0:0:
373,30,198805,2,0,L|300:36,1,50,4|2,0:3|0:0,0:0:0:0:
250,87,199293,1,8,0:3:0:0:
224,86,199415,1,0,0:0:0:0:
199,84,199537,2,0,P|140:99|125:106,2,75,4|4|4,0:0|0:0|0:0,0:0:0:0:
295,170,200512,37,0,0:0:0:0:
302,193,200634,1,0,0:0:0:0:
309,216,200756,1,4,0:3:0:0:
266,274,201000,1,2,0:0:0:0:
79,311,201244,1,8,0:3:0:0:
165,241,201488,6,0,L|167:278,1,25,2|2,0:0|0:0,0:0:0:0:
362,311,201854,2,0,L|360:270,1,25,2|2,0:0|0:0,0:0:0:0:
198,252,202220,6,0,L|199:277,1,25,2|2,0:0|0:0,0:0:0:0:
328,299,202586,2,0,L|327:272,1,25,0|4,0:0|0:3,0:0:0:0:
261,355,202952,1,4,0:0:0:0:
266,230,203195,1,2,0:0:0:0:
271,105,203439,1,2,0:0:0:0:
271,105,204293,6,0,L|375:114,1,100,8|0,3:0|3:0,0:0:0:0:
406,148,204659,1,8,3:0:0:0:
425,193,204781,1,8,3:0:0:0:
420,242,204903,1,8,3:0:0:0:
375,264,205025,1,0,3:0:0:0:
327,249,205147,1,8,3:0:0:0:
283,274,205269,1,8,3:0:0:0:
255,314,205391,6,0,P|188:328|115:269,1,150.000005722046,4|8,1:0|1:0,0:0:0:0:
116,210,205756,1,0,0:0:0:0:
160,149,205878,2,0,P|170:74|102:34,1,150.000005722046,0|8,1:0|1:0,0:0:0:0:
58,84,206244,1,0,0:0:0:0:
33,154,206366,1,0,1:0:0:0:
13,226,206488,1,0,1:0:0:0:
49,291,206610,1,8,1:0:0:0:
88,360,206732,1,0,1:0:0:0:
88,360,206854,2,0,L|170:346,1,75.0000028610231,0|8,1:0|0:1,0:0:0:0:
218,289,207098,2,0,L|298:287,1,75.0000028610231,0|8,1:0|0:1,0:0:0:0:
361,319,207342,6,0,P|403:242|366:178,1,150.000005722046,4|8,1:2|1:0,0:0:0:0:
309,163,207708,1,0,0:0:0:0:
234,170,207830,2,0,P|180:180|149:178,1,75.0000028610231,0|0,0:0|1:0,0:0:0:0:
102,131,208073,1,8,1:0:0:0:
51,75,208195,2,0,P|72:172|58:260,1,150.000005722046,0|0,0:0|0:0,0:0:0:0:
52,295,208561,1,8,1:0:0:0:
122,270,208683,1,0,1:0:0:0:
187,307,208805,1,0,1:0:0:0:
201,380,208927,1,0,1:0:0:0:
275,369,209049,5,8,1:0:0:0:
262,295,209171,1,0,1:0:0:0:
308,235,209293,2,0,B|399:230|365:264|461:258,1,150.000005722046,4|8,1:0|1:0,0:0:0:0:
503,200,209659,1,0,0:0:0:0:
477,129,209781,2,0,P|412:141|387:152,1,75.0000028610231,0|0,1:0|0:0,0:0:0:0:
329,155,210025,1,8,1:0:0:0:
257,131,210147,2,0,P|186:119|126:72,1,150.000005722046,0|0,1:0|0:0,0:0:0:0:
57,41,210512,38,0,P|49:99|44:119,1,75.0000028610231,8|0,1:0|1:0,0:0:0:0:
103,163,210756,2,0,P|107:204|116:245,1,75.0000028610231,0|0,0:0|1:0,0:0:0:0:
57,287,211000,2,0,P|50:344|43:370,1,75.0000028610231,8|0,1:0|1:0,0:0:0:0:
121,359,211244,6,0,P|203:338|291:352,1,150.000005722046,4|8,0:2|1:0,0:0:0:0:
341,360,211610,2,0,P|420:328|493:326,1,150.000005722046,0|0,0:0|1:0,0:0:0:0:
495,250,211976,2,0,P|418:245|388:236,1,75.0000028610231,8|0,1:0|0:0,0:0:0:0:
367,191,212220,2,0,P|320:181|233:130,1,150.000005722046,0|8,1:0|1:0,0:0:0:0:
219,55,212586,5,0,1:0:0:0:
294,53,212708,1,8,1:0:0:0:
355,95,212830,1,0,1:0:0:0:
427,112,212952,1,8,1:0:0:0:
490,72,213073,1,0,1:0:0:0:
428,28,213195,2,0,P|407:123|423:281,1,225.000008583069,4|8,1:0|1:0,0:0:0:0:
453,314,213683,6,0,P|402:329|372:349,1,75.0000028610231,0|0,1:0|0:0,0:0:0:0:
311,363,213927,1,8,1:0:0:0:
241,333,214049,2,0,P|223:262|285:202,1,150.000005722046,0|0,1:0|1:0,0:0:0:0:
343,196,214415,37,8,1:0:0:0:
360,123,214537,1,0,0:0:0:0:
301,76,214659,1,0,0:0:0:0:
237,115,214781,1,0,1:0:0:0:
163,131,214903,1,8,1:0:0:0:
97,94,215025,1,0,1:0:0:0:
23,107,215147,2,0,P|29:195|101:253,1,150.000005722046,4|8,1:0|1:0,0:0:0:0:
138,213,215512,5,0,0:0:0:0:
211,226,215634,2,0,P|244:248|274:278,1,75.0000028610231,0|0,1:0|0:0,0:0:0:0:
271,348,215878,1,8,1:0:0:0:
345,359,216000,2,0,P|409:293|396:211,1,150.000005722046,0|0,1:0|0:0,0:0:0:0:
341,205,216366,5,8,1:0:0:0:
308,137,216488,1,0,1:0:0:0:
341,69,216610,1,0,0:0:0:0:
291,12,216732,1,0,1:0:0:0:
218,32,216854,1,8,1:0:0:0:
203,105,216976,1,0,1:0:0:0:
235,172,217098,2,0,B|227:249|286:232|274:328,1,150.000005722046,4|8,1:0|1:0,0:0:0:0:
337,355,217464,5,0,0:0:0:0:
399,314,217586,2,0,P|397:277|406:237,1,75.0000028610231,0|0,1:0|0:0,0:0:0:0:
455,183,217830,1,8,1:0:0:0:
427,113,217952,2,0,P|345:128|271:94,1,150.000005722046,8|8,1:0|1:0,0:0:0:0:
238,45,218317,38,0,P|191:53|155:63,1,75.0000028610231,8|0,1:0|0:0,0:0:0:0:
109,150,218561,2,0,P|142:169|178:184,1,75.0000028610231,8|0,1:0|0:0,0:0:0:0:
273,203,218805,2,0,P|292:149|295:119,1,75.0000028610231,8|0,1:0|0:0,0:0:0:0:
210,263,219049,6,0,P|307:290|401:279,1,150.000005722046,4|0,1:0|1:0,0:0:0:0:
407,233,219415,1,8,1:0:0:0:
481,222,219537,2,0,L|466:319,1,75.0000028610231,0|8,1:0|1:0,0:0:0:0:
367,371,219781,5,0,1:0:0:0:
292,360,219903,1,8,1:0:0:0:
217,350,220025,1,8,1:0:0:0:
142,337,220147,1,0,1:0:0:0:
67,324,220269,2,0,P|51:291|48:243,1,75.0000028610231,8|0,1:0|1:0,0:0:0:0:
170,150,220512,2,0,P|193:172|220:207,1,75.0000028610231,8|0,1:0|1:0,0:0:0:0:
131,265,220756,1,8,1:0:0:0:
131,265,221000,6,0,L|75:122,1,150.000005722046,4|8,1:0|1:0,0:0:0:0:
98,52,221366,1,0,1:0:0:0:
170,72,221488,2,0,P|219:68|333:26,1,150.000005722046,0|8,0:0|1:0,0:0:0:0:
389,46,221854,1,0,1:0:0:0:
449,90,221976,1,0,1:0:0:0:
422,160,222098,1,0,0:0:0:0:
348,176,222220,2,0,P|309:192|281:219,1,75.0000028610231,8|0,1:0|0:0,0:0:0:0:
310,316,222464,2,0,P|355:300|377:277,1,75.0000028610231,0|0,1:0|0:0,0:0:0:0:
436,238,222708,37,8,1:0:0:0:
422,160,222830,1,0,0:0:0:0:
368,107,222952,2,0,B|283:98|296:143|204:129,1,150.000005722046,4|8,1:2|1:0,0:0:0:0:
150,107,223317,1,0,1:0:0:0:
89,151,223439,2,0,P|94:242|137:328,1,150.000005722046,0|8,1:0|1:0,0:0:0:0:
185,324,223805,1,0,0:0:0:0:
240,273,223927,2,0,L|331:265,1,75.0000028610231,0|0,1:0|0:0,0:0:0:0:
365,343,224171,2,0,L|287:349,1,75.0000028610231,8|0,1:0|0:0,0:0:0:0:
185,324,224415,5,0,1:0:0:0:
172,250,224537,1,0,1:0:0:0:
222,194,224659,1,8,1:0:0:0:
296,199,224781,1,0,1:0:0:0:
342,257,224903,2,0,P|397:214|392:112,1,150.000005722046,4|8,1:0|1:0,0:0:0:0:
337,105,225269,1,0,1:0:0:0:
270,70,225391,2,0,B|180:70|201:106|116:97,1,150.000005722046,0|8,1:0|1:0,0:0:0:0:
66,50,225756,2,0,B|95:121|95:121|79:222,1,150.000005722046,0|0,1:0|1:0,0:0:0:0:
66,267,226122,6,0,P|103:263|141:264,1,75.0000028610231,8|0,1:0|0:0,0:0:0:0:
216,267,226366,2,0,P|251:272|294:282,1,75.0000028610231,0|0,1:0|0:0,0:0:0:0:
360,305,226610,2,0,P|405:321|430:336,1,75.0000028610231,8|0,1:0|0:0,0:0:0:0:
498,306,226854,6,0,B|509:231|455:242|469:152,1,150.000005722046,4|8,1:2|1:0,0:0:0:0:
449,89,227220,2,0,L|274:107,1,150.000005722046,0|0,1:0|1:0,0:0:0:0:
249,160,227586,2,0,L|80:155,1,150.000005722046,8|0,1:0|0:0,0:0:0:0:
32,118,227952,37,0,1:0:0:0:
4,187,228073,1,8,1:0:0:0:
41,251,228195,1,0,0:0:0:0:
116,252,228317,2,0,L|280:257,1,150.000005722046,8|0,1:0|1:0,0:0:0:0:
319,310,228683,5,8,1:0:0:0:
393,316,228805,2,0,P|422:234|388:161,1,150.000005722046,4|8,1:0|1:0,0:0:0:0:
328,158,229171,1,0,1:0:0:0:
286,95,229293,2,0,P|291:60|281:23,1,75.0000028610231,0|0,0:0|0:0,0:0:0:0:
206,7,229537,1,8,1:0:0:0:
133,27,229659,2,0,P|133:121|184:195,1,150.000005722046,0|0,0:0|0:0,0:0:0:0:
232,183,230025,5,8,1:0:0:0:
273,245,230147,1,0,0:0:0:0:
236,310,230269,2,0,P|181:327|141:325,1,75.0000028610231,0|0,1:0|1:0,0:0:0:0:
112,262,230512,2,0,P|161:247|203:248,1,75.0000028610231,8|0,1:0|0:0,0:0:0:0:
314,312,230756,6,0,P|407:302|467:262,1,150.000005722046,4|8,0:2|1:0,0:0:0:0:
489,206,231122,1,0,1:0:0:0:
428,161,231244,2,0,P|425:127|433:87,1,75.0000028610231,0|0,1:0|0:0,0:0:0:0:
500,52,231488,1,8,1:0:0:0:
435,14,231610,2,0,P|350:17|270:44,1,150.000005722046,0|0,1:0|0:0,0:0:0:0:
252,102,231976,2,0,P|207:108|166:105,1,75.0000028610231,8|0,1:0|1:0,0:0:0:0:
113,146,232220,2,0,P|106:196|111:227,1,75.0000028610231,0|0,1:0|0:0,0:0:0:0:
165,270,232464,2,0,P|215:277|246:272,1,75.0000028610231,8|0,1:0|0:0,0:0:0:0:
308,244,232708,37,4,1:0:0:0:
372,281,232830,1,0,1:0:0:0:
346,351,232952,1,8,1:0:0:0:
271,345,233073,1,8,1:0:0:0:
197,358,233195,1,0,1:0:0:0:
124,378,233317,1,0,1:0:0:0:
49,372,233439,5,8,1:0:0:0:
49,372,233561,2,0,P|35:298|62:213,1,150.000005722046,8|8,1:0|1:0,0:0:0:0:
129,230,233927,1,8,1:0:0:0:
197,198,234049,1,0,1:0:0:0:
271,210,234171,1,8,1:0:0:0:
328,258,234293,1,0,1:0:0:0:
403,257,234415,1,8,1:0:0:0:
451,199,234537,1,0,1:0:0:0:
420,130,234659,1,4,1:1:0:0:
420,130,235147,5,8,0:0:0:0:
345,138,235269,1,0,1:0:0:0:
270,130,235391,1,8,0:0:0:0:
221,73,235512,1,0,1:0:0:0:
150,46,235634,2,0,P|111:68|91:103,1,75.0000028610231,4|0,1:0|0:0,0:0:0:0:
121,209,235878,2,0,P|156:185|177:152,1,75.0000028610231,8|0,1:0|1:0,0:0:0:0:
40,162,236122,5,8,1:0:0:0:
16,233,236244,1,0,1:0:0:0:
53,298,236366,1,8,1:0:0:0:
128,298,236488,1,0,1:0:0:0:
194,264,236610,2,0,B|249:264|249:264|279:294|279:294|337:293,1,150.000005722046,6|8,1:0|1:0,0:0:0:0:
398,258,236976,2,0,L|401:111,1,75.0000028610231,0|2,1:0|0:1,0:0:0:0:
344,130,237220,37,0,0:0:0:0:
344,130,237342,2,0,P|307:78|150:97,1,225.000008583069,10|2,1:0|1:0,0:0:0:0:
119,149,237830,2,0,L|191:196,1,75.0000028610231,8|0,1:0|0:0,0:0:0:0:
207,260,238073,2,0,L|155:344,1,75.0000028610231,2|0,0:1|1:0,0:0:0:0:
92,334,238317,2,0,L|20:290,1,75.0000028610231,10|0,1:0|1:0,0:0:0:0:
36,211,238561,6,2,P|25:132|56:52,1,150.000005722046,4|8,1:2|1:0,0:1:0:0:
115,97,238927,2,2,B|199:87|178:120|279:105,1,150.000005722046,0|0,1:0|0:0,0:1:0:0:
323,153,239293,1,8,1:0:0:0:
393,127,239415,2,0,P|431:204|390:276,1,150.000005722046,2|0,1:0|1:0,0:0:0:0:
333,253,239781,1,8,1:0:0:0:
273,298,239903,1,2,1:0:0:0:
301,367,240025,1,0,0:1:0:0:
375,362,240147,1,0,0:1:0:0:
449,350,240269,5,10,1:0:0:0:
486,285,240391,1,0,0:0:0:0:
492,210,240512,2,0,B|491:137|446:149|450:63,1,150.000005722046,6|8,1:0|1:0,0:0:0:0:
492,6,240878,1,0,1:0:0:0:
417,3,241000,2,0,P|320:21|251:67,1,150.000005722046,2|10,0:1|1:0,0:0:0:0:
271,121,241366,2,0,P|180:147|88:124,1,150.000005722046,0|2,1:0|0:1,0:0:0:0:
76,82,241732,1,8,1:0:0:0:
11,119,241854,1,2,1:1:0:0:
14,193,241976,1,0,0:0:0:0:
74,237,242098,1,0,1:1:0:0:
147,220,242220,5,10,1:0:0:0:
206,266,242342,1,0,0:1:0:0:
191,339,242464,2,0,P|151:349|115:351,1,75.0000028610231,6|0,1:0|0:0,0:0:0:0:
53,310,242708,1,8,0:0:0:0:
271,318,242952,38,0,P|365:317|436:333,1,150.000005722046,8|2,0:0|0:1,0:1:0:0:
494,332,243317,2,0,P|485:249|444:163,1,150.000005722046,8|2,0:0|0:1,0:1:0:0:
395,148,243683,1,8,0:0:0:0:
272,61,243927,5,8,0:0:0:0:
302,129,244049,1,2,0:1:0:0:
287,202,244171,1,8,0:0:0:0:
223,242,244293,1,8,0:0:0:0:
149,228,244415,2,0,P|82:226|11:278,1,150.000005722046,6|8,1:0|1:0,0:0:0:0:
28,345,244781,1,0,1:0:0:0:
102,351,244903,2,0,L|278:360,1,150.000005722046,2|10,0:1|1:0,0:0:0:0:
307,307,245269,2,0,L|482:319,1,150.000005722046,0|0,1:0|0:0,0:0:0:0:
511,266,245634,5,10,1:0:0:0:
461,209,245756,1,0,0:0:0:0:
386,216,245878,1,2,0:1:0:0:
319,181,246000,1,0,1:0:0:0:
246,198,246122,5,8,1:0:0:0:
258,124,246244,1,0,1:0:0:0:
304,65,246366,2,2,P|396:73|440:124,1,150.000005722046,4|8,1:2|1:0,0:1:0:0:
402,180,246732,2,2,P|380:239|409:342,1,150.000005722046,0|0,1:0|0:0,0:1:0:0:
396,322,247098,2,0,L|480:304,2,75.0000028610231,10|0|0,1:0|1:0|0:0,0:0:0:0:
328,356,247464,37,0,0:0:0:0:
253,350,247586,1,10,1:0:0:0:
207,290,247708,1,0,1:0:0:0:
132,285,247830,1,2,0:1:0:0:
58,297,247952,1,0,1:0:0:0:
19,233,248073,5,8,1:0:0:0:
28,158,248195,1,0,0:0:0:0:
51,86,248317,2,0,B|130:81|116:128|212:123,1,150.000005722046,6|8,1:0|1:0,0:0:0:0:
246,177,248683,1,0,0:0:0:0:
303,128,248805,2,0,P|396:123|448:176,1,150.000005722046,2|10,0:1|1:0,0:0:0:0:
438,231,249171,2,0,P|402:291|393:369,1,150.000005722046,2|0,0:1|0:0,0:0:0:0:
318,356,249537,5,10,1:0:0:0:
243,347,249659,1,0,0:0:0:0:
204,282,249781,1,2,0:1:0:0:
128,282,249903,1,0,0:0:0:0:
88,218,250025,1,8,1:0:0:0:
13,225,250147,5,0,0:0:0:0:
13,225,250269,2,0,L|31:309,1,75.0000028610231,0|8,0:0|0:0,0:0:0:0:
185,207,250634,1,0,0:0:0:0:
185,207,250756,2,0,L|173:125,1,75.0000028610231,8|0,0:0|0:0,0:0:0:0:
224,75,251000,37,0,0:0:0:0:
294,99,251122,1,8,0:0:0:0:
331,163,251244,1,0,0:0:0:0:
318,237,251366,1,8,0:0:0:0:
261,285,251488,1,4,0:2:0:0:
186,287,251610,1,8,0:0:0:0:
114,308,251732,1,8,0:0:0:0:
250,371,251976,5,8,0:0:0:0:
250,371,252098,1,8,0:0:0:0:
