osu file format v14

[General]
AudioFilename: audio.mp3
AudioLeadIn: 0
PreviewTime: 31366
Countdown: 0
SampleSet: Soft
StackLeniency: 0.7
Mode: 0
LetterboxInBreaks: 0
WidescreenStoryboard: 1

[Editor]
Bookmarks: 64903,109781,141000,172220,205391,252220
DistanceSpacing: 1.2
BeatDivisor: 4
GridSize: 8
TimelineZoom: 1

[Metadata]
Title:Noborenai Sakamichi
TitleUnicode:登れない坂道
Artist:monet
ArtistUnicode:monet
Creator:Mirash
Version:Advanced
Source:素晴らしき日々~不連続存在~
Tags:Delis SubaHibi Subarashiki Hibi ~Furenzoku Sonzai~ Wonderful Everyday ~Diskontinuierliches Dasein~ Naglfar no Senjou nite すかぢ SCA-ji ピクセルビー Pixelbee visual novel vn
BeatmapID:1426532
BeatmapSetID:671607

[Difficulty]
HPDrainRate:6
CircleSize:4
OverallDifficulty:5
ApproachRate:5
SliderMultiplier:1.2
SliderTickRate:1

[Events]
//Background and Video events
0,0,"himawari.jpg",0,0
//Break Periods
2,172952,182727
//Storyboard Layer 0 (Background)
//Storyboard Layer 1 (Fail)
//Storyboard Layer 2 (Pass)
//Storyboard Layer 3 (Foreground)
//Storyboard Sound Samples

[TimingPoints]
513,487.80487804878,4,2,1,20,1,0
513,-125,4,2,1,20,0,0
15147,-100,4,2,1,60,0,0
16122,-100,4,2,1,70,0,0
29781,-100,4,2,1,50,0,0
31488,-100,4,3,1,30,0,0
31732,-100,4,3,1,55,0,0
47342,-100,4,3,1,55,0,0
49293,-100,4,3,1,55,0,0
60025,-100,4,3,1,60,0,0
60269,-100,4,3,1,65,0,0
60512,-100,4,3,1,70,0,0
62952,-100,4,2,1,60,0,0
64903,-100,4,2,1,70,0,1
65025,-100,4,2,1,70,0,0
78561,-100,4,2,1,70,0,1
78683,-100,4,2,1,70,0,0
100025,-100,4,3,1,70,0,0
101976,-100,4,2,1,70,0,0
107830,-100,4,3,1,70,0,0
109781,-100,4,3,1,55,0,0
138317,-100,4,3,1,60,0,0
138561,-100,4,3,1,65,0,0
138805,-100,4,3,1,70,0,0
139049,-100,4,3,1,60,0,0
141000,-100,4,2,1,70,0,1
141122,-100,4,2,1,70,0,0
156610,-100,4,2,1,70,0,1
156732,-100,4,2,1,70,0,0
172220,-125,4,2,1,40,0,0
204171,-100,4,2,1,60,0,0
205391,-100,4,2,1,70,0,1
205512,-100,4,2,1,70,0,0
221000,-100,4,2,1,70,0,1
221122,-100,4,2,1,70,0,0
234659,-100,4,3,1,70,0,0
235634,-100,4,2,1,70,0,0
242464,-100,4,3,1,70,0,0
244415,-100,4,2,1,70,0,0
250269,-100,4,3,1,70,0,0
252220,508.474576271186,4,2,1,70,1,0
252982,495.867768595041,4,2,1,70,1,0
254221,521.739130434783,4,2,1,70,1,0
255003,500,4,2,1,70,1,0
256253,508.474576271186,4,2,1,70,1,0
264388,526.315789473684,4,2,1,70,1,0
265703,555.555555555556,4,2,1,70,1,0
265980,600,4,2,1,70,1,0
266280,821.917808219178,4,2,1,70,1,0
266690,810.810810810811,4,2,1,70,1,0

[Colours]
Combo1 : 0,128,64
Combo2 : 145,220,31
Combo3 : 14,170,254
Combo4 : 252,128,27
Combo5 : 70,194,61
Combo6 : 0,128,128

[HitObjects]
73,303,513,70,0,L|223:298,1,144,2|0,0:0|0:0,0:0:0:0:
294,324,1488,2,0,P|300:271|299:255,1,48,0|0,0:0|0:0,0:0:0:0:
246,214,1976,1,0,0:0:0:0:
371,109,2464,6,0,P|283:105|209:108,1,144,2|0,0:0|0:0,0:0:0:0:
176,170,3439,2,0,P|134:167|117:164,1,48,0|0,0:0|0:0,0:0:0:0:
75,103,3927,1,0,0:0:0:0:
75,103,4171,1,0,0:0:0:0:
12,155,4415,70,0,P|13:211|31:308,1,144,2|0,0:0|0:0,0:0:0:0:
104,267,5391,2,0,P|141:264|159:263,1,48,0|0,0:0|0:0,0:0:0:0:
219,308,5878,1,2,0:0:0:0:
338,352,6366,6,0,P|350:302|345:207,1,144,2|0,0:0|0:0,0:0:0:0:
269,178,7342,1,0,0:0:0:0:
111,219,7830,1,0,0:0:0:0:
111,219,8073,1,0,0:0:0:0:
173,166,8317,70,0,P|178:115|176:75,2,72,2|0|0,0:0|0:0|0:0,0:0:0:0:
196,327,9537,2,0,P|194:286|196:263,1,48,0|0,0:0|0:0,0:0:0:0:
339,203,10269,6,0,P|339:263|334:296,2,72,2|0|2,0:0|0:0|0:0,0:0:0:0:
283,142,11244,2,0,P|329:132|342:131,1,48,0|0,0:0|0:0,0:0:0:0:
405,162,11732,1,0,0:0:0:0:
458,316,12220,70,0,P|414:313|371:312,2,72,2|0|0,0:0|0:0|0:0,0:0:0:0:
502,247,13195,2,0,P|492:214|491:197,1,48,0|0,0:0|0:0,0:0:0:0:
430,145,13683,1,0,0:0:0:0:
430,145,13927,1,0,0:0:0:0:
467,72,14171,5,2,0:0:0:0:
208,97,15147,1,0,1:0:0:0:
208,97,15391,1,0,1:0:0:0:
140,73,15634,2,0,P|93:83|59:97,1,60,0|0,1:0|1:0,0:0:0:0:
47,150,16122,6,0,P|94:149|151:164,2,90,6|2|8,1:0|0:1|1:0,0:0:0:0:
129,268,17342,1,8,1:0:0:0:
129,268,17586,2,0,P|171:263|196:266,1,60,2|10,0:1|1:0,0:0:0:0:
255,237,18073,6,0,P|308:243|369:264,2,90,2|2|10,1:1|0:1|1:0,0:0:0:0:
209,181,19049,2,0,P|222:146|223:118,1,60,0|10,0:0|1:0,0:0:0:0:
290,95,19537,1,2,1:1:0:0:
290,95,19781,1,10,1:0:0:0:
309,25,20025,6,0,P|262:19|179:21,1,120,6|2,1:0|1:1,0:0:0:0:
50,58,21000,2,0,P|54:126|60:192,1,120,2|2,1:0|0:1,0:0:0:0:
120,219,21732,5,8,1:0:0:0:
186,246,21976,1,4,1:2:0:0:
249,211,22220,1,8,1:0:0:0:
319,248,22464,2,0,P|319:295|312:330,1,60,4|8,1:2|1:0,0:0:0:0:
317,307,22830,2,0,P|267:305|243:306,1,60,12|0,1:0|1:2,0:0:0:0:
236,334,23195,2,0,P|206:334|176:332,1,60,8|8,1:0|1:0,0:0:0:0:
164,188,23927,38,0,P|172:139|156:60,1,120,6|0,1:0|0:0,0:0:0:0:
222,33,24659,1,10,1:0:0:0:
283,73,24903,2,0,P|309:74|369:75,1,60,0|8,0:0|1:0,0:0:0:0:
412,53,25391,1,2,0:1:0:0:
448,115,25634,1,8,1:0:0:0:
410,176,25878,6,0,P|407:233|424:298,1,120,0|0,1:0|0:1,0:0:0:0:
365,338,26610,2,0,P|313:336|284:335,1,60,8|0,1:0|0:0,0:0:0:0:
242,298,27098,2,0,P|190:296|161:295,1,60,8|0,1:0|0:0,0:0:0:0:
45,343,27830,6,0,B|45:278|77:290|74:214,1,120,6|2,1:0|1:0,0:0:0:0:
36,166,28561,1,8,1:0:0:0:
90,118,28805,2,0,L|221:128,1,120,0|0,0:0|0:0,0:0:0:0:
259,179,29537,1,8,1:0:0:0:
330,168,29781,1,4,0:0:0:0:
250,186,31488,5,4,0:0:0:0:
250,186,31732,2,0,P|331:179|366:171,2,90,4|0|10,0:2|0:0|0:0,0:0:0:0:
185,153,32708,2,0,P|153:146|119:142,1,60,0|10,0:0|0:0,0:0:0:0:
75,194,33195,2,0,P|75:228|86:268,1,60,0|10,0:0|0:0,0:0:0:0:
138,296,33683,6,0,P|195:268|256:270,1,120,2|0,0:2|0:0,0:0:0:0:
310,309,34415,2,0,P|372:309|425:273,1,120,10|10,0:0|0:0,0:0:0:0:
452,214,35147,1,0,0:0:0:0:
434,144,35391,1,10,0:0:0:0:
383,93,35634,6,0,B|322:97|336:126|264:126,1,120,4|0,0:2|0:0,0:0:0:0:
126,165,36610,2,0,P|137:206|159:232,1,60,0|10,0:0|0:0,0:0:0:0:
216,238,37098,2,0,P|205:285|195:307,1,60,0|10,0:0|0:0,0:0:0:0:
152,349,37586,6,0,P|102:323|79:276,2,90,2|2|10,0:2|0:2|0:0,0:0:0:0:
221,366,38561,2,0,P|263:358|289:359,1,60,0|10,0:0|0:0,0:0:0:0:
351,371,39049,1,0,0:0:0:0:
372,228,39537,38,0,P|362:165|425:60,1,180,4|10,0:2|0:0,0:0:0:0:
354,27,40512,2,0,L|228:36,1,120
194,96,41244,1,10,0:0:0:0:
131,60,41488,6,0,B|72:59|84:94|16:91,2,120,2|2|2,0:2|0:2|0:2,0:0:0:0:
259,126,42952,2,0,P|276:158|289:197,1,60,0|10,0:0|0:0,0:0:0:0:
229,225,43439,6,0,P|215:276|241:351,1,120,4|0,0:2|0:0,0:0:0:0:
304,349,44171,1,10,0:0:0:0:
365,311,44415,2,0,P|359:271|335:240,1,60,0|10,0:0|0:0,0:0:0:0:
382,190,44903,1,0,0:0:0:0:
448,162,45147,1,10,0:0:0:0:
427,92,45391,6,0,B|356:85|356:85|325:114|325:114|258:106,1,180,8|8,0:0|0:0,0:0:0:0:
198,145,46366,2,0,L|212:191,2,30,10|8|8,0:0|0:1|0:0,0:0:0:0:
142,98,46854,2,0,L|156:52,2,30,8|8|8,0:1|0:0|0:1,0:0:0:0:
75,127,47342,38,0,P|65:196|113:313,1,180,8|12,0:0|0:2,0:0:0:0:
100,298,48561,1,0,0:2:0:0:
176,308,48805,1,2,0:2:0:0:
247,316,49049,1,2,0:2:0:0:
304,359,49293,6,0,P|326:313|324:254,2,90,4|8|8,0:2|0:0|0:0,0:0:0:0:
231,361,50269,2,0,P|187:350|100:350,1,120
41,356,51000,5,8,0:0:0:0:
41,356,51244,2,0,P|31:306|41:247,2,90,2|2|8,0:2|0:2|0:0,0:0:0:0:
109,228,52464,2,0,P|112:189|109:160,2,60,10|0|10,0:0|0:0|0:0,0:0:0:0:
169,266,53195,6,0,B|238:272|216:235|288:240,1,120,4|2,0:2|0:2,0:0:0:0:
338,286,53927,2,0,P|400:283|411:277,2,60,10|2|10,0:0|0:2|0:0,0:0:0:0:
352,215,54659,1,2,0:2:0:0:
329,72,55147,38,0,P|288:85|203:63,1,120,4|0,0:2|0:0,0:0:0:0:
150,104,55878,1,8,0:0:0:0:
5,112,56366,2,0,P|8:82|18:54,1,60,10|0,0:0|0:0,0:0:0:0:
72,10,56854,1,10,0:0:0:0:
134,48,57098,6,0,P|189:53|218:50,1,60,2|8,0:2|0:0,0:0:0:0:
261,27,57586,1,2,0:2:0:0:
332,33,57830,2,0,P|406:60|445:113,1,120,10|10,0:0|0:0,0:0:0:0:
460,155,58561,1,0,0:0:0:0:
388,280,59049,6,0,L|303:277,1,60,12|8,0:2|0:0,0:0:0:0:
256,284,59537,2,0,L|189:298,1,60,12|8,0:2|0:0,0:0:0:0:
125,307,60025,2,0,L|13:290,2,90,8|8|8,0:0|0:0|0:0,0:0:0:0:
256,192,61000,12,4,62952,0:2:0:0:
95,84,64903,6,0,B|143:76|143:76|206:88,2,90,4|2|8,1:0|0:0|1:0,0:0:0:0:
68,108,65756,2,0,P|66:164|65:192,1,60,0|0,0:0|0:0,0:0:0:0:
88,196,66122,2,0,L|143:193,2,30,8|0|0,1:0|1:0|0:0,0:0:0:0:
57,261,66610,1,8,1:0:0:0:
90,324,66854,6,0,P|146:323|210:310,1,120,4|0,1:2|1:0,0:0:0:0:
276,334,67586,1,8,1:0:0:0:
224,200,68073,2,0,P|209:142|209:122,2,60,8|0|8,1:0|0:0|1:0,0:0:0:0:
294,182,68805,6,0,P|345:181|400:162,2,90,4|2|8,1:2|0:0|1:0,0:0:0:0:
260,195,69659,2,0,P|276:244|279:264,1,60,0|0,0:0|0:0,0:0:0:0:
261,284,70025,2,0,L|230:285,2,30,8|0|8,1:0|1:0|1:0,0:0:0:0:
288,350,70512,1,8,1:0:0:0:
359,354,70756,6,0,P|386:302|375:215,1,120,4|0,1:0|1:0,0:0:0:0:
341,184,71488,2,0,P|343:125|387:77,1,120,8|8,1:0|1:0,0:0:0:0:
477,187,72464,1,8,1:0:0:0:
456,256,72708,38,0,P|382:255|331:274,1,120,4|0,1:0|1:0,0:0:0:0:
272,296,73439,2,0,P|240:285|153:282,1,120,8|8,1:0|1:0,0:0:0:0:
21,226,74415,1,8,1:0:0:0:
66,168,74659,6,0,P|127:162|179:118,1,120,4|0,1:0|1:0,0:0:0:0:
136,64,75391,1,8,1:0:0:0:
65,78,75634,2,0,L|2:70,2,60,0|8|8,1:0|1:0|1:0,0:0:0:0:
136,64,76366,1,8,1:0:0:0:
207,55,76610,2,0,L|307:65,2,90,4|8|0,1:0|1:0|1:0,0:0:0:0:
186,124,77586,2,0,L|198:159,2,30,8|0|8,1:0|1:0|1:0,0:0:0:0:
114,135,78073,2,0,L|100:101,2,30,8|0|8,1:0|1:0|1:0,0:0:0:0:
72,194,78561,5,4,1:0:0:0:
99,335,79049,1,0,1:0:0:0:
148,281,79293,1,8,1:0:0:0:
219,287,79537,2,0,P|279:278|352:292,1,120,0|0,1:0|1:0,0:0:0:0:
479,261,80512,6,0,B|486:199|449:198|455:141,1,120,4|0,1:2|1:0,0:0:0:0:
383,131,81244,2,0,P|340:132|316:124,1,60,8|0,1:0|1:0,0:0:0:0:
277,71,81732,1,8,1:0:0:0:
205,59,81976,2,0,P|170:89|145:119,1,60,0|8,1:0|1:0,0:0:0:0:
192,164,82464,38,0,P|189:263|170:303,1,120,4|0,1:0|1:0,0:0:0:0:
114,307,83195,2,0,L|101:341,2,30,8|0|0,1:0|1:0|0:0,0:0:0:0:
77,244,83683,2,0,P|67:203|64:163,2,60,8|0|8,1:0|1:0|1:0,0:0:0:0:
114,307,84415,6,0,P|169:318|200:320,1,60,4|8,1:2|1:0,0:0:0:0:
209,318,84781,2,0,P|267:306|279:300,1,60,4|0,1:2|1:0,0:0:0:0:
301,294,85147,2,0,P|327:252|335:168,1,120,8|8,1:0|1:0,0:0:0:0:
305,62,86122,1,0,1:0:0:0:
375,75,86366,6,0,P|428:106|427:183,1,120,4|0,1:0|0:0,0:0:0:0:
416,229,87098,2,0,L|437:266,2,30,8|0|0,1:0|0:0|0:0,0:0:0:0:
343,227,87586,2,0,P|310:227|275:222,2,60,8|0|8,1:0|1:0|1:0,0:0:0:0:
358,297,88317,6,0,P|356:350|362:382,1,60,4|8,1:2|1:0,0:0:0:0:
426,375,88805,1,0,1:0:0:0:
481,328,89049,2,0,P|476:276|416:241,1,120,8|8,1:0|1:0,0:0:0:0:
352,258,89781,1,8,1:0:0:0:
237,169,90269,38,0,P|183:148|96:149,1,120,4|8,1:0|1:0,0:0:0:0:
62,185,91000,2,0,L|57:228,2,30,8|8|8,1:0|1:0|1:0,0:0:0:0:
55,113,91488,1,8,1:0:0:0:
106,63,91732,1,8,1:0:0:0:
177,73,91976,1,8,1:0:0:0:
234,29,92220,6,0,B|302:23|286:55|350:47,1,120,8|8,0:0|0:0,0:0:0:0:
492,69,93195,2,0,P|480:105|477:150,1,60,4|8,1:0|1:0,0:0:0:0:
485,198,93683,1,8,1:0:0:0:
442,255,93927,1,8,1:0:0:0:
374,233,94171,6,0,P|326:227|237:260,1,120,6|2,1:0|0:1,0:0:0:0:
210,301,94903,2,0,L|234:344,2,30,10|0|2,1:0|1:0|0:1,0:0:0:0:
184,233,95391,2,0,P|181:185|189:157,1,60,8|2,1:0|0:1,0:0:0:0:
240,130,95878,1,8,1:0:0:0:
311,122,96122,6,2,P|362:127|422:141,2,90,4|0|8,1:2|1:0|1:0,0:1:0:0:
186,48,97342,2,0,P|134:64|106:81,2,60,8|2|10,1:0|0:1|1:0,0:0:0:0:
250,80,98073,38,0,P|232:154|227:223,1,120,6|2,1:0|0:1,0:0:0:0:
273,253,98805,2,0,L|317:260,2,30,10|0|0,1:0|1:0|0:0,0:0:0:0:
202,270,99293,2,0,P|144:264|115:259,2,60,8|2|10,1:0|0:1|1:0,0:0:0:0:
243,328,100025,2,0,P|281:345|308:347,1,60,4|8,1:2|0:0,0:0:0:0:
369,337,100512,2,0,P|407:325|445:322,1,60,8|0,0:0|0:0,0:0:0:0:
449,294,100878,2,0,P|450:259|456:234,1,60,8|0,0:0|0:0,0:0:0:0:
444,200,101244,2,0,P|418:158|416:121,1,60,8|8,0:0|0:0,0:0:0:0:
367,12,101976,6,0,P|303:11|246:40,1,120,6|2,1:0|0:1,0:0:0:0:
236,104,102708,1,10,1:0:0:0:
165,88,102952,1,2,0:1:0:0:
112,142,103195,2,0,P|102:194|108:224,2,60,8|2|8,1:0|0:1|1:0,0:0:0:0:
178,171,103927,6,2,P|225:184|281:192,2,90,4|0|10,1:2|1:0|1:0,0:1:0:0:
44,115,105147,2,0,P|33:150|29:173,1,60,10|2,1:0|0:1,0:0:0:0:
38,244,105634,1,8,1:0:0:0:
105,264,105878,6,0,P|160:263|246:269,1,120,6|2,1:0|0:1,0:0:0:0:
277,316,106610,2,0,L|253:347,2,30,10|2|0,1:0|0:1|0:0,0:0:0:0:
300,247,107098,2,0,P|311:207|334:177,1,60,10|2,1:0|0:1,0:0:0:0:
391,179,107586,1,8,1:0:0:0:
256,192,107830,12,4,109781,0:1:0:0:
461,166,111488,5,8,0:0:0:0:
461,166,111732,2,0,P|405:159|346:167,2,90,2|0|10,0:2|0:0|0:0,0:0:0:0:
483,234,112708,2,0,P|474:273|478:306,1,60,0|10,0:0|0:0,0:0:0:0:
416,334,113195,2,0,P|359:336|328:331,1,60,0|10,0:0|0:0,0:0:0:0:
298,292,113683,6,0,P|249:293|161:317,2,120,4|0|0,0:2|0:0|0:0,0:0:0:0:
357,250,114903,1,10,0:0:0:0:
314,191,115147,2,0,P|278:182|258:173,1,60,0|10,0:0|0:0,0:0:0:0:
193,138,115634,6,0,P|136:162|100:199,2,90,4|0|10,0:2|0:0|0:0,0:0:0:0:
261,114,116610,2,0,P|296:112|330:101,1,60,0|10,0:0|0:0,0:0:0:0:
350,39,117098,1,0,0:0:0:0:
365,182,117586,38,0,P|360:248|380:322,1,120,4|0,0:2|0:0,0:0:0:0:
424,348,118317,1,10,0:0:0:0:
355,370,118561,2,0,P|305:363|242:319,1,120,0|0,0:0|0:0,0:0:0:0:
189,283,119293,1,10,0:0:0:0:
138,231,119537,6,0,P|94:261|44:313,2,120,2|2|2,0:2|0:2|0:2,0:0:0:0:
207,211,120756,1,10,0:0:0:0:
244,149,121000,2,0,P|248:108|245:70,1,60,2|10,0:2|0:0,0:0:0:0:
178,67,121488,6,0,B|117:65|127:98|61:95,1,120,4|0,0:2|0:0,0:0:0:0:
23,233,122464,2,0,P|24:285|3:349,1,120
75,375,123195,5,8,0:0:0:0:
75,375,123439,2,0,P|117:368|149:357,1,60,4|8,0:2|0:0,0:0:0:0:
160,295,123927,2,0,L|240:295,1,60,2|8,0:0|0:0,0:0:0:0:
285,325,124415,2,0,P|347:321|414:294,1,120,6|4,0:0|0:1,0:0:0:0:
471,317,125147,1,0,0:0:0:0:
452,247,125391,38,0,P|446:192|459:140,1,90,4|0,0:1|0:0,0:0:0:0:
501,61,126122,1,4,0:0:0:0:
364,13,126610,1,8,0:0:0:0:
306,56,126854,2,0,P|296:90|303:123,1,60,0|8,0:0|0:0,0:0:0:0:
343,170,127342,6,0,P|338:235|305:284,2,120,2|2|2,0:2|0:2|0:2,0:0:0:0:
272,183,128561,2,0,P|222:177|196:164,1,60,10|2,0:0|0:2,0:0:0:0:
154,132,129049,1,10,0:0:0:0:
99,178,129293,6,0,P|103:237|87:288,2,90,4|0|10,0:2|0:0|0:0,0:0:0:0:
17,59,130512,2,0,P|63:59|93:54,1,60,10|0,0:0|0:0,0:0:0:0:
136,17,131000,1,10,0:0:0:0:
203,41,131244,6,0,L|333:56,2,120,4|4|4,0:2|0:2|0:2,0:0:0:0:
149,90,132464,1,10,0:0:0:0:
233,206,132952,1,10,0:0:0:0:
304,214,133195,38,0,P|339:206|440:203,1,120,4|0,0:2|0:0,0:0:0:0:
484,238,133927,2,0,L|496:266,2,30,10|0|0,0:0|0:0|0:0,0:0:0:0:
487,165,134415,2,0,P|481:113|488:82,2,60,10|0|10,0:0|0:0|0:0,0:0:0:0:
484,238,135147,6,0,P|472:271|465:309,1,60,2|8,0:2|0:0,0:0:0:0:
405,333,135634,2,0,P|352:335|325:329,1,60,2|10,0:2|0:0,0:0:0:0:
277,359,136122,2,0,P|240:362|207:373,2,60,2|10|2,0:2|0:0|0:2,0:0:0:0:
283,214,137098,6,0,P|264:162|269:108,2,90,4|8|8,0:2|0:0|0:0,0:0:0:0:
352,193,138073,2,0,P|393:183|444:185,2,90,8|8|8,0:0|0:0|0:1,0:0:0:0:
338,262,139049,1,4,0:2:0:0:
256,192,139171,12,4,141000,0:0:0:0:
96,313,142952,6,0,P|106:262|100:216,2,90,4|2|8,1:2|0:0|1:0,0:0:0:0:
119,340,143805,2,0,L|192:337,1,60,0|0,1:0|1:0,0:0:0:0:
214,343,144171,2,0,L|260:363,2,30,8|0|8,1:0|1:0|1:0,0:0:0:0:
211,270,144659,1,8,1:0:0:0:
274,236,144903,6,0,P|310:241|388:286,1,120,4|0,1:0|0:0,0:0:0:0:
441,322,145634,2,0,L|442:363,2,30,8|0|0,1:0|0:0|0:0,0:0:0:0:
450,250,146122,2,0,P|441:207|444:174,1,60,8|0,1:0|0:0,0:0:0:0:
480,130,146610,1,8,1:0:0:0:
408,122,146854,6,0,P|365:121|304:88,2,90,4|2|8,1:2|0:0|1:0,0:0:0:0:
269,161,148073,2,0,P|224:166|192:163,1,60,8|0,1:0|0:0,0:0:0:0:
145,131,148561,1,8,1:0:0:0:
84,169,148805,6,0,P|72:254|79:297,1,120,4|0,1:0|1:0,0:0:0:0:
35,346,149537,1,8,1:0:0:0:
149,258,150025,2,0,P|199:252|231:253,1,60,8|0,1:0|0:0,0:0:0:0:
276,276,150512,1,8,1:0:0:0:
340,243,150756,38,0,P|346:189|316:122,1,120,4|0,1:0|1:0,0:0:0:0:
249,124,151488,2,0,L|212:131,2,30,8|8|0,1:0|1:0|0:0,0:0:0:0:
284,61,151976,2,0,P|325:52|356:47,1,60,8|8,1:0|1:0,0:0:0:0:
407,81,152464,1,8,1:0:0:0:
436,146,152708,6,0,P|449:203|435:285,1,120,4|0,1:0|1:0,0:0:0:0:
386,308,153439,2,0,P|380:340|381:374,2,60,8|0|8,1:0|0:0|1:0,0:0:0:0:
365,238,154171,2,0,P|322:241|280:238,1,60,8|8,1:0|1:0,0:0:0:0:
239,210,154659,6,0,P|177:208|119:218,1,120,4|0,1:2|1:0,0:0:0:0:
97,359,155634,1,0,1:0:0:0:
168,355,155878,2,0,P|209:346|229:337,1,60,8|0,1:0|1:0,0:0:0:0:
273,285,156366,1,8,1:0:0:0:
344,288,156610,6,0,B|408:290|392:323|459:319,2,120,4|0|0,1:0|1:0|1:0,0:0:0:0:
312,222,157830,1,8,1:0:0:0:
370,179,158073,2,0,P|373:144|370:117,1,60,0|8,1:0|1:0,0:0:0:0:
303,91,158561,38,0,P|245:94|173:100,1,120,4|0,1:2|1:0,0:0:0:0:
38,99,159537,2,0,P|41:60|50:29,1,60,0|8,1:0|1:0,0:0:0:0:
114,16,160025,2,0,P|153:18|177:23,1,60,0|8,1:0|1:0,0:0:0:0:
244,31,160512,6,0,P|318:34|389:14,1,120,4|0,1:0|0:0,0:0:0:0:
432,43,161244,2,0,L|465:21,2,30,8|0|0,1:0|0:0|0:0,0:0:0:0:
381,95,161732,2,0,P|397:123|415:151,2,60,8|8|0,1:0|1:0|1:0,0:0:0:0:
308,89,162464,6,0,P|289:121|279:162,1,60,4|8,1:2|1:0,0:0:0:0:
281,178,162830,2,0,P|290:218|302:246,1,60,0|0,1:0|0:0,0:0:0:0:
318,264,163195,2,0,P|349:293|432:309,1,120,8|8,1:0|1:0,0:0:0:0:
425,165,164171,1,8,1:0:0:0:
358,196,164415,6,0,P|305:208|230:191,1,120,4|0,1:0|1:0,0:0:0:0:
184,150,165147,2,0,L|142:155,2,30,8|0|0,1:0|1:0|0:0,0:0:0:0:
251,126,165634,2,0,P|282:124|318:130,2,60,8|0|8,1:0|1:0|1:0,0:0:0:0:
195,79,166366,38,0,P|227:39|306:35,1,120,4|0,1:2|1:0,0:0:0:0:
355,64,167098,2,0,P|435:72|478:57,1,120,8|8,1:0|1:0,0:0:0:0:
451,202,168073,6,0,P|454:245|475:330,1,120,8|8,1:0|1:0,0:0:0:0:
409,357,168805,2,0,P|347:350|330:348,1,60,8|8,1:0|1:0,0:0:0:0:
293,306,169293,2,0,P|247:312|168:334,1,120,0|8,1:0|1:0,0:0:0:0:
115,370,170025,1,8,1:0:0:0:
108,298,170269,6,0,P|105:217|97:165,1,120,8|8,0:0|0:0,0:0:0:0:
45,131,171000,1,8,0:0:0:0:
113,108,171244,2,0,L|181:117,1,60,12|8,0:1|0:3,0:0:0:0:
243,130,171732,2,0,L|282:126,2,30,8|0|8,0:3|1:0|1:0,0:0:0:0:
403,110,183927,6,0,P|360:107|246:119,1,144,2|2,0:0|0:0,0:0:0:0:
160,220,185147,2,0,P|166:249|169:284,2,48,4|8|2,0:3|0:0|0:0,0:0:0:0:
111,166,185878,6,0,P|94:121|90:78,2,72,4|2|2,0:0|0:0|0:0,0:0:0:0:
248,211,187098,2,0,P|282:209|301:210,1,48,4|4,0:3|0:0,0:0:0:0:
411,296,187830,6,0,P|406:242|406:206,2,72,4|2|2,0:1|0:0|0:0,0:0:0:0:
279,355,189049,2,0,P|239:348|215:348,1,48,4|2,0:3|0:0,0:0:0:0:
159,354,189537,1,2,0:0:0:0:
88,366,189781,6,0,P|86:333|88:285,2,72,4|2|2,0:0|0:0|0:0,0:0:0:0:
150,236,191000,2,0,P|152:190|151:172,1,48,4|4,0:3|0:0,0:0:0:0:
114,126,191488,1,8,0:0:0:0:
178,94,191732,38,0,P|228:99|261:108,2,72,4|2|2,0:0|0:0|0:0,0:0:0:0:
117,53,192708,2,0,P|83:49|56:50,1,48,2|4,0:0|0:3,0:0:0:0:
14,95,193195,2,0,P|17:122|27:150,1,48,8|4,0:0|0:0,0:0:0:0:
82,183,193683,6,0,P|79:218|67:236,2,48,2|2|2,0:0|0:0|0:0,0:0:0:0:
148,154,194415,2,0,L|257:172,1,96,0|4,0:0|0:3,0:0:0:0:
292,222,195147,2,0,L|352:221,1,48,8|2,0:0|0:0,0:0:0:0:
400,182,195634,6,0,P|408:135|406:93,2,72,4|0|0,0:0|0:0|0:0,0:0:0:0:
311,295,196854,2,0,P|311:329|314:351,1,48,4|2,0:3|0:0,0:0:0:0:
248,376,197342,1,2,0:0:0:0:
179,355,197586,6,0,P|182:322|180:279,2,72,4|0|0,0:0|0:0|0:0,0:0:0:0:
104,231,198805,2,0,P|101:196|103:175,1,48,4|2,0:3|0:0,0:0:0:0:
157,136,199293,1,8,0:3:0:0:
222,165,199537,38,0,P|261:166|301:157,2,72,4|4|4,0:0|0:0|0:0,0:0:0:0:
176,220,200512,2,0,P|185:242|201:277,1,48,0|4,0:0|0:3,0:0:0:0:
256,301,201000,2,0,P|274:282|294:259,1,48,2|8,0:0|0:3,0:0:0:0:
256,192,201488,12,2,203439,0:0:0:0:
256,192,203561,12,4,205391,0:0:0:0:
116,237,207342,38,0,P|166:236|230:244,2,90,4|2|8,1:2|0:0|1:0,0:0:0:0:
90,211,208195,2,0,P|93:170|92:137,1,60,0|0,0:0|0:0,0:0:0:0:
77,117,208561,2,0,L|43:110,2,30,8|0|0,1:0|1:0|1:0,0:0:0:0:
220,128,209293,6,0,P|276:134|343:116,1,120,4|0,1:0|1:0,0:0:0:0:
405,143,210025,2,0,L|443:136,2,30,8|0|0,1:0|1:0|0:0,0:0:0:0:
348,187,210512,2,0,P|345:236|351:272,2,60,8|0|8,1:0|0:0|1:0,0:0:0:0:
328,118,211244,6,0,P|324:64|328:30,1,60,4|8,0:2|1:0,0:0:0:0:
295,36,211610,2,0,P|257:38|231:43,1,60,0|0,0:0|1:0,0:0:0:0:
206,63,211976,2,0,P|151:83|86:142,1,120,8|8,1:0|1:0,0:0:0:0:
135,185,212708,2,0,P|121:224|122:253,1,60,8|8,1:0|1:0,0:0:0:0:
125,314,213195,5,4,1:0:0:0:
267,290,213683,1,0,1:0:0:0:
321,243,213927,2,0,L|387:246,2,60,8|0|8,1:0|0:0|1:0,0:0:0:0:
253,218,214659,2,0,P|248:163|252:133,1,60,0|8,0:0|1:0,0:0:0:0:
304,113,215147,37,4,1:0:0:0:
439,159,215634,1,0,1:0:0:0:
502,192,215878,2,0,L|494:259,2,60,8|0|8,1:0|0:0|1:0,0:0:0:0:
502,119,216610,2,0,P|494:81|487:56,1,60,0|8,0:0|1:0,0:0:0:0:
426,23,217098,6,0,P|366:26|288:38,1,120,4|0,1:0|1:0,0:0:0:0:
249,78,217830,1,8,1:0:0:0:
179,94,218073,2,0,P|130:86|108:77,2,60,0|8|8,0:0|1:0|1:0,0:0:0:0:
226,149,218805,1,8,1:0:0:0:
209,218,219049,6,0,P|198:273|204:326,2,90,4|8|0,1:0|1:0|1:0,0:0:0:0:
280,204,220025,1,8,1:0:0:0:
381,102,220512,1,8,1:0:0:0:
443,139,220756,1,8,1:0:0:0:
497,186,221000,6,0,P|487:236|487:306,1,120,4|0,1:0|0:0,0:0:0:0:
347,340,221976,2,0,P|280:332|207:341,1,120,0|0,1:0|1:0,0:0:0:0:
155,342,222708,1,8,1:0:0:0:
108,287,222952,38,0,B|107:218|137:232|131:150,1,120,4|0,1:2|1:0,0:0:0:0:
186,124,223683,1,8,1:0:0:0:
168,54,223927,2,0,P|211:45|235:46,1,60,0|8,1:0|1:0,0:0:0:0:
296,66,224415,2,0,P|328:82|346:97,1,60,0|8,1:0|1:0,0:0:0:0:
377,162,224903,6,0,P|382:211|374:283,1,120,4|0,1:0|1:0,0:0:0:0:
302,278,225634,2,0,P|260:281|229:290,2,60,8|0|8,1:0|0:0|1:0,0:0:0:0:
322,347,226366,2,0,P|359:351|388:351,1,60,0|8,1:0|1:0,0:0:0:0:
450,327,226854,6,0,P|456:261|446:213,2,90,4|2|8,1:2|0:2|1:0,0:0:0:0:
365,210,228073,2,0,P|365:157|370:132,1,60,8|8,1:0|1:0,0:0:0:0:
423,105,228561,1,0,1:0:0:0:
357,74,228805,6,0,P|311:64|237:78,1,120,4|0,1:0|0:0,0:0:0:0:
228,148,229537,1,8,1:0:0:0:
90,135,230025,1,8,1:0:0:0:
90,135,230269,2,0,P|76:176|72:201,1,60,0|8,1:0|1:0,0:0:0:0:
126,240,230756,38,0,P|132:299|127:378,1,120,4|0,0:2|1:0,0:0:0:0:
201,352,231488,2,0,L|281:348,1,60,8|0,1:0|0:0,0:0:0:0:
314,300,231976,2,0,L|356:306,2,30,8|0|0,1:0|1:0|1:0,0:0:0:0:
247,270,232464,1,8,1:0:0:0:
216,204,232708,6,0,P|224:163|226:98,2,90,4|8|8,1:0|1:0|1:0,0:0:0:0:
287,208,233683,2,0,P|324:199|368:197,1,60,0|8,0:0|1:0,0:0:0:0:
386,256,234171,1,8,1:0:0:0:
469,138,234659,6,0,P|450:98|332:71,1,150,4|0,1:0|1:0,0:0:0:0:
329,88,235391,2,0,P|290:86|269:80,1,60,8|4,0:0|1:0,0:0:0:0:
204,49,235878,1,8,1:0:0:0:
135,69,236122,1,8,1:0:0:0:
103,133,236366,1,8,1:0:0:0:
149,187,236610,6,0,P|156:243|137:315,1,120,6|2,1:0|0:1,0:0:0:0:
105,366,237342,2,0,P|155:356|234:352,1,120,10|8,1:0|1:0,0:0:0:0:
292,372,238073,1,2,0:1:0:0:
371,253,238561,38,2,P|350:209|278:185,1,120,4|2,1:2|0:1,0:1:0:0:
220,212,239293,1,8,1:0:0:0:
224,140,239537,2,0,P|231:93|229:63,1,60,2|8,0:1|1:0,0:0:0:0:
174,35,240025,2,0,P|135:32|109:29,1,60,2|10,0:1|1:0,0:0:0:0:
65,82,240512,6,0,P|50:120|58:198,1,120,6|2,1:0|0:1,0:0:0:0:
111,245,241244,1,10,1:0:0:0:
176,214,241488,2,0,P|224:207|261:208,1,60,0|8,0:0|1:0,0:0:0:0:
368,263,242220,1,10,1:0:0:0:
426,220,242464,6,0,P|435:172|435:138,2,60,6|8|8,1:0|0:0|0:0,0:0:0:0:
437,291,243195,2,0,L|469:324,2,30,2|8|0,0:1|0:0|0:0,0:0:0:0:
374,327,243683,1,8,0:0:0:0:
305,348,243927,2,0,P|244:344|230:339,1,60,8|8,0:0|0:0,0:0:0:0:
173,353,244415,6,0,P|182:291|179:244,2,90,6|2|10,1:0|1:0|1:0,0:0:0:0:
139,366,245269,2,0,P|95:360|62:359,1,60,0|0,1:0|0:0,0:0:0:0:
45,346,245634,2,0,L|12:351,2,30,10|0|2,1:0|0:0|0:1,0:0:0:0:
63,202,246366,38,2,P|120:195|195:199,1,120,4|2,1:2|0:1,0:1:0:0:
234,247,247098,2,0,L|237:295,2,30,10|0|0,1:0|1:0|0:0,0:0:0:0:
256,178,247586,2,0,P|277:141|296:128,1,60,10|2,1:0|0:1,0:0:0:0:
362,136,248073,1,8,1:0:0:0:
421,178,248317,6,0,B|423:222|399:217|401:271,2,90,6|2|10,1:0|0:1|1:0,0:0:0:0:
447,153,249171,2,0,P|442:110|399:61,1,90,2|10,0:1|1:0,0:0:0:0:
344,85,249781,1,2,0:1:0:0:
276,58,250025,1,8,1:0:0:0:
256,192,250269,12,4,252098,0:2:0:0:
