osu file format v14

[General]
AudioFilename: audio.mp3
AudioLeadIn: 0
PreviewTime: 63007
Countdown: 0
SampleSet: Normal
StackLeniency: 0.8
Mode: 3
LetterboxInBreaks: 0
SpecialStyle: 1
WidescreenStoryboard: 0

[Editor]
DistanceSpacing: 0.8
BeatDivisor: 4
GridSize: 32
TimelineZoom: 1.8

[Metadata]
Title:Noborenai Sakamichi
TitleUnicode:登れない坂道
Artist:monet
ArtistUnicode:monet
Creator:Herkkupala
Version:The Hill And The Sunflowers
Source:素晴らしき日々~不連続存在~
Tags:subahibi subarashiki hibi ~furenzoku sonzai~ wonderful everyday ~diskontinuierliches dasein~ すかぢ sca-ji SCA-自 ピクセルビー pixelbee visual novel chordial blitz treat video game japanese pop j-pop jpop eroge galgame visual novel ending end stacks jacks chordstacks chordjacks
BeatmapID:1615905
BeatmapSetID:768338

[Difficulty]
HPDrainRate:8
CircleSize:4
OverallDifficulty:8
ApproachRate:5
SliderMultiplier:1.4
SliderTickRate:1

[Events]
//Background and Video events
0,0,"bg.png",0,0
//Break Periods
//Storyboard Layer 0 (Background)
//Storyboard Layer 1 (Fail)
//Storyboard Layer 2 (Pass)
//Storyboard Layer 3 (Foreground)
//Storyboard Layer 4 (Overlay)
//Storyboard Sound Samples

[TimingPoints]
568,487.804878,4,1,1,15,1,0
15202,-100.00000001,4,1,1,25,0,0
31787,-100.00000001,4,1,1,20,0,0
49348,-100.00000001,4,1,1,25,0,0
63007,-100.00000001,4,1,1,25,0,1
94226,-100.00000001,4,1,1,25,0,0
109836,-100.00000001,4,1,1,20,0,0
125446,-100.00000001,4,1,1,25,0,0
141055,-100.00000001,4,1,1,25,0,1
172275,-100.00000001,4,1,1,15,0,0
187641,-100.00000001,4,1,1,20,0,0
205446,-100.00000001,4,1,1,25,0,1
234714,-100.00000001,4,1,1,25,0,0
252276,500,4,1,1,15,1,0
252276,-97.5609756097561,4,1,1,15,0,0
253776,504.201681,4,1,1,15,1,8
253776,-96.7479674167886,4,1,1,15,0,0
254280,508.474576,4,1,1,15,1,0
254280,-95.9349594007588,4,1,1,15,0,0
264449,526.315789,4,1,1,15,1,0
264449,-92.6829269126829,4,1,1,15,0,0
265765,545.454545,4,1,1,15,1,8
265765,-89.4308943834688,4,1,1,15,0,0
266038,600,4,1,1,15,1,8
266038,-81.3008130081301,4,1,1,15,0,0
266338,810.810811,4,1,1,15,1,8
266338,-60.1626016119783,4,1,1,15,0,0
266743,810.810811,4,1,1,15,1,8
266743,-60.1626016119783,4,1,1,15,0,0
268365,1578.947368,4,1,1,15,1,0
268365,-30.8943089513279,4,1,1,15,0,0

[HitObjects]
64,192,568,5,0,0:0:0:0:
448,192,568,1,0,0:0:0:0:
192,192,933,1,0,0:0:0:0:
448,192,1299,1,0,0:0:0:0:
64,192,1543,1,0,0:0:0:0:
320,192,1543,1,0,0:0:0:0:
192,192,1787,1,0,0:0:0:0:
320,192,1787,1,0,0:0:0:0:
192,192,2031,1,0,0:0:0:0:
448,192,2031,1,0,0:0:0:0:
64,192,2519,1,0,0:0:0:0:
448,192,2519,1,0,0:0:0:0:
192,192,2885,1,0,0:0:0:0:
448,192,3250,1,0,0:0:0:0:
64,192,3494,1,0,0:0:0:0:
320,192,3494,1,0,0:0:0:0:
192,192,3738,1,0,0:0:0:0:
320,192,3738,1,0,0:0:0:0:
192,192,3982,1,0,0:0:0:0:
448,192,3982,1,0,0:0:0:0:
320,192,4226,1,0,0:0:0:0:
64,192,4470,1,0,0:0:0:0:
448,192,4470,1,0,0:0:0:0:
192,192,4836,1,0,0:0:0:0:
448,192,5202,1,0,0:0:0:0:
64,192,5446,1,0,0:0:0:0:
448,192,5689,1,0,0:0:0:0:
192,192,5689,1,0,0:0:0:0:
192,192,5933,1,0,0:0:0:0:
64,192,5933,1,0,0:0:0:0:
320,192,6177,1,0,0:0:0:0:
64,192,6421,1,0,0:0:0:0:
448,192,6452,1,0,0:0:0:0:
320,192,6787,1,0,0:0:0:0:
192,192,7153,1,0,0:0:0:0:
64,192,7397,1,0,0:0:0:0:
448,192,7397,1,0,0:0:0:0:
320,192,7641,1,0,0:0:0:0:
448,192,7885,1,0,0:0:0:0:
192,192,7885,1,0,0:0:0:0:
448,192,8372,1,0,0:0:0:0:
320,192,8372,128,0,10324:0:0:0:0:
192,192,8738,1,0,0:0:0:0:
448,192,9104,1,0,0:0:0:0:
64,192,9592,1,0,0:0:0:0:
192,192,9836,1,0,0:0:0:0:
64,192,10324,1,0,0:0:0:0:
448,192,10324,1,0,0:0:0:0:
192,192,10689,1,0,0:0:0:0:
320,192,11055,1,0,0:0:0:0:
448,192,11055,1,0,0:0:0:0:
192,192,11299,1,0,0:0:0:0:
64,192,11543,1,0,0:0:0:0:
448,192,11787,1,0,0:0:0:0:
64,192,12275,128,0,14226:0:0:0:0:
320,192,12275,1,0,0:0:0:0:
192,192,12641,1,0,0:0:0:0:
448,192,13007,1,0,0:0:0:0:
320,192,13250,1,0,0:0:0:0:
448,192,13494,1,0,0:0:0:0:
320,192,13738,1,0,0:0:0:0:
192,192,13982,1,0,0:0:0:0:
192,192,14226,1,0,0:0:0:0:
448,192,14257,1,0,0:0:0:0:
192,192,15202,1,0,0:0:0:0:
448,192,15202,1,0,0:0:0:0:
64,192,15324,1,0,0:0:0:0:
448,192,15324,1,0,0:0:0:0:
64,192,15446,1,0,0:0:0:0:
320,192,15446,1,0,0:0:0:0:
192,192,15567,1,0,0:0:0:0:
320,192,15567,1,0,0:0:0:0:
192,192,15689,1,0,0:0:0:0:
448,192,15689,1,0,0:0:0:0:
64,192,15811,1,0,0:0:0:0:
448,192,15811,1,0,0:0:0:0:
192,192,15933,1,0,0:0:0:0:
320,192,15933,1,0,0:0:0:0:
64,192,16055,1,0,0:0:0:0:
320,192,16055,1,0,0:0:0:0:
192,192,16177,1,0,0:0:0:0:
320,192,16177,1,0,0:0:0:0:
448,192,16177,1,0,0:0:0:0:
64,192,16299,1,0,0:0:0:0:
448,192,16299,1,0,0:0:0:0:
64,192,16421,1,0,0:0:0:0:
320,192,16421,1,0,0:0:0:0:
192,192,16543,1,0,0:0:0:0:
320,192,16543,1,0,0:0:0:0:
448,192,16543,1,0,0:0:0:0:
192,192,16665,1,0,0:0:0:0:
320,192,16665,1,0,0:0:0:0:
448,192,16665,1,0,0:0:0:0:
64,192,16787,1,0,0:0:0:0:
448,192,16787,1,0,0:0:0:0:
64,192,16909,1,0,0:0:0:0:
192,192,16909,1,0,0:0:0:0:
320,192,16909,1,0,0:0:0:0:
64,192,17031,1,0,0:0:0:0:
192,192,17031,1,0,0:0:0:0:
320,192,17031,1,0,0:0:0:0:
320,192,17153,1,0,0:0:0:0:
448,192,17153,1,0,0:0:0:0:
64,192,17275,1,0,0:0:0:0:
192,192,17275,1,0,0:0:0:0:
64,192,17397,1,0,0:0:0:0:
320,192,17397,1,0,0:0:0:0:
448,192,17397,1,0,0:0:0:0:
192,192,17519,1,0,0:0:0:0:
448,192,17519,1,0,0:0:0:0:
192,192,17641,1,0,0:0:0:0:
320,192,17641,1,0,0:0:0:0:
64,192,17763,1,0,0:0:0:0:
320,192,17763,1,0,0:0:0:0:
64,192,17885,1,0,0:0:0:0:
448,192,17885,1,0,0:0:0:0:
192,192,18007,1,0,0:0:0:0:
320,192,18007,1,0,0:0:0:0:
448,192,18007,1,0,0:0:0:0:
192,192,18128,1,0,0:0:0:0:
320,192,18128,1,0,0:0:0:0:
448,192,18128,1,0,0:0:0:0:
64,192,18250,1,0,0:0:0:0:
320,192,18250,1,0,0:0:0:0:
192,192,18372,1,0,0:0:0:0:
448,192,18372,1,0,0:0:0:0:
64,192,18494,1,0,0:0:0:0:
320,192,18494,1,0,0:0:0:0:
448,192,18494,1,0,0:0:0:0:
64,192,18616,1,0,0:0:0:0:
320,192,18616,1,0,0:0:0:0:
448,192,18616,1,0,0:0:0:0:
192,192,18738,1,0,0:0:0:0:
320,192,18738,1,0,0:0:0:0:
64,192,18860,1,0,0:0:0:0:
192,192,18860,1,0,0:0:0:0:
448,192,18860,1,0,0:0:0:0:
64,192,18982,1,0,0:0:0:0:
192,192,18982,1,0,0:0:0:0:
448,192,18982,1,0,0:0:0:0:
320,192,19104,1,0,0:0:0:0:
448,192,19104,1,0,0:0:0:0:
64,192,19226,1,0,0:0:0:0:
192,192,19226,1,0,0:0:0:0:
320,192,19226,1,0,0:0:0:0:
64,192,19348,1,0,0:0:0:0:
192,192,19348,1,0,0:0:0:0:
320,192,19348,1,0,0:0:0:0:
192,192,19470,1,0,0:0:0:0:
448,192,19470,1,0,0:0:0:0:
64,192,19592,1,0,0:0:0:0:
320,192,19592,1,0,0:0:0:0:
64,192,19714,1,0,0:0:0:0:
320,192,19714,1,0,0:0:0:0:
64,192,19836,1,0,0:0:0:0:
448,192,19836,1,0,0:0:0:0:
192,192,19958,1,0,0:0:0:0:
320,192,19958,1,0,0:0:0:0:
448,192,19958,1,0,0:0:0:0:
192,192,20080,1,0,0:0:0:0:
320,192,20080,1,0,0:0:0:0:
448,192,20080,1,0,0:0:0:0:
64,192,20202,1,0,0:0:0:0:
320,192,20202,1,0,0:0:0:0:
192,192,20324,1,0,0:0:0:0:
448,192,20324,1,0,0:0:0:0:
64,192,20446,1,0,0:0:0:0:
320,192,20446,1,0,0:0:0:0:
448,192,20446,1,0,0:0:0:0:
64,192,20567,1,0,0:0:0:0:
320,192,20567,1,0,0:0:0:0:
448,192,20567,1,0,0:0:0:0:
192,192,20689,1,0,0:0:0:0:
320,192,20689,1,0,0:0:0:0:
64,192,20811,1,0,0:0:0:0:
192,192,20811,1,0,0:0:0:0:
448,192,20811,1,0,0:0:0:0:
64,192,20933,1,0,0:0:0:0:
192,192,20933,1,0,0:0:0:0:
448,192,20933,1,0,0:0:0:0:
320,192,21055,1,0,0:0:0:0:
64,192,21177,1,0,0:0:0:0:
448,192,21177,1,0,0:0:0:0:
64,192,21299,1,0,0:0:0:0:
192,192,21299,1,0,0:0:0:0:
320,192,21299,1,0,0:0:0:0:
320,192,21421,1,0,0:0:0:0:
448,192,21421,1,0,0:0:0:0:
192,192,21543,1,0,0:0:0:0:
320,192,21543,1,0,0:0:0:0:
64,192,21665,1,0,0:0:0:0:
448,192,21665,1,0,0:0:0:0:
64,192,21787,1,0,0:0:0:0:
320,192,21787,1,0,0:0:0:0:
192,192,21787,1,0,0:0:0:0:
64,192,21909,1,0,0:0:0:0:
320,192,21909,1,0,0:0:0:0:
192,192,21909,1,0,0:0:0:0:
64,192,22031,1,0,0:0:0:0:
192,192,22031,1,0,0:0:0:0:
320,192,22031,1,0,0:0:0:0:
448,192,22031,1,0,0:0:0:0:
448,192,22153,1,0,0:0:0:0:
320,192,22153,1,0,0:0:0:0:
64,192,22275,1,0,0:0:0:0:
192,192,22275,1,0,0:0:0:0:
448,192,22275,1,0,0:0:0:0:
64,192,22397,1,0,0:0:0:0:
192,192,22397,1,0,0:0:0:0:
448,192,22397,1,0,0:0:0:0:
64,192,22519,1,0,0:0:0:0:
192,192,22519,1,0,0:0:0:0:
320,192,22519,1,0,0:0:0:0:
448,192,22519,1,0,0:0:0:0:
64,192,22641,1,0,0:0:0:0:
320,192,22641,1,0,0:0:0:0:
192,192,22763,1,0,0:0:0:0:
320,192,22763,1,0,0:0:0:0:
448,192,22763,1,0,0:0:0:0:
192,192,22885,1,0,0:0:0:0:
320,192,22885,1,0,0:0:0:0:
448,192,22885,1,0,0:0:0:0:
64,192,23007,1,0,0:0:0:0:
192,192,23128,1,0,0:0:0:0:
320,192,23128,1,0,0:0:0:0:
64,192,23250,1,0,0:0:0:0:
192,192,23250,1,0,0:0:0:0:
448,192,23250,1,0,0:0:0:0:
320,192,23372,1,0,0:0:0:0:
448,192,23372,1,0,0:0:0:0:
64,192,23494,1,0,0:0:0:0:
192,192,23494,1,0,0:0:0:0:
320,192,23494,1,0,0:0:0:0:
192,192,23616,1,0,0:0:0:0:
64,192,23616,1,0,0:0:0:0:
192,192,23738,1,0,0:0:0:0:
448,192,23738,1,0,0:0:0:0:
448,192,23860,1,0,0:0:0:0:
320,192,23860,1,0,0:0:0:0:
64,192,23860,1,0,0:0:0:0:
448,192,23982,1,0,0:0:0:0:
320,192,23982,1,0,0:0:0:0:
64,192,23982,1,0,0:0:0:0:
320,192,24104,1,0,0:0:0:0:
192,192,24104,1,0,0:0:0:0:
192,192,24226,1,0,0:0:0:0:
448,192,24226,1,0,0:0:0:0:
192,192,24348,1,0,0:0:0:0:
64,192,24348,1,0,0:0:0:0:
448,192,24348,1,0,0:0:0:0:
192,192,24470,1,0,0:0:0:0:
64,192,24470,1,0,0:0:0:0:
448,192,24470,1,0,0:0:0:0:
64,192,24592,1,0,0:0:0:0:
320,192,24592,1,0,0:0:0:0:
64,192,24714,1,0,0:0:0:0:
192,192,24714,1,0,0:0:0:0:
320,192,24714,1,0,0:0:0:0:
64,192,24836,1,0,0:0:0:0:
192,192,24836,1,0,0:0:0:0:
320,192,24836,1,0,0:0:0:0:
192,192,24958,1,0,0:0:0:0:
448,192,24958,1,0,0:0:0:0:
64,192,25080,1,0,0:0:0:0:
320,192,25080,1,0,0:0:0:0:
64,192,25202,1,0,0:0:0:0:
192,192,25202,1,0,0:0:0:0:
448,192,25202,1,0,0:0:0:0:
192,192,25324,1,0,0:0:0:0:
320,192,25324,1,0,0:0:0:0:
64,192,25446,1,0,0:0:0:0:
320,192,25446,1,0,0:0:0:0:
448,192,25446,1,0,0:0:0:0:
448,192,25567,1,0,0:0:0:0:
192,192,25689,1,0,0:0:0:0:
320,192,25689,1,0,0:0:0:0:
64,192,25811,1,0,0:0:0:0:
192,192,25811,1,0,0:0:0:0:
448,192,25811,1,0,0:0:0:0:
64,192,25933,1,0,0:0:0:0:
192,192,25933,1,0,0:0:0:0:
320,192,25933,1,0,0:0:0:0:
448,192,25933,1,0,0:0:0:0:
320,192,26055,1,0,0:0:0:0:
448,192,26055,1,0,0:0:0:0:
64,192,26177,1,0,0:0:0:0:
320,192,26177,1,0,0:0:0:0:
64,192,26299,1,0,0:0:0:0:
192,192,26299,1,0,0:0:0:0:
448,192,26299,1,0,0:0:0:0:
64,192,26421,1,0,0:0:0:0:
192,192,26421,1,0,0:0:0:0:
448,192,26421,1,0,0:0:0:0:
64,192,26543,1,0,0:0:0:0:
320,192,26543,1,0,0:0:0:0:
192,192,26665,1,0,0:0:0:0:
320,192,26665,1,0,0:0:0:0:
448,192,26665,1,0,0:0:0:0:
192,192,26787,1,0,0:0:0:0:
320,192,26787,1,0,0:0:0:0:
448,192,26787,1,0,0:0:0:0:
64,192,26909,1,0,0:0:0:0:
448,192,26909,1,0,0:0:0:0:
64,192,27031,1,0,0:0:0:0:
192,192,27031,1,0,0:0:0:0:
320,192,27031,1,0,0:0:0:0:
64,192,27153,1,0,0:0:0:0:
192,192,27153,1,0,0:0:0:0:
320,192,27153,1,0,0:0:0:0:
192,192,27275,1,0,0:0:0:0:
448,192,27275,1,0,0:0:0:0:
192,192,27397,1,0,0:0:0:0:
320,192,27397,1,0,0:0:0:0:
448,192,27397,1,0,0:0:0:0:
320,192,27519,1,0,0:0:0:0:
192,192,27641,1,0,0:0:0:0:
448,192,27641,1,0,0:0:0:0:
64,192,27763,1,0,0:0:0:0:
320,192,27763,1,0,0:0:0:0:
448,192,27763,1,0,0:0:0:0:
64,192,27885,1,0,0:0:0:0:
192,192,27885,1,0,0:0:0:0:
320,192,27885,1,0,0:0:0:0:
448,192,27885,1,0,0:0:0:0:
192,192,28007,1,0,0:0:0:0:
320,192,28007,1,0,0:0:0:0:
192,192,28128,1,0,0:0:0:0:
448,192,28128,1,0,0:0:0:0:
64,192,28250,1,0,0:0:0:0:
320,192,28250,1,0,0:0:0:0:
448,192,28250,1,0,0:0:0:0:
64,192,28372,1,0,0:0:0:0:
320,192,28372,1,0,0:0:0:0:
448,192,28372,1,0,0:0:0:0:
64,192,28494,1,0,0:0:0:0:
192,192,28494,1,0,0:0:0:0:
192,192,28616,1,0,0:0:0:0:
320,192,28616,1,0,0:0:0:0:
448,192,28616,1,0,0:0:0:0:
192,192,28738,1,0,0:0:0:0:
320,192,28738,1,0,0:0:0:0:
448,192,28738,1,0,0:0:0:0:
448,192,28860,1,0,0:0:0:0:
64,192,28982,1,0,0:0:0:0:
192,192,28982,1,0,0:0:0:0:
64,192,29104,1,0,0:0:0:0:
320,192,29104,1,0,0:0:0:0:
448,192,29104,1,0,0:0:0:0:
192,192,29226,1,0,0:0:0:0:
320,192,29226,1,0,0:0:0:0:
64,192,29348,1,0,0:0:0:0:
448,192,29348,1,0,0:0:0:0:
192,192,29470,1,0,0:0:0:0:
448,192,29470,1,0,0:0:0:0:
64,192,29592,1,0,0:0:0:0:
192,192,29592,1,0,0:0:0:0:
320,192,29592,1,0,0:0:0:0:
64,192,29714,1,0,0:0:0:0:
192,192,29714,1,0,0:0:0:0:
320,192,29714,1,0,0:0:0:0:
448,192,29836,1,0,0:0:0:0:
320,192,29836,1,0,0:0:0:0:
192,192,29836,1,0,0:0:0:0:
64,192,29836,1,0,0:0:0:0:
320,192,30324,1,0,0:0:0:0:
64,192,30689,1,0,0:0:0:0:
448,192,31055,1,0,0:0:0:0:
320,192,31299,1,0,0:0:0:0:
192,192,31543,1,0,0:0:0:0:
64,192,31787,1,0,0:0:0:0:
192,192,31787,1,0,0:0:0:0:
448,192,31787,1,0,0:0:0:0:
448,192,31909,1,0,0:0:0:0:
64,192,32031,1,0,0:0:0:0:
320,192,32031,1,0,0:0:0:0:
64,192,32153,1,0,0:0:0:0:
192,192,32153,1,0,0:0:0:0:
64,192,32275,1,0,0:0:0:0:
192,192,32275,1,0,0:0:0:0:
448,192,32275,1,0,0:0:0:0:
320,192,32397,1,0,0:0:0:0:
448,192,32397,1,0,0:0:0:0:
64,192,32519,1,0,0:0:0:0:
320,192,32519,1,0,0:0:0:0:
448,192,32519,1,0,0:0:0:0:
64,192,32641,1,0,0:0:0:0:
192,192,32763,1,0,0:0:0:0:
448,192,32763,1,0,0:0:0:0:
448,192,32885,1,0,0:0:0:0:
64,192,33007,1,0,0:0:0:0:
192,192,33007,1,0,0:0:0:0:
320,192,33007,1,0,0:0:0:0:
320,192,33128,1,0,0:0:0:0:
64,192,33250,1,0,0:0:0:0:
192,192,33250,1,0,0:0:0:0:
192,192,33372,1,0,0:0:0:0:
64,192,33494,1,0,0:0:0:0:
320,192,33494,1,0,0:0:0:0:
448,192,33494,1,0,0:0:0:0:
64,192,33616,1,0,0:0:0:0:
320,192,33616,1,0,0:0:0:0:
192,192,33738,1,0,0:0:0:0:
320,192,33738,1,0,0:0:0:0:
448,192,33738,1,0,0:0:0:0:
192,192,33860,1,0,0:0:0:0:
64,192,33982,1,0,0:0:0:0:
320,192,33982,1,0,0:0:0:0:
448,192,33982,1,0,0:0:0:0:
320,192,34104,1,0,0:0:0:0:
448,192,34104,1,0,0:0:0:0:
64,192,34226,1,0,0:0:0:0:
448,192,34226,1,0,0:0:0:0:
64,192,34348,1,0,0:0:0:0:
192,192,34348,1,0,0:0:0:0:
64,192,34470,1,0,0:0:0:0:
192,192,34470,1,0,0:0:0:0:
448,192,34470,1,0,0:0:0:0:
448,192,34592,1,0,0:0:0:0:
64,192,34714,1,0,0:0:0:0:
320,192,34714,1,0,0:0:0:0:
64,192,34836,1,0,0:0:0:0:
192,192,34958,1,0,0:0:0:0:
320,192,34958,1,0,0:0:0:0:
448,192,34958,1,0,0:0:0:0:
320,192,35080,1,0,0:0:0:0:
64,192,35202,1,0,0:0:0:0:
192,192,35202,1,0,0:0:0:0:
448,192,35202,1,0,0:0:0:0:
192,192,35324,1,0,0:0:0:0:
64,192,35446,1,0,0:0:0:0:
320,192,35446,1,0,0:0:0:0:
448,192,35446,1,0,0:0:0:0:
320,192,35567,1,0,0:0:0:0:
64,192,35689,1,0,0:0:0:0:
192,192,35689,1,0,0:0:0:0:
320,192,35689,1,0,0:0:0:0:
448,192,35689,1,0,0:0:0:0:
192,192,35811,1,0,0:0:0:0:
64,192,35933,1,0,0:0:0:0:
448,192,35933,1,0,0:0:0:0:
448,192,36055,1,0,0:0:0:0:
64,192,36177,1,0,0:0:0:0:
192,192,36177,1,0,0:0:0:0:
320,192,36177,1,0,0:0:0:0:
320,192,36299,1,0,0:0:0:0:
64,192,36421,1,0,0:0:0:0:
448,192,36421,1,0,0:0:0:0:
64,192,36543,1,0,0:0:0:0:
192,192,36665,1,0,0:0:0:0:
320,192,36665,1,0,0:0:0:0:
448,192,36665,1,0,0:0:0:0:
320,192,36787,1,0,0:0:0:0:
64,192,36909,1,0,0:0:0:0:
192,192,36909,1,0,0:0:0:0:
448,192,36909,1,0,0:0:0:0:
192,192,37031,1,0,0:0:0:0:
64,192,37153,1,0,0:0:0:0:
320,192,37153,1,0,0:0:0:0:
448,192,37153,1,0,0:0:0:0:
448,192,37275,1,0,0:0:0:0:
64,192,37397,1,0,0:0:0:0:
192,192,37397,1,0,0:0:0:0:
320,192,37397,1,0,0:0:0:0:
64,192,37519,1,0,0:0:0:0:
192,192,37641,1,0,0:0:0:0:
320,192,37641,1,0,0:0:0:0:
448,192,37641,1,0,0:0:0:0:
320,192,37763,1,0,0:0:0:0:
64,192,37885,1,0,0:0:0:0:
192,192,37885,1,0,0:0:0:0:
448,192,37885,1,0,0:0:0:0:
320,192,38007,1,0,0:0:0:0:
448,192,38007,1,0,0:0:0:0:
192,192,38128,1,0,0:0:0:0:
320,192,38128,1,0,0:0:0:0:
64,192,38250,1,0,0:0:0:0:
192,192,38250,1,0,0:0:0:0:
64,192,38372,1,0,0:0:0:0:
320,192,38372,1,0,0:0:0:0:
448,192,38372,1,0,0:0:0:0:
320,192,38494,1,0,0:0:0:0:
192,192,38616,1,0,0:0:0:0:
448,192,38616,1,0,0:0:0:0:
192,192,38738,1,0,0:0:0:0:
64,192,38860,1,0,0:0:0:0:
320,192,38860,1,0,0:0:0:0:
448,192,38860,1,0,0:0:0:0:
192,192,38982,1,0,0:0:0:0:
320,192,39104,1,0,0:0:0:0:
448,192,39104,1,0,0:0:0:0:
64,192,39226,1,0,0:0:0:0:
192,192,39348,1,0,0:0:0:0:
320,192,39348,1,0,0:0:0:0:
448,192,39348,1,0,0:0:0:0:
64,192,39470,1,0,0:0:0:0:
448,192,39470,1,0,0:0:0:0:
64,192,39592,1,0,0:0:0:0:
192,192,39592,1,0,0:0:0:0:
320,192,39592,1,0,0:0:0:0:
320,192,39714,1,0,0:0:0:0:
64,192,39836,1,0,0:0:0:0:
192,192,39836,1,0,0:0:0:0:
448,192,39836,1,0,0:0:0:0:
192,192,39958,1,0,0:0:0:0:
320,192,40080,1,0,0:0:0:0:
448,192,40080,1,0,0:0:0:0:
448,192,40202,1,0,0:0:0:0:
64,192,40324,1,0,0:0:0:0:
192,192,40324,1,0,0:0:0:0:
320,192,40324,1,0,0:0:0:0:
64,192,40446,1,0,0:0:0:0:
320,192,40446,1,0,0:0:0:0:
448,192,40446,1,0,0:0:0:0:
64,192,40567,1,0,0:0:0:0:
192,192,40567,1,0,0:0:0:0:
448,192,40567,1,0,0:0:0:0:
192,192,40689,1,0,0:0:0:0:
64,192,40811,1,0,0:0:0:0:
320,192,40811,1,0,0:0:0:0:
448,192,40811,1,0,0:0:0:0:
320,192,40933,1,0,0:0:0:0:
64,192,41055,1,0,0:0:0:0:
192,192,41055,1,0,0:0:0:0:
448,192,41055,1,0,0:0:0:0:
64,192,41177,1,0,0:0:0:0:
192,192,41177,1,0,0:0:0:0:
64,192,41299,1,0,0:0:0:0:
320,192,41299,1,0,0:0:0:0:
448,192,41299,1,0,0:0:0:0:
320,192,41421,1,0,0:0:0:0:
448,192,41421,1,0,0:0:0:0:
64,192,41543,1,0,0:0:0:0:
192,192,41543,1,0,0:0:0:0:
448,192,41543,1,0,0:0:0:0:
192,192,41665,1,0,0:0:0:0:
64,192,41787,1,0,0:0:0:0:
320,192,41787,1,0,0:0:0:0:
448,192,41787,1,0,0:0:0:0:
192,192,41909,1,0,0:0:0:0:
448,192,41909,1,0,0:0:0:0:
64,192,42031,1,0,0:0:0:0:
192,192,42031,1,0,0:0:0:0:
320,192,42031,1,0,0:0:0:0:
320,192,42153,1,0,0:0:0:0:
64,192,42275,1,0,0:0:0:0:
192,192,42275,1,0,0:0:0:0:
448,192,42275,1,0,0:0:0:0:
192,192,42397,1,0,0:0:0:0:
64,192,42519,1,0,0:0:0:0:
320,192,42519,1,0,0:0:0:0:
448,192,42519,1,0,0:0:0:0:
320,192,42641,1,0,0:0:0:0:
64,192,42763,1,0,0:0:0:0:
192,192,42763,1,0,0:0:0:0:
448,192,42763,1,0,0:0:0:0:
192,192,42885,1,0,0:0:0:0:
64,192,43007,1,0,0:0:0:0:
448,192,43007,1,0,0:0:0:0:
448,192,43128,1,0,0:0:0:0:
64,192,43250,1,0,0:0:0:0:
192,192,43250,1,0,0:0:0:0:
320,192,43250,1,0,0:0:0:0:
192,192,43372,1,0,0:0:0:0:
64,192,43494,1,0,0:0:0:0:
320,192,43494,1,0,0:0:0:0:
448,192,43494,1,0,0:0:0:0:
320,192,43616,1,0,0:0:0:0:
64,192,43738,1,0,0:0:0:0:
192,192,43738,1,0,0:0:0:0:
448,192,43738,1,0,0:0:0:0:
64,192,43860,1,0,0:0:0:0:
320,192,43860,1,0,0:0:0:0:
192,192,43982,1,0,0:0:0:0:
320,192,43982,1,0,0:0:0:0:
448,192,43982,1,0,0:0:0:0:
64,192,44104,1,0,0:0:0:0:
448,192,44104,1,0,0:0:0:0:
64,192,44226,1,0,0:0:0:0:
192,192,44226,1,0,0:0:0:0:
320,192,44226,1,0,0:0:0:0:
320,192,44348,1,0,0:0:0:0:
64,192,44470,1,0,0:0:0:0:
448,192,44470,1,0,0:0:0:0:
448,192,44592,1,0,0:0:0:0:
64,192,44714,1,0,0:0:0:0:
192,192,44714,1,0,0:0:0:0:
320,192,44714,1,0,0:0:0:0:
192,192,44836,1,0,0:0:0:0:
320,192,44958,1,0,0:0:0:0:
448,192,44958,1,0,0:0:0:0:
320,192,45080,1,0,0:0:0:0:
64,192,45202,1,0,0:0:0:0:
192,192,45202,1,0,0:0:0:0:
448,192,45202,1,0,0:0:0:0:
192,192,45324,1,0,0:0:0:0:
64,192,45446,1,0,0:0:0:0:
320,192,45446,1,0,0:0:0:0:
448,192,45446,1,0,0:0:0:0:
64,192,45567,1,0,0:0:0:0:
192,192,45567,1,0,0:0:0:0:
448,192,45567,1,0,0:0:0:0:
320,192,45689,1,0,0:0:0:0:
448,192,45689,1,0,0:0:0:0:
320,192,45811,1,0,0:0:0:0:
64,192,45933,1,0,0:0:0:0:
192,192,45933,1,0,0:0:0:0:
448,192,45933,1,0,0:0:0:0:
192,192,46055,1,0,0:0:0:0:
64,192,46177,1,0,0:0:0:0:
320,192,46177,1,0,0:0:0:0:
448,192,46177,1,0,0:0:0:0:
192,192,46299,1,0,0:0:0:0:
448,192,46299,1,0,0:0:0:0:
64,192,46421,1,0,0:0:0:0:
192,192,46421,1,0,0:0:0:0:
320,192,46421,1,0,0:0:0:0:
64,192,46543,1,0,0:0:0:0:
448,192,46543,1,0,0:0:0:0:
192,192,46665,1,0,0:0:0:0:
448,192,46665,1,0,0:0:0:0:
192,192,46787,1,0,0:0:0:0:
320,192,46787,1,0,0:0:0:0:
64,192,46909,1,0,0:0:0:0:
320,192,46909,1,0,0:0:0:0:
448,192,46909,1,0,0:0:0:0:
64,192,47031,1,0,0:0:0:0:
192,192,47031,1,0,0:0:0:0:
64,192,47153,1,0,0:0:0:0:
192,192,47153,1,0,0:0:0:0:
64,192,47397,1,0,0:0:0:0:
192,192,47397,1,0,0:0:0:0:
320,192,47397,1,0,0:0:0:0:
448,192,47397,1,0,0:0:0:0:
320,192,47641,1,0,0:0:0:0:
64,192,47763,1,0,0:0:0:0:
192,192,47763,1,0,0:0:0:0:
64,192,47885,1,0,0:0:0:0:
192,192,47885,1,0,0:0:0:0:
448,192,47885,1,0,0:0:0:0:
64,192,48128,1,0,0:0:0:0:
192,192,48128,1,0,0:0:0:0:
320,192,48128,1,0,0:0:0:0:
448,192,48128,1,0,0:0:0:0:
64,192,48616,1,0,0:0:0:0:
320,192,48616,1,0,0:0:0:0:
448,192,48616,1,0,0:0:0:0:
320,192,48738,1,0,0:0:0:0:
64,192,48860,1,0,0:0:0:0:
192,192,48860,1,0,0:0:0:0:
448,192,48860,1,0,0:0:0:0:
192,192,48982,1,0,0:0:0:0:
64,192,49104,1,0,0:0:0:0:
320,192,49104,1,0,0:0:0:0:
448,192,49104,1,0,0:0:0:0:
64,192,49226,1,0,0:0:0:0:
192,192,49348,1,0,0:0:0:0:
320,192,49348,1,0,0:0:0:0:
448,192,49348,1,0,0:0:0:0:
448,192,49470,1,0,0:0:0:0:
64,192,49592,1,0,0:0:0:0:
192,192,49592,1,0,0:0:0:0:
320,192,49592,1,0,0:0:0:0:
64,192,49714,1,0,0:0:0:0:
192,192,49714,1,0,0:0:0:0:
320,192,49836,1,0,0:0:0:0:
448,192,49836,1,0,0:0:0:0:
64,192,49958,1,0,0:0:0:0:
320,192,49958,1,0,0:0:0:0:
64,192,50080,1,0,0:0:0:0:
192,192,50080,1,0,0:0:0:0:
448,192,50080,1,0,0:0:0:0:
448,192,50202,1,0,0:0:0:0:
64,192,50324,1,0,0:0:0:0:
192,192,50324,1,0,0:0:0:0:
320,192,50324,1,0,0:0:0:0:
320,192,50446,1,0,0:0:0:0:
64,192,50567,1,0,0:0:0:0:
192,192,50567,1,0,0:0:0:0:
448,192,50567,1,0,0:0:0:0:
192,192,50689,1,0,0:0:0:0:
320,192,50811,1,0,0:0:0:0:
448,192,50811,1,0,0:0:0:0:
448,192,50933,1,0,0:0:0:0:
64,192,51055,1,0,0:0:0:0:
192,192,51055,1,0,0:0:0:0:
320,192,51055,1,0,0:0:0:0:
192,192,51177,1,0,0:0:0:0:
448,192,51177,1,0,0:0:0:0:
64,192,51299,1,0,0:0:0:0:
320,192,51299,1,0,0:0:0:0:
448,192,51299,1,0,0:0:0:0:
320,192,51421,1,0,0:0:0:0:
64,192,51543,1,0,0:0:0:0:
192,192,51543,1,0,0:0:0:0:
448,192,51543,1,0,0:0:0:0:
64,192,51665,1,0,0:0:0:0:
320,192,51665,1,0,0:0:0:0:
192,192,51787,1,0,0:0:0:0:
448,192,51787,1,0,0:0:0:0:
64,192,51909,1,0,0:0:0:0:
192,192,51909,1,0,0:0:0:0:
448,192,51909,1,0,0:0:0:0:
64,192,52031,1,0,0:0:0:0:
320,192,52031,1,0,0:0:0:0:
448,192,52031,1,0,0:0:0:0:
320,192,52153,1,0,0:0:0:0:
64,192,52275,1,0,0:0:0:0:
192,192,52275,1,0,0:0:0:0:
192,192,52397,1,0,0:0:0:0:
64,192,52519,1,0,0:0:0:0:
320,192,52519,1,0,0:0:0:0:
448,192,52519,1,0,0:0:0:0:
320,192,52641,1,0,0:0:0:0:
64,192,52763,1,0,0:0:0:0:
192,192,52763,1,0,0:0:0:0:
448,192,52763,1,0,0:0:0:0:
192,192,52885,1,0,0:0:0:0:
64,192,53007,1,0,0:0:0:0:
320,192,53007,1,0,0:0:0:0:
448,192,53007,1,0,0:0:0:0:
448,192,53128,1,0,0:0:0:0:
64,192,53250,1,0,0:0:0:0:
192,192,53250,1,0,0:0:0:0:
320,192,53250,1,0,0:0:0:0:
64,192,53372,1,0,0:0:0:0:
192,192,53372,1,0,0:0:0:0:
64,192,53494,1,0,0:0:0:0:
192,192,53494,1,0,0:0:0:0:
448,192,53494,1,0,0:0:0:0:
320,192,53616,1,0,0:0:0:0:
192,192,53738,1,0,0:0:0:0:
320,192,53738,1,0,0:0:0:0:
448,192,53738,1,0,0:0:0:0:
192,192,53860,1,0,0:0:0:0:
448,192,53860,1,0,0:0:0:0:
64,192,53982,1,0,0:0:0:0:
192,192,53982,1,0,0:0:0:0:
320,192,53982,1,0,0:0:0:0:
320,192,54104,1,0,0:0:0:0:
64,192,54226,1,0,0:0:0:0:
192,192,54226,1,0,0:0:0:0:
448,192,54226,1,0,0:0:0:0:
192,192,54348,1,0,0:0:0:0:
64,192,54470,1,0,0:0:0:0:
320,192,54470,1,0,0:0:0:0:
448,192,54470,1,0,0:0:0:0:
448,192,54592,1,0,0:0:0:0:
64,192,54714,1,0,0:0:0:0:
192,192,54714,1,0,0:0:0:0:
192,192,54836,1,0,0:0:0:0:
64,192,54958,1,0,0:0:0:0:
320,192,54958,1,0,0:0:0:0:
448,192,54958,1,0,0:0:0:0:
64,192,55080,1,0,0:0:0:0:
192,192,55080,1,0,0:0:0:0:
448,192,55080,1,0,0:0:0:0:
192,192,55202,1,0,0:0:0:0:
320,192,55202,1,0,0:0:0:0:
448,192,55202,1,0,0:0:0:0:
64,192,55324,1,0,0:0:0:0:
320,192,55324,1,0,0:0:0:0:
64,192,55446,1,0,0:0:0:0:
320,192,55446,1,0,0:0:0:0:
192,192,55446,1,0,0:0:0:0:
192,192,55567,1,0,0:0:0:0:
448,192,55567,1,0,0:0:0:0:
448,192,55689,1,0,0:0:0:0:
320,192,55689,1,0,0:0:0:0:
320,192,55811,1,0,0:0:0:0:
64,192,55933,1,0,0:0:0:0:
192,192,55933,1,0,0:0:0:0:
448,192,55933,1,0,0:0:0:0:
192,192,56055,1,0,0:0:0:0:
64,192,56177,1,0,0:0:0:0:
320,192,56177,1,0,0:0:0:0:
448,192,56177,1,0,0:0:0:0:
192,192,56299,1,0,0:0:0:0:
448,192,56299,1,0,0:0:0:0:
64,192,56421,1,0,0:0:0:0:
192,192,56421,1,0,0:0:0:0:
320,192,56421,1,0,0:0:0:0:
320,192,56543,1,0,0:0:0:0:
64,192,56665,1,0,0:0:0:0:
192,192,56665,1,0,0:0:0:0:
448,192,56665,1,0,0:0:0:0:
192,192,56787,1,0,0:0:0:0:
64,192,56909,1,0,0:0:0:0:
320,192,56909,1,0,0:0:0:0:
448,192,56909,1,0,0:0:0:0:
448,192,57031,1,0,0:0:0:0:
64,192,57153,1,0,0:0:0:0:
192,192,57153,1,0,0:0:0:0:
320,192,57153,1,0,0:0:0:0:
320,192,57275,1,0,0:0:0:0:
64,192,57397,1,0,0:0:0:0:
192,192,57397,1,0,0:0:0:0:
448,192,57397,1,0,0:0:0:0:
64,192,57519,1,0,0:0:0:0:
192,192,57519,1,0,0:0:0:0:
64,192,57641,1,0,0:0:0:0:
320,192,57641,1,0,0:0:0:0:
448,192,57641,1,0,0:0:0:0:
320,192,57763,1,0,0:0:0:0:
64,192,57885,1,0,0:0:0:0:
192,192,57885,1,0,0:0:0:0:
448,192,57885,1,0,0:0:0:0:
192,192,58007,1,0,0:0:0:0:
320,192,58128,1,0,0:0:0:0:
448,192,58128,1,0,0:0:0:0:
320,192,58250,1,0,0:0:0:0:
64,192,58372,1,0,0:0:0:0:
192,192,58372,1,0,0:0:0:0:
448,192,58372,1,0,0:0:0:0:
192,192,58494,1,0,0:0:0:0:
320,192,58616,1,0,0:0:0:0:
448,192,58616,1,0,0:0:0:0:
64,192,58738,1,0,0:0:0:0:
192,192,58860,1,0,0:0:0:0:
448,192,58860,1,0,0:0:0:0:
64,192,58982,1,0,0:0:0:0:
320,192,58982,1,0,0:0:0:0:
448,192,58982,1,0,0:0:0:0:
64,192,59104,1,0,0:0:0:0:
192,192,59104,1,0,0:0:0:0:
320,192,59104,1,0,0:0:0:0:
448,192,59104,1,0,0:0:0:0:
64,192,59226,1,0,0:0:0:0:
192,192,59226,1,0,0:0:0:0:
192,192,59348,1,0,0:0:0:0:
320,192,59348,1,0,0:0:0:0:
448,192,59348,1,0,0:0:0:0:
320,192,59470,1,0,0:0:0:0:
448,192,59470,1,0,0:0:0:0:
64,192,59592,1,0,0:0:0:0:
192,192,59592,1,0,0:0:0:0:
448,192,59592,1,0,0:0:0:0:
64,192,59714,1,0,0:0:0:0:
320,192,59714,1,0,0:0:0:0:
192,192,59836,1,0,0:0:0:0:
320,192,59836,1,0,0:0:0:0:
448,192,59836,1,0,0:0:0:0:
64,192,59958,1,0,0:0:0:0:
320,192,59958,1,0,0:0:0:0:
448,192,59958,1,0,0:0:0:0:
64,192,60080,1,0,0:0:0:0:
192,192,60080,1,0,0:0:0:0:
320,192,60080,1,0,0:0:0:0:
448,192,60080,1,0,0:0:0:0:
64,192,60202,1,0,0:0:0:0:
192,192,60202,1,0,0:0:0:0:
64,192,60324,1,0,0:0:0:0:
192,192,60324,1,0,0:0:0:0:
448,192,60324,1,0,0:0:0:0:
192,192,60446,1,0,0:0:0:0:
320,192,60446,1,0,0:0:0:0:
448,192,60446,1,0,0:0:0:0:
64,192,60567,1,0,0:0:0:0:
320,192,60567,1,0,0:0:0:0:
448,192,60567,1,0,0:0:0:0:
320,192,60689,1,0,0:0:0:0:
448,192,60689,1,0,0:0:0:0:
64,192,60811,1,0,0:0:0:0:
192,192,60811,1,0,0:0:0:0:
320,192,60811,1,0,0:0:0:0:
64,192,60933,1,0,0:0:0:0:
192,192,60933,1,0,0:0:0:0:
64,192,61055,1,0,0:0:0:0:
320,192,61055,1,0,0:0:0:0:
448,192,61055,1,0,0:0:0:0:
64,192,61177,1,0,0:0:0:0:
320,192,61177,1,0,0:0:0:0:
448,192,61177,1,0,0:0:0:0:
320,192,61299,1,0,0:0:0:0:
64,192,61421,1,0,0:0:0:0:
192,192,61421,1,0,0:0:0:0:
448,192,61421,1,0,0:0:0:0:
64,192,61543,1,0,0:0:0:0:
192,192,61543,1,0,0:0:0:0:
448,192,61543,1,0,0:0:0:0:
192,192,61665,1,0,0:0:0:0:
64,192,61787,1,0,0:0:0:0:
320,192,61787,1,0,0:0:0:0:
448,192,61787,1,0,0:0:0:0:
320,192,61909,1,0,0:0:0:0:
64,192,62031,1,0,0:0:0:0:
192,192,62031,1,0,0:0:0:0:
448,192,62031,1,0,0:0:0:0:
192,192,62153,1,0,0:0:0:0:
64,192,62275,1,0,0:0:0:0:
320,192,62275,1,0,0:0:0:0:
448,192,62275,1,0,0:0:0:0:
448,192,62397,1,0,0:0:0:0:
192,192,62397,1,0,0:0:0:0:
64,192,62519,1,0,0:0:0:0:
192,192,62519,1,0,0:0:0:0:
448,192,62519,1,0,0:0:0:0:
64,192,62641,1,0,0:0:0:0:
320,192,62641,1,0,0:0:0:0:
192,192,62763,1,0,0:0:0:0:
320,192,62763,1,0,0:0:0:0:
448,192,62763,1,0,0:0:0:0:
64,192,62885,1,0,0:0:0:0:
192,192,62885,1,0,0:0:0:0:
320,192,62885,1,0,0:0:0:0:
64,192,63007,1,0,0:0:0:0:
192,192,63007,1,0,0:0:0:0:
320,192,63007,1,0,0:0:0:0:
448,192,63007,1,0,0:0:0:0:
64,192,63128,1,0,0:0:0:0:
448,192,63128,1,0,0:0:0:0:
192,192,63250,1,0,0:0:0:0:
448,192,63250,1,0,0:0:0:0:
64,192,63372,1,0,0:0:0:0:
320,192,63372,1,0,0:0:0:0:
64,192,63494,1,0,0:0:0:0:
192,192,63494,1,0,0:0:0:0:
448,192,63494,1,0,0:0:0:0:
64,192,63616,1,0,0:0:0:0:
192,192,63616,1,0,0:0:0:0:
448,192,63616,1,0,0:0:0:0:
320,192,63738,1,0,0:0:0:0:
448,192,63738,1,0,0:0:0:0:
64,192,63860,1,0,0:0:0:0:
192,192,63860,1,0,0:0:0:0:
64,192,63982,1,0,0:0:0:0:
320,192,63982,1,0,0:0:0:0:
448,192,63982,1,0,0:0:0:0:
64,192,64104,1,0,0:0:0:0:
320,192,64104,1,0,0:0:0:0:
448,192,64104,1,0,0:0:0:0:
192,192,64226,1,0,0:0:0:0:
320,192,64226,1,0,0:0:0:0:
64,192,64348,1,0,0:0:0:0:
448,192,64348,1,0,0:0:0:0:
64,192,64470,1,0,0:0:0:0:
192,192,64470,1,0,0:0:0:0:
320,192,64470,1,0,0:0:0:0:
64,192,64592,1,0,0:0:0:0:
192,192,64592,1,0,0:0:0:0:
320,192,64592,1,0,0:0:0:0:
192,192,64714,1,0,0:0:0:0:
448,192,64714,1,0,0:0:0:0:
64,192,64836,1,0,0:0:0:0:
320,192,64836,1,0,0:0:0:0:
64,192,64958,1,0,0:0:0:0:
192,192,64958,1,0,0:0:0:0:
320,192,64958,1,0,0:0:0:0:
448,192,64958,1,0,0:0:0:0:
192,192,65080,1,0,0:0:0:0:
448,192,65080,1,0,0:0:0:0:
64,192,65202,1,0,0:0:0:0:
320,192,65202,1,0,0:0:0:0:
64,192,65324,1,0,0:0:0:0:
192,192,65324,1,0,0:0:0:0:
320,192,65324,1,0,0:0:0:0:
192,192,65446,1,0,0:0:0:0:
320,192,65446,1,0,0:0:0:0:
64,192,65567,1,0,0:0:0:0:
448,192,65567,1,0,0:0:0:0:
192,192,65689,1,0,0:0:0:0:
320,192,65689,1,0,0:0:0:0:
448,192,65689,1,0,0:0:0:0:
64,192,65811,1,0,0:0:0:0:
192,192,65811,1,0,0:0:0:0:
320,192,65933,1,0,0:0:0:0:
448,192,65933,1,0,0:0:0:0:
64,192,66055,1,0,0:0:0:0:
192,192,66055,1,0,0:0:0:0:
320,192,66055,1,0,0:0:0:0:
64,192,66177,1,0,0:0:0:0:
192,192,66177,1,0,0:0:0:0:
448,192,66177,1,0,0:0:0:0:
320,192,66299,1,0,0:0:0:0:
448,192,66299,1,0,0:0:0:0:
64,192,66421,1,0,0:0:0:0:
192,192,66421,1,0,0:0:0:0:
320,192,66421,1,0,0:0:0:0:
64,192,66543,1,0,0:0:0:0:
448,192,66543,1,0,0:0:0:0:
192,192,66665,1,0,0:0:0:0:
320,192,66665,1,0,0:0:0:0:
448,192,66665,1,0,0:0:0:0:
64,192,66787,1,0,0:0:0:0:
320,192,66787,1,0,0:0:0:0:
64,192,66909,1,0,0:0:0:0:
192,192,66909,1,0,0:0:0:0:
448,192,66909,1,0,0:0:0:0:
320,192,67031,1,0,0:0:0:0:
448,192,67031,1,0,0:0:0:0:
64,192,67153,1,0,0:0:0:0:
320,192,67153,1,0,0:0:0:0:
192,192,67275,1,0,0:0:0:0:
448,192,67275,1,0,0:0:0:0:
64,192,67397,1,0,0:0:0:0:
320,192,67397,1,0,0:0:0:0:
448,192,67397,1,0,0:0:0:0:
192,192,67519,1,0,0:0:0:0:
320,192,67519,1,0,0:0:0:0:
64,192,67641,1,0,0:0:0:0:
192,192,67641,1,0,0:0:0:0:
448,192,67641,1,0,0:0:0:0:
64,192,67763,1,0,0:0:0:0:
320,192,67763,1,0,0:0:0:0:
448,192,67763,1,0,0:0:0:0:
192,192,67885,1,0,0:0:0:0:
320,192,67885,1,0,0:0:0:0:
192,192,68007,1,0,0:0:0:0:
448,192,68007,1,0,0:0:0:0:
64,192,68128,1,0,0:0:0:0:
320,192,68128,1,0,0:0:0:0:
448,192,68128,1,0,0:0:0:0:
64,192,68250,1,0,0:0:0:0:
192,192,68250,1,0,0:0:0:0:
64,192,68372,1,0,0:0:0:0:
192,192,68372,1,0,0:0:0:0:
448,192,68372,1,0,0:0:0:0:
320,192,68494,1,0,0:0:0:0:
448,192,68494,1,0,0:0:0:0:
192,192,68616,1,0,0:0:0:0:
320,192,68616,1,0,0:0:0:0:
448,192,68616,1,0,0:0:0:0:
64,192,68738,1,0,0:0:0:0:
192,192,68738,1,0,0:0:0:0:
64,192,68860,1,0,0:0:0:0:
320,192,68860,1,0,0:0:0:0:
448,192,68860,1,0,0:0:0:0:
192,192,68982,1,0,0:0:0:0:
320,192,68982,1,0,0:0:0:0:
64,192,69104,1,0,0:0:0:0:
192,192,69104,1,0,0:0:0:0:
448,192,69104,1,0,0:0:0:0:
64,192,69226,1,0,0:0:0:0:
320,192,69226,1,0,0:0:0:0:
448,192,69226,1,0,0:0:0:0:
192,192,69348,1,0,0:0:0:0:
320,192,69348,1,0,0:0:0:0:
64,192,69470,1,0,0:0:0:0:
320,192,69470,1,0,0:0:0:0:
448,192,69470,1,0,0:0:0:0:
64,192,69592,1,0,0:0:0:0:
192,192,69592,1,0,0:0:0:0:
448,192,69592,1,0,0:0:0:0:
64,192,69714,1,0,0:0:0:0:
320,192,69714,1,0,0:0:0:0:
192,192,69836,1,0,0:0:0:0:
448,192,69836,1,0,0:0:0:0:
320,192,69958,1,0,0:0:0:0:
448,192,69958,1,0,0:0:0:0:
64,192,70080,1,0,0:0:0:0:
192,192,70080,1,0,0:0:0:0:
448,192,70080,1,0,0:0:0:0:
192,192,70202,1,0,0:0:0:0:
320,192,70202,1,0,0:0:0:0:
64,192,70324,1,0,0:0:0:0:
320,192,70324,1,0,0:0:0:0:
448,192,70324,1,0,0:0:0:0:
192,192,70446,1,0,0:0:0:0:
448,192,70446,1,0,0:0:0:0:
64,192,70567,1,0,0:0:0:0:
192,192,70567,1,0,0:0:0:0:
320,192,70567,1,0,0:0:0:0:
64,192,70689,1,0,0:0:0:0:
320,192,70689,1,0,0:0:0:0:
448,192,70689,1,0,0:0:0:0:
64,192,70811,1,0,0:0:0:0:
192,192,70811,1,0,0:0:0:0:
320,192,70811,1,0,0:0:0:0:
448,192,70811,1,0,0:0:0:0:
192,192,70933,1,0,0:0:0:0:
448,192,70933,1,0,0:0:0:0:
64,192,71055,1,0,0:0:0:0:
320,192,71055,1,0,0:0:0:0:
64,192,71177,1,0,0:0:0:0:
192,192,71177,1,0,0:0:0:0:
64,192,71299,1,0,0:0:0:0:
320,192,71299,1,0,0:0:0:0:
448,192,71299,1,0,0:0:0:0:
320,192,71421,1,0,0:0:0:0:
448,192,71421,1,0,0:0:0:0:
64,192,71543,1,0,0:0:0:0:
192,192,71543,1,0,0:0:0:0:
320,192,71543,1,0,0:0:0:0:
64,192,71665,1,0,0:0:0:0:
192,192,71665,1,0,0:0:0:0:
448,192,71665,1,0,0:0:0:0:
64,192,71787,1,0,0:0:0:0:
320,192,71787,1,0,0:0:0:0:
192,192,71909,1,0,0:0:0:0:
320,192,71909,1,0,0:0:0:0:
448,192,71909,1,0,0:0:0:0:
64,192,72031,1,0,0:0:0:0:
320,192,72031,1,0,0:0:0:0:
448,192,72031,1,0,0:0:0:0:
192,192,72153,1,0,0:0:0:0:
448,192,72153,1,0,0:0:0:0:
192,192,72275,1,0,0:0:0:0:
320,192,72275,1,0,0:0:0:0:
64,192,72397,1,0,0:0:0:0:
320,192,72397,1,0,0:0:0:0:
64,192,72519,1,0,0:0:0:0:
192,192,72519,1,0,0:0:0:0:
448,192,72519,1,0,0:0:0:0:
64,192,72641,1,0,0:0:0:0:
320,192,72641,1,0,0:0:0:0:
448,192,72641,1,0,0:0:0:0:
64,192,72763,1,0,0:0:0:0:
192,192,72763,1,0,0:0:0:0:
320,192,72763,1,0,0:0:0:0:
448,192,72763,1,0,0:0:0:0:
192,192,72885,1,0,0:0:0:0:
448,192,72885,1,0,0:0:0:0:
64,192,73007,1,0,0:0:0:0:
320,192,73007,1,0,0:0:0:0:
192,192,73128,1,0,0:0:0:0:
320,192,73128,1,0,0:0:0:0:
64,192,73250,1,0,0:0:0:0:
192,192,73250,1,0,0:0:0:0:
448,192,73250,1,0,0:0:0:0:
448,192,73372,1,0,0:0:0:0:
320,192,73372,1,0,0:0:0:0:
64,192,73494,1,0,0:0:0:0:
448,192,73494,1,0,0:0:0:0:
192,192,73494,1,0,0:0:0:0:
64,192,73616,1,0,0:0:0:0:
192,192,73616,1,0,0:0:0:0:
320,192,73616,1,0,0:0:0:0:
192,192,73738,1,0,0:0:0:0:
320,192,73738,1,0,0:0:0:0:
64,192,73860,1,0,0:0:0:0:
320,192,73860,1,0,0:0:0:0:
448,192,73860,1,0,0:0:0:0:
192,192,73982,1,0,0:0:0:0:
320,192,73982,1,0,0:0:0:0:
448,192,73982,1,0,0:0:0:0:
64,192,74104,1,0,0:0:0:0:
448,192,74104,1,0,0:0:0:0:
64,192,74226,1,0,0:0:0:0:
320,192,74226,1,0,0:0:0:0:
192,192,74348,1,0,0:0:0:0:
448,192,74348,1,0,0:0:0:0:
64,192,74470,1,0,0:0:0:0:
320,192,74470,1,0,0:0:0:0:
448,192,74470,1,0,0:0:0:0:
64,192,74592,1,0,0:0:0:0:
192,192,74592,1,0,0:0:0:0:
448,192,74592,1,0,0:0:0:0:
64,192,74714,1,0,0:0:0:0:
192,192,74714,1,0,0:0:0:0:
320,192,74714,1,0,0:0:0:0:
448,192,74714,1,0,0:0:0:0:
192,192,74836,1,0,0:0:0:0:
320,192,74836,1,0,0:0:0:0:
64,192,74958,1,0,0:0:0:0:
320,192,74958,1,0,0:0:0:0:
192,192,75080,1,0,0:0:0:0:
448,192,75080,1,0,0:0:0:0:
64,192,75202,1,0,0:0:0:0:
320,192,75202,1,0,0:0:0:0:
448,192,75202,1,0,0:0:0:0:
192,192,75324,1,0,0:0:0:0:
320,192,75324,1,0,0:0:0:0:
64,192,75446,1,0,0:0:0:0:
192,192,75446,1,0,0:0:0:0:
448,192,75446,1,0,0:0:0:0:
64,192,75567,1,0,0:0:0:0:
320,192,75567,1,0,0:0:0:0:
448,192,75567,1,0,0:0:0:0:
192,192,75689,1,0,0:0:0:0:
320,192,75689,1,0,0:0:0:0:
192,192,75811,1,0,0:0:0:0:
448,192,75811,1,0,0:0:0:0:
64,192,75933,1,0,0:0:0:0:
192,192,75933,1,0,0:0:0:0:
320,192,75933,1,0,0:0:0:0:
448,192,75933,1,0,0:0:0:0:
64,192,76055,1,0,0:0:0:0:
320,192,76055,1,0,0:0:0:0:
64,192,76177,1,0,0:0:0:0:
192,192,76177,1,0,0:0:0:0:
320,192,76177,1,0,0:0:0:0:
448,192,76177,1,0,0:0:0:0:
192,192,76299,1,0,0:0:0:0:
448,192,76299,1,0,0:0:0:0:
64,192,76421,1,0,0:0:0:0:
192,192,76421,1,0,0:0:0:0:
320,192,76421,1,0,0:0:0:0:
448,192,76421,1,0,0:0:0:0:
64,192,76543,1,0,0:0:0:0:
320,192,76543,1,0,0:0:0:0:
64,192,76665,1,0,0:0:0:0:
192,192,76665,1,0,0:0:0:0:
320,192,76665,1,0,0:0:0:0:
448,192,76665,1,0,0:0:0:0:
64,192,76787,1,0,0:0:0:0:
192,192,76787,1,0,0:0:0:0:
64,192,76909,1,0,0:0:0:0:
192,192,76909,1,0,0:0:0:0:
192,192,77031,1,0,0:0:0:0:
320,192,77031,1,0,0:0:0:0:
448,192,77031,1,0,0:0:0:0:
320,192,77153,1,0,0:0:0:0:
448,192,77153,1,0,0:0:0:0:
320,192,77275,1,0,0:0:0:0:
448,192,77275,1,0,0:0:0:0:
64,192,77397,1,0,0:0:0:0:
192,192,77397,1,0,0:0:0:0:
320,192,77397,1,0,0:0:0:0:
448,192,77397,1,0,0:0:0:0:
320,192,77519,1,0,0:0:0:0:
64,192,77519,1,0,0:0:0:0:
64,192,77641,1,0,0:0:0:0:
448,192,77641,1,0,0:0:0:0:
192,192,77641,1,0,0:0:0:0:
192,192,77763,1,0,0:0:0:0:
448,192,77763,1,0,0:0:0:0:
320,192,77763,1,0,0:0:0:0:
64,192,77885,1,0,0:0:0:0:
192,192,77885,1,0,0:0:0:0:
320,192,77885,1,0,0:0:0:0:
64,192,78007,1,0,0:0:0:0:
448,192,78007,1,0,0:0:0:0:
64,192,78128,1,0,0:0:0:0:
448,192,78128,1,0,0:0:0:0:
320,192,78128,1,0,0:0:0:0:
192,192,78128,1,0,0:0:0:0:
320,192,78250,1,0,0:0:0:0:
448,192,78250,1,0,0:0:0:0:
192,192,78250,1,0,0:0:0:0:
64,192,78372,1,0,0:0:0:0:
320,192,78372,1,0,0:0:0:0:
448,192,78372,1,0,0:0:0:0:
64,192,78494,1,0,0:0:0:0:
192,192,78494,1,0,0:0:0:0:
64,192,78616,1,0,0:0:0:0:
192,192,78616,1,0,0:0:0:0:
320,192,78616,1,0,0:0:0:0:
448,192,78616,1,0,0:0:0:0:
320,192,78738,1,0,0:0:0:0:
192,192,78738,1,0,0:0:0:0:
320,192,78860,1,0,0:0:0:0:
448,192,78860,1,0,0:0:0:0:
192,192,78982,1,0,0:0:0:0:
64,192,78982,1,0,0:0:0:0:
64,192,79104,1,0,0:0:0:0:
320,192,79104,1,0,0:0:0:0:
448,192,79104,1,0,0:0:0:0:
448,192,79226,1,0,0:0:0:0:
192,192,79226,1,0,0:0:0:0:
64,192,79348,1,0,0:0:0:0:
192,192,79348,1,0,0:0:0:0:
448,192,79470,1,0,0:0:0:0:
320,192,79470,1,0,0:0:0:0:
448,192,79592,1,0,0:0:0:0:
64,192,79592,1,0,0:0:0:0:
192,192,79592,1,0,0:0:0:0:
64,192,79714,1,0,0:0:0:0:
320,192,79714,1,0,0:0:0:0:
192,192,79836,1,0,0:0:0:0:
320,192,79836,1,0,0:0:0:0:
64,192,79958,1,0,0:0:0:0:
448,192,79958,1,0,0:0:0:0:
192,192,80080,1,0,0:0:0:0:
320,192,80080,1,0,0:0:0:0:
448,192,80080,1,0,0:0:0:0:
192,192,80202,1,0,0:0:0:0:
64,192,80202,1,0,0:0:0:0:
320,192,80324,1,0,0:0:0:0:
64,192,80324,1,0,0:0:0:0:
448,192,80446,1,0,0:0:0:0:
192,192,80446,1,0,0:0:0:0:
64,192,80567,1,0,0:0:0:0:
448,192,80567,1,0,0:0:0:0:
320,192,80567,1,0,0:0:0:0:
320,192,80689,1,0,0:0:0:0:
192,192,80689,1,0,0:0:0:0:
64,192,80811,1,0,0:0:0:0:
192,192,80811,1,0,0:0:0:0:
448,192,80933,1,0,0:0:0:0:
320,192,80933,1,0,0:0:0:0:
192,192,81055,1,0,0:0:0:0:
448,192,81055,1,0,0:0:0:0:
64,192,81055,1,0,0:0:0:0:
320,192,81177,1,0,0:0:0:0:
192,192,81177,1,0,0:0:0:0:
64,192,81299,1,0,0:0:0:0:
192,192,81299,1,0,0:0:0:0:
320,192,81421,1,0,0:0:0:0:
448,192,81421,1,0,0:0:0:0:
64,192,81543,1,0,0:0:0:0:
192,192,81543,1,0,0:0:0:0:
320,192,81543,1,0,0:0:0:0:
64,192,81665,1,0,0:0:0:0:
448,192,81665,1,0,0:0:0:0:
192,192,81787,1,0,0:0:0:0:
448,192,81787,1,0,0:0:0:0:
320,192,81909,1,0,0:0:0:0:
64,192,81909,1,0,0:0:0:0:
448,192,82031,1,0,0:0:0:0:
64,192,82031,1,0,0:0:0:0:
320,192,82031,1,0,0:0:0:0:
192,192,82153,1,0,0:0:0:0:
448,192,82153,1,0,0:0:0:0:
320,192,82275,1,0,0:0:0:0:
448,192,82275,1,0,0:0:0:0:
64,192,82397,1,0,0:0:0:0:
192,192,82397,1,0,0:0:0:0:
64,192,82519,1,0,0:0:0:0:
192,192,82519,1,0,0:0:0:0:
448,192,82519,1,0,0:0:0:0:
192,192,82641,1,0,0:0:0:0:
320,192,82641,1,0,0:0:0:0:
64,192,82763,1,0,0:0:0:0:
320,192,82763,1,0,0:0:0:0:
448,192,82763,1,0,0:0:0:0:
448,192,82885,1,0,0:0:0:0:
192,192,82885,1,0,0:0:0:0:
192,192,83007,1,0,0:0:0:0:
320,192,83007,1,0,0:0:0:0:
64,192,83007,1,0,0:0:0:0:
320,192,83128,1,0,0:0:0:0:
448,192,83128,1,0,0:0:0:0:
64,192,83250,1,0,0:0:0:0:
192,192,83250,1,0,0:0:0:0:
448,192,83250,1,0,0:0:0:0:
64,192,83372,1,0,0:0:0:0:
320,192,83372,1,0,0:0:0:0:
448,192,83372,1,0,0:0:0:0:
320,192,83494,1,0,0:0:0:0:
192,192,83494,1,0,0:0:0:0:
64,192,83616,1,0,0:0:0:0:
320,192,83616,1,0,0:0:0:0:
192,192,83738,1,0,0:0:0:0:
64,192,83738,1,0,0:0:0:0:
448,192,83738,1,0,0:0:0:0:
320,192,83860,1,0,0:0:0:0:
192,192,83860,1,0,0:0:0:0:
64,192,83982,1,0,0:0:0:0:
320,192,83982,1,0,0:0:0:0:
448,192,83982,1,0,0:0:0:0:
192,192,84104,1,0,0:0:0:0:
448,192,84104,1,0,0:0:0:0:
64,192,84226,1,0,0:0:0:0:
192,192,84226,1,0,0:0:0:0:
320,192,84226,1,0,0:0:0:0:
320,192,84348,1,0,0:0:0:0:
64,192,84348,1,0,0:0:0:0:
64,192,84470,1,0,0:0:0:0:
192,192,84470,1,0,0:0:0:0:
448,192,84470,1,0,0:0:0:0:
192,192,84592,1,0,0:0:0:0:
448,192,84592,1,0,0:0:0:0:
64,192,84714,1,0,0:0:0:0:
320,192,84714,1,0,0:0:0:0:
448,192,84714,1,0,0:0:0:0:
64,192,84836,1,0,0:0:0:0:
320,192,84836,1,0,0:0:0:0:
448,192,84836,1,0,0:0:0:0:
192,192,84958,1,0,0:0:0:0:
320,192,84958,1,0,0:0:0:0:
64,192,85080,1,0,0:0:0:0:
192,192,85080,1,0,0:0:0:0:
448,192,85080,1,0,0:0:0:0:
64,192,85202,1,0,0:0:0:0:
192,192,85202,1,0,0:0:0:0:
448,192,85202,1,0,0:0:0:0:
320,192,85324,1,0,0:0:0:0:
448,192,85324,1,0,0:0:0:0:
64,192,85446,1,0,0:0:0:0:
192,192,85446,1,0,0:0:0:0:
192,192,85567,1,0,0:0:0:0:
448,192,85567,1,0,0:0:0:0:
64,192,85689,1,0,0:0:0:0:
320,192,85689,1,0,0:0:0:0:
448,192,85689,1,0,0:0:0:0:
64,192,85811,1,0,0:0:0:0:
192,192,85811,1,0,0:0:0:0:
448,192,85811,1,0,0:0:0:0:
192,192,85933,1,0,0:0:0:0:
320,192,85933,1,0,0:0:0:0:
448,192,85933,1,0,0:0:0:0:
64,192,86055,1,0,0:0:0:0:
320,192,86055,1,0,0:0:0:0:
64,192,86177,1,0,0:0:0:0:
192,192,86177,1,0,0:0:0:0:
448,192,86177,1,0,0:0:0:0:
320,192,86299,1,0,0:0:0:0:
448,192,86299,1,0,0:0:0:0:
64,192,86421,1,0,0:0:0:0:
192,192,86421,1,0,0:0:0:0:
320,192,86421,1,0,0:0:0:0:
448,192,86421,1,0,0:0:0:0:
192,192,86543,1,0,0:0:0:0:
320,192,86543,1,0,0:0:0:0:
192,192,86665,1,0,0:0:0:0:
448,192,86665,1,0,0:0:0:0:
64,192,86787,1,0,0:0:0:0:
320,192,86787,1,0,0:0:0:0:
64,192,86909,1,0,0:0:0:0:
192,192,86909,1,0,0:0:0:0:
448,192,86909,1,0,0:0:0:0:
192,192,87031,1,0,0:0:0:0:
320,192,87031,1,0,0:0:0:0:
64,192,87153,1,0,0:0:0:0:
320,192,87153,1,0,0:0:0:0:
448,192,87153,1,0,0:0:0:0:
64,192,87275,1,0,0:0:0:0:
192,192,87275,1,0,0:0:0:0:
448,192,87275,1,0,0:0:0:0:
192,192,87397,1,0,0:0:0:0:
320,192,87397,1,0,0:0:0:0:
64,192,87519,1,0,0:0:0:0:
320,192,87519,1,0,0:0:0:0:
64,192,87641,1,0,0:0:0:0:
192,192,87641,1,0,0:0:0:0:
448,192,87641,1,0,0:0:0:0:
320,192,87763,1,0,0:0:0:0:
448,192,87763,1,0,0:0:0:0:
64,192,87885,1,0,0:0:0:0:
192,192,87885,1,0,0:0:0:0:
320,192,87885,1,0,0:0:0:0:
192,192,88007,1,0,0:0:0:0:
448,192,88007,1,0,0:0:0:0:
64,192,88128,1,0,0:0:0:0:
320,192,88128,1,0,0:0:0:0:
448,192,88128,1,0,0:0:0:0:
192,192,88250,1,0,0:0:0:0:
320,192,88250,1,0,0:0:0:0:
64,192,88372,1,0,0:0:0:0:
192,192,88372,1,0,0:0:0:0:
448,192,88372,1,0,0:0:0:0:
64,192,88494,1,0,0:0:0:0:
320,192,88494,1,0,0:0:0:0:
448,192,88494,1,0,0:0:0:0:
64,192,88616,1,0,0:0:0:0:
192,192,88616,1,0,0:0:0:0:
320,192,88616,1,0,0:0:0:0:
192,192,88738,1,0,0:0:0:0:
320,192,88738,1,0,0:0:0:0:
448,192,88738,1,0,0:0:0:0:
64,192,88860,1,0,0:0:0:0:
192,192,88860,1,0,0:0:0:0:
448,192,88860,1,0,0:0:0:0:
64,192,88982,1,0,0:0:0:0:
192,192,88982,1,0,0:0:0:0:
64,192,89104,1,0,0:0:0:0:
320,192,89104,1,0,0:0:0:0:
448,192,89104,1,0,0:0:0:0:
320,192,89226,1,0,0:0:0:0:
448,192,89226,1,0,0:0:0:0:
64,192,89348,1,0,0:0:0:0:
192,192,89348,1,0,0:0:0:0:
64,192,89470,1,0,0:0:0:0:
448,192,89470,1,0,0:0:0:0:
192,192,89592,1,0,0:0:0:0:
320,192,89592,1,0,0:0:0:0:
448,192,89592,1,0,0:0:0:0:
320,192,89714,1,0,0:0:0:0:
448,192,89714,1,0,0:0:0:0:
64,192,89836,1,0,0:0:0:0:
192,192,89836,1,0,0:0:0:0:
448,192,89836,1,0,0:0:0:0:
64,192,89958,1,0,0:0:0:0:
192,192,89958,1,0,0:0:0:0:
192,192,90080,1,0,0:0:0:0:
320,192,90080,1,0,0:0:0:0:
448,192,90080,1,0,0:0:0:0:
64,192,90202,1,0,0:0:0:0:
448,192,90202,1,0,0:0:0:0:
64,192,90324,1,0,0:0:0:0:
192,192,90324,1,0,0:0:0:0:
320,192,90324,1,0,0:0:0:0:
64,192,90446,1,0,0:0:0:0:
192,192,90446,1,0,0:0:0:0:
320,192,90446,1,0,0:0:0:0:
192,192,90567,1,0,0:0:0:0:
448,192,90567,1,0,0:0:0:0:
64,192,90689,1,0,0:0:0:0:
320,192,90689,1,0,0:0:0:0:
192,192,90811,1,0,0:0:0:0:
320,192,90811,1,0,0:0:0:0:
448,192,90811,1,0,0:0:0:0:
64,192,90933,1,0,0:0:0:0:
192,192,90933,1,0,0:0:0:0:
64,192,91055,1,0,0:0:0:0:
320,192,91055,1,0,0:0:0:0:
448,192,91055,1,0,0:0:0:0:
64,192,91177,1,0,0:0:0:0:
192,192,91177,1,0,0:0:0:0:
448,192,91177,1,0,0:0:0:0:
192,192,91299,1,0,0:0:0:0:
320,192,91299,1,0,0:0:0:0:
64,192,91421,1,0,0:0:0:0:
320,192,91421,1,0,0:0:0:0:
448,192,91421,1,0,0:0:0:0:
64,192,91543,1,0,0:0:0:0:
192,192,91543,1,0,0:0:0:0:
320,192,91543,1,0,0:0:0:0:
64,192,91665,1,0,0:0:0:0:
192,192,91665,1,0,0:0:0:0:
448,192,91665,1,0,0:0:0:0:
192,192,91787,1,0,0:0:0:0:
320,192,91787,1,0,0:0:0:0:
448,192,91787,1,0,0:0:0:0:
64,192,91909,1,0,0:0:0:0:
320,192,91909,1,0,0:0:0:0:
64,192,92031,1,0,0:0:0:0:
192,192,92031,1,0,0:0:0:0:
448,192,92031,1,0,0:0:0:0:
192,192,92153,1,0,0:0:0:0:
320,192,92153,1,0,0:0:0:0:
448,192,92153,1,0,0:0:0:0:
64,192,92275,1,0,0:0:0:0:
192,192,92275,1,0,0:0:0:0:
320,192,92275,1,0,0:0:0:0:
448,192,92275,1,0,0:0:0:0:
64,192,92397,1,0,0:0:0:0:
320,192,92397,1,0,0:0:0:0:
64,192,92519,1,0,0:0:0:0:
192,192,92519,1,0,0:0:0:0:
448,192,92519,1,0,0:0:0:0:
320,192,92641,1,0,0:0:0:0:
448,192,92641,1,0,0:0:0:0:
64,192,92763,1,0,0:0:0:0:
192,192,92763,1,0,0:0:0:0:
448,192,92763,1,0,0:0:0:0:
64,192,92885,1,0,0:0:0:0:
192,192,92885,1,0,0:0:0:0:
64,192,93007,1,0,0:0:0:0:
320,192,93007,1,0,0:0:0:0:
448,192,93007,1,0,0:0:0:0:
192,192,93128,1,0,0:0:0:0:
320,192,93128,1,0,0:0:0:0:
64,192,93250,1,0,0:0:0:0:
192,192,93250,1,0,0:0:0:0:
448,192,93250,1,0,0:0:0:0:
64,192,93372,1,0,0:0:0:0:
320,192,93372,1,0,0:0:0:0:
448,192,93372,1,0,0:0:0:0:
192,192,93494,1,0,0:0:0:0:
320,192,93494,1,0,0:0:0:0:
448,192,93494,1,0,0:0:0:0:
192,192,93616,1,0,0:0:0:0:
64,192,93616,1,0,0:0:0:0:
64,192,93738,1,0,0:0:0:0:
320,192,93738,1,0,0:0:0:0:
448,192,93738,1,0,0:0:0:0:
64,192,93860,1,0,0:0:0:0:
192,192,93860,1,0,0:0:0:0:
448,192,93860,1,0,0:0:0:0:
192,192,93982,1,0,0:0:0:0:
320,192,93982,1,0,0:0:0:0:
448,192,93982,1,0,0:0:0:0:
448,192,94104,1,0,0:0:0:0:
320,192,94104,1,0,0:0:0:0:
192,192,94165,1,0,0:0:0:0:
64,192,94226,1,0,0:0:0:0:
320,192,94226,1,0,0:0:0:0:
448,192,94226,1,0,0:0:0:0:
192,192,94348,1,0,0:0:0:0:
64,192,94348,1,0,0:0:0:0:
448,192,94470,1,0,0:0:0:0:
192,192,94470,1,0,0:0:0:0:
64,192,94592,1,0,0:0:0:0:
320,192,94592,1,0,0:0:0:0:
448,192,94592,1,0,0:0:0:0:
192,192,94714,1,0,0:0:0:0:
320,192,94714,1,0,0:0:0:0:
64,192,94836,1,0,0:0:0:0:
448,192,94836,1,0,0:0:0:0:
192,192,94958,1,0,0:0:0:0:
320,192,94958,1,0,0:0:0:0:
448,192,94958,1,0,0:0:0:0:
64,192,95080,1,0,0:0:0:0:
320,192,95080,1,0,0:0:0:0:
192,192,95202,1,0,0:0:0:0:
448,192,95202,1,0,0:0:0:0:
320,192,95324,1,0,0:0:0:0:
448,192,95324,1,0,0:0:0:0:
64,192,95446,1,0,0:0:0:0:
192,192,95446,1,0,0:0:0:0:
320,192,95446,1,0,0:0:0:0:
64,192,95567,1,0,0:0:0:0:
448,192,95567,1,0,0:0:0:0:
192,192,95689,1,0,0:0:0:0:
320,192,95689,1,0,0:0:0:0:
448,192,95689,1,0,0:0:0:0:
64,192,95811,1,0,0:0:0:0:
320,192,95811,1,0,0:0:0:0:
64,192,95933,1,0,0:0:0:0:
192,192,95933,1,0,0:0:0:0:
448,192,95933,1,0,0:0:0:0:
192,192,96055,1,0,0:0:0:0:
320,192,96055,1,0,0:0:0:0:
64,192,96177,1,0,0:0:0:0:
320,192,96177,1,0,0:0:0:0:
448,192,96177,1,0,0:0:0:0:
64,192,96299,1,0,0:0:0:0:
192,192,96299,1,0,0:0:0:0:
192,192,96421,1,0,0:0:0:0:
448,192,96421,1,0,0:0:0:0:
320,192,96543,1,0,0:0:0:0:
448,192,96543,1,0,0:0:0:0:
64,192,96665,1,0,0:0:0:0:
192,192,96665,1,0,0:0:0:0:
448,192,96665,1,0,0:0:0:0:
64,192,96787,1,0,0:0:0:0:
320,192,96787,1,0,0:0:0:0:
192,192,96909,1,0,0:0:0:0:
320,192,96909,1,0,0:0:0:0:
448,192,96909,1,0,0:0:0:0:
192,192,97031,1,0,0:0:0:0:
448,192,97031,1,0,0:0:0:0:
64,192,97153,1,0,0:0:0:0:
320,192,97153,1,0,0:0:0:0:
192,192,97275,1,0,0:0:0:0:
320,192,97275,1,0,0:0:0:0:
64,192,97397,1,0,0:0:0:0:
192,192,97397,1,0,0:0:0:0:
448,192,97397,1,0,0:0:0:0:
64,192,97519,1,0,0:0:0:0:
448,192,97519,1,0,0:0:0:0:
192,192,97641,1,0,0:0:0:0:
320,192,97641,1,0,0:0:0:0:
448,192,97641,1,0,0:0:0:0:
64,192,97763,1,0,0:0:0:0:
192,192,97763,1,0,0:0:0:0:
64,192,97885,1,0,0:0:0:0:
448,192,97885,1,0,0:0:0:0:
192,192,98007,1,0,0:0:0:0:
448,192,98007,1,0,0:0:0:0:
64,192,98128,1,0,0:0:0:0:
192,192,98128,1,0,0:0:0:0:
320,192,98128,1,0,0:0:0:0:
320,192,98250,1,0,0:0:0:0:
448,192,98250,1,0,0:0:0:0:
64,192,98372,1,0,0:0:0:0:
448,192,98372,1,0,0:0:0:0:
64,192,98494,1,0,0:0:0:0:
320,192,98494,1,0,0:0:0:0:
192,192,98616,1,0,0:0:0:0:
320,192,98616,1,0,0:0:0:0:
448,192,98616,1,0,0:0:0:0:
64,192,98738,1,0,0:0:0:0:
448,192,98738,1,0,0:0:0:0:
64,192,98860,1,0,0:0:0:0:
192,192,98860,1,0,0:0:0:0:
320,192,98860,1,0,0:0:0:0:
192,192,98982,1,0,0:0:0:0:
448,192,98982,1,0,0:0:0:0:
320,192,99104,1,0,0:0:0:0:
448,192,99104,1,0,0:0:0:0:
64,192,99226,1,0,0:0:0:0:
192,192,99226,1,0,0:0:0:0:
64,192,99348,1,0,0:0:0:0:
320,192,99348,1,0,0:0:0:0:
448,192,99348,1,0,0:0:0:0:
192,192,99470,1,0,0:0:0:0:
320,192,99470,1,0,0:0:0:0:
64,192,99592,1,0,0:0:0:0:
448,192,99592,1,0,0:0:0:0:
192,192,99714,1,0,0:0:0:0:
448,192,99714,1,0,0:0:0:0:
64,192,99836,1,0,0:0:0:0:
320,192,99836,1,0,0:0:0:0:
448,192,99836,1,0,0:0:0:0:
64,192,99958,1,0,0:0:0:0:
192,192,99958,1,0,0:0:0:0:
192,192,100080,1,0,0:0:0:0:
320,192,100080,1,0,0:0:0:0:
448,192,100080,1,0,0:0:0:0:
320,192,100202,1,0,0:0:0:0:
64,192,100324,1,0,0:0:0:0:
192,192,100324,1,0,0:0:0:0:
448,192,100324,1,0,0:0:0:0:
192,192,100446,1,0,0:0:0:0:
64,192,100567,1,0,0:0:0:0:
320,192,100567,1,0,0:0:0:0:
448,192,100567,1,0,0:0:0:0:
448,192,100689,1,0,0:0:0:0:
64,192,100811,1,0,0:0:0:0:
192,192,100811,1,0,0:0:0:0:
320,192,100811,1,0,0:0:0:0:
64,192,100933,1,0,0:0:0:0:
192,192,100933,1,0,0:0:0:0:
448,192,100933,1,0,0:0:0:0:
192,192,101055,1,0,0:0:0:0:
64,192,101177,1,0,0:0:0:0:
320,192,101177,1,0,0:0:0:0:
448,192,101177,1,0,0:0:0:0:
192,192,101299,1,0,0:0:0:0:
320,192,101299,1,0,0:0:0:0:
448,192,101299,1,0,0:0:0:0:
320,192,101421,1,0,0:0:0:0:
64,192,101543,1,0,0:0:0:0:
192,192,101543,1,0,0:0:0:0:
448,192,101543,1,0,0:0:0:0:
64,192,101665,1,0,0:0:0:0:
192,192,101665,1,0,0:0:0:0:
64,192,101787,1,0,0:0:0:0:
320,192,101787,1,0,0:0:0:0:
448,192,101787,1,0,0:0:0:0:
320,192,101909,1,0,0:0:0:0:
448,192,101909,1,0,0:0:0:0:
64,192,102031,1,0,0:0:0:0:
192,192,102031,1,0,0:0:0:0:
320,192,102031,1,0,0:0:0:0:
192,192,102153,1,0,0:0:0:0:
448,192,102153,1,0,0:0:0:0:
320,192,102275,1,0,0:0:0:0:
448,192,102275,1,0,0:0:0:0:
64,192,102397,1,0,0:0:0:0:
192,192,102397,1,0,0:0:0:0:
64,192,102519,1,0,0:0:0:0:
192,192,102519,1,0,0:0:0:0:
448,192,102519,1,0,0:0:0:0:
448,192,102641,1,0,0:0:0:0:
64,192,102763,1,0,0:0:0:0:
192,192,102763,1,0,0:0:0:0:
320,192,102763,1,0,0:0:0:0:
192,192,102885,1,0,0:0:0:0:
320,192,102885,1,0,0:0:0:0:
64,192,103007,1,0,0:0:0:0:
192,192,103128,1,0,0:0:0:0:
448,192,103128,1,0,0:0:0:0:
64,192,103250,1,0,0:0:0:0:
320,192,103250,1,0,0:0:0:0:
448,192,103250,1,0,0:0:0:0:
64,192,103372,1,0,0:0:0:0:
320,192,103372,1,0,0:0:0:0:
192,192,103494,1,0,0:0:0:0:
448,192,103494,1,0,0:0:0:0:
192,192,103616,1,0,0:0:0:0:
64,192,103738,1,0,0:0:0:0:
320,192,103738,1,0,0:0:0:0:
448,192,103738,1,0,0:0:0:0:
192,192,103860,1,0,0:0:0:0:
448,192,103860,1,0,0:0:0:0:
64,192,103982,1,0,0:0:0:0:
192,192,103982,1,0,0:0:0:0:
320,192,103982,1,0,0:0:0:0:
320,192,104104,1,0,0:0:0:0:
64,192,104226,1,0,0:0:0:0:
192,192,104226,1,0,0:0:0:0:
448,192,104226,1,0,0:0:0:0:
64,192,104348,1,0,0:0:0:0:
320,192,104348,1,0,0:0:0:0:
192,192,104470,1,0,0:0:0:0:
448,192,104470,1,0,0:0:0:0:
448,192,104592,1,0,0:0:0:0:
64,192,104714,1,0,0:0:0:0:
192,192,104714,1,0,0:0:0:0:
320,192,104714,1,0,0:0:0:0:
192,192,104836,1,0,0:0:0:0:
320,192,104836,1,0,0:0:0:0:
64,192,104958,1,0,0:0:0:0:
320,192,104958,1,0,0:0:0:0:
192,192,105080,1,0,0:0:0:0:
64,192,105202,1,0,0:0:0:0:
320,192,105202,1,0,0:0:0:0:
448,192,105202,1,0,0:0:0:0:
320,192,105324,1,0,0:0:0:0:
64,192,105446,1,0,0:0:0:0:
192,192,105446,1,0,0:0:0:0:
448,192,105446,1,0,0:0:0:0:
64,192,105567,1,0,0:0:0:0:
192,192,105689,1,0,0:0:0:0:
320,192,105689,1,0,0:0:0:0:
448,192,105689,1,0,0:0:0:0:
64,192,105811,1,0,0:0:0:0:
320,192,105811,1,0,0:0:0:0:
64,192,105933,1,0,0:0:0:0:
192,192,105933,1,0,0:0:0:0:
448,192,105933,1,0,0:0:0:0:
448,192,106055,1,0,0:0:0:0:
64,192,106177,1,0,0:0:0:0:
192,192,106177,1,0,0:0:0:0:
320,192,106177,1,0,0:0:0:0:
192,192,106299,1,0,0:0:0:0:
448,192,106299,1,0,0:0:0:0:
64,192,106421,1,0,0:0:0:0:
320,192,106421,1,0,0:0:0:0:
448,192,106421,1,0,0:0:0:0:
320,192,106543,1,0,0:0:0:0:
64,192,106665,1,0,0:0:0:0:
192,192,106665,1,0,0:0:0:0:
448,192,106665,1,0,0:0:0:0:
64,192,106787,1,0,0:0:0:0:
192,192,106787,1,0,0:0:0:0:
320,192,106909,1,0,0:0:0:0:
64,192,107031,1,0,0:0:0:0:
192,192,107031,1,0,0:0:0:0:
64,192,107153,1,0,0:0:0:0:
320,192,107153,1,0,0:0:0:0:
448,192,107153,1,0,0:0:0:0:
192,192,107275,1,0,0:0:0:0:
320,192,107275,1,0,0:0:0:0:
64,192,107397,1,0,0:0:0:0:
192,192,107397,1,0,0:0:0:0:
448,192,107397,1,0,0:0:0:0:
192,192,107519,1,0,0:0:0:0:
448,192,107519,1,0,0:0:0:0:
64,192,107641,1,0,0:0:0:0:
320,192,107641,1,0,0:0:0:0:
448,192,107641,1,0,0:0:0:0:
64,192,107763,1,0,0:0:0:0:
320,192,107763,1,0,0:0:0:0:
192,192,107885,1,0,0:0:0:0:
320,192,107885,1,0,0:0:0:0:
448,192,107885,1,0,0:0:0:0:
64,192,108007,1,0,0:0:0:0:
192,192,108007,1,0,0:0:0:0:
448,192,108007,1,0,0:0:0:0:
192,192,108250,1,0,0:0:0:0:
320,192,108250,1,0,0:0:0:0:
448,192,108250,1,0,0:0:0:0:
64,192,108372,1,0,0:0:0:0:
320,192,108372,1,0,0:0:0:0:
64,192,108494,1,0,0:0:0:0:
192,192,108616,1,0,0:0:0:0:
320,192,108616,1,0,0:0:0:0:
448,192,108616,1,0,0:0:0:0:
64,192,108738,1,0,0:0:0:0:
448,192,108738,1,0,0:0:0:0:
64,192,108860,1,0,0:0:0:0:
192,192,108860,1,0,0:0:0:0:
320,192,108860,1,0,0:0:0:0:
192,192,108982,1,0,0:0:0:0:
320,192,108982,1,0,0:0:0:0:
64,192,109104,1,0,0:0:0:0:
320,192,109104,1,0,0:0:0:0:
448,192,109104,1,0,0:0:0:0:
64,192,109226,1,0,0:0:0:0:
192,192,109226,1,0,0:0:0:0:
192,192,109348,1,0,0:0:0:0:
320,192,109348,1,0,0:0:0:0:
448,192,109348,1,0,0:0:0:0:
64,192,109470,1,0,0:0:0:0:
448,192,109470,1,0,0:0:0:0:
64,192,109592,1,0,0:0:0:0:
192,192,109592,1,0,0:0:0:0:
320,192,109592,1,0,0:0:0:0:
192,192,109714,1,0,0:0:0:0:
320,192,109714,1,0,0:0:0:0:
448,192,109714,1,0,0:0:0:0:
64,192,109836,1,0,0:0:0:0:
320,192,109836,1,0,0:0:0:0:
448,192,109836,1,0,0:0:0:0:
64,192,109958,1,0,0:0:0:0:
192,192,110080,1,0,0:0:0:0:
448,192,110080,1,0,0:0:0:0:
320,192,110202,1,0,0:0:0:0:
448,192,110202,1,0,0:0:0:0:
64,192,110324,1,0,0:0:0:0:
320,192,110324,1,0,0:0:0:0:
448,192,110324,1,0,0:0:0:0:
64,192,110446,1,0,0:0:0:0:
192,192,110446,1,0,0:0:0:0:
64,192,110567,1,0,0:0:0:0:
192,192,110567,1,0,0:0:0:0:
448,192,110567,1,0,0:0:0:0:
448,192,110689,1,0,0:0:0:0:
64,192,110811,1,0,0:0:0:0:
320,192,110811,1,0,0:0:0:0:
64,192,110933,1,0,0:0:0:0:
192,192,111055,1,0,0:0:0:0:
320,192,111055,1,0,0:0:0:0:
448,192,111055,1,0,0:0:0:0:
192,192,111177,1,0,0:0:0:0:
320,192,111299,1,0,0:0:0:0:
448,192,111299,1,0,0:0:0:0:
320,192,111421,1,0,0:0:0:0:
64,192,111543,1,0,0:0:0:0:
192,192,111543,1,0,0:0:0:0:
448,192,111543,1,0,0:0:0:0:
192,192,111665,1,0,0:0:0:0:
448,192,111665,1,0,0:0:0:0:
64,192,111787,1,0,0:0:0:0:
192,192,111787,1,0,0:0:0:0:
320,192,111787,1,0,0:0:0:0:
320,192,111909,1,0,0:0:0:0:
64,192,112031,1,0,0:0:0:0:
192,192,112031,1,0,0:0:0:0:
448,192,112031,1,0,0:0:0:0:
64,192,112153,1,0,0:0:0:0:
192,192,112153,1,0,0:0:0:0:
64,192,112275,1,0,0:0:0:0:
448,192,112275,1,0,0:0:0:0:
320,192,112397,1,0,0:0:0:0:
448,192,112397,1,0,0:0:0:0:
64,192,112519,1,0,0:0:0:0:
320,192,112519,1,0,0:0:0:0:
448,192,112519,1,0,0:0:0:0:
64,192,112641,1,0,0:0:0:0:
192,192,112763,1,0,0:0:0:0:
448,192,112763,1,0,0:0:0:0:
64,192,112885,1,0,0:0:0:0:
192,192,113007,1,0,0:0:0:0:
320,192,113007,1,0,0:0:0:0:
448,192,113007,1,0,0:0:0:0:
320,192,113128,1,0,0:0:0:0:
64,192,113250,1,0,0:0:0:0:
192,192,113250,1,0,0:0:0:0:
448,192,113250,1,0,0:0:0:0:
448,192,113372,1,0,0:0:0:0:
64,192,113494,1,0,0:0:0:0:
192,192,113494,1,0,0:0:0:0:
320,192,113494,1,0,0:0:0:0:
64,192,113616,1,0,0:0:0:0:
64,192,113738,1,0,0:0:0:0:
192,192,113738,1,0,0:0:0:0:
320,192,113738,1,0,0:0:0:0:
448,192,113738,1,0,0:0:0:0:
320,192,113860,1,0,0:0:0:0:
64,192,113982,1,0,0:0:0:0:
448,192,113982,1,0,0:0:0:0:
320,192,114104,1,0,0:0:0:0:
64,192,114226,1,0,0:0:0:0:
192,192,114226,1,0,0:0:0:0:
448,192,114226,1,0,0:0:0:0:
192,192,114348,1,0,0:0:0:0:
64,192,114470,1,0,0:0:0:0:
448,192,114470,1,0,0:0:0:0:
448,192,114592,1,0,0:0:0:0:
64,192,114714,1,0,0:0:0:0:
192,192,114714,1,0,0:0:0:0:
320,192,114714,1,0,0:0:0:0:
192,192,114836,1,0,0:0:0:0:
64,192,114958,1,0,0:0:0:0:
320,192,114958,1,0,0:0:0:0:
448,192,114958,1,0,0:0:0:0:
320,192,115080,1,0,0:0:0:0:
64,192,115202,1,0,0:0:0:0:
192,192,115202,1,0,0:0:0:0:
448,192,115202,1,0,0:0:0:0:
64,192,115324,1,0,0:0:0:0:
192,192,115446,1,0,0:0:0:0:
320,192,115446,1,0,0:0:0:0:
448,192,115446,1,0,0:0:0:0:
448,192,115567,1,0,0:0:0:0:
64,192,115689,1,0,0:0:0:0:
192,192,115689,1,0,0:0:0:0:
320,192,115689,1,0,0:0:0:0:
192,192,115811,1,0,0:0:0:0:
64,192,115933,1,0,0:0:0:0:
320,192,115933,1,0,0:0:0:0:
448,192,115933,1,0,0:0:0:0:
64,192,116055,1,0,0:0:0:0:
192,192,116055,1,0,0:0:0:0:
192,192,116177,1,0,0:0:0:0:
320,192,116177,1,0,0:0:0:0:
320,192,116299,1,0,0:0:0:0:
448,192,116299,1,0,0:0:0:0:
64,192,116421,1,0,0:0:0:0:
192,192,116421,1,0,0:0:0:0:
448,192,116421,1,0,0:0:0:0:
192,192,116543,1,0,0:0:0:0:
64,192,116665,1,0,0:0:0:0:
320,192,116665,1,0,0:0:0:0:
192,192,116787,1,0,0:0:0:0:
64,192,116909,1,0,0:0:0:0:
320,192,116909,1,0,0:0:0:0:
448,192,116909,1,0,0:0:0:0:
320,192,117031,1,0,0:0:0:0:
64,192,117153,1,0,0:0:0:0:
192,192,117153,1,0,0:0:0:0:
320,192,117275,1,0,0:0:0:0:
64,192,117397,1,0,0:0:0:0:
320,192,117397,1,0,0:0:0:0:
448,192,117397,1,0,0:0:0:0:
64,192,117519,1,0,0:0:0:0:
448,192,117519,1,0,0:0:0:0:
192,192,117641,1,0,0:0:0:0:
320,192,117641,1,0,0:0:0:0:
448,192,117641,1,0,0:0:0:0:
192,192,117763,1,0,0:0:0:0:
64,192,117885,1,0,0:0:0:0:
320,192,117885,1,0,0:0:0:0:
448,192,117885,1,0,0:0:0:0:
320,192,118007,1,0,0:0:0:0:
64,192,118128,1,0,0:0:0:0:
192,192,118128,1,0,0:0:0:0:
64,192,118250,1,0,0:0:0:0:
192,192,118372,1,0,0:0:0:0:
320,192,118372,1,0,0:0:0:0:
448,192,118372,1,0,0:0:0:0:
64,192,118494,1,0,0:0:0:0:
192,192,118494,1,0,0:0:0:0:
448,192,118494,1,0,0:0:0:0:
64,192,118616,1,0,0:0:0:0:
320,192,118616,1,0,0:0:0:0:
448,192,118616,1,0,0:0:0:0:
320,192,118738,1,0,0:0:0:0:
64,192,118860,1,0,0:0:0:0:
192,192,118860,1,0,0:0:0:0:
448,192,118860,1,0,0:0:0:0:
192,192,118982,1,0,0:0:0:0:
64,192,119104,1,0,0:0:0:0:
320,192,119104,1,0,0:0:0:0:
448,192,119104,1,0,0:0:0:0:
320,192,119226,1,0,0:0:0:0:
448,192,119226,1,0,0:0:0:0:
64,192,119348,1,0,0:0:0:0:
192,192,119348,1,0,0:0:0:0:
448,192,119348,1,0,0:0:0:0:
64,192,119470,1,0,0:0:0:0:
192,192,119470,1,0,0:0:0:0:
64,192,119592,1,0,0:0:0:0:
320,192,119592,1,0,0:0:0:0:
448,192,119592,1,0,0:0:0:0:
320,192,119714,1,0,0:0:0:0:
64,192,119836,1,0,0:0:0:0:
192,192,119836,1,0,0:0:0:0:
448,192,119836,1,0,0:0:0:0:
64,192,119958,1,0,0:0:0:0:
320,192,119958,1,0,0:0:0:0:
192,192,120080,1,0,0:0:0:0:
320,192,120080,1,0,0:0:0:0:
448,192,120080,1,0,0:0:0:0:
192,192,120202,1,0,0:0:0:0:
64,192,120324,1,0,0:0:0:0:
320,192,120324,1,0,0:0:0:0:
448,192,120324,1,0,0:0:0:0:
192,192,120446,1,0,0:0:0:0:
448,192,120446,1,0,0:0:0:0:
64,192,120567,1,0,0:0:0:0:
192,192,120567,1,0,0:0:0:0:
320,192,120567,1,0,0:0:0:0:
320,192,120689,1,0,0:0:0:0:
64,192,120811,1,0,0:0:0:0:
192,192,120811,1,0,0:0:0:0:
448,192,120811,1,0,0:0:0:0:
192,192,120933,1,0,0:0:0:0:
64,192,121055,1,0,0:0:0:0:
448,192,121055,1,0,0:0:0:0:
448,192,121177,1,0,0:0:0:0:
64,192,121299,1,0,0:0:0:0:
192,192,121299,1,0,0:0:0:0:
320,192,121299,1,0,0:0:0:0:
320,192,121421,1,0,0:0:0:0:
64,192,121543,1,0,0:0:0:0:
192,192,121543,1,0,0:0:0:0:
448,192,121543,1,0,0:0:0:0:
192,192,121665,1,0,0:0:0:0:
64,192,121787,1,0,0:0:0:0:
320,192,121787,1,0,0:0:0:0:
448,192,121787,1,0,0:0:0:0:
192,192,121909,1,0,0:0:0:0:
448,192,121909,1,0,0:0:0:0:
64,192,122031,1,0,0:0:0:0:
192,192,122031,1,0,0:0:0:0:
320,192,122031,1,0,0:0:0:0:
64,192,122153,1,0,0:0:0:0:
448,192,122153,1,0,0:0:0:0:
192,192,122275,1,0,0:0:0:0:
320,192,122275,1,0,0:0:0:0:
448,192,122275,1,0,0:0:0:0:
192,192,122397,1,0,0:0:0:0:
64,192,122519,1,0,0:0:0:0:
448,192,122519,1,0,0:0:0:0:
448,192,122641,1,0,0:0:0:0:
64,192,122763,1,0,0:0:0:0:
192,192,122763,1,0,0:0:0:0:
320,192,122763,1,0,0:0:0:0:
320,192,122885,1,0,0:0:0:0:
64,192,123007,1,0,0:0:0:0:
192,192,123007,1,0,0:0:0:0:
448,192,123007,1,0,0:0:0:0:
192,192,123128,1,0,0:0:0:0:
64,192,123250,1,0,0:0:0:0:
320,192,123250,1,0,0:0:0:0:
448,192,123250,1,0,0:0:0:0:
192,192,123372,1,0,0:0:0:0:
448,192,123372,1,0,0:0:0:0:
64,192,123494,1,0,0:0:0:0:
192,192,123494,1,0,0:0:0:0:
320,192,123494,1,0,0:0:0:0:
64,192,123616,1,0,0:0:0:0:
320,192,123616,1,0,0:0:0:0:
64,192,123738,1,0,0:0:0:0:
192,192,123738,1,0,0:0:0:0:
448,192,123738,1,0,0:0:0:0:
448,192,123860,1,0,0:0:0:0:
64,192,123982,1,0,0:0:0:0:
192,192,123982,1,0,0:0:0:0:
320,192,123982,1,0,0:0:0:0:
320,192,124104,1,0,0:0:0:0:
64,192,124226,1,0,0:0:0:0:
192,192,124226,1,0,0:0:0:0:
448,192,124226,1,0,0:0:0:0:
64,192,124348,1,0,0:0:0:0:
320,192,124348,1,0,0:0:0:0:
192,192,124470,1,0,0:0:0:0:
320,192,124470,1,0,0:0:0:0:
448,192,124470,1,0,0:0:0:0:
64,192,124592,1,0,0:0:0:0:
448,192,124592,1,0,0:0:0:0:
64,192,124714,1,0,0:0:0:0:
320,192,124714,1,0,0:0:0:0:
192,192,124836,1,0,0:0:0:0:
320,192,124836,1,0,0:0:0:0:
64,192,124958,1,0,0:0:0:0:
192,192,124958,1,0,0:0:0:0:
448,192,124958,1,0,0:0:0:0:
320,192,125080,1,0,0:0:0:0:
448,192,125080,1,0,0:0:0:0:
64,192,125202,1,0,0:0:0:0:
192,192,125202,1,0,0:0:0:0:
320,192,125202,1,0,0:0:0:0:
64,192,125324,1,0,0:0:0:0:
192,192,125324,1,0,0:0:0:0:
448,192,125324,1,0,0:0:0:0:
64,192,125446,1,0,0:0:0:0:
192,192,125446,1,0,0:0:0:0:
320,192,125446,1,0,0:0:0:0:
448,192,125446,1,0,0:0:0:0:
320,192,125567,1,0,0:0:0:0:
64,192,125689,1,0,0:0:0:0:
192,192,125689,1,0,0:0:0:0:
448,192,125689,1,0,0:0:0:0:
64,192,125811,1,0,0:0:0:0:
192,192,125811,1,0,0:0:0:0:
320,192,125933,1,0,0:0:0:0:
448,192,125933,1,0,0:0:0:0:
320,192,126055,1,0,0:0:0:0:
64,192,126177,1,0,0:0:0:0:
192,192,126177,1,0,0:0:0:0:
320,192,126177,1,0,0:0:0:0:
448,192,126177,1,0,0:0:0:0:
64,192,126421,1,0,0:0:0:0:
448,192,126421,1,0,0:0:0:0:
64,192,126665,1,0,0:0:0:0:
192,192,126665,1,0,0:0:0:0:
448,192,126665,1,0,0:0:0:0:
192,192,126787,1,0,0:0:0:0:
64,192,126909,1,0,0:0:0:0:
320,192,126909,1,0,0:0:0:0:
448,192,126909,1,0,0:0:0:0:
320,192,127031,1,0,0:0:0:0:
64,192,127153,1,0,0:0:0:0:
192,192,127153,1,0,0:0:0:0:
448,192,127153,1,0,0:0:0:0:
448,192,127275,1,0,0:0:0:0:
64,192,127397,1,0,0:0:0:0:
192,192,127397,1,0,0:0:0:0:
320,192,127397,1,0,0:0:0:0:
64,192,127519,1,0,0:0:0:0:
192,192,127641,1,0,0:0:0:0:
320,192,127641,1,0,0:0:0:0:
448,192,127641,1,0,0:0:0:0:
320,192,127763,1,0,0:0:0:0:
448,192,127763,1,0,0:0:0:0:
64,192,127885,1,0,0:0:0:0:
192,192,127885,1,0,0:0:0:0:
192,192,128007,1,0,0:0:0:0:
448,192,128007,1,0,0:0:0:0:
64,192,128128,1,0,0:0:0:0:
320,192,128128,1,0,0:0:0:0:
448,192,128128,1,0,0:0:0:0:
64,192,128250,1,0,0:0:0:0:
192,192,128372,1,0,0:0:0:0:
320,192,128372,1,0,0:0:0:0:
448,192,128372,1,0,0:0:0:0:
192,192,128494,1,0,0:0:0:0:
64,192,128616,1,0,0:0:0:0:
320,192,128616,1,0,0:0:0:0:
448,192,128616,1,0,0:0:0:0:
320,192,128738,1,0,0:0:0:0:
64,192,128860,1,0,0:0:0:0:
192,192,128860,1,0,0:0:0:0:
64,192,128982,1,0,0:0:0:0:
192,192,129104,1,0,0:0:0:0:
320,192,129104,1,0,0:0:0:0:
448,192,129104,1,0,0:0:0:0:
64,192,129226,1,0,0:0:0:0:
320,192,129226,1,0,0:0:0:0:
64,192,129348,1,0,0:0:0:0:
192,192,129348,1,0,0:0:0:0:
448,192,129348,1,0,0:0:0:0:
192,192,129470,1,0,0:0:0:0:
64,192,129592,1,0,0:0:0:0:
320,192,129592,1,0,0:0:0:0:
448,192,129592,1,0,0:0:0:0:
192,192,129714,1,0,0:0:0:0:
448,192,129714,1,0,0:0:0:0:
64,192,129836,1,0,0:0:0:0:
320,192,129836,1,0,0:0:0:0:
64,192,129958,1,0,0:0:0:0:
320,192,129958,1,0,0:0:0:0:
448,192,129958,1,0,0:0:0:0:
64,192,130080,1,0,0:0:0:0:
192,192,130080,1,0,0:0:0:0:
448,192,130080,1,0,0:0:0:0:
192,192,130202,1,0,0:0:0:0:
320,192,130324,1,0,0:0:0:0:
448,192,130324,1,0,0:0:0:0:
320,192,130446,1,0,0:0:0:0:
64,192,130567,1,0,0:0:0:0:
192,192,130567,1,0,0:0:0:0:
448,192,130567,1,0,0:0:0:0:
192,192,130689,1,0,0:0:0:0:
64,192,130811,1,0,0:0:0:0:
320,192,130811,1,0,0:0:0:0:
448,192,130811,1,0,0:0:0:0:
320,192,130933,1,0,0:0:0:0:
64,192,131055,1,0,0:0:0:0:
192,192,131055,1,0,0:0:0:0:
448,192,131055,1,0,0:0:0:0:
64,192,131177,1,0,0:0:0:0:
192,192,131299,1,0,0:0:0:0:
320,192,131299,1,0,0:0:0:0:
448,192,131299,1,0,0:0:0:0:
320,192,131421,1,0,0:0:0:0:
448,192,131421,1,0,0:0:0:0:
64,192,131543,1,0,0:0:0:0:
320,192,131543,1,0,0:0:0:0:
448,192,131543,1,0,0:0:0:0:
192,192,131665,1,0,0:0:0:0:
64,192,131787,1,0,0:0:0:0:
192,192,131787,1,0,0:0:0:0:
320,192,131787,1,0,0:0:0:0:
64,192,131909,1,0,0:0:0:0:
320,192,131909,1,0,0:0:0:0:
192,192,132031,1,0,0:0:0:0:
320,192,132031,1,0,0:0:0:0:
448,192,132031,1,0,0:0:0:0:
192,192,132153,1,0,0:0:0:0:
64,192,132275,1,0,0:0:0:0:
320,192,132275,1,0,0:0:0:0:
448,192,132275,1,0,0:0:0:0:
320,192,132397,1,0,0:0:0:0:
64,192,132519,1,0,0:0:0:0:
192,192,132519,1,0,0:0:0:0:
448,192,132519,1,0,0:0:0:0:
192,192,132641,1,0,0:0:0:0:
64,192,132763,1,0,0:0:0:0:
320,192,132763,1,0,0:0:0:0:
448,192,132763,1,0,0:0:0:0:
320,192,132885,1,0,0:0:0:0:
64,192,133007,1,0,0:0:0:0:
192,192,133007,1,0,0:0:0:0:
448,192,133007,1,0,0:0:0:0:
64,192,133128,1,0,0:0:0:0:
320,192,133128,1,0,0:0:0:0:
448,192,133128,1,0,0:0:0:0:
64,192,133250,1,0,0:0:0:0:
192,192,133250,1,0,0:0:0:0:
448,192,133250,1,0,0:0:0:0:
192,192,133372,1,0,0:0:0:0:
64,192,133494,1,0,0:0:0:0:
320,192,133494,1,0,0:0:0:0:
448,192,133494,1,0,0:0:0:0:
192,192,133616,1,0,0:0:0:0:
448,192,133616,1,0,0:0:0:0:
64,192,133738,1,0,0:0:0:0:
320,192,133738,1,0,0:0:0:0:
448,192,133738,1,0,0:0:0:0:
320,192,133860,1,0,0:0:0:0:
64,192,133982,1,0,0:0:0:0:
192,192,133982,1,0,0:0:0:0:
448,192,133982,1,0,0:0:0:0:
64,192,134104,1,0,0:0:0:0:
192,192,134104,1,0,0:0:0:0:
64,192,134226,1,0,0:0:0:0:
320,192,134226,1,0,0:0:0:0:
448,192,134226,1,0,0:0:0:0:
192,192,134348,1,0,0:0:0:0:
320,192,134348,1,0,0:0:0:0:
64,192,134470,1,0,0:0:0:0:
192,192,134470,1,0,0:0:0:0:
448,192,134470,1,0,0:0:0:0:
448,192,134592,1,0,0:0:0:0:
64,192,134714,1,0,0:0:0:0:
192,192,134714,1,0,0:0:0:0:
320,192,134714,1,0,0:0:0:0:
320,192,134836,1,0,0:0:0:0:
64,192,134958,1,0,0:0:0:0:
192,192,134958,1,0,0:0:0:0:
448,192,134958,1,0,0:0:0:0:
64,192,135080,1,0,0:0:0:0:
192,192,135202,1,0,0:0:0:0:
320,192,135202,1,0,0:0:0:0:
448,192,135202,1,0,0:0:0:0:
192,192,135324,1,0,0:0:0:0:
64,192,135446,1,0,0:0:0:0:
320,192,135446,1,0,0:0:0:0:
448,192,135446,1,0,0:0:0:0:
320,192,135567,1,0,0:0:0:0:
64,192,135689,1,0,0:0:0:0:
192,192,135689,1,0,0:0:0:0:
448,192,135689,1,0,0:0:0:0:
192,192,135811,1,0,0:0:0:0:
64,192,135933,1,0,0:0:0:0:
320,192,135933,1,0,0:0:0:0:
448,192,135933,1,0,0:0:0:0:
320,192,136055,1,0,0:0:0:0:
64,192,136177,1,0,0:0:0:0:
192,192,136177,1,0,0:0:0:0:
192,192,136299,1,0,0:0:0:0:
64,192,136421,1,0,0:0:0:0:
320,192,136421,1,0,0:0:0:0:
448,192,136421,1,0,0:0:0:0:
320,192,136543,1,0,0:0:0:0:
64,192,136665,1,0,0:0:0:0:
192,192,136665,1,0,0:0:0:0:
448,192,136665,1,0,0:0:0:0:
448,192,136787,1,0,0:0:0:0:
64,192,136909,1,0,0:0:0:0:
320,192,136909,1,0,0:0:0:0:
64,192,137031,1,0,0:0:0:0:
192,192,137031,1,0,0:0:0:0:
448,192,137031,1,0,0:0:0:0:
64,192,137153,1,0,0:0:0:0:
192,192,137153,1,0,0:0:0:0:
320,192,137153,1,0,0:0:0:0:
448,192,137153,1,0,0:0:0:0:
320,192,137275,1,0,0:0:0:0:
448,192,137275,1,0,0:0:0:0:
64,192,137397,1,0,0:0:0:0:
192,192,137397,1,0,0:0:0:0:
64,192,137519,1,0,0:0:0:0:
320,192,137519,1,0,0:0:0:0:
448,192,137519,1,0,0:0:0:0:
192,192,137641,1,0,0:0:0:0:
320,192,137641,1,0,0:0:0:0:
448,192,137641,1,0,0:0:0:0:
64,192,137763,1,0,0:0:0:0:
320,192,137763,1,0,0:0:0:0:
64,192,137885,1,0,0:0:0:0:
192,192,137885,1,0,0:0:0:0:
448,192,137885,1,0,0:0:0:0:
320,192,138007,1,0,0:0:0:0:
448,192,138007,1,0,0:0:0:0:
64,192,138128,1,0,0:0:0:0:
192,192,138128,1,0,0:0:0:0:
320,192,138128,1,0,0:0:0:0:
192,192,138250,1,0,0:0:0:0:
448,192,138250,1,0,0:0:0:0:
64,192,138372,1,0,0:0:0:0:
320,192,138372,1,0,0:0:0:0:
64,192,138494,1,0,0:0:0:0:
192,192,138494,1,0,0:0:0:0:
448,192,138494,1,0,0:0:0:0:
192,192,138616,1,0,0:0:0:0:
320,192,138616,1,0,0:0:0:0:
448,192,138616,1,0,0:0:0:0:
64,192,138738,1,0,0:0:0:0:
448,192,138738,1,0,0:0:0:0:
64,192,138860,1,0,0:0:0:0:
192,192,138860,1,0,0:0:0:0:
320,192,138860,1,0,0:0:0:0:
192,192,138982,1,0,0:0:0:0:
448,192,138982,1,0,0:0:0:0:
64,192,139104,1,0,0:0:0:0:
320,192,139104,1,0,0:0:0:0:
448,192,139104,1,0,0:0:0:0:
64,192,139226,1,0,0:0:0:0:
320,192,139226,1,0,0:0:0:0:
192,192,139348,1,0,0:0:0:0:
64,192,139470,1,0,0:0:0:0:
192,192,139470,1,0,0:0:0:0:
448,192,139470,1,0,0:0:0:0:
192,192,139592,1,0,0:0:0:0:
448,192,139592,1,0,0:0:0:0:
64,192,139714,1,0,0:0:0:0:
448,192,139714,1,0,0:0:0:0:
64,192,139836,1,0,0:0:0:0:
192,192,139836,1,0,0:0:0:0:
320,192,139836,1,0,0:0:0:0:
192,192,139958,1,0,0:0:0:0:
448,192,139958,1,0,0:0:0:0:
64,192,140080,1,0,0:0:0:0:
320,192,140080,1,0,0:0:0:0:
448,192,140080,1,0,0:0:0:0:
64,192,140202,1,0,0:0:0:0:
192,192,140202,1,0,0:0:0:0:
448,192,140202,1,0,0:0:0:0:
192,192,140324,1,0,0:0:0:0:
320,192,140324,1,0,0:0:0:0:
64,192,140446,1,0,0:0:0:0:
448,192,140446,1,0,0:0:0:0:
192,192,140567,1,0,0:0:0:0:
320,192,140567,1,0,0:0:0:0:
448,192,140567,1,0,0:0:0:0:
64,192,140689,1,0,0:0:0:0:
192,192,140689,1,0,0:0:0:0:
64,192,140811,1,0,0:0:0:0:
320,192,140811,1,0,0:0:0:0:
448,192,140811,1,0,0:0:0:0:
192,192,140933,1,0,0:0:0:0:
320,192,140933,1,0,0:0:0:0:
448,192,140933,1,0,0:0:0:0:
64,192,141055,1,0,0:0:0:0:
192,192,141055,1,0,0:0:0:0:
320,192,141055,1,0,0:0:0:0:
448,192,141055,1,0,0:0:0:0:
64,192,141177,1,0,0:0:0:0:
320,192,141177,1,0,0:0:0:0:
64,192,141299,1,0,0:0:0:0:
192,192,141299,1,0,0:0:0:0:
320,192,141421,1,0,0:0:0:0:
448,192,141421,1,0,0:0:0:0:
64,192,141543,1,0,0:0:0:0:
192,192,141543,1,0,0:0:0:0:
448,192,141543,1,0,0:0:0:0:
64,192,141665,1,0,0:0:0:0:
192,192,141665,1,0,0:0:0:0:
448,192,141665,1,0,0:0:0:0:
64,192,141787,1,0,0:0:0:0:
320,192,141787,1,0,0:0:0:0:
320,192,141909,1,0,0:0:0:0:
448,192,141909,1,0,0:0:0:0:
64,192,142031,1,0,0:0:0:0:
192,192,142031,1,0,0:0:0:0:
448,192,142031,1,0,0:0:0:0:
64,192,142153,1,0,0:0:0:0:
192,192,142153,1,0,0:0:0:0:
448,192,142153,1,0,0:0:0:0:
192,192,142275,1,0,0:0:0:0:
320,192,142275,1,0,0:0:0:0:
64,192,142397,1,0,0:0:0:0:
448,192,142397,1,0,0:0:0:0:
192,192,142519,1,0,0:0:0:0:
320,192,142519,1,0,0:0:0:0:
448,192,142519,1,0,0:0:0:0:
192,192,142641,1,0,0:0:0:0:
320,192,142641,1,0,0:0:0:0:
448,192,142641,1,0,0:0:0:0:
64,192,142763,1,0,0:0:0:0:
320,192,142763,1,0,0:0:0:0:
192,192,142885,1,0,0:0:0:0:
448,192,142885,1,0,0:0:0:0:
64,192,143007,1,0,0:0:0:0:
192,192,143007,1,0,0:0:0:0:
320,192,143007,1,0,0:0:0:0:
448,192,143007,1,0,0:0:0:0:
64,192,143128,1,0,0:0:0:0:
320,192,143128,1,0,0:0:0:0:
192,192,143250,1,0,0:0:0:0:
448,192,143250,1,0,0:0:0:0:
192,192,143372,1,0,0:0:0:0:
320,192,143372,1,0,0:0:0:0:
448,192,143372,1,0,0:0:0:0:
64,192,143494,1,0,0:0:0:0:
320,192,143494,1,0,0:0:0:0:
192,192,143616,1,0,0:0:0:0:
448,192,143616,1,0,0:0:0:0:
64,192,143738,1,0,0:0:0:0:
320,192,143738,1,0,0:0:0:0:
448,192,143738,1,0,0:0:0:0:
320,192,143860,1,0,0:0:0:0:
448,192,143860,1,0,0:0:0:0:
64,192,143982,1,0,0:0:0:0:
192,192,143982,1,0,0:0:0:0:
192,192,144104,1,0,0:0:0:0:
320,192,144104,1,0,0:0:0:0:
448,192,144104,1,0,0:0:0:0:
64,192,144226,1,0,0:0:0:0:
320,192,144226,1,0,0:0:0:0:
448,192,144226,1,0,0:0:0:0:
64,192,144348,1,0,0:0:0:0:
192,192,144348,1,0,0:0:0:0:
192,192,144470,1,0,0:0:0:0:
320,192,144470,1,0,0:0:0:0:
448,192,144470,1,0,0:0:0:0:
64,192,144592,1,0,0:0:0:0:
448,192,144592,1,0,0:0:0:0:
64,192,144714,1,0,0:0:0:0:
192,192,144714,1,0,0:0:0:0:
320,192,144714,1,0,0:0:0:0:
192,192,144836,1,0,0:0:0:0:
320,192,144836,1,0,0:0:0:0:
448,192,144836,1,0,0:0:0:0:
64,192,144958,1,0,0:0:0:0:
320,192,144958,1,0,0:0:0:0:
448,192,144958,1,0,0:0:0:0:
64,192,145080,1,0,0:0:0:0:
192,192,145080,1,0,0:0:0:0:
192,192,145202,1,0,0:0:0:0:
320,192,145202,1,0,0:0:0:0:
64,192,145324,1,0,0:0:0:0:
448,192,145324,1,0,0:0:0:0:
192,192,145446,1,0,0:0:0:0:
320,192,145446,1,0,0:0:0:0:
448,192,145446,1,0,0:0:0:0:
64,192,145567,1,0,0:0:0:0:
320,192,145567,1,0,0:0:0:0:
64,192,145689,1,0,0:0:0:0:
192,192,145689,1,0,0:0:0:0:
448,192,145689,1,0,0:0:0:0:
192,192,145811,1,0,0:0:0:0:
320,192,145811,1,0,0:0:0:0:
448,192,145811,1,0,0:0:0:0:
64,192,145933,1,0,0:0:0:0:
320,192,145933,1,0,0:0:0:0:
192,192,146055,1,0,0:0:0:0:
448,192,146055,1,0,0:0:0:0:
64,192,146177,1,0,0:0:0:0:
320,192,146177,1,0,0:0:0:0:
448,192,146177,1,0,0:0:0:0:
64,192,146299,1,0,0:0:0:0:
320,192,146299,1,0,0:0:0:0:
64,192,146421,1,0,0:0:0:0:
192,192,146421,1,0,0:0:0:0:
448,192,146421,1,0,0:0:0:0:
192,192,146543,1,0,0:0:0:0:
448,192,146543,1,0,0:0:0:0:
64,192,146665,1,0,0:0:0:0:
320,192,146665,1,0,0:0:0:0:
448,192,146665,1,0,0:0:0:0:
64,192,146787,1,0,0:0:0:0:
192,192,146787,1,0,0:0:0:0:
320,192,146787,1,0,0:0:0:0:
64,192,146909,1,0,0:0:0:0:
192,192,146909,1,0,0:0:0:0:
320,192,146909,1,0,0:0:0:0:
448,192,146909,1,0,0:0:0:0:
192,192,147031,1,0,0:0:0:0:
448,192,147031,1,0,0:0:0:0:
64,192,147153,1,0,0:0:0:0:
320,192,147153,1,0,0:0:0:0:
448,192,147153,1,0,0:0:0:0:
64,192,147275,1,0,0:0:0:0:
192,192,147275,1,0,0:0:0:0:
320,192,147275,1,0,0:0:0:0:
192,192,147397,1,0,0:0:0:0:
448,192,147397,1,0,0:0:0:0:
64,192,147519,1,0,0:0:0:0:
192,192,147519,1,0,0:0:0:0:
448,192,147519,1,0,0:0:0:0:
192,192,147641,1,0,0:0:0:0:
320,192,147641,1,0,0:0:0:0:
448,192,147641,1,0,0:0:0:0:
64,192,147763,1,0,0:0:0:0:
320,192,147763,1,0,0:0:0:0:
192,192,147885,1,0,0:0:0:0:
320,192,147885,1,0,0:0:0:0:
64,192,148007,1,0,0:0:0:0:
448,192,148007,1,0,0:0:0:0:
64,192,148128,1,0,0:0:0:0:
320,192,148128,1,0,0:0:0:0:
448,192,148128,1,0,0:0:0:0:
192,192,148250,1,0,0:0:0:0:
320,192,148250,1,0,0:0:0:0:
64,192,148372,1,0,0:0:0:0:
192,192,148372,1,0,0:0:0:0:
448,192,148372,1,0,0:0:0:0:
320,192,148494,1,0,0:0:0:0:
448,192,148494,1,0,0:0:0:0:
64,192,148616,1,0,0:0:0:0:
192,192,148616,1,0,0:0:0:0:
320,192,148616,1,0,0:0:0:0:
64,192,148738,1,0,0:0:0:0:
192,192,148738,1,0,0:0:0:0:
448,192,148738,1,0,0:0:0:0:
64,192,148860,1,0,0:0:0:0:
192,192,148860,1,0,0:0:0:0:
320,192,148860,1,0,0:0:0:0:
448,192,148860,1,0,0:0:0:0:
192,192,148982,1,0,0:0:0:0:
448,192,148982,1,0,0:0:0:0:
64,192,149104,1,0,0:0:0:0:
320,192,149104,1,0,0:0:0:0:
320,192,149226,1,0,0:0:0:0:
448,192,149226,1,0,0:0:0:0:
64,192,149348,1,0,0:0:0:0:
192,192,149348,1,0,0:0:0:0:
448,192,149348,1,0,0:0:0:0:
192,192,149470,1,0,0:0:0:0:
320,192,149470,1,0,0:0:0:0:
64,192,149592,1,0,0:0:0:0:
320,192,149592,1,0,0:0:0:0:
448,192,149592,1,0,0:0:0:0:
192,192,149714,1,0,0:0:0:0:
320,192,149714,1,0,0:0:0:0:
448,192,149714,1,0,0:0:0:0:
192,192,149836,1,0,0:0:0:0:
448,192,149836,1,0,0:0:0:0:
64,192,149958,1,0,0:0:0:0:
192,192,149958,1,0,0:0:0:0:
320,192,149958,1,0,0:0:0:0:
64,192,150080,1,0,0:0:0:0:
320,192,150080,1,0,0:0:0:0:
448,192,150080,1,0,0:0:0:0:
192,192,150202,1,0,0:0:0:0:
448,192,150202,1,0,0:0:0:0:
192,192,150324,1,0,0:0:0:0:
320,192,150324,1,0,0:0:0:0:
320,192,150446,1,0,0:0:0:0:
64,192,150446,1,0,0:0:0:0:
448,192,150567,1,0,0:0:0:0:
192,192,150567,1,0,0:0:0:0:
320,192,150567,1,0,0:0:0:0:
64,192,150689,1,0,0:0:0:0:
192,192,150689,1,0,0:0:0:0:
448,192,150689,1,0,0:0:0:0:
64,192,150811,1,0,0:0:0:0:
192,192,150811,1,0,0:0:0:0:
320,192,150811,1,0,0:0:0:0:
448,192,150811,1,0,0:0:0:0:
320,192,150933,1,0,0:0:0:0:
64,192,150933,1,0,0:0:0:0:
192,192,151055,1,0,0:0:0:0:
448,192,151055,1,0,0:0:0:0:
320,192,151177,1,0,0:0:0:0:
192,192,151177,1,0,0:0:0:0:
64,192,151299,1,0,0:0:0:0:
320,192,151299,1,0,0:0:0:0:
448,192,151299,1,0,0:0:0:0:
192,192,151421,1,0,0:0:0:0:
448,192,151421,1,0,0:0:0:0:
64,192,151543,1,0,0:0:0:0:
320,192,151543,1,0,0:0:0:0:
192,192,151543,1,0,0:0:0:0:
320,192,151665,1,0,0:0:0:0:
64,192,151665,1,0,0:0:0:0:
448,192,151665,1,0,0:0:0:0:
192,192,151787,1,0,0:0:0:0:
320,192,151787,1,0,0:0:0:0:
64,192,151909,1,0,0:0:0:0:
192,192,151909,1,0,0:0:0:0:
448,192,151909,1,0,0:0:0:0:
320,192,152031,1,0,0:0:0:0:
192,192,152031,1,0,0:0:0:0:
448,192,152031,1,0,0:0:0:0:
448,192,152153,1,0,0:0:0:0:
320,192,152153,1,0,0:0:0:0:
192,192,152275,1,0,0:0:0:0:
320,192,152275,1,0,0:0:0:0:
64,192,152275,1,0,0:0:0:0:
192,192,152397,1,0,0:0:0:0:
448,192,152397,1,0,0:0:0:0:
64,192,152519,1,0,0:0:0:0:
320,192,152519,1,0,0:0:0:0:
448,192,152519,1,0,0:0:0:0:
320,192,152641,1,0,0:0:0:0:
192,192,152641,1,0,0:0:0:0:
64,192,152641,1,0,0:0:0:0:
64,192,152763,1,0,0:0:0:0:
192,192,152763,1,0,0:0:0:0:
320,192,152763,1,0,0:0:0:0:
448,192,152763,1,0,0:0:0:0:
192,192,152885,1,0,0:0:0:0:
448,192,152885,1,0,0:0:0:0:
64,192,153007,1,0,0:0:0:0:
320,192,153007,1,0,0:0:0:0:
320,192,153128,1,0,0:0:0:0:
448,192,153128,1,0,0:0:0:0:
192,192,153250,1,0,0:0:0:0:
320,192,153250,1,0,0:0:0:0:
448,192,153250,1,0,0:0:0:0:
64,192,153372,1,0,0:0:0:0:
320,192,153372,1,0,0:0:0:0:
64,192,153494,1,0,0:0:0:0:
192,192,153494,1,0,0:0:0:0:
448,192,153494,1,0,0:0:0:0:
64,192,153616,1,0,0:0:0:0:
320,192,153616,1,0,0:0:0:0:
448,192,153616,1,0,0:0:0:0:
192,192,153738,1,0,0:0:0:0:
320,192,153738,1,0,0:0:0:0:
192,192,153860,1,0,0:0:0:0:
448,192,153860,1,0,0:0:0:0:
64,192,153982,1,0,0:0:0:0:
192,192,153982,1,0,0:0:0:0:
320,192,153982,1,0,0:0:0:0:
448,192,153982,1,0,0:0:0:0:
64,192,154104,1,0,0:0:0:0:
320,192,154104,1,0,0:0:0:0:
64,192,154226,1,0,0:0:0:0:
192,192,154226,1,0,0:0:0:0:
320,192,154226,1,0,0:0:0:0:
448,192,154226,1,0,0:0:0:0:
192,192,154348,1,0,0:0:0:0:
448,192,154348,1,0,0:0:0:0:
64,192,154470,1,0,0:0:0:0:
192,192,154470,1,0,0:0:0:0:
320,192,154470,1,0,0:0:0:0:
448,192,154470,1,0,0:0:0:0:
64,192,154592,1,0,0:0:0:0:
320,192,154592,1,0,0:0:0:0:
64,192,154714,1,0,0:0:0:0:
192,192,154714,1,0,0:0:0:0:
320,192,154714,1,0,0:0:0:0:
448,192,154714,1,0,0:0:0:0:
64,192,154836,1,0,0:0:0:0:
192,192,154836,1,0,0:0:0:0:
64,192,154958,1,0,0:0:0:0:
192,192,154958,1,0,0:0:0:0:
192,192,155080,1,0,0:0:0:0:
320,192,155080,1,0,0:0:0:0:
448,192,155080,1,0,0:0:0:0:
320,192,155202,1,0,0:0:0:0:
448,192,155202,1,0,0:0:0:0:
320,192,155324,1,0,0:0:0:0:
448,192,155324,1,0,0:0:0:0:
64,192,155446,1,0,0:0:0:0:
320,192,155446,1,0,0:0:0:0:
448,192,155446,1,0,0:0:0:0:
192,192,155446,1,0,0:0:0:0:
64,192,155567,1,0,0:0:0:0:
320,192,155567,1,0,0:0:0:0:
448,192,155689,1,0,0:0:0:0:
320,192,155689,1,0,0:0:0:0:
192,192,155689,1,0,0:0:0:0:
448,192,155811,1,0,0:0:0:0:
64,192,155811,1,0,0:0:0:0:
320,192,155811,1,0,0:0:0:0:
64,192,155933,1,0,0:0:0:0:
192,192,155933,1,0,0:0:0:0:
448,192,155933,1,0,0:0:0:0:
192,192,156055,1,0,0:0:0:0:
320,192,156055,1,0,0:0:0:0:
320,192,156177,1,0,0:0:0:0:
64,192,156177,1,0,0:0:0:0:
448,192,156177,1,0,0:0:0:0:
192,192,156177,1,0,0:0:0:0:
64,192,156299,1,0,0:0:0:0:
448,192,156299,1,0,0:0:0:0:
320,192,156299,1,0,0:0:0:0:
64,192,156421,1,0,0:0:0:0:
320,192,156421,1,0,0:0:0:0:
192,192,156421,1,0,0:0:0:0:
192,192,156543,1,0,0:0:0:0:
448,192,156543,1,0,0:0:0:0:
64,192,156665,1,0,0:0:0:0:
192,192,156665,1,0,0:0:0:0:
320,192,156665,1,0,0:0:0:0:
448,192,156665,1,0,0:0:0:0:
320,192,156787,1,0,0:0:0:0:
64,192,156787,1,0,0:0:0:0:
320,192,156909,1,0,0:0:0:0:
448,192,156909,1,0,0:0:0:0:
192,192,157031,1,0,0:0:0:0:
64,192,157031,1,0,0:0:0:0:
64,192,157153,1,0,0:0:0:0:
320,192,157153,1,0,0:0:0:0:
448,192,157153,1,0,0:0:0:0:
320,192,157275,1,0,0:0:0:0:
448,192,157275,1,0,0:0:0:0:
64,192,157397,1,0,0:0:0:0:
320,192,157397,1,0,0:0:0:0:
192,192,157519,1,0,0:0:0:0:
448,192,157519,1,0,0:0:0:0:
64,192,157641,1,0,0:0:0:0:
192,192,157641,1,0,0:0:0:0:
320,192,157641,1,0,0:0:0:0:
64,192,157763,1,0,0:0:0:0:
192,192,157763,1,0,0:0:0:0:
64,192,157885,1,0,0:0:0:0:
448,192,157885,1,0,0:0:0:0:
192,192,158007,1,0,0:0:0:0:
320,192,158007,1,0,0:0:0:0:
64,192,158128,1,0,0:0:0:0:
320,192,158128,1,0,0:0:0:0:
448,192,158128,1,0,0:0:0:0:
64,192,158250,1,0,0:0:0:0:
320,192,158250,1,0,0:0:0:0:
192,192,158372,1,0,0:0:0:0:
448,192,158372,1,0,0:0:0:0:
64,192,158494,1,0,0:0:0:0:
320,192,158494,1,0,0:0:0:0:
448,192,158494,1,0,0:0:0:0:
64,192,158616,1,0,0:0:0:0:
192,192,158616,1,0,0:0:0:0:
448,192,158616,1,0,0:0:0:0:
192,192,158738,1,0,0:0:0:0:
320,192,158738,1,0,0:0:0:0:
64,192,158860,1,0,0:0:0:0:
448,192,158860,1,0,0:0:0:0:
192,192,158982,1,0,0:0:0:0:
448,192,158982,1,0,0:0:0:0:
64,192,159104,1,0,0:0:0:0:
192,192,159104,1,0,0:0:0:0:
320,192,159104,1,0,0:0:0:0:
64,192,159226,1,0,0:0:0:0:
320,192,159226,1,0,0:0:0:0:
320,192,159348,1,0,0:0:0:0:
448,192,159348,1,0,0:0:0:0:
64,192,159470,1,0,0:0:0:0:
192,192,159470,1,0,0:0:0:0:
192,192,159592,1,0,0:0:0:0:
320,192,159592,1,0,0:0:0:0:
448,192,159592,1,0,0:0:0:0:
192,192,159714,1,0,0:0:0:0:
448,192,159714,1,0,0:0:0:0:
320,192,159836,1,0,0:0:0:0:
448,192,159836,1,0,0:0:0:0:
64,192,159958,1,0,0:0:0:0:
192,192,159958,1,0,0:0:0:0:
192,192,160080,1,0,0:0:0:0:
320,192,160080,1,0,0:0:0:0:
448,192,160080,1,0,0:0:0:0:
192,192,160202,1,0,0:0:0:0:
320,192,160202,1,0,0:0:0:0:
64,192,160324,1,0,0:0:0:0:
320,192,160324,1,0,0:0:0:0:
192,192,160446,1,0,0:0:0:0:
448,192,160446,1,0,0:0:0:0:
64,192,160567,1,0,0:0:0:0:
320,192,160567,1,0,0:0:0:0:
448,192,160567,1,0,0:0:0:0:
64,192,160689,1,0,0:0:0:0:
320,192,160689,1,0,0:0:0:0:
64,192,160811,1,0,0:0:0:0:
192,192,160811,1,0,0:0:0:0:
320,192,160933,1,0,0:0:0:0:
448,192,160933,1,0,0:0:0:0:
64,192,161055,1,0,0:0:0:0:
192,192,161055,1,0,0:0:0:0:
320,192,161055,1,0,0:0:0:0:
64,192,161177,1,0,0:0:0:0:
192,192,161177,1,0,0:0:0:0:
192,192,161299,1,0,0:0:0:0:
320,192,161299,1,0,0:0:0:0:
448,192,161299,1,0,0:0:0:0:
64,192,161421,1,0,0:0:0:0:
320,192,161421,1,0,0:0:0:0:
448,192,161421,1,0,0:0:0:0:
64,192,161543,1,0,0:0:0:0:
320,192,161543,1,0,0:0:0:0:
192,192,161665,1,0,0:0:0:0:
448,192,161665,1,0,0:0:0:0:
64,192,161787,1,0,0:0:0:0:
320,192,161787,1,0,0:0:0:0:
448,192,161787,1,0,0:0:0:0:
320,192,161909,1,0,0:0:0:0:
448,192,161909,1,0,0:0:0:0:
64,192,162031,1,0,0:0:0:0:
192,192,162031,1,0,0:0:0:0:
320,192,162031,1,0,0:0:0:0:
192,192,162153,1,0,0:0:0:0:
320,192,162153,1,0,0:0:0:0:
64,192,162275,1,0,0:0:0:0:
192,192,162275,1,0,0:0:0:0:
448,192,162275,1,0,0:0:0:0:
64,192,162397,1,0,0:0:0:0:
192,192,162397,1,0,0:0:0:0:
448,192,162397,1,0,0:0:0:0:
64,192,162519,1,0,0:0:0:0:
320,192,162519,1,0,0:0:0:0:
448,192,162519,1,0,0:0:0:0:
192,192,162641,1,0,0:0:0:0:
320,192,162641,1,0,0:0:0:0:
64,192,162763,1,0,0:0:0:0:
192,192,162763,1,0,0:0:0:0:
448,192,162763,1,0,0:0:0:0:
64,192,162885,1,0,0:0:0:0:
192,192,162885,1,0,0:0:0:0:
448,192,162885,1,0,0:0:0:0:
192,192,163007,1,0,0:0:0:0:
320,192,163007,1,0,0:0:0:0:
64,192,163128,1,0,0:0:0:0:
320,192,163128,1,0,0:0:0:0:
448,192,163128,1,0,0:0:0:0:
64,192,163250,1,0,0:0:0:0:
320,192,163250,1,0,0:0:0:0:
448,192,163250,1,0,0:0:0:0:
64,192,163372,1,0,0:0:0:0:
192,192,163372,1,0,0:0:0:0:
320,192,163494,1,0,0:0:0:0:
448,192,163494,1,0,0:0:0:0:
64,192,163616,1,0,0:0:0:0:
192,192,163616,1,0,0:0:0:0:
448,192,163616,1,0,0:0:0:0:
64,192,163738,1,0,0:0:0:0:
320,192,163738,1,0,0:0:0:0:
448,192,163738,1,0,0:0:0:0:
192,192,163860,1,0,0:0:0:0:
320,192,163860,1,0,0:0:0:0:
64,192,163982,1,0,0:0:0:0:
192,192,163982,1,0,0:0:0:0:
448,192,163982,1,0,0:0:0:0:
64,192,164104,1,0,0:0:0:0:
320,192,164104,1,0,0:0:0:0:
192,192,164226,1,0,0:0:0:0:
320,192,164226,1,0,0:0:0:0:
448,192,164226,1,0,0:0:0:0:
64,192,164348,1,0,0:0:0:0:
320,192,164348,1,0,0:0:0:0:
448,192,164348,1,0,0:0:0:0:
64,192,164470,1,0,0:0:0:0:
192,192,164470,1,0,0:0:0:0:
320,192,164470,1,0,0:0:0:0:
448,192,164470,1,0,0:0:0:0:
64,192,164592,1,0,0:0:0:0:
192,192,164592,1,0,0:0:0:0:
192,192,164714,1,0,0:0:0:0:
448,192,164714,1,0,0:0:0:0:
320,192,164836,1,0,0:0:0:0:
448,192,164836,1,0,0:0:0:0:
64,192,164958,1,0,0:0:0:0:
192,192,164958,1,0,0:0:0:0:
448,192,164958,1,0,0:0:0:0:
192,192,165080,1,0,0:0:0:0:
320,192,165080,1,0,0:0:0:0:
64,192,165202,1,0,0:0:0:0:
320,192,165202,1,0,0:0:0:0:
448,192,165202,1,0,0:0:0:0:
192,192,165324,1,0,0:0:0:0:
448,192,165324,1,0,0:0:0:0:
192,192,165446,1,0,0:0:0:0:
320,192,165446,1,0,0:0:0:0:
64,192,165567,1,0,0:0:0:0:
320,192,165567,1,0,0:0:0:0:
64,192,165689,1,0,0:0:0:0:
192,192,165689,1,0,0:0:0:0:
448,192,165689,1,0,0:0:0:0:
320,192,165811,1,0,0:0:0:0:
448,192,165811,1,0,0:0:0:0:
64,192,165933,1,0,0:0:0:0:
192,192,165933,1,0,0:0:0:0:
448,192,165933,1,0,0:0:0:0:
64,192,166055,1,0,0:0:0:0:
320,192,166055,1,0,0:0:0:0:
192,192,166177,1,0,0:0:0:0:
320,192,166177,1,0,0:0:0:0:
448,192,166177,1,0,0:0:0:0:
64,192,166299,1,0,0:0:0:0:
448,192,166299,1,0,0:0:0:0:
64,192,166421,1,0,0:0:0:0:
192,192,166421,1,0,0:0:0:0:
320,192,166421,1,0,0:0:0:0:
192,192,166543,1,0,0:0:0:0:
448,192,166543,1,0,0:0:0:0:
64,192,166665,1,0,0:0:0:0:
320,192,166665,1,0,0:0:0:0:
448,192,166665,1,0,0:0:0:0:
64,192,166787,1,0,0:0:0:0:
192,192,166787,1,0,0:0:0:0:
448,192,166787,1,0,0:0:0:0:
64,192,166909,1,0,0:0:0:0:
192,192,166909,1,0,0:0:0:0:
320,192,166909,1,0,0:0:0:0:
320,192,167031,1,0,0:0:0:0:
448,192,167031,1,0,0:0:0:0:
64,192,167153,1,0,0:0:0:0:
192,192,167153,1,0,0:0:0:0:
448,192,167153,1,0,0:0:0:0:
192,192,167275,1,0,0:0:0:0:
320,192,167275,1,0,0:0:0:0:
320,192,167397,1,0,0:0:0:0:
448,192,167397,1,0,0:0:0:0:
64,192,167519,1,0,0:0:0:0:
448,192,167519,1,0,0:0:0:0:
64,192,167641,1,0,0:0:0:0:
192,192,167641,1,0,0:0:0:0:
320,192,167641,1,0,0:0:0:0:
64,192,167763,1,0,0:0:0:0:
192,192,167763,1,0,0:0:0:0:
64,192,167885,1,0,0:0:0:0:
320,192,167885,1,0,0:0:0:0:
448,192,167885,1,0,0:0:0:0:
320,192,168007,1,0,0:0:0:0:
448,192,168007,1,0,0:0:0:0:
64,192,168128,1,0,0:0:0:0:
192,192,168128,1,0,0:0:0:0:
320,192,168128,1,0,0:0:0:0:
64,192,168250,1,0,0:0:0:0:
448,192,168250,1,0,0:0:0:0:
192,192,168372,1,0,0:0:0:0:
320,192,168372,1,0,0:0:0:0:
448,192,168372,1,0,0:0:0:0:
192,192,168494,1,0,0:0:0:0:
320,192,168494,1,0,0:0:0:0:
448,192,168494,1,0,0:0:0:0:
64,192,168616,1,0,0:0:0:0:
192,192,168616,1,0,0:0:0:0:
320,192,168738,1,0,0:0:0:0:
448,192,168738,1,0,0:0:0:0:
64,192,168860,1,0,0:0:0:0:
192,192,168860,1,0,0:0:0:0:
320,192,168860,1,0,0:0:0:0:
64,192,168982,1,0,0:0:0:0:
448,192,168982,1,0,0:0:0:0:
192,192,169104,1,0,0:0:0:0:
320,192,169104,1,0,0:0:0:0:
448,192,169104,1,0,0:0:0:0:
64,192,169226,1,0,0:0:0:0:
192,192,169226,1,0,0:0:0:0:
320,192,169226,1,0,0:0:0:0:
320,192,169348,1,0,0:0:0:0:
448,192,169348,1,0,0:0:0:0:
64,192,169470,1,0,0:0:0:0:
192,192,169470,1,0,0:0:0:0:
448,192,169470,1,0,0:0:0:0:
64,192,169592,1,0,0:0:0:0:
320,192,169592,1,0,0:0:0:0:
448,192,169592,1,0,0:0:0:0:
64,192,169714,1,0,0:0:0:0:
192,192,169714,1,0,0:0:0:0:
320,192,169714,1,0,0:0:0:0:
192,192,169836,1,0,0:0:0:0:
448,192,169836,1,0,0:0:0:0:
320,192,169958,1,0,0:0:0:0:
448,192,169958,1,0,0:0:0:0:
64,192,170080,1,0,0:0:0:0:
192,192,170080,1,0,0:0:0:0:
448,192,170080,1,0,0:0:0:0:
64,192,170202,1,0,0:0:0:0:
192,192,170202,1,0,0:0:0:0:
320,192,170202,1,0,0:0:0:0:
64,192,170324,1,0,0:0:0:0:
192,192,170324,1,0,0:0:0:0:
320,192,170324,1,0,0:0:0:0:
448,192,170324,1,0,0:0:0:0:
320,192,170446,1,0,0:0:0:0:
448,192,170446,1,0,0:0:0:0:
64,192,170567,1,0,0:0:0:0:
192,192,170567,1,0,0:0:0:0:
448,192,170567,1,0,0:0:0:0:
192,192,170689,1,0,0:0:0:0:
320,192,170689,1,0,0:0:0:0:
64,192,170811,1,0,0:0:0:0:
320,192,170811,1,0,0:0:0:0:
448,192,170811,1,0,0:0:0:0:
192,192,170933,1,0,0:0:0:0:
320,192,170933,1,0,0:0:0:0:
64,192,171055,1,0,0:0:0:0:
192,192,171055,1,0,0:0:0:0:
448,192,171055,1,0,0:0:0:0:
192,192,171177,1,0,0:0:0:0:
320,192,171177,1,0,0:0:0:0:
64,192,171299,1,0,0:0:0:0:
320,192,171299,1,0,0:0:0:0:
448,192,171299,1,0,0:0:0:0:
64,192,171421,1,0,0:0:0:0:
192,192,171543,1,0,0:0:0:0:
320,192,171543,1,0,0:0:0:0:
448,192,171543,1,0,0:0:0:0:
64,192,171665,1,0,0:0:0:0:
320,192,171665,1,0,0:0:0:0:
64,192,171787,1,0,0:0:0:0:
192,192,171787,1,0,0:0:0:0:
448,192,171787,1,0,0:0:0:0:
192,192,171909,1,0,0:0:0:0:
320,192,171909,1,0,0:0:0:0:
448,192,171909,1,0,0:0:0:0:
64,192,172031,1,0,0:0:0:0:
320,192,172031,1,0,0:0:0:0:
448,192,172031,1,0,0:0:0:0:
192,192,172153,1,0,0:0:0:0:
320,192,172153,1,0,0:0:0:0:
64,192,172275,1,0,0:0:0:0:
320,192,172763,1,0,0:0:0:0:
192,192,173007,1,0,0:0:0:0:
448,192,173007,1,0,0:0:0:0:
320,192,173250,1,0,0:0:0:0:
64,192,173738,1,0,0:0:0:0:
192,192,173982,1,0,0:0:0:0:
448,192,174226,1,0,0:0:0:0:
64,192,174257,1,0,0:0:0:0:
320,192,174592,1,0,0:0:0:0:
448,192,174958,1,0,0:0:0:0:
64,192,175202,1,0,0:0:0:0:
320,192,175689,1,0,0:0:0:0:
192,192,175933,1,0,0:0:0:0:
448,192,176177,1,0,0:0:0:0:
64,192,176208,1,0,0:0:0:0:
192,192,176543,1,0,0:0:0:0:
64,192,176909,1,0,0:0:0:0:
448,192,177153,1,0,0:0:0:0:
192,192,177397,1,0,0:0:0:0:
64,192,177641,1,0,0:0:0:0:
448,192,177885,1,0,0:0:0:0:
64,192,178067,1,0,0:0:0:0:
320,192,178098,1,0,0:0:0:0:
192,192,178128,128,0,179592:0:0:0:0:
448,192,178169,1,0,0:0:0:0:
320,192,178494,1,0,0:0:0:0:
64,192,178860,1,0,0:0:0:0:
320,192,179104,1,0,0:0:0:0:
64,192,179348,1,0,0:0:0:0:
448,192,179592,1,0,0:0:0:0:
64,192,179836,1,0,0:0:0:0:
448,192,180019,1,0,0:0:0:0:
192,192,180049,1,0,0:0:0:0:
320,192,180080,128,0,181543:0:0:0:0:
64,192,180120,1,0,0:0:0:0:
192,192,180446,1,0,0:0:0:0:
64,192,180811,1,0,0:0:0:0:
448,192,181299,1,0,0:0:0:0:
192,192,181543,1,0,0:0:0:0:
448,192,181787,1,0,0:0:0:0:
320,192,182031,128,0,183494:0:0:0:0:
64,192,182031,1,0,0:0:0:0:
448,192,182061,1,0,0:0:0:0:
192,192,182397,1,0,0:0:0:0:
448,192,182763,1,0,0:0:0:0:
192,192,183250,1,0,0:0:0:0:
64,192,183494,1,0,0:0:0:0:
64,192,183982,1,0,0:0:0:0:
448,192,183982,1,0,0:0:0:0:
320,192,184013,1,0,0:0:0:0:
192,192,184226,1,0,0:0:0:0:
448,192,184226,1,0,0:0:0:0:
64,192,184470,1,0,0:0:0:0:
320,192,184470,1,0,0:0:0:0:
192,192,184714,1,0,0:0:0:0:
320,192,184836,1,0,0:0:0:0:
192,192,184958,1,0,0:0:0:0:
448,192,184958,1,0,0:0:0:0:
192,192,185202,1,0,0:0:0:0:
320,192,185202,1,0,0:0:0:0:
64,192,185446,1,0,0:0:0:0:
320,192,185446,1,0,0:0:0:0:
448,192,185446,1,0,0:0:0:0:
192,192,185689,1,0,0:0:0:0:
320,192,185811,1,0,0:0:0:0:
448,192,185933,1,0,0:0:0:0:
64,192,185933,1,0,0:0:0:0:
192,192,185964,1,0,0:0:0:0:
192,192,186177,1,0,0:0:0:0:
320,192,186177,1,0,0:0:0:0:
192,192,186421,1,0,0:0:0:0:
448,192,186421,1,0,0:0:0:0:
320,192,186665,1,0,0:0:0:0:
192,192,186787,1,0,0:0:0:0:
320,192,186909,1,0,0:0:0:0:
448,192,186909,1,0,0:0:0:0:
64,192,187153,1,0,0:0:0:0:
192,192,187153,1,0,0:0:0:0:
64,192,187397,1,0,0:0:0:0:
448,192,187397,1,0,0:0:0:0:
192,192,187641,1,0,0:0:0:0:
192,192,187763,1,0,0:0:0:0:
320,192,187885,1,0,0:0:0:0:
448,192,187885,1,0,0:0:0:0:
64,192,188128,1,0,0:0:0:0:
192,192,188128,1,0,0:0:0:0:
448,192,188250,1,0,0:0:0:0:
64,192,188372,1,0,0:0:0:0:
320,192,188372,1,0,0:0:0:0:
192,192,188616,1,0,0:0:0:0:
448,192,188616,1,0,0:0:0:0:
320,192,188738,1,0,0:0:0:0:
64,192,188860,1,0,0:0:0:0:
192,192,188860,1,0,0:0:0:0:
192,192,189104,1,0,0:0:0:0:
320,192,189104,1,0,0:0:0:0:
64,192,189348,1,0,0:0:0:0:
320,192,189348,1,0,0:0:0:0:
448,192,189348,1,0,0:0:0:0:
64,192,189592,1,0,0:0:0:0:
320,192,189592,1,0,0:0:0:0:
192,192,189714,1,0,0:0:0:0:
320,192,189714,1,0,0:0:0:0:
64,192,189836,1,0,0:0:0:0:
192,192,189836,1,0,0:0:0:0:
448,192,189836,1,0,0:0:0:0:
320,192,190080,1,0,0:0:0:0:
448,192,190080,1,0,0:0:0:0:
192,192,190202,1,0,0:0:0:0:
64,192,190324,1,0,0:0:0:0:
448,192,190324,1,0,0:0:0:0:
320,192,190567,1,0,0:0:0:0:
320,192,190689,1,0,0:0:0:0:
64,192,190811,1,0,0:0:0:0:
192,192,190811,1,0,0:0:0:0:
192,192,191055,1,0,0:0:0:0:
448,192,191055,1,0,0:0:0:0:
320,192,191299,1,0,0:0:0:0:
448,192,191299,1,0,0:0:0:0:
64,192,191543,1,0,0:0:0:0:
192,192,191543,1,0,0:0:0:0:
320,192,191665,1,0,0:0:0:0:
448,192,191665,1,0,0:0:0:0:
64,192,191787,1,0,0:0:0:0:
192,192,191787,1,0,0:0:0:0:
448,192,191787,1,0,0:0:0:0:
320,192,192031,1,0,0:0:0:0:
64,192,192153,1,0,0:0:0:0:
192,192,192153,1,0,0:0:0:0:
448,192,192275,1,0,0:0:0:0:
64,192,192519,1,0,0:0:0:0:
320,192,192519,1,0,0:0:0:0:
192,192,192641,1,0,0:0:0:0:
320,192,192763,1,0,0:0:0:0:
448,192,192763,1,0,0:0:0:0:
192,192,193007,1,0,0:0:0:0:
64,192,193250,1,0,0:0:0:0:
448,192,193250,1,0,0:0:0:0:
192,192,193494,1,0,0:0:0:0:
320,192,193616,1,0,0:0:0:0:
64,192,193738,1,0,0:0:0:0:
192,192,193738,1,0,0:0:0:0:
448,192,193738,1,0,0:0:0:0:
320,192,193982,1,0,0:0:0:0:
448,192,193982,1,0,0:0:0:0:
64,192,194104,1,0,0:0:0:0:
192,192,194104,1,0,0:0:0:0:
320,192,194226,1,0,0:0:0:0:
448,192,194226,1,0,0:0:0:0:
64,192,194348,1,0,0:0:0:0:
192,192,194470,1,0,0:0:0:0:
448,192,194470,1,0,0:0:0:0:
320,192,194592,1,0,0:0:0:0:
192,192,194714,1,0,0:0:0:0:
64,192,194836,1,0,0:0:0:0:
448,192,194836,1,0,0:0:0:0:
192,192,194958,1,0,0:0:0:0:
320,192,194958,1,0,0:0:0:0:
320,192,195202,1,0,0:0:0:0:
448,192,195202,1,0,0:0:0:0:
64,192,195446,128,0,195689:0:0:0:0:
192,192,195446,1,0,0:0:0:0:
320,192,195689,1,0,0:0:0:0:
448,192,195689,1,0,0:0:0:0:
192,192,195933,1,0,0:0:0:0:
64,192,196055,1,0,0:0:0:0:
320,192,196055,1,0,0:0:0:0:
448,192,196177,1,0,0:0:0:0:
64,192,196421,1,0,0:0:0:0:
192,192,196421,1,0,0:0:0:0:
320,192,196543,1,0,0:0:0:0:
192,192,196665,1,0,0:0:0:0:
320,192,196909,1,0,0:0:0:0:
448,192,197153,1,0,0:0:0:0:
192,192,197397,1,0,0:0:0:0:
320,192,197519,1,0,0:0:0:0:
192,192,197641,1,0,0:0:0:0:
448,192,197641,1,0,0:0:0:0:
64,192,197641,1,0,0:0:0:0:
64,192,197885,1,0,0:0:0:0:
192,192,198007,1,0,0:0:0:0:
320,192,198007,1,0,0:0:0:0:
448,192,198128,1,0,0:0:0:0:
64,192,198372,1,0,0:0:0:0:
448,192,198372,1,0,0:0:0:0:
64,192,198494,1,0,0:0:0:0:
320,192,198616,1,0,0:0:0:0:
192,192,198860,1,0,0:0:0:0:
448,192,198860,1,0,0:0:0:0:
320,192,199104,1,0,0:0:0:0:
64,192,199348,1,0,0:0:0:0:
320,192,199470,1,0,0:0:0:0:
448,192,199470,1,0,0:0:0:0:
64,192,199592,1,0,0:0:0:0:
320,192,199592,1,0,0:0:0:0:
448,192,199592,1,0,0:0:0:0:
448,192,199836,1,0,0:0:0:0:
64,192,199958,1,0,0:0:0:0:
320,192,199958,1,0,0:0:0:0:
192,192,200080,1,0,0:0:0:0:
64,192,200324,1,0,0:0:0:0:
192,192,200324,1,0,0:0:0:0:
448,192,200567,1,0,0:0:0:0:
64,192,200689,1,0,0:0:0:0:
320,192,200811,1,0,0:0:0:0:
192,192,200893,1,0,0:0:0:0:
448,192,200974,1,0,0:0:0:0:
64,192,201055,1,0,0:0:0:0:
192,192,201299,1,0,0:0:0:0:
320,192,201299,1,0,0:0:0:0:
64,192,201543,1,0,0:0:0:0:
320,192,201543,1,0,0:0:0:0:
192,192,201665,1,0,0:0:0:0:
64,192,201787,1,0,0:0:0:0:
192,192,202031,1,0,0:0:0:0:
448,192,202031,1,0,0:0:0:0:
448,192,202275,1,0,0:0:0:0:
192,192,202397,1,0,0:0:0:0:
448,192,202397,1,0,0:0:0:0:
64,192,202763,1,0,0:0:0:0:
448,192,202885,1,0,0:0:0:0:
320,192,202946,1,0,0:0:0:0:
192,192,203007,1,0,0:0:0:0:
448,192,203007,1,0,0:0:0:0:
192,192,203128,1,0,0:0:0:0:
448,192,203250,1,0,0:0:0:0:
320,192,203494,128,0,204348:0:0:0:0:
192,192,203494,1,0,0:0:0:0:
64,192,204348,1,0,0:0:0:0:
192,192,204348,1,0,0:0:0:0:
448,192,204348,1,0,0:0:0:0:
320,192,204470,1,0,0:0:0:0:
448,192,204470,1,0,0:0:0:0:
64,192,204592,1,0,0:0:0:0:
320,192,204592,1,0,0:0:0:0:
192,192,204714,1,0,0:0:0:0:
320,192,204836,1,0,0:0:0:0:
64,192,204958,1,0,0:0:0:0:
192,192,204958,1,0,0:0:0:0:
192,192,205080,1,0,0:0:0:0:
320,192,205202,1,0,0:0:0:0:
448,192,205202,1,0,0:0:0:0:
64,192,205324,1,0,0:0:0:0:
320,192,205324,1,0,0:0:0:0:
448,192,205324,1,0,0:0:0:0:
64,192,205446,1,0,0:0:0:0:
192,192,205446,1,0,0:0:0:0:
320,192,205446,1,0,0:0:0:0:
448,192,205446,1,0,0:0:0:0:
64,192,205567,1,0,0:0:0:0:
448,192,205567,1,0,0:0:0:0:
192,192,205689,1,0,0:0:0:0:
448,192,205689,1,0,0:0:0:0:
64,192,205811,1,0,0:0:0:0:
320,192,205811,1,0,0:0:0:0:
64,192,205933,1,0,0:0:0:0:
192,192,205933,1,0,0:0:0:0:
448,192,205933,1,0,0:0:0:0:
64,192,206055,1,0,0:0:0:0:
192,192,206055,1,0,0:0:0:0:
448,192,206055,1,0,0:0:0:0:
320,192,206177,1,0,0:0:0:0:
448,192,206177,1,0,0:0:0:0:
64,192,206299,1,0,0:0:0:0:
192,192,206299,1,0,0:0:0:0:
64,192,206421,1,0,0:0:0:0:
320,192,206421,1,0,0:0:0:0:
448,192,206421,1,0,0:0:0:0:
64,192,206543,1,0,0:0:0:0:
320,192,206543,1,0,0:0:0:0:
448,192,206543,1,0,0:0:0:0:
192,192,206665,1,0,0:0:0:0:
320,192,206665,1,0,0:0:0:0:
64,192,206787,1,0,0:0:0:0:
448,192,206787,1,0,0:0:0:0:
64,192,206909,1,0,0:0:0:0:
192,192,206909,1,0,0:0:0:0:
320,192,206909,1,0,0:0:0:0:
64,192,207031,1,0,0:0:0:0:
192,192,207031,1,0,0:0:0:0:
320,192,207031,1,0,0:0:0:0:
192,192,207153,1,0,0:0:0:0:
448,192,207153,1,0,0:0:0:0:
64,192,207275,1,0,0:0:0:0:
320,192,207275,1,0,0:0:0:0:
64,192,207397,1,0,0:0:0:0:
192,192,207397,1,0,0:0:0:0:
320,192,207397,1,0,0:0:0:0:
448,192,207397,1,0,0:0:0:0:
192,192,207519,1,0,0:0:0:0:
320,192,207519,1,0,0:0:0:0:
64,192,207641,1,0,0:0:0:0:
448,192,207641,1,0,0:0:0:0:
64,192,207763,1,0,0:0:0:0:
192,192,207763,1,0,0:0:0:0:
320,192,207763,1,0,0:0:0:0:
192,192,207885,1,0,0:0:0:0:
448,192,207885,1,0,0:0:0:0:
64,192,208007,1,0,0:0:0:0:
320,192,208007,1,0,0:0:0:0:
64,192,208128,1,0,0:0:0:0:
192,192,208128,1,0,0:0:0:0:
448,192,208128,1,0,0:0:0:0:
64,192,208250,1,0,0:0:0:0:
192,192,208250,1,0,0:0:0:0:
320,192,208372,1,0,0:0:0:0:
448,192,208372,1,0,0:0:0:0:
64,192,208494,1,0,0:0:0:0:
192,192,208494,1,0,0:0:0:0:
320,192,208494,1,0,0:0:0:0:
64,192,208616,1,0,0:0:0:0:
192,192,208616,1,0,0:0:0:0:
448,192,208616,1,0,0:0:0:0:
320,192,208738,1,0,0:0:0:0:
448,192,208738,1,0,0:0:0:0:
64,192,208860,1,0,0:0:0:0:
192,192,208860,1,0,0:0:0:0:
320,192,208860,1,0,0:0:0:0:
64,192,208982,1,0,0:0:0:0:
448,192,208982,1,0,0:0:0:0:
192,192,209104,1,0,0:0:0:0:
320,192,209104,1,0,0:0:0:0:
448,192,209104,1,0,0:0:0:0:
64,192,209226,1,0,0:0:0:0:
320,192,209226,1,0,0:0:0:0:
64,192,209348,1,0,0:0:0:0:
192,192,209348,1,0,0:0:0:0:
448,192,209348,1,0,0:0:0:0:
320,192,209470,1,0,0:0:0:0:
448,192,209470,1,0,0:0:0:0:
64,192,209592,1,0,0:0:0:0:
320,192,209592,1,0,0:0:0:0:
192,192,209714,1,0,0:0:0:0:
448,192,209714,1,0,0:0:0:0:
64,192,209836,1,0,0:0:0:0:
320,192,209836,1,0,0:0:0:0:
448,192,209836,1,0,0:0:0:0:
192,192,209958,1,0,0:0:0:0:
320,192,209958,1,0,0:0:0:0:
64,192,210080,1,0,0:0:0:0:
192,192,210080,1,0,0:0:0:0:
448,192,210080,1,0,0:0:0:0:
64,192,210202,1,0,0:0:0:0:
320,192,210202,1,0,0:0:0:0:
448,192,210202,1,0,0:0:0:0:
192,192,210324,1,0,0:0:0:0:
320,192,210324,1,0,0:0:0:0:
192,192,210446,1,0,0:0:0:0:
448,192,210446,1,0,0:0:0:0:
64,192,210567,1,0,0:0:0:0:
320,192,210567,1,0,0:0:0:0:
448,192,210567,1,0,0:0:0:0:
64,192,210689,1,0,0:0:0:0:
192,192,210689,1,0,0:0:0:0:
64,192,210811,1,0,0:0:0:0:
192,192,210811,1,0,0:0:0:0:
448,192,210811,1,0,0:0:0:0:
320,192,210933,1,0,0:0:0:0:
448,192,210933,1,0,0:0:0:0:
64,192,211055,1,0,0:0:0:0:
320,192,211055,1,0,0:0:0:0:
448,192,211055,1,0,0:0:0:0:
64,192,211177,1,0,0:0:0:0:
192,192,211177,1,0,0:0:0:0:
320,192,211177,1,0,0:0:0:0:
64,192,211299,1,0,0:0:0:0:
192,192,211299,1,0,0:0:0:0:
448,192,211299,1,0,0:0:0:0:
320,192,211421,1,0,0:0:0:0:
448,192,211421,1,0,0:0:0:0:
64,192,211543,1,0,0:0:0:0:
192,192,211543,1,0,0:0:0:0:
320,192,211543,1,0,0:0:0:0:
64,192,211665,1,0,0:0:0:0:
192,192,211665,1,0,0:0:0:0:
448,192,211665,1,0,0:0:0:0:
192,192,211787,1,0,0:0:0:0:
320,192,211787,1,0,0:0:0:0:
64,192,211909,1,0,0:0:0:0:
320,192,211909,1,0,0:0:0:0:
448,192,211909,1,0,0:0:0:0:
192,192,212031,1,0,0:0:0:0:
320,192,212031,1,0,0:0:0:0:
448,192,212031,1,0,0:0:0:0:
64,192,212153,1,0,0:0:0:0:
192,192,212153,1,0,0:0:0:0:
320,192,212275,1,0,0:0:0:0:
448,192,212275,1,0,0:0:0:0:
64,192,212397,1,0,0:0:0:0:
320,192,212397,1,0,0:0:0:0:
64,192,212519,1,0,0:0:0:0:
192,192,212519,1,0,0:0:0:0:
448,192,212519,1,0,0:0:0:0:
320,192,212641,1,0,0:0:0:0:
448,192,212641,1,0,0:0:0:0:
64,192,212763,1,0,0:0:0:0:
192,192,212763,1,0,0:0:0:0:
320,192,212763,1,0,0:0:0:0:
192,192,212885,1,0,0:0:0:0:
448,192,212885,1,0,0:0:0:0:
64,192,213007,1,0,0:0:0:0:
320,192,213007,1,0,0:0:0:0:
448,192,213007,1,0,0:0:0:0:
64,192,213128,1,0,0:0:0:0:
192,192,213128,1,0,0:0:0:0:
448,192,213128,1,0,0:0:0:0:
64,192,213250,1,0,0:0:0:0:
192,192,213250,1,0,0:0:0:0:
320,192,213250,1,0,0:0:0:0:
448,192,213250,1,0,0:0:0:0:
192,192,213372,1,0,0:0:0:0:
320,192,213372,1,0,0:0:0:0:
64,192,213494,1,0,0:0:0:0:
320,192,213494,1,0,0:0:0:0:
192,192,213616,1,0,0:0:0:0:
448,192,213616,1,0,0:0:0:0:
64,192,213738,1,0,0:0:0:0:
192,192,213738,1,0,0:0:0:0:
448,192,213738,1,0,0:0:0:0:
192,192,213860,1,0,0:0:0:0:
320,192,213860,1,0,0:0:0:0:
64,192,213982,1,0,0:0:0:0:
320,192,213982,1,0,0:0:0:0:
448,192,213982,1,0,0:0:0:0:
64,192,214104,1,0,0:0:0:0:
192,192,214104,1,0,0:0:0:0:
448,192,214104,1,0,0:0:0:0:
192,192,214226,1,0,0:0:0:0:
320,192,214226,1,0,0:0:0:0:
64,192,214348,1,0,0:0:0:0:
192,192,214348,1,0,0:0:0:0:
448,192,214348,1,0,0:0:0:0:
64,192,214470,1,0,0:0:0:0:
320,192,214470,1,0,0:0:0:0:
448,192,214470,1,0,0:0:0:0:
192,192,214592,1,0,0:0:0:0:
448,192,214592,1,0,0:0:0:0:
192,192,214714,1,0,0:0:0:0:
320,192,214714,1,0,0:0:0:0:
64,192,214836,1,0,0:0:0:0:
448,192,214836,1,0,0:0:0:0:
64,192,214958,1,0,0:0:0:0:
192,192,214958,1,0,0:0:0:0:
320,192,214958,1,0,0:0:0:0:
192,192,215080,1,0,0:0:0:0:
320,192,215080,1,0,0:0:0:0:
448,192,215080,1,0,0:0:0:0:
64,192,215202,1,0,0:0:0:0:
192,192,215202,1,0,0:0:0:0:
320,192,215202,1,0,0:0:0:0:
448,192,215202,1,0,0:0:0:0:
64,192,215324,1,0,0:0:0:0:
448,192,215324,1,0,0:0:0:0:
64,192,215446,1,0,0:0:0:0:
192,192,215446,1,0,0:0:0:0:
320,192,215567,1,0,0:0:0:0:
448,192,215567,1,0,0:0:0:0:
64,192,215689,1,0,0:0:0:0:
192,192,215689,1,0,0:0:0:0:
448,192,215689,1,0,0:0:0:0:
192,192,215811,1,0,0:0:0:0:
320,192,215811,1,0,0:0:0:0:
64,192,215933,1,0,0:0:0:0:
192,192,215933,1,0,0:0:0:0:
448,192,215933,1,0,0:0:0:0:
64,192,216055,1,0,0:0:0:0:
320,192,216055,1,0,0:0:0:0:
448,192,216055,1,0,0:0:0:0:
192,192,216177,1,0,0:0:0:0:
320,192,216177,1,0,0:0:0:0:
64,192,216299,1,0,0:0:0:0:
320,192,216299,1,0,0:0:0:0:
448,192,216299,1,0,0:0:0:0:
64,192,216421,1,0,0:0:0:0:
192,192,216421,1,0,0:0:0:0:
448,192,216421,1,0,0:0:0:0:
192,192,216543,1,0,0:0:0:0:
320,192,216543,1,0,0:0:0:0:
64,192,216665,1,0,0:0:0:0:
320,192,216665,1,0,0:0:0:0:
192,192,216787,1,0,0:0:0:0:
448,192,216787,1,0,0:0:0:0:
64,192,216909,1,0,0:0:0:0:
192,192,216909,1,0,0:0:0:0:
320,192,216909,1,0,0:0:0:0:
64,192,217031,1,0,0:0:0:0:
320,192,217031,1,0,0:0:0:0:
448,192,217031,1,0,0:0:0:0:
64,192,217153,1,0,0:0:0:0:
192,192,217153,1,0,0:0:0:0:
320,192,217153,1,0,0:0:0:0:
448,192,217153,1,0,0:0:0:0:
192,192,217275,1,0,0:0:0:0:
448,192,217275,1,0,0:0:0:0:
192,192,217397,1,0,0:0:0:0:
320,192,217397,1,0,0:0:0:0:
64,192,217519,1,0,0:0:0:0:
448,192,217519,1,0,0:0:0:0:
64,192,217641,1,0,0:0:0:0:
192,192,217641,1,0,0:0:0:0:
320,192,217641,1,0,0:0:0:0:
192,192,217763,1,0,0:0:0:0:
448,192,217763,1,0,0:0:0:0:
64,192,217885,1,0,0:0:0:0:
320,192,217885,1,0,0:0:0:0:
448,192,217885,1,0,0:0:0:0:
64,192,218007,1,0,0:0:0:0:
192,192,218007,1,0,0:0:0:0:
448,192,218007,1,0,0:0:0:0:
192,192,218128,1,0,0:0:0:0:
320,192,218128,1,0,0:0:0:0:
64,192,218250,1,0,0:0:0:0:
320,192,218250,1,0,0:0:0:0:
64,192,218372,1,0,0:0:0:0:
192,192,218372,1,0,0:0:0:0:
320,192,218372,1,0,0:0:0:0:
448,192,218372,1,0,0:0:0:0:
192,192,218494,1,0,0:0:0:0:
448,192,218494,1,0,0:0:0:0:
64,192,218616,1,0,0:0:0:0:
192,192,218616,1,0,0:0:0:0:
320,192,218616,1,0,0:0:0:0:
448,192,218616,1,0,0:0:0:0:
64,192,218738,1,0,0:0:0:0:
320,192,218738,1,0,0:0:0:0:
64,192,218860,1,0,0:0:0:0:
192,192,218860,1,0,0:0:0:0:
320,192,218860,1,0,0:0:0:0:
448,192,218860,1,0,0:0:0:0:
192,192,218982,1,0,0:0:0:0:
448,192,218982,1,0,0:0:0:0:
64,192,219104,1,0,0:0:0:0:
192,192,219104,1,0,0:0:0:0:
320,192,219104,1,0,0:0:0:0:
448,192,219104,1,0,0:0:0:0:
320,192,219226,1,0,0:0:0:0:
448,192,219226,1,0,0:0:0:0:
320,192,219348,1,0,0:0:0:0:
448,192,219348,1,0,0:0:0:0:
64,192,219470,1,0,0:0:0:0:
192,192,219470,1,0,0:0:0:0:
320,192,219470,1,0,0:0:0:0:
64,192,219592,1,0,0:0:0:0:
192,192,219592,1,0,0:0:0:0:
64,192,219714,1,0,0:0:0:0:
192,192,219714,1,0,0:0:0:0:
192,192,219836,1,0,0:0:0:0:
320,192,219836,1,0,0:0:0:0:
448,192,219836,1,0,0:0:0:0:
64,192,219836,1,0,0:0:0:0:
448,192,219958,1,0,0:0:0:0:
320,192,219958,1,0,0:0:0:0:
192,192,219958,1,0,0:0:0:0:
64,192,220080,1,0,0:0:0:0:
448,192,220080,1,0,0:0:0:0:
320,192,220080,1,0,0:0:0:0:
64,192,220202,1,0,0:0:0:0:
448,192,220202,1,0,0:0:0:0:
192,192,220202,1,0,0:0:0:0:
192,192,220324,1,0,0:0:0:0:
320,192,220324,1,0,0:0:0:0:
64,192,220567,1,0,0:0:0:0:
192,192,220567,1,0,0:0:0:0:
320,192,220567,1,0,0:0:0:0:
448,192,220567,1,0,0:0:0:0:
64,192,220689,1,0,0:0:0:0:
192,192,220689,1,0,0:0:0:0:
192,192,220811,1,0,0:0:0:0:
320,192,220811,1,0,0:0:0:0:
448,192,220811,1,0,0:0:0:0:
320,192,220933,1,0,0:0:0:0:
448,192,220933,1,0,0:0:0:0:
64,192,221055,1,0,0:0:0:0:
192,192,221055,1,0,0:0:0:0:
320,192,221055,1,0,0:0:0:0:
448,192,221055,1,0,0:0:0:0:
64,192,221177,1,0,0:0:0:0:
192,192,221177,1,0,0:0:0:0:
320,192,221299,1,0,0:0:0:0:
448,192,221299,1,0,0:0:0:0:
192,192,221421,1,0,0:0:0:0:
320,192,221421,1,0,0:0:0:0:
64,192,221543,1,0,0:0:0:0:
192,192,221543,1,0,0:0:0:0:
448,192,221543,1,0,0:0:0:0:
320,192,221665,1,0,0:0:0:0:
448,192,221665,1,0,0:0:0:0:
192,192,221787,1,0,0:0:0:0:
448,192,221787,1,0,0:0:0:0:
64,192,221909,1,0,0:0:0:0:
320,192,221909,1,0,0:0:0:0:
64,192,222031,1,0,0:0:0:0:
192,192,222031,1,0,0:0:0:0:
448,192,222031,1,0,0:0:0:0:
64,192,222153,1,0,0:0:0:0:
192,192,222153,1,0,0:0:0:0:
192,192,222275,1,0,0:0:0:0:
320,192,222275,1,0,0:0:0:0:
64,192,222397,1,0,0:0:0:0:
448,192,222397,1,0,0:0:0:0:
192,192,222519,1,0,0:0:0:0:
320,192,222519,1,0,0:0:0:0:
448,192,222519,1,0,0:0:0:0:
192,192,222641,1,0,0:0:0:0:
320,192,222641,1,0,0:0:0:0:
64,192,222763,1,0,0:0:0:0:
192,192,222763,1,0,0:0:0:0:
320,192,222885,1,0,0:0:0:0:
448,192,222885,1,0,0:0:0:0:
64,192,223007,1,0,0:0:0:0:
192,192,223007,1,0,0:0:0:0:
448,192,223007,1,0,0:0:0:0:
64,192,223128,1,0,0:0:0:0:
320,192,223128,1,0,0:0:0:0:
192,192,223250,1,0,0:0:0:0:
320,192,223250,1,0,0:0:0:0:
64,192,223372,1,0,0:0:0:0:
448,192,223372,1,0,0:0:0:0:
192,192,223494,1,0,0:0:0:0:
320,192,223494,1,0,0:0:0:0:
448,192,223494,1,0,0:0:0:0:
192,192,223616,1,0,0:0:0:0:
448,192,223616,1,0,0:0:0:0:
64,192,223738,1,0,0:0:0:0:
192,192,223738,1,0,0:0:0:0:
320,192,223860,1,0,0:0:0:0:
448,192,223860,1,0,0:0:0:0:
64,192,223982,1,0,0:0:0:0:
192,192,223982,1,0,0:0:0:0:
320,192,223982,1,0,0:0:0:0:
64,192,224104,1,0,0:0:0:0:
320,192,224104,1,0,0:0:0:0:
64,192,224226,1,0,0:0:0:0:
192,192,224226,1,0,0:0:0:0:
320,192,224348,1,0,0:0:0:0:
448,192,224348,1,0,0:0:0:0:
64,192,224470,1,0,0:0:0:0:
192,192,224470,1,0,0:0:0:0:
448,192,224470,1,0,0:0:0:0:
192,192,224592,1,0,0:0:0:0:
320,192,224592,1,0,0:0:0:0:
192,192,224714,1,0,0:0:0:0:
448,192,224714,1,0,0:0:0:0:
64,192,224836,1,0,0:0:0:0:
320,192,224836,1,0,0:0:0:0:
64,192,224958,1,0,0:0:0:0:
192,192,224958,1,0,0:0:0:0:
448,192,224958,1,0,0:0:0:0:
192,192,225080,1,0,0:0:0:0:
448,192,225080,1,0,0:0:0:0:
320,192,225202,1,0,0:0:0:0:
448,192,225202,1,0,0:0:0:0:
64,192,225324,1,0,0:0:0:0:
192,192,225324,1,0,0:0:0:0:
192,192,225446,1,0,0:0:0:0:
320,192,225446,1,0,0:0:0:0:
448,192,225446,1,0,0:0:0:0:
320,192,225567,1,0,0:0:0:0:
448,192,225567,1,0,0:0:0:0:
64,192,225689,1,0,0:0:0:0:
192,192,225689,1,0,0:0:0:0:
320,192,225689,1,0,0:0:0:0:
64,192,225811,1,0,0:0:0:0:
192,192,225811,1,0,0:0:0:0:
448,192,225811,1,0,0:0:0:0:
192,192,225933,1,0,0:0:0:0:
448,192,225933,1,0,0:0:0:0:
64,192,226055,1,0,0:0:0:0:
320,192,226055,1,0,0:0:0:0:
64,192,226177,1,0,0:0:0:0:
192,192,226177,1,0,0:0:0:0:
448,192,226177,1,0,0:0:0:0:
64,192,226299,1,0,0:0:0:0:
192,192,226299,1,0,0:0:0:0:
192,192,226421,1,0,0:0:0:0:
320,192,226421,1,0,0:0:0:0:
448,192,226421,1,0,0:0:0:0:
192,192,226543,1,0,0:0:0:0:
320,192,226543,1,0,0:0:0:0:
64,192,226665,1,0,0:0:0:0:
320,192,226665,1,0,0:0:0:0:
448,192,226665,1,0,0:0:0:0:
320,192,226787,1,0,0:0:0:0:
448,192,226787,1,0,0:0:0:0:
64,192,226909,1,0,0:0:0:0:
192,192,226909,1,0,0:0:0:0:
448,192,226909,1,0,0:0:0:0:
192,192,227031,1,0,0:0:0:0:
320,192,227031,1,0,0:0:0:0:
64,192,227153,1,0,0:0:0:0:
320,192,227153,1,0,0:0:0:0:
448,192,227153,1,0,0:0:0:0:
64,192,227275,1,0,0:0:0:0:
320,192,227275,1,0,0:0:0:0:
448,192,227275,1,0,0:0:0:0:
192,192,227397,1,0,0:0:0:0:
320,192,227397,1,0,0:0:0:0:
64,192,227519,1,0,0:0:0:0:
192,192,227519,1,0,0:0:0:0:
448,192,227519,1,0,0:0:0:0:
64,192,227641,1,0,0:0:0:0:
192,192,227641,1,0,0:0:0:0:
448,192,227641,1,0,0:0:0:0:
320,192,227763,1,0,0:0:0:0:
448,192,227763,1,0,0:0:0:0:
64,192,227885,1,0,0:0:0:0:
192,192,227885,1,0,0:0:0:0:
192,192,228007,1,0,0:0:0:0:
448,192,228007,1,0,0:0:0:0:
64,192,228128,1,0,0:0:0:0:
320,192,228128,1,0,0:0:0:0:
448,192,228128,1,0,0:0:0:0:
64,192,228250,1,0,0:0:0:0:
192,192,228250,1,0,0:0:0:0:
448,192,228250,1,0,0:0:0:0:
192,192,228372,1,0,0:0:0:0:
320,192,228372,1,0,0:0:0:0:
448,192,228372,1,0,0:0:0:0:
64,192,228494,1,0,0:0:0:0:
320,192,228494,1,0,0:0:0:0:
64,192,228616,1,0,0:0:0:0:
192,192,228616,1,0,0:0:0:0:
448,192,228616,1,0,0:0:0:0:
64,192,228738,1,0,0:0:0:0:
320,192,228738,1,0,0:0:0:0:
448,192,228738,1,0,0:0:0:0:
64,192,228860,1,0,0:0:0:0:
192,192,228860,1,0,0:0:0:0:
320,192,228860,1,0,0:0:0:0:
448,192,228860,1,0,0:0:0:0:
192,192,228982,1,0,0:0:0:0:
320,192,228982,1,0,0:0:0:0:
192,192,229104,1,0,0:0:0:0:
448,192,229104,1,0,0:0:0:0:
64,192,229226,1,0,0:0:0:0:
320,192,229226,1,0,0:0:0:0:
64,192,229348,1,0,0:0:0:0:
192,192,229348,1,0,0:0:0:0:
448,192,229348,1,0,0:0:0:0:
192,192,229470,1,0,0:0:0:0:
320,192,229470,1,0,0:0:0:0:
64,192,229592,1,0,0:0:0:0:
320,192,229592,1,0,0:0:0:0:
448,192,229592,1,0,0:0:0:0:
64,192,229714,1,0,0:0:0:0:
192,192,229714,1,0,0:0:0:0:
320,192,229836,1,0,0:0:0:0:
448,192,229836,1,0,0:0:0:0:
64,192,229958,1,0,0:0:0:0:
192,192,229958,1,0,0:0:0:0:
64,192,230080,1,0,0:0:0:0:
192,192,230080,1,0,0:0:0:0:
448,192,230080,1,0,0:0:0:0:
320,192,230202,1,0,0:0:0:0:
448,192,230202,1,0,0:0:0:0:
64,192,230324,1,0,0:0:0:0:
320,192,230324,1,0,0:0:0:0:
448,192,230324,1,0,0:0:0:0:
192,192,230446,1,0,0:0:0:0:
320,192,230446,1,0,0:0:0:0:
64,192,230567,1,0,0:0:0:0:
192,192,230567,1,0,0:0:0:0:
448,192,230567,1,0,0:0:0:0:
64,192,230689,1,0,0:0:0:0:
320,192,230689,1,0,0:0:0:0:
448,192,230689,1,0,0:0:0:0:
64,192,230811,1,0,0:0:0:0:
192,192,230811,1,0,0:0:0:0:
320,192,230811,1,0,0:0:0:0:
192,192,230933,1,0,0:0:0:0:
448,192,230933,1,0,0:0:0:0:
64,192,231055,1,0,0:0:0:0:
320,192,231055,1,0,0:0:0:0:
448,192,231055,1,0,0:0:0:0:
64,192,231177,1,0,0:0:0:0:
192,192,231177,1,0,0:0:0:0:
448,192,231177,1,0,0:0:0:0:
192,192,231299,1,0,0:0:0:0:
320,192,231299,1,0,0:0:0:0:
448,192,231299,1,0,0:0:0:0:
64,192,231421,1,0,0:0:0:0:
320,192,231421,1,0,0:0:0:0:
64,192,231543,1,0,0:0:0:0:
192,192,231543,1,0,0:0:0:0:
448,192,231543,1,0,0:0:0:0:
192,192,231665,1,0,0:0:0:0:
320,192,231665,1,0,0:0:0:0:
320,192,231787,1,0,0:0:0:0:
448,192,231787,1,0,0:0:0:0:
64,192,231909,1,0,0:0:0:0:
192,192,231909,1,0,0:0:0:0:
192,192,232031,1,0,0:0:0:0:
320,192,232031,1,0,0:0:0:0:
448,192,232031,1,0,0:0:0:0:
320,192,232153,1,0,0:0:0:0:
448,192,232153,1,0,0:0:0:0:
64,192,232275,1,0,0:0:0:0:
192,192,232275,1,0,0:0:0:0:
448,192,232275,1,0,0:0:0:0:
64,192,232397,1,0,0:0:0:0:
192,192,232397,1,0,0:0:0:0:
192,192,232519,1,0,0:0:0:0:
320,192,232519,1,0,0:0:0:0:
448,192,232519,1,0,0:0:0:0:
64,192,232641,1,0,0:0:0:0:
448,192,232641,1,0,0:0:0:0:
64,192,232763,1,0,0:0:0:0:
192,192,232763,1,0,0:0:0:0:
320,192,232763,1,0,0:0:0:0:
64,192,232885,1,0,0:0:0:0:
192,192,232885,1,0,0:0:0:0:
320,192,232885,1,0,0:0:0:0:
192,192,233007,1,0,0:0:0:0:
448,192,233007,1,0,0:0:0:0:
64,192,233128,1,0,0:0:0:0:
320,192,233128,1,0,0:0:0:0:
64,192,233250,1,0,0:0:0:0:
192,192,233250,1,0,0:0:0:0:
448,192,233250,1,0,0:0:0:0:
320,192,233372,1,0,0:0:0:0:
448,192,233372,1,0,0:0:0:0:
64,192,233494,1,0,0:0:0:0:
192,192,233494,1,0,0:0:0:0:
320,192,233494,1,0,0:0:0:0:
64,192,233616,1,0,0:0:0:0:
192,192,233616,1,0,0:0:0:0:
448,192,233616,1,0,0:0:0:0:
320,192,233738,1,0,0:0:0:0:
448,192,233738,1,0,0:0:0:0:
64,192,233860,1,0,0:0:0:0:
192,192,233860,1,0,0:0:0:0:
448,192,233860,1,0,0:0:0:0:
64,192,233982,1,0,0:0:0:0:
192,192,233982,1,0,0:0:0:0:
320,192,233982,1,0,0:0:0:0:
64,192,234104,1,0,0:0:0:0:
320,192,234104,1,0,0:0:0:0:
448,192,234104,1,0,0:0:0:0:
64,192,234226,1,0,0:0:0:0:
192,192,234226,1,0,0:0:0:0:
448,192,234226,1,0,0:0:0:0:
64,192,234348,1,0,0:0:0:0:
320,192,234348,1,0,0:0:0:0:
192,192,234470,1,0,0:0:0:0:
320,192,234470,1,0,0:0:0:0:
448,192,234470,1,0,0:0:0:0:
64,192,234592,1,0,0:0:0:0:
192,192,234592,1,0,0:0:0:0:
320,192,234592,1,0,0:0:0:0:
64,192,234714,1,0,0:0:0:0:
192,192,234714,1,0,0:0:0:0:
320,192,234714,1,0,0:0:0:0:
448,192,234714,1,0,0:0:0:0:
64,192,235324,1,0,0:0:0:0:
320,192,235324,1,0,0:0:0:0:
448,192,235324,1,0,0:0:0:0:
192,192,235446,1,0,0:0:0:0:
448,192,235446,1,0,0:0:0:0:
64,192,235567,1,0,0:0:0:0:
192,192,235567,1,0,0:0:0:0:
448,192,235567,1,0,0:0:0:0:
64,192,235689,1,0,0:0:0:0:
192,192,235689,1,0,0:0:0:0:
320,192,235689,1,0,0:0:0:0:
64,192,235811,1,0,0:0:0:0:
192,192,235811,1,0,0:0:0:0:
320,192,235811,1,0,0:0:0:0:
64,192,235933,1,0,0:0:0:0:
192,192,235933,1,0,0:0:0:0:
320,192,235933,1,0,0:0:0:0:
64,192,236055,1,0,0:0:0:0:
448,192,236055,1,0,0:0:0:0:
192,192,236177,1,0,0:0:0:0:
320,192,236177,1,0,0:0:0:0:
448,192,236177,1,0,0:0:0:0:
192,192,236299,1,0,0:0:0:0:
320,192,236299,1,0,0:0:0:0:
448,192,236299,1,0,0:0:0:0:
192,192,236421,1,0,0:0:0:0:
320,192,236421,1,0,0:0:0:0:
448,192,236421,1,0,0:0:0:0:
320,192,236543,1,0,0:0:0:0:
448,192,236543,1,0,0:0:0:0:
192,192,236604,1,0,0:0:0:0:
320,192,236665,1,0,0:0:0:0:
64,192,236665,1,0,0:0:0:0:
448,192,236665,1,0,0:0:0:0:
64,192,236787,1,0,0:0:0:0:
192,192,236787,1,0,0:0:0:0:
64,192,236909,1,0,0:0:0:0:
448,192,236909,1,0,0:0:0:0:
192,192,237031,1,0,0:0:0:0:
320,192,237031,1,0,0:0:0:0:
448,192,237031,1,0,0:0:0:0:
192,192,237153,1,0,0:0:0:0:
320,192,237153,1,0,0:0:0:0:
448,192,237153,1,0,0:0:0:0:
64,192,237275,1,0,0:0:0:0:
320,192,237275,1,0,0:0:0:0:
64,192,237397,1,0,0:0:0:0:
192,192,237397,1,0,0:0:0:0:
448,192,237397,1,0,0:0:0:0:
64,192,237519,1,0,0:0:0:0:
192,192,237519,1,0,0:0:0:0:
448,192,237519,1,0,0:0:0:0:
320,192,237641,1,0,0:0:0:0:
448,192,237641,1,0,0:0:0:0:
64,192,237763,1,0,0:0:0:0:
192,192,237763,1,0,0:0:0:0:
64,192,237885,1,0,0:0:0:0:
320,192,237885,1,0,0:0:0:0:
448,192,237885,1,0,0:0:0:0:
192,192,238007,1,0,0:0:0:0:
448,192,238007,1,0,0:0:0:0:
192,192,238128,1,0,0:0:0:0:
320,192,238128,1,0,0:0:0:0:
64,192,238250,1,0,0:0:0:0:
448,192,238250,1,0,0:0:0:0:
64,192,238372,1,0,0:0:0:0:
320,192,238372,1,0,0:0:0:0:
192,192,238494,1,0,0:0:0:0:
320,192,238494,1,0,0:0:0:0:
448,192,238494,1,0,0:0:0:0:
192,192,238616,1,0,0:0:0:0:
320,192,238616,1,0,0:0:0:0:
448,192,238616,1,0,0:0:0:0:
64,192,238738,1,0,0:0:0:0:
448,192,238738,1,0,0:0:0:0:
64,192,238860,1,0,0:0:0:0:
320,192,238860,1,0,0:0:0:0:
64,192,238982,1,0,0:0:0:0:
192,192,238982,1,0,0:0:0:0:
320,192,238982,1,0,0:0:0:0:
64,192,239104,1,0,0:0:0:0:
192,192,239104,1,0,0:0:0:0:
320,192,239104,1,0,0:0:0:0:
192,192,239226,1,0,0:0:0:0:
448,192,239226,1,0,0:0:0:0:
64,192,239348,1,0,0:0:0:0:
320,192,239348,1,0,0:0:0:0:
448,192,239348,1,0,0:0:0:0:
64,192,239470,1,0,0:0:0:0:
320,192,239470,1,0,0:0:0:0:
448,192,239470,1,0,0:0:0:0:
192,192,239592,1,0,0:0:0:0:
320,192,239592,1,0,0:0:0:0:
64,192,239714,1,0,0:0:0:0:
192,192,239714,1,0,0:0:0:0:
448,192,239714,1,0,0:0:0:0:
64,192,239836,1,0,0:0:0:0:
192,192,239836,1,0,0:0:0:0:
448,192,239836,1,0,0:0:0:0:
320,192,239958,1,0,0:0:0:0:
448,192,239958,1,0,0:0:0:0:
192,192,240080,1,0,0:0:0:0:
320,192,240080,1,0,0:0:0:0:
64,192,240202,1,0,0:0:0:0:
192,192,240202,1,0,0:0:0:0:
64,192,240324,1,0,0:0:0:0:
320,192,240324,1,0,0:0:0:0:
192,192,240446,1,0,0:0:0:0:
320,192,240446,1,0,0:0:0:0:
448,192,240446,1,0,0:0:0:0:
192,192,240567,1,0,0:0:0:0:
320,192,240567,1,0,0:0:0:0:
448,192,240567,1,0,0:0:0:0:
192,192,240689,1,0,0:0:0:0:
448,192,240689,1,0,0:0:0:0:
64,192,240811,1,0,0:0:0:0:
320,192,240811,1,0,0:0:0:0:
64,192,240933,1,0,0:0:0:0:
192,192,240933,1,0,0:0:0:0:
320,192,240933,1,0,0:0:0:0:
64,192,241055,1,0,0:0:0:0:
192,192,241055,1,0,0:0:0:0:
320,192,241055,1,0,0:0:0:0:
192,192,241177,1,0,0:0:0:0:
448,192,241177,1,0,0:0:0:0:
320,192,241299,1,0,0:0:0:0:
448,192,241299,1,0,0:0:0:0:
64,192,241421,1,0,0:0:0:0:
192,192,241421,1,0,0:0:0:0:
448,192,241421,1,0,0:0:0:0:
320,192,241543,1,0,0:0:0:0:
64,192,241665,1,0,0:0:0:0:
192,192,241665,1,0,0:0:0:0:
64,192,241787,1,0,0:0:0:0:
320,192,241787,1,0,0:0:0:0:
448,192,241787,1,0,0:0:0:0:
192,192,241909,1,0,0:0:0:0:
448,192,241909,1,0,0:0:0:0:
64,192,242031,1,0,0:0:0:0:
320,192,242031,1,0,0:0:0:0:
64,192,242153,1,0,0:0:0:0:
192,192,242153,1,0,0:0:0:0:
64,192,242275,1,0,0:0:0:0:
320,192,242275,1,0,0:0:0:0:
448,192,242275,1,0,0:0:0:0:
192,192,242397,1,0,0:0:0:0:
320,192,242397,1,0,0:0:0:0:
448,192,242397,1,0,0:0:0:0:
64,192,242519,1,0,0:0:0:0:
192,192,242519,1,0,0:0:0:0:
320,192,242519,1,0,0:0:0:0:
448,192,242519,1,0,0:0:0:0:
64,192,242641,1,0,0:0:0:0:
448,192,242641,1,0,0:0:0:0:
64,192,242763,1,0,0:0:0:0:
192,192,242763,1,0,0:0:0:0:
448,192,242763,1,0,0:0:0:0:
64,192,242885,1,0,0:0:0:0:
192,192,242885,1,0,0:0:0:0:
320,192,242885,1,0,0:0:0:0:
64,192,243007,1,0,0:0:0:0:
192,192,243007,1,0,0:0:0:0:
320,192,243007,1,0,0:0:0:0:
448,192,243007,1,0,0:0:0:0:
320,192,243128,1,0,0:0:0:0:
448,192,243128,1,0,0:0:0:0:
64,192,243250,1,0,0:0:0:0:
192,192,243250,1,0,0:0:0:0:
64,192,243372,1,0,0:0:0:0:
448,192,243372,1,0,0:0:0:0:
320,192,243494,1,0,0:0:0:0:
64,192,243616,1,0,0:0:0:0:
192,192,243616,1,0,0:0:0:0:
64,192,243738,1,0,0:0:0:0:
192,192,243738,1,0,0:0:0:0:
448,192,243738,1,0,0:0:0:0:
320,192,243860,1,0,0:0:0:0:
448,192,243860,1,0,0:0:0:0:
64,192,243982,1,0,0:0:0:0:
192,192,243982,1,0,0:0:0:0:
320,192,243982,1,0,0:0:0:0:
448,192,243982,1,0,0:0:0:0:
64,192,244104,1,0,0:0:0:0:
320,192,244104,1,0,0:0:0:0:
64,192,244226,1,0,0:0:0:0:
448,192,244226,1,0,0:0:0:0:
192,192,244348,1,0,0:0:0:0:
320,192,244348,1,0,0:0:0:0:
448,192,244348,1,0,0:0:0:0:
192,192,244470,1,0,0:0:0:0:
320,192,244470,1,0,0:0:0:0:
448,192,244470,1,0,0:0:0:0:
64,192,244592,1,0,0:0:0:0:
448,192,244592,1,0,0:0:0:0:
192,192,244714,1,0,0:0:0:0:
320,192,244714,1,0,0:0:0:0:
64,192,244836,1,0,0:0:0:0:
192,192,244836,1,0,0:0:0:0:
448,192,244836,1,0,0:0:0:0:
64,192,244958,1,0,0:0:0:0:
192,192,244958,1,0,0:0:0:0:
448,192,244958,1,0,0:0:0:0:
320,192,245080,1,0,0:0:0:0:
448,192,245080,1,0,0:0:0:0:
64,192,245202,1,0,0:0:0:0:
192,192,245202,1,0,0:0:0:0:
320,192,245202,1,0,0:0:0:0:
64,192,245324,1,0,0:0:0:0:
192,192,245324,1,0,0:0:0:0:
320,192,245324,1,0,0:0:0:0:
64,192,245446,1,0,0:0:0:0:
448,192,245446,1,0,0:0:0:0:
192,192,245567,1,0,0:0:0:0:
320,192,245567,1,0,0:0:0:0:
64,192,245689,1,0,0:0:0:0:
320,192,245689,1,0,0:0:0:0:
448,192,245689,1,0,0:0:0:0:
64,192,245811,1,0,0:0:0:0:
192,192,245811,1,0,0:0:0:0:
448,192,245811,1,0,0:0:0:0:
192,192,245933,1,0,0:0:0:0:
320,192,245933,1,0,0:0:0:0:
448,192,245933,1,0,0:0:0:0:
64,192,246055,1,0,0:0:0:0:
192,192,246177,1,0,0:0:0:0:
320,192,246177,1,0,0:0:0:0:
448,192,246177,1,0,0:0:0:0:
64,192,246299,1,0,0:0:0:0:
192,192,246299,1,0,0:0:0:0:
448,192,246299,1,0,0:0:0:0:
64,192,246421,1,0,0:0:0:0:
192,192,246421,1,0,0:0:0:0:
320,192,246421,1,0,0:0:0:0:
448,192,246421,1,0,0:0:0:0:
320,192,246543,1,0,0:0:0:0:
448,192,246543,1,0,0:0:0:0:
64,192,246665,1,0,0:0:0:0:
320,192,246665,1,0,0:0:0:0:
64,192,246787,1,0,0:0:0:0:
192,192,246787,1,0,0:0:0:0:
448,192,246787,1,0,0:0:0:0:
64,192,246909,1,0,0:0:0:0:
192,192,246909,1,0,0:0:0:0:
448,192,246909,1,0,0:0:0:0:
192,192,247031,1,0,0:0:0:0:
320,192,247031,1,0,0:0:0:0:
64,192,247153,1,0,0:0:0:0:
320,192,247153,1,0,0:0:0:0:
448,192,247153,1,0,0:0:0:0:
64,192,247275,1,0,0:0:0:0:
320,192,247275,1,0,0:0:0:0:
448,192,247275,1,0,0:0:0:0:
192,192,247397,1,0,0:0:0:0:
448,192,247397,1,0,0:0:0:0:
64,192,247519,1,0,0:0:0:0:
192,192,247519,1,0,0:0:0:0:
320,192,247519,1,0,0:0:0:0:
64,192,247641,1,0,0:0:0:0:
192,192,247641,1,0,0:0:0:0:
320,192,247641,1,0,0:0:0:0:
320,192,247763,1,0,0:0:0:0:
448,192,247763,1,0,0:0:0:0:
64,192,247885,1,0,0:0:0:0:
192,192,247885,1,0,0:0:0:0:
448,192,247885,1,0,0:0:0:0:
192,192,248007,1,0,0:0:0:0:
320,192,248007,1,0,0:0:0:0:
64,192,248128,1,0,0:0:0:0:
320,192,248128,1,0,0:0:0:0:
448,192,248128,1,0,0:0:0:0:
192,192,248250,1,0,0:0:0:0:
320,192,248250,1,0,0:0:0:0:
448,192,248250,1,0,0:0:0:0:
64,192,248372,1,0,0:0:0:0:
192,192,248372,1,0,0:0:0:0:
320,192,248372,1,0,0:0:0:0:
448,192,248372,1,0,0:0:0:0:
64,192,248494,1,0,0:0:0:0:
448,192,248494,1,0,0:0:0:0:
192,192,248616,1,0,0:0:0:0:
320,192,248616,1,0,0:0:0:0:
64,192,248738,1,0,0:0:0:0:
192,192,248738,1,0,0:0:0:0:
448,192,248738,1,0,0:0:0:0:
64,192,248860,1,0,0:0:0:0:
192,192,248860,1,0,0:0:0:0:
448,192,248860,1,0,0:0:0:0:
192,192,248982,1,0,0:0:0:0:
320,192,248982,1,0,0:0:0:0:
64,192,249104,1,0,0:0:0:0:
320,192,249104,1,0,0:0:0:0:
448,192,249104,1,0,0:0:0:0:
64,192,249226,1,0,0:0:0:0:
320,192,249226,1,0,0:0:0:0:
448,192,249226,1,0,0:0:0:0:
64,192,249470,1,0,0:0:0:0:
192,192,249470,1,0,0:0:0:0:
320,192,249470,1,0,0:0:0:0:
64,192,249592,1,0,0:0:0:0:
192,192,249592,1,0,0:0:0:0:
448,192,249592,1,0,0:0:0:0:
64,192,249714,1,0,0:0:0:0:
192,192,249714,1,0,0:0:0:0:
320,192,249714,1,0,0:0:0:0:
64,192,249836,1,0,0:0:0:0:
192,192,249836,1,0,0:0:0:0:
448,192,249836,1,0,0:0:0:0:
320,192,249958,1,0,0:0:0:0:
448,192,249958,1,0,0:0:0:0:
64,192,250080,1,0,0:0:0:0:
192,192,250080,1,0,0:0:0:0:
64,192,250202,1,0,0:0:0:0:
320,192,250202,1,0,0:0:0:0:
448,192,250202,1,0,0:0:0:0:
64,192,250324,1,0,0:0:0:0:
320,192,250324,1,0,0:0:0:0:
448,192,250324,1,0,0:0:0:0:
192,192,250446,1,0,0:0:0:0:
320,192,250567,1,0,0:0:0:0:
64,192,250689,1,0,0:0:0:0:
192,192,250689,1,0,0:0:0:0:
64,192,250811,1,0,0:0:0:0:
320,192,250811,1,0,0:0:0:0:
448,192,250811,1,0,0:0:0:0:
192,192,250933,1,0,0:0:0:0:
448,192,250933,1,0,0:0:0:0:
64,192,251055,1,0,0:0:0:0:
192,192,251055,1,0,0:0:0:0:
320,192,251055,1,0,0:0:0:0:
448,192,251177,1,0,0:0:0:0:
64,192,251299,1,0,0:0:0:0:
320,192,251299,1,0,0:0:0:0:
192,192,251421,1,0,0:0:0:0:
448,192,251421,1,0,0:0:0:0:
320,192,251543,1,0,0:0:0:0:
448,192,251543,1,0,0:0:0:0:
64,192,251665,1,0,0:0:0:0:
192,192,251665,1,0,0:0:0:0:
64,192,251787,1,0,0:0:0:0:
448,192,251787,1,0,0:0:0:0:
320,192,251787,1,0,0:0:0:0:
320,192,251909,1,0,0:0:0:0:
448,192,251909,1,0,0:0:0:0:
64,192,252031,1,0,0:0:0:0:
192,192,252031,1,0,0:0:0:0:
320,192,252031,1,0,0:0:0:0:
64,192,252153,1,0,0:0:0:0:
192,192,252153,1,0,0:0:0:0:
448,192,252153,1,0,0:0:0:0:
320,192,252276,1,0,0:0:0:0:
64,192,252651,1,0,0:0:0:0:
192,192,253026,1,0,0:0:0:0:
64,192,253776,1,0,0:0:0:0:
192,192,254028,1,0,0:0:0:0:
320,192,254280,1,0,0:0:0:0:
192,192,254311,1,0,0:0:0:0:
448,192,254661,1,0,0:0:0:0:
320,192,255042,1,0,0:0:0:0:
64,192,255074,1,0,0:0:0:0:
64,192,255805,1,0,0:0:0:0:
192,192,256059,1,0,0:0:0:0:
320,192,256313,1,0,0:0:0:0:
192,192,256345,1,0,0:0:0:0:
448,192,256695,1,0,0:0:0:0:
320,192,257076,1,0,0:0:0:0:
64,192,257108,1,0,0:0:0:0:
64,192,257585,1,0,0:0:0:0:
320,192,257839,1,0,0:0:0:0:
64,192,258093,1,0,0:0:0:0:
448,192,258347,1,0,0:0:0:0:
320,192,258729,1,0,0:0:0:0:
192,192,259110,1,0,0:0:0:0:
64,192,259364,1,0,0:0:0:0:
192,192,259873,1,0,0:0:0:0:
448,192,259904,1,0,0:0:0:0:
64,192,260127,1,0,0:0:0:0:
320,192,260381,1,0,0:0:0:0:
192,192,260763,1,0,0:0:0:0:
320,192,261144,1,0,0:0:0:0:
64,192,261652,1,0,0:0:0:0:
192,192,261907,1,0,0:0:0:0:
320,192,262415,1,0,0:0:0:0:
192,192,262796,1,0,0:0:0:0:
448,192,263178,1,0,0:0:0:0:
320,192,263686,1,0,0:0:0:0:
192,192,263941,1,0,0:0:0:0:
64,192,264449,1,0,0:0:0:0:
448,192,264449,1,0,0:0:0:0:
64,192,265765,1,0,0:0:0:0:
192,192,266038,1,0,0:0:0:0:
320,192,266338,1,0,0:0:0:0:
64,192,266743,1,0,0:0:0:0:
448,192,266743,1,0,0:0:0:0:
448,192,268365,1,0,0:0:0:0:
64,192,271424,1,0,0:0:0:0:
192,192,271522,128,0,274680:0:0:0:0:
320,192,271522,1,0,0:0:0:0:
