osu file format v14

[General]
AudioFilename: audio.mp3
AudioLeadIn: 0
PreviewTime: 47779
Countdown: 0
SampleSet: Soft
StackLeniency: 0.7
Mode: 0
LetterboxInBreaks: 0
WidescreenStoryboard: 1

[Editor]
DistanceSpacing: 1
BeatDivisor: 4
GridSize: 8
TimelineZoom: 1.4

[Metadata]
Title:Kagami no Sekai ni wa Watashi shika Inai -another version-
TitleUnicode:鏡の世界には私しかいない -another version-
Artist:monet
ArtistUnicode:monet
Creator:Mirash
Version:PandaHero's Insane
Source:素晴らしき日々~不連続存在~
Tags:PandaHero SubaHibi Subarashiki Hibi ~Furenzoku Sonzai~ Wonderful Everyday ~Diskontinuierliches Dasein~ Naglfar no Senjou nite すかぢ SCA-ji ピクセルビー Pixelbee visual novel vn
BeatmapID:1469159
BeatmapSetID:685725

[Difficulty]
HPDrainRate:6
CircleSize:3.8
OverallDifficulty:7
ApproachRate:8
SliderMultiplier:2.4
SliderTickRate:1

[Events]
//Background and Video events
0,0,"nospoilers.jpg",0,0
//Break Periods
2,86979,92379
//Storyboard Layer 0 (Background)
//Storyboard Layer 1 (Fail)
//Storyboard Layer 2 (Pass)
//Storyboard Layer 3 (Foreground)
//Storyboard Sound Samples

[TimingPoints]
379,400,4,2,1,50,1,0
5179,-100,4,2,1,60,0,0
19579,-100,4,2,1,65,0,0
22379,-200,4,2,1,65,0,0
22779,-200,4,2,1,50,0,0
29179,-200,4,2,1,55,0,0
34379,-125,4,2,1,55,0,0
35579,-100,4,2,1,60,0,0
45179,-142.857142857143,4,2,1,50,0,0
46379,-200,4,2,1,60,0,0
46779,-100,4,2,1,60,0,0
48179,-100,4,2,1,70,0,0
48379,-83.3333333333333,4,2,1,70,0,0
59579,-83.3333333333333,4,2,3,70,0,0
61179,-83.3333333333333,4,2,1,70,0,0
65979,-83.3333333333333,4,2,3,70,0,0
67579,-83.3333333333333,4,2,1,60,0,0
69179,-83.3333333333333,4,2,1,70,0,0
70779,-125,4,1,1,70,0,0
71779,-100,4,2,1,70,0,0
71979,-83.3333333333333,4,2,1,70,0,0
72179,-71.4285714285714,4,2,1,70,0,0
73379,-83.3333333333333,4,2,1,70,0,0
85379,-71.4285714285714,4,2,3,70,0,0
85779,-83.3333333333333,4,2,3,70,0,0
93179,-100,4,2,1,60,0,0
98379,-100,4,2,1,50,0,0
98779,-100,4,2,1,55,0,0
99179,-100,4,2,1,60,0,0
99579,-100,4,2,1,65,0,0
109179,-100,4,2,1,60,0,0
109579,-100,4,2,1,50,0,0
109979,-100,4,2,1,60,0,0
110379,-100,4,2,1,45,0,0
110779,-100,4,2,1,70,0,0
111779,-200,4,2,1,70,0,0
112379,-83.3333333333333,4,2,1,70,0,0
123579,-83.3333333333333,4,2,3,70,0,0
125179,-83.3333333333333,4,2,1,70,0,0
129979,-83.3333333333333,4,2,3,70,0,0
131579,-83.3333333333333,4,2,1,60,0,0
133179,-83.3333333333333,4,2,1,70,0,0
137979,-83.3333333333333,4,2,1,50,0,0
138979,-83.3333333333333,4,2,1,60,0,0
139379,-83.3333333333333,4,2,1,65,0,0
141179,-83.3333333333333,4,2,1,70,0,0
153279,-83.3333333333333,4,2,3,70,0,0
153979,-76.9230769230769,4,2,1,70,0,0
165179,-76.9230769230769,4,2,3,70,0,0
166779,-76.9230769230769,4,2,1,70,0,0
171579,-76.9230769230769,4,2,3,70,0,0
173179,-125,4,2,1,60,0,0
174779,-76.9230769230769,4,2,1,70,0,0
191179,410.958904109589,4,2,1,70,1,0

[Colours]
Combo1 : 70,176,191
Combo2 : 238,30,35
Combo3 : 255,255,255
Combo4 : 72,101,153
Combo5 : 186,67,145
Combo6 : 112,103,186

[HitObjects]
22,176,5179,38,0,P|98:172|150:186,1,120,4|0,1:0|0:0,0:0:0:0:
191,257,5479,2,0,P|249:268|309:263,1,120,8|0,1:0|0:0,0:0:0:0:
425,320,5779,2,0,L|417:114,1,180,4|8,1:0|1:0,0:0:0:0:
412,79,6179,1,4,1:2:0:0:
263,109,6379,1,4,1:0:0:0:
327,179,6579,1,4,1:2:0:0:
332,25,6779,6,0,P|222:50|102:1,1,240,4|8,1:0|1:0,0:0:0:0:
190,145,7379,2,2,L|183:284,2,120,2|0|0,0:1|0:0|1:0,0:1:0:0:
32,86,7979,2,0,L|54:288,1,180,8|0,1:0|0:0,0:0:0:0:
61,324,8379,1,4,1:0:0:0:
61,324,8579,1,4,1:0:0:0:
183,264,8779,2,0,L|193:188,1,60,8|0,1:0|0:0,0:0:0:0:
242,145,8979,2,2,B|352:131|351:228|472:193,1,240,2|0,1:0|1:0,0:1:0:0:
432,91,9579,2,0,P|382:134|364:202,1,120,8|4,1:0|1:2,0:0:0:0:
346,333,9979,6,0,P|390:317|469:329,2,120,4|0|8,1:0|1:0|1:0,0:0:0:0:
217,358,10579,2,2,P|217:276|268:192,1,180,2|0,0:1|1:0,0:1:0:0:
266,193,10979,1,8,1:0:0:0:
149,194,11179,2,2,P|107:273|98:336,1,120,10|4,1:0|0:0,0:1:0:0:
30,224,11579,5,4,1:0:0:0:
30,224,11779,1,4,1:2:0:0:
79,111,11979,2,0,L|154:98,1,60,8|0,1:0|0:0,0:0:0:0:
235,37,12179,2,2,P|217:112|258:270,1,240,2|0,1:0|1:0,0:1:0:0:
349,272,12779,1,8,1:0:0:0:
217,348,12979,1,4,1:2:0:0:
414,351,13179,38,0,P|441:288|452:221,1,120,4|0,1:0|0:0,0:0:0:0:
371,144,13579,2,0,L|304:197,1,60,8|0,1:0|0:0,0:0:0:0:
280,242,13779,2,2,P|272:152|343:26,1,240,2|0,1:0|1:0,0:1:0:0:
252,110,14379,2,0,P|197:108|110:68,1,120,8|4,1:0|1:2,0:0:0:0:
40,42,14779,5,4,1:0:0:0:
40,42,14979,1,4,1:2:0:0:
34,169,15179,2,0,L|89:195,1,60,8|0,1:0|0:0,0:0:0:0:
174,214,15379,2,2,P|118:230|39:357,1,180,2|4,1:0|0:0,0:1:0:0:
44,321,15779,1,0,1:0:0:0:
44,321,15879,1,0,1:0:0:0:
44,321,15979,2,0,L|235:324,1,180,8|4,1:0|0:0,0:0:0:0:
310,347,16379,6,0,B|320:284|320:284|259:168,1,180,4|4,1:0|1:2,0:0:0:0:
265,181,16779,1,8,1:0:0:0:
265,181,16879,1,0,1:0:0:0:
265,181,16979,2,2,B|326:157|326:157|456:197,1,180,2|4,1:0|1:2,0:1:0:0:
436,190,17379,1,0,1:0:0:0:
349,66,17579,2,0,B|285:52|285:52|164:114,1,180,8|4,1:0|1:2,0:0:0:0:
106,153,17979,5,4,1:0:0:0:
106,153,18179,1,4,1:2:0:0:
34,92,18379,2,0,L|23:23,1,60,8|0,1:0|0:0,0:0:0:0:
12,175,18579,2,2,P|12:252|29:356,1,180,2|4,1:0|1:2,1:0:0:0:
28,353,18979,1,0,1:0:0:0:
112,292,19179,2,2,P|183:325|242:368,1,120,8|4,1:0|1:2,1:2:0:0:
345,316,19579,38,0,L|324:227,2,60,12|0|0,1:0|0:0|1:0,0:0:0:0:
474,350,19979,2,0,P|496:285|497:203,1,120,8|8,1:0|1:0,0:0:0:0:
494,204,20279,1,0,0:0:0:0:
486,174,20379,2,0,L|337:175,1,120,4|0,0:0|0:0,0:0:0:0:
366,174,20679,1,0,1:0:0:0:
372,177,20779,2,0,L|373:96,1,60,8|0,0:0|0:0,0:0:0:0:
248,92,20979,2,0,L|247:154,1,60,8|0,0:0|0:0,0:0:0:0:
112,234,21179,6,0,L|105:167,3,60,4|0|0|8,1:0|0:0|0:0|1:0,0:0:0:0:
240,306,21579,2,0,L|180:306,1,60,8|0,0:0|0:0,0:0:0:0:
307,347,21779,2,0,L|389:341,1,60,8|0,1:0|0:0,0:0:0:0:
425,272,21979,1,0,1:0:0:0:
359,166,22179,1,0,1:0:0:0:
359,166,22279,1,8,0:0:0:0:
359,166,22379,6,0,L|238:209,1,120,8|4,1:0|0:0,0:0:0:0:
245,206,23779,1,0,1:0:0:0:
245,206,24379,1,0,1:0:0:0:
250,210,25179,1,0,1:0:0:0:
250,210,25379,1,0,1:0:0:0:
86,205,25979,5,4,0:0:0:0:
86,205,26979,1,0,1:0:0:0:
93,211,27579,1,0,1:0:0:0:
93,211,27879,1,0,1:0:0:0:
93,211,28179,2,0,L|263:211,1,150,0|0,1:0|0:0,0:0:0:0:
258,236,28779,2,0,L|257:335,1,90,0|0,1:0|0:0,0:0:0:0:
260,355,29179,37,0,1:0:0:0:
260,355,29479,1,0,1:0:0:0:
171,304,29779,2,0,P|111:284|44:273,1,120,0|2,1:0|1:2,0:0:0:0:
155,198,30379,2,0,P|219:171|234:168,1,60,0|0,1:0|0:0,0:0:0:0:
375,203,30779,5,0,1:0:0:0:
296,158,30979,1,0,1:0:0:0:
296,158,31379,2,0,L|296:296,1,120,2|0,1:2|0:0,0:0:0:0:
362,338,31979,2,0,P|409:340|456:339,1,90,0|0,1:0|0:0,0:0:0:0:
451,339,32379,5,0,1:0:0:0:
451,339,32679,1,0,1:0:0:0:
296,278,32979,2,0,P|227:294|171:319,1,120,0|0,1:2|0:0,0:0:0:0:
100,352,33579,2,0,P|98:284|104:236,1,90,0|0,1:0|0:0,0:0:0:0:
103,232,33979,1,4,1:0:0:0:
135,90,34379,5,0,1:0:0:0:
203,211,34579,1,2,0:0:0:0:
203,211,34779,2,0,P|236:158|246:108,1,96,4|0,0:0|0:0,0:0:0:0:
244,125,35079,1,0,1:0:0:0:
244,125,35179,1,0,1:0:0:0:
278,45,35379,1,0,1:0:0:0:
334,174,35579,38,0,B|398:175|398:175|442:204|442:204|519:206,2,180,4|0|0,1:0|0:0|1:0,0:0:0:0:
104,222,36579,2,0,P|162:233|238:262,1,120,0|0,1:0|1:0,0:0:0:0:
179,343,36979,1,0,0:0:0:0:
77,320,37179,6,0,P|63:240|77:118,2,180,4|0|0,0:0|0:0|1:0,0:0:0:0:
297,196,38179,1,0,1:0:0:0:
297,196,38279,1,0,0:0:0:0:
297,196,38379,2,0,P|297:138|292:106,1,60,0|0,1:0|0:0,1:0:0:0:
220,86,38579,2,0,L|208:173,1,60,0|0,0:0|0:0,1:0:0:0:
183,218,38779,6,0,B|119:219|119:219|75:248|75:248|-2:250,2,180,4|0|0,1:0|1:0|1:0,0:0:0:0:
321,299,39579,2,0,B|385:300|385:300|429:329|429:329|506:331,2,180,0|0|0,1:0|1:0|1:0,0:0:0:0:
139,354,40379,2,0,P|109:294|126:222,1,120,4|0,1:2|0:0,0:0:0:0:
205,245,40679,2,0,P|235:185|218:113,1,120
145,102,40979,2,0,L|75:116,1,60,0|0,1:0|0:0,1:0:0:0:
182,27,41179,2,0,L|246:12,1,60,0|0,0:0|0:0,1:0:0:0:
92,24,41379,1,0,1:0:0:0:
14,133,41579,2,0,P|24:214|23:283,1,120,0|0,1:0|1:0,0:0:0:0:
23,282,41879,1,4,1:2:0:0:
19,311,41979,6,0,B|182:267|200:392|383:350,1,360,4|0,1:0|0:0,0:0:0:0:
487,238,42979,1,0,1:0:0:0:
466,166,43179,2,0,P|399:177|298:241,1,180,0|0,1:0|0:0,0:0:0:0:
242,280,43579,1,0,1:0:0:0:
242,280,43779,1,0,1:0:0:0:
197,204,43979,38,0,P|186:135|194:47,1,120,0|0,1:0|0:0,0:0:0:0:
187,85,44279,1,2,0:0:0:0:
187,85,44379,2,0,L|91:123,1,60,0|0,0:0|0:0,0:0:0:0:
31,148,44579,1,2,0:0:0:0:
31,148,44779,2,0,P|81:241|94:328,1,180,0|0,1:0|0:0,0:0:0:0:
93,313,45179,5,0,3:0:0:0:
93,313,45279,1,0,3:0:0:0:
93,313,45379,1,0,3:0:0:0:
290,370,45779,2,0,P|301:284|334:187,1,167.999994873047,0|0,3:0|3:0,0:0:0:0:
170,235,46379,2,0,P|161:184|148:142,1,90,0|0,1:0|0:0,0:0:0:0:
78,116,46779,5,4,1:2:0:0:
78,116,47079,5,4,1:2:0:0:
78,116,47379,37,4,1:2:0:0:
90,249,48379,5,4,1:0:0:0:
90,249,48479,1,0,0:0:0:0:
90,249,48579,1,0,0:0:0:0:
254,276,48779,2,0,P|267:230|282:190,1,71.9999978027344,8|0,0:0|0:0,0:0:0:0:
353,141,48979,2,0,B|423:180|423:180|457:319,1,215.999993408203,0|0,1:0|0:0,0:0:0:0:
462,354,49379,1,8,0:0:0:0:
355,267,49579,1,0,1:0:0:0:
449,100,49779,1,0,1:0:0:0:
260,112,49979,6,0,L|191:64,1,71.9999978027344,4|0,1:2|0:0,0:0:0:0:
118,28,50179,1,0,1:0:0:0:
22,112,50379,1,8,1:0:0:0:
22,112,50579,2,0,P|27:223|27:353,1,215.999993408203,8|0,1:0|0:0,0:0:0:0:
27,327,50979,1,0,1:0:0:0:
27,327,51079,1,0,0:0:0:0:
27,327,51179,1,8,0:0:0:0:
211,265,51379,5,0,1:0:0:0:
211,265,51479,1,0,0:0:0:0:
211,265,51579,2,0,P|211:208|206:155,1,71.9999978027344,4|0,0:0|0:0,0:0:0:0:
323,123,51779,2,0,P|306:224|354:369,1,215.999993408203,0|0,1:0|0:0,0:0:0:0:
419,360,52179,1,8,0:0:0:0:
468,276,52379,1,0,0:0:0:0:
468,276,52479,1,0,0:0:0:0:
468,276,52579,1,8,0:0:0:0:
285,269,52779,2,0,L|198:291,1,71.9999978027344,0|0,1:0|0:0,0:0:0:0:
201,186,52979,2,0,L|290:190,1,71.9999978027344,8|0,0:0|0:0,0:0:0:0:
133,250,53179,37,2,1:0:0:0:
133,250,53479,1,2,1:0:0:0:
133,250,53779,2,0,P|79:180|5:146,1,143.999995605469,2|2,1:0|1:0,0:0:0:0:
31,153,54079,1,0,0:0:0:0:
31,153,54179,1,2,1:0:0:0:
201,186,54379,5,0,1:0:0:0:
214,152,54479,1,0,0:0:0:0:
220,116,54579,1,0,0:0:0:0:
222,80,54679,1,0,1:0:0:0:
217,44,54779,1,4,1:0:0:0:
347,54,54979,6,0,P|389:47|434:34,1,71.9999978027344,0|0,1:0|0:0,0:0:0:0:
460,121,55179,2,0,P|427:202|429:301,1,143.999995605469,8|2,0:0|0:0,0:0:0:0:
426,293,55479,1,0,0:0:0:0:
426,293,55579,2,0,P|321:307|292:318,1,71.9999978027344,0|0,1:0|0:0,0:0:0:0:
273,346,55779,1,8,0:0:0:0:
199,247,55979,2,0,P|204:201|213:146,1,71.9999978027344,4|0,1:2|0:0,0:0:0:0:
59,211,56179,5,4,1:2:0:0:
59,211,56279,1,0,0:0:0:0:
59,211,56379,2,0,P|65:282|64:373,1,143.999995605469,4|0,1:0|1:0,0:0:0:0:
64,354,56679,1,0,0:0:0:0:
64,354,56779,1,8,0:0:0:0:
199,247,56979,2,0,P|203:165|195:93,1,143.999995605469,2|0,0:0|1:0,0:0:0:0:
194,67,57279,1,0,0:0:0:0:
194,67,57379,1,8,0:0:0:0:
194,67,57479,1,0,0:0:0:0:
194,67,57579,2,0,P|251:69|298:65,1,71.9999978027344,4|0,1:2|0:0,0:0:0:0:
330,133,57779,2,0,P|380:106|419:79,1,71.9999978027344,4|0,0:0|0:0,1:0:0:0:
470,35,57979,38,0,P|428:148|445:290,2,215.999993408203,4|0|0,1:0|0:0|1:0,0:0:0:0:
330,133,58779,1,4,0:0:0:0:
342,265,58979,1,2,0:0:0:0:
342,265,59079,1,0,1:0:0:0:
342,265,59179,2,0,L|340:356,1,71.9999978027344,8|0,0:0|0:0,0:0:0:0:
210,345,59379,2,0,L|197:256,1,71.9999978027344,4|0,1:2|0:0,0:0:0:0:
184,144,59579,53,8,0:1:0:0:
58,183,59779,1,0,0:0:0:0:
58,183,59879,1,8,0:0:0:0:
200,274,60179,2,0,P|269:274|362:288,1,143.999995605469,8|0,0:1|0:0,0:0:0:0:
355,250,60479,5,8,0:0:0:0:
363,215,60579,1,8,0:0:0:0:
371,180,60679,1,8,0:0:0:0:
376,144,60779,2,0,P|369:92|358:36,1,71.9999978027344,8|8,1:2|1:2,0:0:0:0:
480,161,60979,5,8,1:2:0:0:
480,161,61079,1,8,1:2:0:0:
480,161,61179,2,0,P|463:232|475:335,1,143.999995605469,4|0,1:0|0:0,0:0:0:0:
466,302,61479,1,0,0:0:0:0:
466,302,61579,1,8,0:0:0:0:
358,251,61779,2,0,P|261:259|134:341,1,215.999993408203,0|0,1:0|0:0,0:0:0:0:
69,274,62179,2,0,P|80:234|98:187,1,71.9999978027344,8|0,0:0|0:0,0:0:0:0:
36,130,62379,2,0,P|75:111|121:98,1,71.9999978027344,0|0,1:0|0:0,0:0:0:0:
214,57,62579,2,0,P|175:38|129:25,1,71.9999978027344,0|0,1:0|0:0,0:0:0:0:
195,149,62779,6,0,P|288:164|436:129,1,215.999993408203,0|0,1:0|1:0,0:0:0:0:
440,128,63179,1,0,0:0:0:0:
320,34,63379,2,0,P|316:124|364:270,1,215.999993408203,0|0,1:0|0:0,0:0:0:0:
375,270,63779,1,0,1:0:0:0:
476,249,63979,1,8,0:0:0:0:
476,249,64079,1,0,0:0:0:0:
476,249,64179,1,0,1:0:0:0:
323,347,64379,6,0,P|216:306|245:191,1,215.999993408203,4|0,0:0|0:0,0:0:0:0:
237,188,64779,1,0,1:0:0:0:
237,188,64879,1,0,0:0:0:0:
237,188,64979,2,0,P|143:201|58:157,1,143.999995605469,8|0,0:0|0:0,0:0:0:0:
79,89,65379,2,0,P|117:86|188:84,1,71.9999978027344,12|0,0:0|0:0,0:0:0:0:
250,85,65579,2,0,P|230:54|211:24,1,71.9999978027344,12|0,0:0|0:0,0:0:0:0:
327,33,65779,1,0,1:0:0:0:
316,157,65979,21,8,1:0:0:0:
316,157,66279,5,8,0:0:0:0:
316,157,66579,69,8,0:1:0:0:
316,157,66979,1,8,0:0:0:0:
349,168,67079,1,8,0:0:0:0:
384,171,67179,1,8,0:0:0:0:
419,166,67279,1,8,0:0:0:0:
452,153,67379,1,8,0:0:0:0:
478,128,67479,1,8,0:0:0:0:
494,95,67579,21,4,1:2:0:0:
494,95,67879,1,0,1:2:0:0:
494,95,68179,1,4,1:2:0:0:
401,257,68379,1,4,1:0:0:0:
275,290,68579,2,0,P|265:250|258:200,1,71.9999978027344,0|0,1:0|0:0,0:0:0:0:
241,126,68779,1,8,1:0:0:0:
328,169,68979,1,0,1:0:0:0:
137,203,69179,6,0,L|45:218,2,71.9999978027344,4|0|0,1:0|0:0|0:0,0:0:0:0:
275,290,69579,2,0,L|367:305,2,71.9999978027344,8|0|2,1:0|0:0|0:0,0:0:0:0:
136,361,69979,2,0,L|132:274,2,71.9999978027344,0|0|0,1:0|0:0|1:0,0:0:0:0:
230,125,70379,2,0,L|234:212,2,71.9999978027344,8|0|0,0:0|0:0|1:0,0:0:0:0:
431,211,70779,6,2,B|455:294|417:288|442:384,2,144,4|0|0,1:0|1:0|0:0,1:2:0:0:
382,92,71579,1,0,0:0:0:0:
233,196,71779,2,2,P|239:166|250:138,1,60,0|0,1:0|0:0,1:2:0:0:
176,39,71979,2,2,P|163:72|157:108,1,71.9999978027344,0|0,1:0|0:0,1:2:0:0:
66,194,72179,2,2,P|65:152|58:110,1,83.9999974365235,0|0,1:0|0:0,1:2:0:0:
20,286,72379,6,2,P|120:293|243:342,1,167.999994873047,4|8,1:0|0:0,1:2:0:0:
206,324,72679,1,0,1:0:0:0:
228,335,72779,1,0,0:0:0:0:
357,371,72979,2,2,P|349:282|316:191,1,167.999994873047,0|0,1:0|1:0,1:2:0:0:
237,110,73379,2,0,L|314:97,1,71.9999978027344,8|0,0:0|0:0,0:0:0:0:
391,28,73579,2,0,L|408:118,1,71.9999978027344,8|0,0:0|0:0,0:0:0:0:
487,174,73779,2,0,L|398:190,1,71.9999978027344,8|0,0:0|0:0,0:0:0:0:
242,348,73979,38,0,P|240:272|246:183,1,143.999995605469,6|0,1:0|0:0,0:0:0:0:
252,168,74279,1,2,0:0:0:0:
252,168,74379,1,8,0:0:0:0:
78,302,74579,2,0,P|97:222|140:169,1,143.999995605469,4|0,1:2|0:0,0:0:0:0:
156,145,74879,1,0,0:0:0:0:
156,145,74979,1,8,0:0:0:0:
219,32,75179,2,0,P|133:57|63:38,1,143.999995605469,4|0,1:2|0:0,0:0:0:0:
46,35,75479,5,8,0:0:0:0:
46,35,75579,2,0,P|21:133|23:193,1,143.999995605469,4|0,1:2|0:0,0:0:0:0:
23,211,75879,1,2,0:2:0:0:
23,211,75979,1,8,0:0:0:0:
183,182,76179,2,0,P|279:196|396:272,1,215.999993408203,4|0,1:2|0:0,0:0:0:0:
402,283,76579,1,8,0:0:0:0:
402,283,76679,1,0,0:0:0:0:
402,283,76779,2,0,P|415:231|433:192,1,71.9999978027344,4|0,1:2|0:0,0:0:0:0:
473,119,76979,2,0,P|429:124|396:125,1,71.9999978027344,2|0,1:0|0:0,0:0:0:0:
319,125,77179,5,4,1:2:0:0:
319,125,77279,1,0,0:0:0:0:
319,125,77379,2,0,P|267:70|261:-4,1,143.999995605469,0|8,0:0|0:0,0:0:0:0:
206,167,77779,2,0,P|258:222|264:296,1,143.999995605469,4|0,1:2|0:0,0:0:0:0:
263,323,78079,1,0,0:0:0:0:
263,323,78179,1,8,0:0:0:0:
165,295,78379,2,0,P|90:309|26:351,1,143.999995605469,4|0,1:2|0:0,0:0:0:0:
33,344,78679,1,8,0:0:0:0:
33,344,78779,6,0,P|26:245|13:182,1,143.999995605469,4|0,0:0|0:0,0:0:0:0:
9,166,79079,1,0,0:0:0:0:
9,166,79179,1,8,0:0:0:0:
103,156,79379,2,0,B|156:149|156:149|189:171|189:171|269:161,1,143.999995605469,4|0,1:2|0:0,0:0:0:0:
341,100,79779,2,0,L|316:177,1,71.9999978027344,2|0,1:0|0:0,0:0:0:0:
286,240,79979,2,0,L|379:270,2,71.9999978027344,2|0|0,1:0|0:0|0:0,0:0:0:0:
112,308,80379,38,0,P|208:315|266:340,1,143.999995605469,6|0,1:0|0:0,0:0:0:0:
283,350,80679,1,2,0:0:0:0:
283,350,80779,1,8,0:0:0:0:
369,241,80979,2,0,L|389:324,1,71.9999978027344,4|0,1:2|0:0,0:0:0:0:
477,293,81179,2,0,L|487:213,1,71.9999978027344,0|0,0:0|0:0,0:0:0:0:
419,152,81379,1,8,0:0:0:0:
419,152,81479,1,0,0:0:0:0:
419,152,81579,2,0,B|305:124|308:195|174:162,1,215.999993408203,4|0,1:2|0:0,0:0:0:0:
132,211,81979,6,0,P|137:128|171:42,1,143.999995605469,4|0,1:2|0:0,0:0:0:0:
171,37,82279,1,2,0:0:0:0:
171,37,82379,1,8,0:0:0:0:
44,174,82579,2,0,P|33:80|12:32,1,143.999995605469,4|0,1:2|0:0,0:0:0:0:
41,258,82979,1,8,0:0:0:0:
41,258,83079,1,0,0:0:0:0:
41,258,83179,2,0,L|122:273,1,71.9999978027344,4|0,1:2|0:0,0:0:0:0:
109,348,83379,2,0,L|38:355,1,71.9999978027344,2|0,0:0|0:0,0:0:0:0:
185,308,83579,6,0,B|263:308|263:308|318:352|318:352|404:352,2,215.999993408203,4|4|0,0:3|0:3|0:0,0:0:0:0:
111,271,84379,2,0,P|117:228|131:177,1,71.9999978027344,4|0,0:3|0:0,0:0:0:0:
199,130,84579,2,0,P|224:215|228:238,1,71.9999978027344,4|0,0:3|0:0,0:0:0:0:
321,249,84779,2,0,P|326:175|312:76,1,143.999995605469,8|0,0:3|0:0,0:0:0:0:
407,310,85179,2,0,L|484:317,1,71.9999978027344,4|0,1:2|0:0,0:0:0:0:
392,233,85379,1,8,0:0:0:0:
356,240,85479,1,8,0:1:0:0:
321,249,85579,1,8,0:0:0:0:
152,174,85779,6,0,L|224:200,1,71.9999978027344,2|0,0:0|0:0,0:0:0:0:
187,292,85979,1,8,0:0:0:0:
150,290,86079,1,8,0:1:0:0:
114,290,86179,1,8,0:0:0:0:
78,288,86279,1,0,0:0:0:0:
42,287,86379,2,0,L|123:337,1,71.9999978027344,8|0,0:0|0:0,0:0:0:0:
209,364,86579,2,0,L|228:272,1,71.9999978027344,8|0,0:0|0:0,0:0:0:0:
241,217,86779,1,2,0:0:0:0:
231,78,93179,38,0,P|142:136|95:225,1,180,0|0,1:0|0:0,0:0:0:0:
96,226,93579,1,0,1:0:0:0:
29,148,93779,1,0,1:0:0:0:
29,148,93879,1,0,1:0:0:0:
29,148,93979,2,0,P|40:75|61:23,1,120,0|0,0:0|1:0,0:0:0:0:
175,161,94379,2,0,L|254:160,1,60,4|0,1:2|0:0,0:0:0:0:
304,225,94579,1,0,0:0:0:0:
304,225,94679,1,0,1:0:0:0:
304,225,94779,6,0,P|402:210|478:173,1,180,0|0,1:0|0:0,0:0:0:0:
487,148,95179,1,0,1:0:0:0:
379,135,95379,2,0,L|379:215,1,60,0|0,0:0|1:0,0:0:0:0:
391,291,95579,1,0,0:0:0:0:
303,322,95779,1,0,1:0:0:0:
303,322,95879,1,0,0:0:0:0:
303,322,95979,2,0,L|201:349,1,60,0|0,1:0|0:0,0:0:0:0:
152,344,96179,2,0,P|154:311|151:275,1,60,4|0,0:0|0:0,0:0:0:0:
61,184,96379,6,0,B|30:251|30:251|33:366,2,180,4|0|0,1:0|0:0|0:0,0:0:0:0:
149,141,97179,2,0,P|202:163|274:168,1,120,0|0,1:0|0:0,0:0:0:0:
325,122,97479,1,0,0:0:0:0:
325,122,97579,2,0,P|342:151|357:186,1,60,0|0,1:0|0:0,0:0:0:0:
426,84,97779,2,0,P|431:118|431:153,1,60,0|0,1:0|0:0,0:0:0:0:
461,252,97979,6,0,L|388:260,1,60,0|0,1:0|0:0,0:0:0:0:
371,342,98179,2,0,L|219:332,1,120,0|8,0:0|0:0,0:0:0:0:
159,320,98479,1,0,0:0:0:0:
159,320,98579,1,8,0:0:0:0:
159,320,98679,1,0,0:0:0:0:
159,320,98779,2,0,P|154:237|174:172,1,120,8|8,0:0|0:0,0:0:0:0:
221,127,99179,2,0,L|307:120,1,60,8|0,0:0|0:0,0:0:0:0:
145,70,99379,2,0,L|75:81,1,60,8|0,0:0|0:0,0:0:0:0:
233,31,99579,38,0,P|331:31|427:26,1,180,4|0,1:0|1:0,0:0:0:0:
442,28,99979,1,8,0:0:0:0:
426,122,100179,1,0,1:0:0:0:
426,122,100279,1,0,0:0:0:0:
426,122,100379,1,0,0:0:0:0:
331,155,100579,2,0,L|257:139,1,60,8|0,0:0|0:0,0:0:0:0:
294,240,100779,2,0,L|446:273,1,120,0|0,1:0|1:0,0:0:0:0:
201,348,101179,6,0,P|195:243|199:204,1,120,4|8,0:0|0:0,0:0:0:0:
176,153,101479,1,0,1:0:0:0:
176,153,101579,2,0,L|83:158,1,60,0|0,0:0|0:0,0:0:0:0:
246,65,101779,2,0,L|379:75,1,120,8|0,0:0|1:0,0:0:0:0:
298,185,102179,1,0,1:0:0:0:
298,185,102279,1,0,0:0:0:0:
298,185,102379,2,2,L|291:287,1,60,6|0,0:0|0:0,1:2:0:0:
380,328,102579,2,2,L|396:239,1,60,0|0,0:0|0:0,1:2:0:0:
214,335,102779,6,0,B|116:330|116:330|16:346,2,180,4|0|8,1:0|1:0|0:0,0:0:0:0:
298,185,103579,2,0,B|393:205|393:205|486:246,2,180,4|0|8,1:0|1:0|0:0,0:0:0:0:
136,212,104379,1,4,1:0:0:0:
136,212,104479,1,0,0:0:0:0:
136,212,104579,1,0,0:0:0:0:
219,265,104779,1,8,0:0:0:0:
225,81,104979,1,0,1:0:0:0:
225,81,105079,2,0,P|163:94|73:98,1,120,8|0,0:0|1:0,0:0:0:0:
30,106,105379,1,2,0:0:0:0:
30,106,105479,1,0,1:0:0:0:
30,106,105579,2,0,L|48:317,1,180,0|0,1:0|0:0,0:0:0:0:
46,315,105979,5,4,1:0:0:0:
172,341,106179,1,0,0:0:0:0:
172,341,106279,1,0,1:0:0:0:
279,205,106479,1,0,0:0:0:0:
279,205,106579,2,0,L|278:338,1,120,0|0,1:0|1:0,0:0:0:0:
278,324,106879,1,0,0:0:0:0:
278,324,106979,1,8,0:0:0:0:
408,357,107179,2,0,P|422:287|456:224,1,120,2|8,0:0|0:0,0:0:0:0:
479,182,107479,37,0,1:0:0:0:
479,182,107579,2,0,P|385:159|312:84,1,180,4|0,1:0|0:0,0:0:0:0:
314,76,107979,1,0,1:0:0:0:
217,39,108179,1,0,1:0:0:0:
217,39,108279,2,0,L|214:243,1,180,0|8,0:0|0:0,0:0:0:0:
214,218,108679,1,2,0:0:0:0:
214,218,108779,2,0,L|112:218,1,60,0|0,1:0|0:0,0:0:0:0:
187,311,108979,2,0,L|266:309,1,60,0|0,1:0|0:0,0:0:0:0:
56,353,109179,6,0,P|55:273|36:151,1,180,4|0,1:0|0:0,0:0:0:0:
37,144,109579,1,8,0:0:0:0:
196,316,109779,1,8,0:0:0:0:
196,316,109879,1,0,0:0:0:0:
196,316,109979,2,0,P|201:219|239:120,1,180,4|0,1:0|0:0,0:0:0:0:
252,158,110379,2,0,P|321:173|392:177,1,120,8|8,0:0|0:0,0:0:0:0:
447,160,110779,5,4,1:0:0:0:
447,160,111079,5,4,0:3:0:0:
447,160,111379,37,4,0:3:0:0:
304,28,111779,6,0,L|295:74,1,30
278,80,111979,2,0,P|294:134|303:184,1,90,0|0,0:0|0:0,0:0:0:0:
256,237,112379,6,0,P|177:222|76:232,1,143.999995605469,4|0,1:0|0:0,0:0:0:0:
36,168,112679,1,0,0:0:0:0:
36,168,112779,2,0,L|39:75,1,71.9999978027344,8|0,0:0|0:0,0:0:0:0:
127,29,112979,2,0,L|122:120,1,71.9999978027344,0|0,1:0|0:0,0:0:0:0:
209,139,113179,1,0,0:0:0:0:
388,182,113379,1,8,0:0:0:0:
388,182,113479,1,0,0:0:0:0:
388,182,113579,2,0,B|412:118|412:118|405:15,1,143.999995605469,0|0,1:0|1:0,0:0:0:0:
490,232,113979,6,0,P|378:231|264:286,2,215.999993408203,0|0|0,1:0|1:0|1:0,0:0:0:0:
445,326,114779,1,0,1:0:0:0:
342,338,114979,1,0,1:0:0:0:
342,338,115079,1,0,0:0:0:0:
342,338,115179,2,0,P|333:249|299:182,1,143.999995605469,8|0,0:0|1:0,0:0:0:0:
283,166,115479,1,0,0:0:0:0:
283,166,115579,38,0,B|162:151|173:236|36:205,1,215.999993408203,4|0,0:0|0:0,0:0:0:0:
33,199,115979,1,0,1:0:0:0:
62,83,116179,1,8,0:0:0:0:
62,83,116279,1,0,0:0:0:0:
62,83,116379,2,0,L|163:90,1,71.9999978027344,0|0,0:0|0:0,0:0:0:0:
241,14,116579,2,0,L|237:119,1,71.9999978027344,8|0,0:0|0:0,0:0:0:0:
283,166,116779,1,0,1:0:0:0:
400,98,116979,5,8,0:0:0:0:
400,98,117079,1,0,0:0:0:0:
400,98,117179,2,0,P|456:183|415:311,1,215.999993408203,2|2,1:0|1:0,0:0:0:0:
392,301,117579,2,0,L|294:306,1,71.9999978027344,0|0,0:0|1:0,0:0:0:0:
174,353,117779,2,0,P|148:280|165:205,1,143.999995605469,2|2,1:0|1:0,0:0:0:0:
169,174,118079,1,0,0:0:0:0:
126,182,118179,1,2,1:0:0:0:
83,189,118279,1,0,0:0:0:0:
40,198,118379,2,0,P|43:277|42:357,1,143.999995605469,2|0,1:1|0:0,0:0:0:0:
82,358,118679,1,0,1:0:0:0:
82,358,118779,6,0,P|120:353|170:355,1,71.9999978027344,4|0,1:0|0:0,0:0:0:0:
252,352,118979,2,0,P|280:324|303:294,1,71.9999978027344,0|0,1:0|0:0,0:0:0:0:
241,193,119179,2,0,P|212:220|189:250,1,71.9999978027344,8|0,0:0|0:0,0:0:0:0:
368,332,119379,1,2,0:0:0:0:
410,341,119479,1,0,0:0:0:0:
452,350,119579,2,0,P|466:273|495:201,1,143.999995605469,0|8,1:0|0:0,0:0:0:0:
412,153,119979,2,0,L|312:160,1,71.9999978027344,4|0,1:2|0:0,0:0:0:0:
345,26,120179,2,0,L|450:34,1,71.9999978027344,4|0,1:2|0:0,0:0:0:0:
283,90,120379,6,0,P|162:90|128:66,1,143.999995605469,4|0,1:0|1:0,0:0:0:0:
67,13,120779,1,8,0:0:0:0:
31,144,120979,1,2,0:0:0:0:
31,144,121079,1,0,0:0:0:0:
31,144,121179,2,0,P|19:230|16:304,1,143.999995605469,0|8,1:0|0:0,0:0:0:0:
16,287,121479,1,0,0:0:0:0:
16,287,121579,2,0,L|117:269,1,71.9999978027344,4|0,1:2|0:0,0:0:0:0:
181,351,121779,2,0,L|86:350,1,71.9999978027344,4|0,0:0|0:0,0:0:0:0:
211,239,121979,38,0,P|254:311|328:335,1,143.999995605469,4|0,1:0|1:0,0:0:0:0:
349,342,122279,1,0,0:0:0:0:
349,342,122379,1,0,0:0:0:0:
462,284,122579,1,0,1:0:0:0:
436,189,122779,1,4,0:0:0:0:
436,189,122879,1,0,0:0:0:0:
436,189,122979,1,2,0:0:0:0:
345,210,123179,1,8,0:0:0:0:
247,129,123379,1,4,1:2:0:0:
247,129,123479,1,0,0:0:0:0:
247,129,123579,54,0,P|248:82|241:35,1,71.9999978027344,8|0,0:1|0:0,0:0:0:0:
186,220,123879,1,8,0:0:0:0:
186,220,123979,1,8,0:0:0:0:
84,93,124179,1,8,0:1:0:0:
50,119,124279,2,0,P|40:185|37:281,1,143.999995605469,8|8,0:0|0:0,0:0:0:0:
68,291,124579,1,8,0:0:0:0:
209,357,124779,1,8,1:2:0:0:
227,318,124879,1,8,1:2:0:0:
243,278,124979,1,8,1:2:0:0:
259,237,125079,1,8,1:2:0:0:
298,219,125179,22,0,P|405:231|475:151,2,215.999993408203,4|8|0,1:0|1:0|1:0,0:0:0:0:
186,121,125979,1,0,0:0:0:0:
273,60,126179,1,8,0:0:0:0:
273,60,126279,1,0,0:0:0:0:
273,60,126379,2,0,P|273:111|276:151,1,71.9999978027344,0|0,1:0|0:0,0:0:0:0:
178,215,126579,2,0,P|137:202|83:191,1,71.9999978027344,0|0,1:0|0:0,0:0:0:0:
9,160,126779,6,0,P|25:212|43:334,1,143.999995605469,0|0,1:0|0:0,0:0:0:0:
48,342,127079,1,0,1:0:0:0:
48,342,127179,1,0,0:0:0:0:
151,315,127379,2,0,P|256:333|399:346,1,215.999993408203,0|0,1:0|0:0,0:0:0:0:
407,338,127779,1,0,1:0:0:0:
458,224,127979,1,8,0:0:0:0:
331,231,128179,5,0,1:0:0:0:
331,231,128279,1,0,0:0:0:0:
331,231,128379,2,0,P|268:153|323:25,1,215.999993408203,4|0,0:0|0:0,0:0:0:0:
333,28,128779,1,0,1:0:0:0:
382,129,128979,1,8,0:0:0:0:
382,129,129079,1,0,0:0:0:0:
382,129,129179,2,0,P|329:128|269:121,1,71.9999978027344,0|0,0:0|0:0,0:0:0:0:
197,47,129379,2,0,P|191:91|176:143,1,71.9999978027344,12|0,0:0|0:0,0:0:0:0:
88,202,129579,1,12,0:0:0:0:
29,124,129779,1,0,1:0:0:0:
27,312,129979,38,0,B|104:298|104:298|167:349|167:349|240:338,2,215.999993408203,8|8|8,1:0|0:0|0:1,0:0:0:0:
88,202,130779,1,0,0:0:0:0:
119,178,130879,1,8,0:0:0:0:
157,170,130979,1,8,0:0:0:0:
195,178,131079,1,8,0:0:0:0:
224,203,131179,2,0,P|291:157|302:81,1,143.999995605469,8|8,0:0|0:0,0:0:0:0:
482,32,131579,6,0,P|462:130|449:289,1,215.999993408203,4|0,1:2|0:0,0:0:0:0:
450,302,131979,1,0,0:0:0:0:
334,351,132179,1,0,0:0:0:0:
334,351,132279,1,0,0:0:0:0:
334,351,132379,2,0,P|311:262|364:211,1,143.999995605469,0|0,1:0|0:0,0:0:0:0:
223,251,132779,2,0,P|180:247|123:224,1,71.9999978027344,0|0,0:0|0:0,0:0:0:0:
44,185,132979,2,0,P|50:226|47:295,1,71.9999978027344,0|0,0:0|0:0,0:0:0:0:
114,345,133179,6,0,P|151:337|207:328,2,71.9999978027344,4|0|0,1:0|0:0|0:0,0:0:0:0:
223,251,133579,2,0,P|186:243|130:234,2,71.9999978027344,0|0|0,1:0|0:0|0:0,0:0:0:0:
361,263,133979,1,0,1:0:0:0:
361,263,134079,1,0,0:0:0:0:
361,263,134179,1,0,1:0:0:0:
321,165,134379,1,0,1:0:0:0:
321,165,134479,1,0,0:0:0:0:
321,165,134579,1,0,0:0:0:0:
280,338,134779,5,4,1:2:0:0:
256,192,134879,12,0,137979,0:0:0:0:
140,214,138979,5,0,1:0:0:0:
38,134,139179,1,0,1:0:0:0:
118,316,139379,2,0,P|160:319|294:345,1,143.999995605469,4|0,1:0|0:0,0:0:0:0:
260,336,139679,1,0,1:0:0:0:
260,336,139779,1,8,0:0:0:0:
381,191,139979,1,8,0:0:0:0:
275,244,140179,2,0,P|353:284|428:304,1,143.999995605469,0|0,1:0|0:0,0:0:0:0:
406,299,140479,1,0,1:0:0:0:
484,222,140679,37,0,0:0:0:0:
484,222,140779,1,8,0:0:0:0:
479,186,140879,1,0,0:0:0:0:
475,150,140979,1,8,0:0:0:0:
473,114,141079,1,0,0:0:0:0:
470,78,141179,6,0,P|369:107|254:29,1,215.999993408203,0|0,1:0|0:0,0:0:0:0:
247,34,141579,1,8,0:0:0:0:
247,34,141679,1,0,0:0:0:0:
247,34,141779,2,0,P|210:126|223:201,1,143.999995605469,2|0,1:0|0:0,0:0:0:0:
306,209,142179,1,2,1:0:0:0:
306,209,142279,1,0,0:0:0:0:
306,209,142379,2,0,P|335:165|349:124,1,71.9999978027344,10|0,0:1|0:0,0:0:0:0:
196,265,142579,5,0,0:0:0:0:
196,265,142679,1,2,0:1:0:0:
196,265,142779,2,0,B|111:222|111:222|73:77,1,215.999993408203,4|0,1:2|0:0,0:0:0:0:
71,69,143179,1,8,0:0:0:0:
11,173,143379,2,2,L|61:324,1,143.999995605469,2|0,1:0|0:0,1:2:0:0:
180,367,143779,1,2,1:0:0:0:
180,367,143879,1,0,0:0:0:0:
180,367,143979,2,0,P|249:326|332:294,1,143.999995605469,8|8,0:0|0:0,0:0:0:0:
464,355,144379,6,0,P|434:239|462:116,1,215.999993408203,6|0,1:0|0:0,0:0:0:0:
464,112,144779,1,8,0:0:0:0:
357,146,144979,2,0,P|241:127|220:12,1,215.999993408203,2|0,1:0|0:0,0:0:0:0:
184,68,145379,1,2,1:0:0:0:
155,90,145479,1,0,0:0:0:0:
129,115,145579,2,0,P|141:210|134:295,1,143.999995605469,10|0,0:1|0:0,0:0:0:0:
139,257,145879,1,0,0:0:0:0:
139,257,145979,37,4,1:2:0:0:
249,293,146179,1,0,0:0:0:0:
249,293,146279,1,2,1:0:0:0:
314,210,146479,1,0,0:0:0:0:
314,210,146579,2,0,P|405:221|493:207,1,143.999995605469,10|0,0:1|0:0,0:0:0:0:
425,335,146979,1,10,0:1:0:0:
425,335,147079,1,0,0:0:0:0:
425,335,147179,2,0,P|334:324|246:338,1,143.999995605469,8|0,0:0|1:0,0:0:0:0:
144,346,147579,6,0,P|141:308|134:255,2,71.9999978027344,6|0|0,1:0|0:0|0:0,0:0:0:0:
41,224,147979,1,8,0:0:0:0:
41,224,148079,1,0,0:0:0:0:
41,224,148179,2,0,P|48:124|95:62,1,143.999995605469,2|0,1:0|0:0,0:0:0:0:
182,41,148579,2,0,L|265:91,1,71.9999978027344,2|0,1:0|0:0,0:0:0:0:
328,129,148779,2,0,B|383:137|383:137|479:110,1,143.999995605469,10|0,0:1|0:0,0:0:0:0:
398,216,149179,6,0,L|385:310,2,71.9999978027344,4|0|0,1:2|0:0|0:0,0:0:0:0:
274,242,149579,2,0,L|259:345,1,71.9999978027344,8|0,0:0|0:0,0:0:0:0:
166,349,149779,2,0,P|159:267|138:181,1,143.999995605469,2|0,1:0|0:0,0:0:0:0:
129,174,150079,1,0,0:0:0:0:
129,174,150179,1,2,1:0:0:0:
181,93,150379,2,0,P|263:79|292:19,1,143.999995605469,10|10,0:1|0:1,0:0:0:0:
25,34,150779,6,0,P|37:135|35:220,1,143.999995605469,4|0,1:0|0:0,0:0:0:0:
42,213,151079,1,0,0:0:0:0:
42,213,151179,1,8,0:0:0:0:
69,345,151379,2,0,P|192:286|305:280,1,215.999993408203,0|0,1:0|0:0,0:0:0:0:
305,277,151779,2,0,P|324:221|343:177,1,71.9999978027344,0|0,1:0|0:0,0:0:0:0:
444,143,151979,2,0,P|443:239|450:330,1,143.999995605469,8|0,0:0|1:0,0:0:0:0:
328,209,152379,5,4,0:3:0:0:
258,27,152579,1,4,0:3:0:0:
258,27,152679,1,8,0:3:0:0:
353,97,152879,1,4,0:3:0:0:
353,97,152979,2,0,P|284:146|137:157,1,215.999993408203,8|8,0:3|1:2,0:0:0:0:
156,162,153379,1,8,1:1:0:0:
156,162,153479,1,8,1:2:0:0:
156,162,153579,2,0,P|174:250|157:353,1,143.999995605469,8|8,1:2|1:1,0:0:0:0:
165,339,153879,21,8,0:2:0:0:
165,339,153979,2,0,P|81:330|5:354,1,155.999992858887,4|0,1:0|0:0,0:0:0:0:
253,294,154379,2,0,P|296:302|340:316,1,77.9999964294435,8|0,0:0|0:0,0:0:0:0:
416,356,154579,2,0,P|429:276|464:185,1,155.999992858887,0|0,1:0|0:0,0:0:0:0:
388,131,154979,2,0,P|355:148|304:164,1,77.9999964294435,8|0,0:0|0:0,0:0:0:0:
238,96,155179,2,0,P|249:60|274:13,1,77.9999964294435,0|0,1:0|0:0,0:0:0:0:
146,140,155379,2,0,P|113:118|84:92,1,77.9999964294435,0|0,1:0|0:0,0:0:0:0:
29,226,155579,6,0,B|109:223|109:223|168:265|168:265|258:259,1,233.999989288331,0|0,1:0|1:0,0:0:0:0:
340,258,155979,2,0,P|339:296|332:364,1,77.9999964294435
465,247,156179,2,0,P|461:164|445:66,1,155.999992858887,0|0,1:0|1:0,0:0:0:0:
335,45,156579,1,0,1:0:0:0:
305,169,156779,1,8,0:0:0:0:
153,154,156979,5,0,1:0:0:0:
153,154,157079,1,0,0:0:0:0:
153,154,157179,2,0,P|107:106|140:21,1,155.999992858887,4|0,0:0|1:0,0:0:0:0:
19,95,157579,2,0,P|26:138|33:202,1,77.9999964294435,0|0,1:0|0:0,0:0:0:0:
115,228,157779,1,8,0:0:0:0:
262,194,157979,2,0,P|374:226|425:267,1,155.999992858887,0|8,0:0|0:0,0:0:0:0:
505,171,158379,1,0,1:0:0:0:
505,171,158479,1,0,0:0:0:0:
505,171,158579,1,8,0:0:0:0:
480,322,158779,6,0,P|441:331|394:355,1,77.9999964294435,2|0,1:0|0:0,0:0:0:0:
319,312,158979,2,0,B|208:288|208:359|87:342,1,233.999989288331,0|0,1:0|1:0,0:0:0:0:
21,274,159379,2,2,P|6:178|37:96,1,155.999992858887,2|0,1:0|0:0,1:2:0:0:
151,109,159779,1,2,1:0:0:0:
151,109,159879,1,0,0:0:0:0:
151,109,159979,2,0,P|156:154|152:216,1,77.9999964294435,2|0,1:1|0:0,0:0:0:0:
262,113,160179,2,0,P|257:68|261:6,1,77.9999964294435,0|0,1:0|1:0,0:0:0:0:
374,190,160379,38,0,P|272:209|239:271,1,155.999992858887,4|0,1:0|1:0,0:0:0:0:
310,326,160779,1,8,0:0:0:0:
450,362,160979,1,2,0:0:0:0:
450,362,161079,1,0,1:0:0:0:
450,362,161179,2,0,P|455:282|472:205,1,155.999992858887,0|8,0:0|0:0,0:0:0:0:
471,208,161479,1,0,0:0:0:0:
471,208,161579,2,0,P|381:189|332:128,1,155.999992858887,4|4,1:2|1:2,0:0:0:0:
326,106,161879,1,0,0:0:0:0:
315,68,161979,6,0,P|277:142|258:228,1,155.999992858887,4|0,1:0|1:0,0:0:0:0:
291,305,162379,2,0,L|368:311,1,77.9999964294435,8|0,0:0|0:0,0:0:0:0:
197,271,162579,2,0,L|95:284,1,77.9999964294435,2|0,0:0|0:0,0:0:0:0:
34,335,162779,2,0,P|23:258|41:182,1,155.999992858887,0|8,1:0|0:0,0:0:0:0:
66,151,163079,1,0,0:0:0:0:
66,151,163179,1,4,1:2:0:0:
185,188,163379,1,0,0:0:0:0:
290,38,163579,6,0,P|169:60|36:41,1,233.999989288331,4|0,1:0|0:0,0:0:0:0:
20,42,163979,1,0,0:0:0:0:
185,188,164179,2,0,P|288:208|330:243,1,155.999992858887,0|4,1:0|0:0,0:0:0:0:
346,271,164479,1,0,0:0:0:0:
346,271,164579,1,2,0:0:0:0:
323,359,164779,1,8,0:0:0:0:
457,333,164979,21,4,1:2:0:0:
457,333,165079,1,0,0:0:0:0:
457,333,165179,2,0,P|462:203|473:148,1,155.999992858887,8|0,0:1|0:0,0:0:0:0:
476,140,165479,1,8,0:0:0:0:
489,103,165579,1,8,0:0:0:0:
357,39,165779,2,0,P|348:80|341:144,1,77.9999964294435,8|0,0:1|0:0,0:0:0:0:
247,121,165979,2,0,P|241:82|233:44,1,77.9999964294435,0|8,0:0|0:0,0:0:0:0:
148,211,166179,5,8,0:0:0:0:
187,213,166279,1,8,0:0:0:0:
225,214,166379,1,8,1:2:0:0:
263,215,166479,1,8,1:2:0:0:
301,216,166579,1,8,1:2:0:0:
339,218,166679,1,8,1:2:0:0:
377,220,166779,6,0,P|356:325|366:375,1,155.999992858887,4|0,1:0|0:0,0:0:0:0:
469,346,167179,1,8,0:0:0:0:
469,346,167279,1,0,0:0:0:0:
469,346,167379,1,0,1:0:0:0:
482,244,167579,1,0,0:0:0:0:
275,279,167779,2,0,P|272:328|267:371,1,77.9999964294435,8|0,0:0|0:0,0:0:0:0:
153,301,167979,2,0,P|104:298|61:293,1,77.9999964294435,0|0,1:0|0:0,0:0:0:0:
143,192,168179,2,0,P|192:195|235:200,1,77.9999964294435,0|0,1:0|0:0,0:0:0:0:
39,126,168379,6,0,B|27:213|27:213|43:254|43:254|28:376,2,233.999989288331,0|0|0,1:0|1:0|1:0,0:0:0:0:
106,57,169179,2,0,L|203:76,1,77.9999964294435,0|0,1:0|0:0,0:0:0:0:
268,111,169379,1,0,1:0:0:0:
143,192,169579,1,8,0:0:0:0:
270,236,169779,1,0,1:0:0:0:
270,236,169879,1,0,0:0:0:0:
270,236,169979,2,0,P|338:229|407:157,1,155.999992858887,4|0,0:0|1:0,0:0:0:0:
486,255,170379,2,0,P|467:304|458:344,2,77.9999964294435,0|0|8,1:0|0:0|0:0,0:0:0:0:
325,347,170779,1,0,0:0:0:0:
325,347,170879,1,0,0:0:0:0:
325,347,170979,2,0,P|274:334|228:324,1,77.9999964294435,12|0,0:0|0:0,0:0:0:0:
125,326,171179,2,0,P|90:346|28:383,1,77.9999964294435,12|0,0:0|0:0,0:0:0:0:
16,245,171379,1,0,1:0:0:0:
98,87,171579,38,0,P|118:172|93:254,1,155.999992858887,8|0,1:0|0:0,0:0:0:0:
102,237,171879,1,8,0:0:0:0:
102,237,171979,1,0,0:0:0:0:
217,232,172179,1,8,0:1:0:0:
217,232,172279,1,0,0:0:0:0:
232,130,172479,1,8,0:0:0:0:
232,130,172579,1,8,0:0:0:0:
366,164,172779,5,8,0:0:0:0:
368,202,172879,1,8,0:0:0:0:
368,241,172979,1,8,0:0:0:0:
370,279,173079,1,8,0:0:0:0:
370,317,173179,6,0,P|288:311|212:319,2,144,4|0|0,1:2|0:0|0:0,0:0:0:0:
468,345,173979,1,0,1:0:0:0:
472,247,174179,2,0,L|463:166,1,48,0|0,1:0|0:0,0:0:0:0:
366,164,174379,1,0,1:0:0:0:
343,172,174479,1,0,0:0:0:0:
321,182,174579,1,0,1:0:0:0:
298,191,174679,1,0,0:0:0:0:
260,200,174779,6,0,P|261:156|257:120,2,77.9999964294435,4|0|0,1:0|0:0|0:0,0:0:0:0:
148,45,175179,2,0,P|145:86|145:148,2,77.9999964294435,0|0|2,1:0|0:0|0:0,0:0:0:0:
171,230,175579,2,0,P|132:217|73:206,2,77.9999964294435,0|0|0,1:0|0:0|1:0,0:0:0:0:
59,351,175979,2,0,P|112:337|171:326,2,77.9999964294435,8|0|0,0:0|0:0|1:0,0:0:0:0:
319,329,176379,6,0,P|366:323|426:327,1,77.9999964294435,4|0,1:2|0:0,0:0:0:0:
476,344,176579,1,0,0:0:0:0:
475,225,176779,1,0,1:0:0:0:
475,225,176879,1,0,0:0:0:0:
475,225,176979,1,0,1:0:0:0:
374,238,177179,1,0,0:0:0:0:
374,238,177279,1,0,0:0:0:0:
374,238,177379,1,0,1:0:0:0:
329,142,177579,1,0,1:0:0:0:
329,142,177679,1,0,0:0:0:0:
329,142,177779,1,0,1:0:0:0:
184,198,177979,21,4,1:0:0:0:
177,236,178079,1,0,0:0:0:0:
170,274,178179,2,0,P|162:330|155:389,1,77.9999964294435,8|0,0:0|0:0,0:0:0:0:
25,183,178579,5,0,1:0:0:0:
32,145,178679,1,0,0:0:0:0:
39,107,178779,2,0,P|47:51|54:-8,1,77.9999964294435,0|0,1:0|0:0,0:0:0:0:
277,223,179179,6,0,P|272:267|268:314,1,77.9999964294435,8|0,0:0|0:0,0:0:0:0:
271,347,179379,1,8,0:0:0:0:
271,347,179479,1,0,0:0:0:0:
271,347,179579,2,0,P|351:333|438:332,1,155.999992858887,6|0,1:0|0:0,0:0:0:0:
461,346,179879,1,2,0:0:0:0:
461,346,179979,1,8,0:0:0:0:
410,218,180179,1,4,1:2:0:0:
410,218,180279,1,0,0:0:0:0:
410,218,180379,2,0,P|326:234|247:261,1,155.999992858887,0|8,0:0|0:0,0:0:0:0:
138,214,180779,2,0,P|151:180|177:118,1,77.9999964294435,4|0,1:2|0:1,0:0:0:0:
183,106,180979,1,2,0:1:0:0:
37,66,181179,5,4,1:2:0:0:
37,66,181279,1,0,0:0:0:0:
37,66,181379,2,0,P|39:138|37:227,1,155.999992858887,0|8,0:0|0:0,0:0:0:0:
173,149,181779,1,4,1:2:0:0:
173,149,181879,1,0,0:0:0:0:
173,149,181979,2,0,P|156:217|141:312,1,155.999992858887,0|8,0:0|0:0,0:0:0:0:
265,343,182379,2,0,P|285:298|301:244,1,77.9999964294435,4|0,1:2|0:0,0:0:0:0:
307,233,182579,1,2,1:0:0:0:
471,145,182779,6,0,P|496:205|500:298,1,155.999992858887,4|0,1:2|0:0,0:0:0:0:
492,333,183079,1,2,0:0:0:0:
492,333,183179,1,8,0:0:0:0:
362,352,183379,1,4,1:2:0:0:
362,352,183479,1,0,0:0:0:0:
362,352,183579,2,0,P|370:305|381:253,1,77.9999964294435,0|0,0:0|0:0,0:0:0:0:
383,245,183779,1,8,0:0:0:0:
240,190,183979,2,0,P|228:229|215:272,1,77.9999964294435,4|0,1:2|0:0,0:0:0:0:
206,294,184179,1,0,0:0:0:0:
28,217,184379,6,0,P|32:124|62:42,1,155.999992858887,4|2,0:0|0:0,0:0:0:0:
73,32,184679,1,0,0:0:0:0:
73,32,184779,1,8,0:0:0:0:
173,31,184979,2,0,P|178:83|179:125,1,77.9999964294435,4|2,1:2|0:1,0:0:0:0:
190,193,185179,1,2,1:0:0:0:
190,193,185279,1,0,0:0:0:0:
190,193,185379,1,2,1:0:0:0:
355,204,185579,2,0,B|387:202|387:202|448:217,1,77.9999964294435,2|0,1:0|0:0,0:0:0:0:
436,109,185779,2,0,B|404:107|404:107|343:122,1,77.9999964294435,2|0,1:0|0:0,0:0:0:0:
274,198,185979,38,0,P|265:267|262:366,1,155.999992858887,6|0,1:0|0:0,0:0:0:0:
261,353,186279,1,2,0:0:0:0:
261,353,186379,1,8,0:0:0:0:
470,363,186579,1,4,1:2:0:0:
470,363,186679,1,0,0:0:0:0:
470,363,186779,2,0,P|468:306|462:260,1,77.9999964294435,0|0,0:0|0:0,0:0:0:0:
462,231,186979,1,8,0:0:0:0:
370,288,187179,2,0,P|368:326|370:386,2,77.9999964294435,4|0|2,1:2|0:0|0:1,0:0:0:0:
394,127,187579,5,4,1:2:0:0:
394,127,187679,1,0,0:0:0:0:
394,127,187779,2,0,P|299:130|223:106,1,155.999992858887,0|8,0:0|0:0,0:0:0:0:
98,41,188179,1,4,1:2:0:0:
81,75,188279,1,0,0:0:0:0:
67,111,188379,2,0,P|110:118|160:130,2,77.9999964294435,0|0|8,0:0|0:0|0:0,0:0:0:0:
107,223,188779,2,0,P|63:219|12:218,2,77.9999964294435,4|0|2,1:2|0:0|0:1,0:0:0:0:
295,274,189179,5,4,1:2:0:0:
295,274,189279,1,0,0:0:0:0:
295,274,189379,1,2,0:1:0:0:
346,353,189579,1,8,0:0:0:0:
476,342,189779,1,0,0:0:0:0:
476,342,189879,1,2,0:1:0:0:
476,342,189979,2,0,P|482:255|506:186,1,155.999992858887,8|2,0:0|1:0,0:0:0:0:
465,55,190379,2,0,P|425:80|377:92,1,77.9999964294435,8|0,0:0|0:0,0:0:0:0:
319,78,190579,1,2,0:1:0:0:
136,6,190779,22,0,P|154:55|163:106,1,77.9999964294435,4|0,1:2|0:0,0:0:0:0:
183,164,190979,1,8,0:0:0:0:
183,164,191079,1,0,0:1:0:0:
183,164,191179,1,8,0:0:0:0:
8,227,191384,2,0,P|44:237|74:249,4,60,2|0|0|0|0,0:0|0:0|1:0|1:1|0:0,0:0:0:0:
116,344,192000,2,0,P|152:334|179:322,1,60,2|0,0:0|0:0,0:0:0:0:
240,285,192206,1,0,1:2:0:0:
240,285,192309,1,0,1:0:0:0:
