osu file format v14

[General]
AudioFilename: audio.mp3
AudioLeadIn: 0
PreviewTime: 47779
Countdown: 0
SampleSet: Soft
StackLeniency: 0.7
Mode: 0
LetterboxInBreaks: 0
WidescreenStoryboard: 0

[Editor]
DistanceSpacing: 1
BeatDivisor: 4
GridSize: 4
TimelineZoom: 1.4

[Metadata]
Title:Kagami no Sekai ni wa Watashi shika Inai -another version-
TitleUnicode:鏡の世界には私しかいない -another version-
Artist:monet
ArtistUnicode:monet
Creator:Mirash
Version:Light Insane
Source:素晴らしき日々~不連続存在~
Tags:PandaHero SubaHibi Subarashiki Hibi ~Furenzoku Sonzai~ Wonderful Everyday ~Diskontinuierliches Dasein~ Naglfar no Senjou nite すかぢ SCA-ji ピクセルビー Pixelbee visual novel vn
BeatmapID:1476105
BeatmapSetID:685725

[Difficulty]
HPDrainRate:6
CircleSize:4
OverallDifficulty:7
ApproachRate:8
SliderMultiplier:2
SliderTickRate:1

[Events]
//Background and Video events
0,0,"nospoilers.jpg",0,0
//Break Periods
2,86979,92379
//Storyboard Layer 0 (Background)
//Storyboard Layer 1 (Fail)
//Storyboard Layer 2 (Pass)
//Storyboard Layer 3 (Foreground)
//Storyboard Sound Samples

[TimingPoints]
379,400,4,2,1,50,1,0
5179,-100,4,2,1,60,0,0
19579,-100,4,2,1,65,0,0
22779,-100,4,2,1,50,0,0
27579,-200,4,2,1,50,0,0
29179,-142.857142857143,4,2,1,55,0,0
34379,-111.111111111111,4,2,1,55,0,0
35579,-111.111111111111,4,2,1,60,0,0
45179,-111.111111111111,4,2,1,50,0,0
46379,-111.111111111111,4,2,1,60,0,0
48179,-142.857142857143,4,2,1,70,0,0
48379,-83.3333333333333,4,2,1,70,0,0
59579,-83.3333333333333,4,2,3,70,0,0
61179,-83.3333333333333,4,2,1,70,0,0
65979,-83.3333333333333,4,2,3,70,0,0
67579,-83.3333333333333,4,2,1,60,0,0
69179,-83.3333333333333,4,2,1,70,0,0
85379,-83.3333333333333,4,2,3,70,0,0
93179,-86.9565217391304,4,2,1,60,0,0
98379,-86.9565217391304,4,2,1,50,0,0
98779,-86.9565217391304,4,2,1,55,0,0
99179,-86.9565217391304,4,2,1,60,0,0
99579,-86.9565217391304,4,2,1,65,0,0
109179,-86.9565217391304,4,2,1,60,0,0
109579,-86.9565217391304,4,2,1,50,0,0
109979,-86.9565217391304,4,2,1,60,0,0
110379,-86.9565217391304,4,2,1,45,0,0
110779,-86.9565217391304,4,2,1,70,0,0
112379,-83.3333333333333,4,2,1,70,0,0
123579,-83.3333333333333,4,2,3,70,0,0
125179,-83.3333333333333,4,2,1,70,0,0
129979,-83.3333333333333,4,2,3,70,0,0
131579,-83.3333333333333,4,2,1,60,0,0
133179,-83.3333333333333,4,2,1,70,0,0
137979,-83.3333333333333,4,2,1,50,0,0
138979,-83.3333333333333,4,2,1,60,0,0
139379,-83.3333333333333,4,2,1,65,0,0
141179,-83.3333333333333,4,2,1,70,0,0
152379,-83.3333333333333,4,2,1,70,0,0
153279,-83.3333333333333,4,2,3,70,0,0
153979,-83.3333333333333,4,2,1,70,0,0
165179,-83.3333333333333,4,2,3,70,0,0
166779,-83.3333333333333,4,2,1,70,0,0
171579,-83.3333333333333,4,2,3,70,0,0
173179,-83.3333333333333,4,2,1,60,0,0
174779,-83.3333333333333,4,2,1,70,0,0
177979,-83.3333333333333,4,2,1,70,0,0
178479,-83.3333333333333,4,2,1,70,0,0
191179,410.958904109589,4,2,1,70,1,0

[Colours]
Combo1 : 70,176,191
Combo2 : 238,30,35
Combo3 : 255,255,255
Combo4 : 72,101,153
Combo5 : 186,67,145
Combo6 : 112,103,186

[HitObjects]
460,133,379,38,0,P|399:147|299:267,1,200,0|0,1:0|0:0,0:0:0:0:
306,243,1379,2,0,P|330:286|378:319,1,100,0|0,1:0|0:0,0:0:0:0:
378,323,1979,1,0,1:0:0:0:
378,323,2179,1,0,1:0:0:0:
378,323,3179,1,0,0:0:0:0:
378,323,3579,6,0,P|304:308|167:330,1,200,0|0,1:0|0:0,0:0:0:0:
181,324,4579,2,0,P|166:276|167:202,1,100,0|0,1:0|0:0,0:0:0:0:
224,164,5179,6,0,P|304:158|394:126,2,150,0|0|0,1:0|1:0|1:0,0:0:0:0:
119,104,6079,2,0,P|63:132|-9:204,1,150,0|0,0:0|0:0,0:0:0:0:
8,271,6579,1,0,1:0:0:0:
80,340,6779,6,0,P|151:331|275:255,1,200,4|0,1:0|1:0,0:0:0:0:
357,238,7379,2,0,P|339:132|333:21,1,200,2|0,0:0|1:0,0:0:0:0:
333,39,7879,1,0,0:0:0:0:
333,39,7979,1,0,1:0:0:0:
432,29,8179,1,0,1:0:0:0:
512,73,8379,38,0,P|507:172|439:280,1,200,4|0,0:0|1:0,0:0:0:0:
374,312,8979,2,0,P|314:299|161:332,1,200,2|0,0:0|1:0,0:0:0:0:
179,322,9479,1,0,0:0:0:0:
179,322,9579,1,0,1:0:0:0:
80,309,9779,1,0,1:0:0:0:
142,230,9979,6,0,P|123:175|-7:161,1,200,4|0,0:0|1:0,0:0:0:0:
42,247,10579,2,0,L|257:260,1,200,2|8,0:0|0:0,0:0:0:0:
241,259,11079,1,0,0:0:0:0:
241,259,11179,2,0,L|246:142,1,100,0|0,1:0|0:0,0:0:0:0:
363,56,11579,6,0,L|356:274,1,200,4|0,0:0|1:0,0:0:0:0:
264,144,12179,2,2,L|268:40,1,100,2|0,0:0|0:0,0:0:0:0:
462,55,12579,1,0,1:0:0:0:
462,55,12679,1,0,0:0:0:0:
462,55,12779,1,0,1:0:0:0:
454,161,12979,1,2,0:0:0:0:
446,275,13179,6,0,P|424:333|274:315,1,200,4|0,1:0|1:0,0:0:0:0:
300,346,13679,1,0,0:0:0:0:
300,346,13779,2,0,L|156:361,1,100,2|0,0:0|0:0,0:0:0:0:
71,293,14179,1,0,1:0:0:0:
71,293,14379,2,0,L|285:270,1,200,0|4,1:0|0:0,0:0:0:0:
335,196,14979,37,0,0:0:0:0:
249,144,15179,1,0,1:0:0:0:
163,195,15379,2,0,P|127:127|220:33,1,200,2|8,0:0|0:0,0:0:0:0:
192,36,15879,1,0,1:0:0:0:
192,36,15979,2,0,P|268:45|311:37,1,100,0|0,1:0|1:0,0:0:0:0:
388,18,16379,6,0,B|406:142|347:78|378:223,1,200,4|0,0:0|1:0,0:0:0:0:
375,213,16879,1,0,0:0:0:0:
375,213,16979,2,0,P|305:226|171:187,1,200,2|0,0:0|1:0,0:0:0:0:
182,194,17479,1,0,0:0:0:0:
182,194,17579,2,0,P|160:237|130:306,1,100,0|0,1:0|0:0,0:0:0:0:
346,352,17979,6,0,P|397:272|432:155,1,200,4|0,1:2|0:0,0:0:0:0:
429,172,18479,1,0,0:0:0:0:
429,172,18579,2,0,P|416:108|394:55,1,100,4|8,1:2|1:0,0:0:0:0:
267,17,18979,2,2,P|277:81|293:131,2,100,0|0|2,0:0|0:0|0:0,1:2:0:0:
170,42,19579,6,0,P|94:57|75:196,1,200,12|8,1:0|1:0,0:0:0:0:
148,204,20179,2,0,L|257:182,1,100,8|4,1:0|0:0,0:0:0:0:
333,233,20579,2,0,L|453:216,2,100,0|8|8,0:0|0:0|0:0,0:0:0:0:
282,319,21179,38,0,P|225:353|116:257,1,200,4|8,1:0|0:0,0:0:0:0:
176,207,21779,1,8,1:0:0:0:
176,207,21879,1,0,0:0:0:0:
176,207,21979,1,0,1:0:0:0:
273,184,22179,1,0,1:0:0:0:
273,184,22379,2,0,P|269:110|190:11,1,200,8|4,1:0|0:0,0:0:0:0:
194,13,23779,5,0,1:0:0:0:
194,13,24379,5,0,1:0:0:0:
194,13,25179,5,0,1:0:0:0:
194,13,25379,1,0,1:0:0:0:
376,128,25979,37,4,0:0:0:0:
376,128,26979,5,0,1:0:0:0:
376,128,27579,6,0,P|380:159|379:213,1,75,0|0,1:0|1:0,0:0:0:0:
379,202,28779,1,0,1:0:0:0:
289,309,29179,6,0,P|241:308|164:326,2,104.999996795654,0|0|0,1:0|1:0|1:0,0:0:0:0:
356,259,30179,1,2,1:2:0:0:
356,259,30379,2,0,P|405:260|444:268,1,69.9999978637696,0|0,1:0|0:0,0:0:0:0:
486,166,30779,37,0,1:0:0:0:
486,166,30979,1,0,1:0:0:0:
486,166,31179,2,0,P|434:182|403:198,1,69.9999978637696,0|2,1:0|1:2,0:0:0:0:
419,188,31779,2,0,P|349:181|322:175,1,69.9999978637696,0|0,0:0|1:0,0:0:0:0:
216,78,32379,6,0,P|156:67|86:73,2,104.999996795654,0|0|0,1:0|1:0|1:2,0:0:0:0:
216,78,33379,1,0,0:0:0:0:
238,159,33579,1,0,1:0:0:0:
133,290,33979,1,4,1:0:0:0:
133,290,34379,6,0,P|216:274|264:272,1,89.9999972534181,0|2,1:0|0:0,0:0:0:0:
315,326,34779,2,0,P|381:322|474:320,1,134.999995880127,4|0,0:0|1:0,0:0:0:0:
449,320,35179,2,0,P|449:267|446:225,1,89.9999972534181,0|0,1:0|1:0,0:0:0:0:
357,198,35579,6,0,B|287:201|298:166|220:173,2,134.999995880127,4|0|0,1:0|1:0|1:0,0:0:0:0:
445,67,36379,1,0,0:0:0:0:
445,67,36579,1,0,1:0:0:0:
363,28,36779,2,0,P|311:52|272:87,1,89.9999972534181,0|0,1:0|0:0,0:0:0:0:
178,55,37179,37,4,0:0:0:0:
178,55,37379,2,0,P|142:92|116:159,1,89.9999972534181,4|4,0:0|1:0,0:0:0:0:
187,213,37779,2,0,P|171:276|101:367,1,179.999994506836,0|0,0:0|1:0,0:0:0:0:
8,311,38379,6,0,P|11:239|112:238,1,179.999994506836,0|4,1:0|1:0,1:0:0:0:
292,332,39179,2,0,P|346:326|395:309,1,89.9999972534181,0|0,1:0|1:0,0:0:0:0:
444,228,39579,2,0,P|380:194|289:218,2,134.999995880127,0|0|0,1:0|1:0|1:0,0:0:0:0:
460,121,40379,5,4,1:2:0:0:
460,121,40579,1,0,1:0:0:0:
460,121,40779,2,0,P|446:68|445:21,1,89.9999972534181,0|0,1:0|1:0,0:0:0:0:
337,13,41179,1,0,0:0:0:0:
259,88,41379,2,0,P|205:88|131:97,1,89.9999972534181,0|0,1:0|1:0,0:0:0:0:
66,57,41779,5,0,1:0:0:0:
66,57,41879,1,0,0:0:0:0:
66,57,41979,2,0,P|74:121|71:253,1,179.999994506836,4|0,1:0|1:0,0:0:0:0:
88,250,42979,2,0,P|163:237|207:237,1,89.9999972534181,0|0,1:0|1:0,0:0:0:0:
188,247,43579,37,0,1:0:0:0:
188,247,43779,1,0,1:0:0:0:
188,247,43979,2,0,P|206:313|323:297,1,179.999994506836,0|0,1:0|0:0,0:0:0:0:
343,209,44579,1,2,0:0:0:0:
438,159,44779,2,0,L|438:362,1,179.999994506836,0|0,1:0|3:0,0:0:0:0:
438,339,46179,5,0,3:0:0:0:
438,339,46379,1,0,1:0:0:0:
269,356,46779,6,0,L|404:347,2,134.999995880127,4|4|4,1:2|1:2|1:2,0:0:0:0:
269,356,48379,6,0,P|189:355|155:199,1,239.999992675781,4|8,1:0|0:0,0:0:0:0:
251,175,48979,2,0,L|495:211,1,239.999992675781,0|8,1:0|0:0,0:0:0:0:
462,92,49579,2,0,L|313:73,1,119.999996337891,0|0,1:0|1:0,0:0:0:0:
223,89,49979,38,0,P|161:117|151:231,2,179.999994506836,0|0|0,1:0|1:0|1:0,0:0:0:0:
119,27,50779,2,0,L|-6:17,1,119.999996337891,0|0,1:0|1:0,0:0:0:0:
1,138,51179,2,0,L|39:261,1,119.999996337891,8|0,0:0|1:0,0:0:0:0:
122,336,51579,6,0,B|255:304|212:383|370:350,2,239.999992675781,4|0|0,0:0|1:0|0:0,0:0:0:0:
154,220,52579,1,8,0:0:0:0:
266,261,52779,1,0,1:0:0:0:
332,160,52979,1,8,0:0:0:0:
444,200,53179,6,0,P|464:264|448:318,1,119.999996337891,2|0,1:0|1:0,0:0:0:0:
450,313,53479,2,0,L|326:289,1,119.999996337891,2|0,1:0|1:0,0:0:0:0:
272,276,53779,2,0,P|254:202|336:122,1,179.999994506836,2|0,1:0|0:0,0:0:0:0:
315,127,54179,1,2,1:0:0:0:
388,32,54379,1,2,1:0:0:0:
388,32,54479,1,0,0:0:0:0:
388,32,54579,1,0,0:0:0:0:
257,36,54779,6,0,P|195:51|164:103,1,119.999996337891,4|0,1:0|1:0,0:0:0:0:
192,213,55179,2,0,P|169:291|102:315,1,119.999996337891,8|2,0:0|0:0,0:0:0:0:
140,310,55479,1,0,0:0:0:0:
140,310,55579,1,0,1:0:0:0:
31,259,55779,1,8,0:0:0:0:
31,259,55979,1,4,1:2:0:0:
45,378,56179,37,4,1:2:0:0:
45,378,56279,1,0,0:0:0:0:
45,378,56379,2,0,P|120:363|201:372,1,119.999996337891,4|0,1:0|1:0,0:0:0:0:
282,371,56779,2,0,P|355:363|405:342,1,119.999996337891,8|2,0:0|0:0,0:0:0:0:
463,245,57179,2,0,P|381:233|231:298,1,239.999992675781,0|4,1:0|1:2,0:0:0:0:
122,262,57779,1,4,0:0:0:0:
207,177,57979,6,0,P|183:107|150:64,1,119.999996337891,4|0,1:0|1:0,0:0:0:0:
251,0,58379,2,0,P|321:29|385:39,1,119.999996337891,0|0,0:0|1:0,0:0:0:0:
412,147,58779,2,0,P|328:147|270:165,2,119.999996337891,4|2|8,0:0|0:0|0:0,1:0:0:0:
505,71,59379,1,4,1:2:0:0:
510,190,59579,37,8,0:1:0:0:
405,248,59779,1,0,0:0:0:0:
405,248,59879,1,8,0:0:0:0:
405,248,59979,2,0,P|400:313|419:370,1,119.999996337891,8|8,0:0|0:1,0:0:0:0:
296,356,60379,5,0,0:0:0:0:
296,356,60479,1,8,0:0:0:0:
296,356,60579,1,8,0:0:0:0:
296,356,60679,1,8,0:0:0:0:
296,356,60779,2,0,P|265:304|203:248,1,119.999996337891,8|8,1:2|1:2,0:0:0:0:
169,154,61179,6,0,P|89:191|66:342,1,239.999992675781,4|8,1:0|0:0,0:0:0:0:
173,372,61779,2,0,L|220:242,1,119.999996337891,0|0,1:0|0:0,0:0:0:0:
311,188,62179,2,0,P|392:188|446:175,2,119.999996337891,8|0|0,0:0|1:0|1:0,0:0:0:0:
239,91,62779,38,0,P|334:59|444:82,2,179.999994506836,0|0|0,1:0|1:0|1:0,0:0:0:0:
224,210,63579,2,0,P|264:281|265:325,1,119.999996337891,0|0,1:0|1:0,0:0:0:0:
381,348,63979,2,0,P|435:296|490:269,1,119.999996337891,8|0,0:0|1:0,0:0:0:0:
504,158,64379,38,0,P|428:164|253:120,1,239.999992675781,4|0,0:0|1:0,0:0:0:0:
188,39,64979,1,8,0:0:0:0:
188,39,65079,1,4,1:2:0:0:
188,39,65179,1,0,0:0:0:0:
68,45,65379,1,12,0:0:0:0:
137,142,65579,1,12,0:0:0:0:
18,162,65779,1,0,1:0:0:0:
95,253,65979,54,0,P|158:311|274:329,1,179.999994506836,8|8,1:0|0:0,0:0:0:0:
293,292,66379,2,0,P|364:276|419:274,1,119.999996337891,8|8,0:1|0:1,0:0:0:0:
480,175,66779,1,0,0:0:0:0:
480,175,66879,1,8,0:0:0:0:
480,175,66979,2,0,P|413:139|367:94,1,119.999996337891,8|8,0:0|0:0,0:0:0:0:
278,47,67379,6,0,P|239:119|204:153,1,119.999996337891,8|4,0:0|1:2,0:0:0:0:
212,145,68379,5,0,1:0:0:0:
212,145,69179,38,0,P|182:207|196:309,1,119.999996337891,4|0,1:0|0:0,0:0:0:0:
278,326,69579,1,0,1:0:0:0:
391,285,69779,1,2,0:0:0:0:
391,285,69879,1,0,0:0:0:0:
391,285,69979,2,0,P|349:236|287:223,1,119.999996337891,0|0,1:0|1:0,0:0:0:0:
196,341,70379,2,0,P|131:350|25:263,1,179.999994506836,8|0,0:0|0:0,0:0:0:0:
38,291,70779,38,2,P|63:210|56:88,2,179.999994506836,4|0|0,1:2|0:0|1:0,1:2:0:0:
150,249,71579,2,2,P|202:213|240:157,1,119.999996337891,0|0,0:0|1:0,1:2:0:0:
221,48,71979,2,2,P|282:33|351:44,1,119.999996337891,0|0,1:0|1:0,1:2:0:0:
443,97,72379,6,2,L|414:301,2,179.999994506836,4|0|0,1:0|1:0|1:0,1:2:0:0:
327,131,73179,1,0,1:0:0:0:
315,250,73379,1,8,0:0:0:0:
315,250,73479,1,0,0:0:0:0:
315,250,73579,1,8,0:0:0:0:
295,368,73779,1,8,0:0:0:0:
216,308,73979,6,0,P|146:302|40:353,1,179.999994506836,6|2,1:0|0:0,0:0:0:0:
47,345,74379,1,8,0:0:0:0:
47,345,74479,1,0,0:0:0:0:
47,345,74579,2,2,P|27:287|46:161,1,179.999994506836,4|0,1:2|0:0,0:1:0:0:
40,172,74979,1,8,0:0:0:0:
40,172,75079,1,0,0:0:0:0:
40,172,75179,2,2,L|201:169,1,119.999996337891,4|2,1:2|0:1,0:1:0:0:
253,93,75579,6,2,L|376:91,1,119.999996337891,4|0,1:2|0:0,0:1:0:0:
450,182,75979,1,8,0:0:0:0:
450,182,76079,1,0,0:0:0:0:
450,182,76179,2,2,L|314:186,1,119.999996337891,4|0,1:2|0:0,0:1:0:0:
238,263,76579,1,8,0:0:0:0:
238,263,76679,1,2,0:1:0:0:
238,263,76779,1,4,1:2:0:0:
157,351,76979,1,2,1:0:0:0:
289,380,77179,38,2,P|349:350|486:330,1,179.999994506836,4|2,1:2|0:1,0:1:0:0:
459,329,77579,1,8,0:0:0:0:
459,329,77679,1,0,0:0:0:0:
459,329,77779,2,2,P|465:228|458:110,1,179.999994506836,4|0,1:2|0:0,0:1:0:0:
463,149,78179,1,8,0:0:0:0:
463,149,78279,1,0,0:0:0:0:
463,149,78379,2,2,P|397:138|323:140,1,119.999996337891,4|2,1:2|0:1,0:1:0:0:
235,188,78779,6,0,L|175:177,3,59.9999981689454,4|0|2|0,0:0|0:0|0:0|0:0,0:0:0:0:
238,191,79179,2,0,L|214:336,1,119.999996337891,8|4,0:0|1:2,0:0:0:0:
82,201,79579,1,2,1:0:0:0:
85,189,79679,1,0,0:0:0:0:
88,177,79779,1,2,1:0:0:0:
91,165,79879,1,0,0:0:0:0:
94,153,79979,2,0,P|147:95|203:95,1,119.999996337891,2|2,1:0|1:0,0:0:0:0:
292,144,80379,6,0,P|369:142|449:78,1,179.999994506836,6|2,1:0|0:0,0:0:0:0:
447,80,80779,1,8,0:0:0:0:
447,80,80879,1,0,0:0:0:0:
447,80,80979,2,2,P|464:175|449:262,1,179.999994506836,4|2,1:2|0:1,0:1:0:0:
450,257,81379,1,8,0:0:0:0:
450,257,81479,1,0,0:0:0:0:
450,257,81579,2,2,P|369:252|291:256,1,119.999996337891,4|2,1:2|0:1,0:1:0:0:
234,325,81979,6,2,P|149:328|91:318,1,119.999996337891,4|0,1:2|0:0,0:1:0:0:
23,245,82379,1,8,0:0:0:0:
23,245,82479,1,0,0:0:0:0:
23,245,82579,2,2,P|32:171|45:114,1,119.999996337891,4|0,1:2|0:0,0:1:0:0:
148,70,82979,1,8,0:0:0:0:
148,70,83079,1,0,0:0:0:0:
148,70,83179,1,4,1:2:0:0:
255,15,83379,1,2,0:0:0:0:
251,134,83579,38,0,B|229:188|229:188|235:264,1,119.999996337891,4|0,0:3|0:0,0:0:0:0:
352,272,83979,2,0,B|375:215|375:215|367:144,1,119.999996337891,4|8,0:3|0:3,0:0:0:0:
338,40,84379,2,0,P|408:18|490:173,1,239.999992675781,4|8,0:3|0:3,0:0:0:0:
461,243,84979,5,4,0:3:0:0:
461,243,85079,1,0,0:0:0:0:
461,243,85179,2,0,P|449:322|386:352,1,119.999996337891,4|8,1:2|0:0,0:0:0:0:
301,326,85579,1,8,0:0:0:0:
301,326,85679,1,0,0:0:0:0:
301,326,85779,2,0,P|231:314|52:327,1,239.999992675781,2|8,0:0|0:0,0:0:0:0:
12,215,86379,1,8,0:0:0:0:
12,215,86479,1,8,0:0:0:0:
12,215,86579,1,8,0:0:0:0:
104,138,86779,53,2,0:0:0:0:
494,197,93179,6,0,P|423:183|367:185,1,115.000002193451,0|0,1:0|0:0,0:0:0:0:
276,233,93579,1,0,1:0:0:0:
173,180,93779,2,0,P|210:124|377:106,1,230.000004386902,0|0,1:0|1:0,0:0:0:0:
381,211,94379,2,0,P|366:271|324:307,1,115.000002193451,4|0,1:2|0:0,0:0:0:0:
216,276,94779,5,0,1:0:0:0:
118,337,94979,1,0,1:0:0:0:
118,337,95079,1,0,0:0:0:0:
118,337,95179,2,0,P|53:302|41:230,2,115.000002193451,0|0|0,1:0|0:0|0:0,0:0:0:0:
231,356,95779,1,0,1:0:0:0:
231,356,95879,1,0,0:0:0:0:
231,356,95979,2,0,P|296:348|364:349,1,115.000002193451,0|4,1:0|0:0,0:0:0:0:
460,344,96379,6,0,P|441:246|460:90,1,230.000004386902,4|0,1:0|1:0,0:0:0:0:
348,65,96979,1,0,0:0:0:0:
351,179,97179,2,0,P|261:172|218:42,2,230.000004386902,0|0|0,1:0|1:0|1:0,0:0:0:0:
452,117,98179,1,0,0:0:0:0:
452,117,98279,1,0,0:0:0:0:
452,117,98379,2,0,P|452:194|456:265,1,115.000002193451,8|8,0:0|0:0,0:0:0:0:
361,301,98779,6,0,P|295:282|89:314,1,230.000004386902,8|8,0:0|0:0,0:0:0:0:
53,374,99379,1,8,0:0:0:0:
19,264,99579,38,0,P|46:171|13:35,1,230.000004386902,4|8,1:0|0:0,0:0:0:0:
132,32,100179,2,0,P|262:47|371:88,2,230.000004386902,0|8|0,1:0|0:0|1:0,0:0:0:0:
153,145,101179,2,0,B|134:200|134:200|152:273,1,115.000002193451,4|8,0:0|0:0,0:0:0:0:
276,276,101579,2,0,B|306:222|306:222|299:165,1,115.000002193451,0|8,0:0|0:0,0:0:0:0:
220,207,101979,1,0,1:0:0:0:
202,320,102179,1,0,1:0:0:0:
202,320,102279,1,0,0:0:0:0:
202,320,102379,1,6,0:0:0:0:
314,346,102579,1,0,0:0:0:0:
352,237,102779,6,0,P|438:186|488:79,2,172.500003290176,4|0|8,1:0|1:0|0:0,0:0:0:0:
309,129,103579,2,0,P|236:108|103:160,2,172.500003290176,4|0|8,1:0|1:0|0:0,0:0:0:0:
254,230,104379,6,0,P|223:306|140:353,2,172.500003290176,4|0|0,1:0|1:0|1:0,0:0:0:0:
323,322,105179,1,0,0:0:0:0:
437,316,105379,1,2,0:0:0:0:
437,316,105479,1,0,1:0:0:0:
437,316,105579,2,0,P|440:242|429:196,1,115.000002193451,0|0,1:0|1:0,0:0:0:0:
339,132,105979,6,0,B|206:122|271:60|111:54,1,230.000004386902,4|8,1:0|0:0,0:0:0:0:
29,115,106579,1,0,1:0:0:0:
29,115,106679,1,0,0:0:0:0:
29,115,106779,1,0,1:0:0:0:
89,212,106979,1,8,0:0:0:0:
148,310,107179,2,0,P|222:318|274:302,1,115.000002193451,2|8,0:0|0:0,0:0:0:0:
335,219,107579,38,0,P|418:212|481:360,1,230.000004386902,4|0,1:0|1:0,0:0:0:0:
379,350,108179,1,0,1:0:0:0:
379,350,108279,1,0,0:0:0:0:
379,350,108379,2,0,P|295:342|237:347,1,115.000002193451,0|8,1:0|0:0,0:0:0:0:
159,296,108779,2,0,P|96:294|33:306,1,115.000002193451,0|0,1:0|1:0,0:0:0:0:
50,187,109179,6,0,P|100:113|260:145,1,230.000004386902,4|8,1:0|0:0,0:0:0:0:
310,197,109779,1,8,0:0:0:0:
310,197,109879,1,0,0:0:0:0:
310,197,109979,2,0,P|234:187|178:325,1,230.000004386902,4|8,1:0|0:0,0:0:0:0:
276,352,110579,5,8,0:0:0:0:
276,352,110679,1,0,0:0:0:0:
276,352,110779,2,0,L|458:306,2,172.500003290176,4|4|4,1:0|0:3|0:3,0:0:0:0:
276,352,112379,6,0,P|246:297|261:245,1,119.999996337891,4|0,1:0|0:0,0:0:0:0:
338,169,112779,1,8,0:0:0:0:
454,197,112979,2,0,P|416:272|276:232,1,239.999992675781,0|8,1:0|0:0,0:0:0:0:
199,158,113579,2,0,P|111:156|45:182,1,119.999996337891,0|0,1:0|1:0,0:0:0:0:
159,73,113979,38,0,P|248:71|359:85,2,179.999994506836,0|0|0,1:0|1:0|1:0,0:0:0:0:
44,108,114779,2,0,P|18:179|21:227,1,119.999996337891,0|0,1:0|1:0,0:0:0:0:
128,273,115179,1,8,0:0:0:0:
128,273,115379,1,0,1:0:0:0:
229,337,115579,6,0,B|372:350|310:262|482:268,2,239.999992675781,4|0|0,0:0|1:0|0:0,0:0:0:0:
219,217,116579,1,8,0:0:0:0:
219,217,116679,1,0,0:0:0:0:
219,217,116779,2,0,P|234:150|216:93,1,119.999996337891,0|8,1:0|0:0,0:0:0:0:
326,44,117179,6,0,P|387:52|456:93,1,119.999996337891,2|0,1:0|1:0,0:0:0:0:
438,78,117479,2,0,P|409:138|395:206,1,119.999996337891,2|0,1:0|1:0,0:0:0:0:
428,239,117779,2,0,P|394:300|288:349,1,179.999994506836,2|0,1:0|0:0,0:0:0:0:
299,349,118179,1,2,1:0:0:0:
299,349,118279,1,0,0:0:0:0:
299,349,118379,1,2,1:1:0:0:
181,332,118579,1,0,0:0:0:0:
65,301,118779,6,0,P|45:241|61:174,1,119.999996337891,4|0,1:0|1:0,0:0:0:0:
146,131,119179,1,8,0:0:0:0:
170,247,119379,1,0,1:0:0:0:
170,247,119479,1,0,0:0:0:0:
170,247,119579,2,0,P|226:185|396:147,1,239.999992675781,0|4,1:0|1:2,0:0:0:0:
466,218,120179,37,4,1:2:0:0:
466,218,120279,1,0,0:0:0:0:
466,218,120379,2,0,P|398:232|341:215,1,119.999996337891,4|0,1:0|1:0,0:0:0:0:
259,299,120779,2,0,P|196:310|133:350,1,119.999996337891,8|2,0:0|0:0,0:0:0:0:
32,303,121179,2,0,P|80:245|18:101,1,239.999992675781,0|4,1:0|1:2,0:0:0:0:
130,44,121779,5,4,0:0:0:0:
130,44,121879,1,0,0:0:0:0:
130,44,121979,2,0,L|264:57,1,119.999996337891,4|0,1:0|1:0,0:0:0:0:
343,129,122379,2,0,L|491:144,1,119.999996337891,0|0,0:0|1:0,0:0:0:0:
490,258,122779,1,4,0:0:0:0:
370,251,122979,1,2,0:0:0:0:
370,251,123079,1,0,1:0:0:0:
370,251,123179,2,0,L|225:231,1,119.999996337891,8|4,0:0|1:2,0:0:0:0:
132,213,123579,37,8,0:1:0:0:
14,190,123779,1,0,0:0:0:0:
14,190,123879,1,8,0:0:0:0:
14,190,123979,2,0,P|22:117|41:72,1,119.999996337891,8|8,0:0|0:1,0:0:0:0:
159,60,124379,5,0,0:0:0:0:
159,60,124479,1,8,0:0:0:0:
159,60,124579,1,8,0:0:0:0:
159,60,124679,1,8,0:0:0:0:
159,60,124779,2,0,P|234:60|287:75,1,119.999996337891,8|8,1:2|1:2,0:0:0:0:
379,133,125179,6,0,B|402:268|317:223|344:375,1,239.999992675781,4|8,1:0|0:0,0:0:0:0:
222,368,125779,1,0,1:0:0:0:
102,367,125979,2,0,P|124:296|191:267,1,119.999996337891,0|8,0:0|0:0,0:0:0:0:
276,246,126379,2,0,P|285:163|266:109,1,119.999996337891,0|0,1:0|1:0,0:0:0:0:
167,77,126779,38,0,P|116:151|36:193,2,179.999994506836,0|0|0,1:0|1:0|1:0,0:0:0:0:
278,32,127579,2,0,P|343:47|388:101,1,119.999996337891,0|0,1:0|1:0,0:0:0:0:
476,154,127979,2,0,P|486:231|467:292,1,119.999996337891,8|0,0:0|1:0,0:0:0:0:
358,354,128379,38,0,P|320:303|403:166,2,239.999992675781,4|0|0,0:0|1:0|0:0,0:0:0:0:
477,368,129379,1,12,0:0:0:0:
477,368,129479,1,0,0:0:0:0:
477,368,129579,1,12,0:0:0:0:
358,354,129779,1,0,1:0:0:0:
258,345,129979,54,0,B|176:328|176:328|124:272|124:272|44:261,1,239.999992675781,8|0,1:0|0:0,0:0:0:0:
10,145,130579,1,8,0:1:0:0:
10,145,130679,1,0,0:0:0:0:
10,145,130779,2,0,L|144:157,1,119.999996337891,0|8,0:0|0:0,0:0:0:0:
240,110,131179,5,8,0:0:0:0:
240,110,131279,1,8,0:0:0:0:
240,110,131379,1,8,0:0:0:0:
240,110,131479,1,8,0:0:0:0:
240,110,131579,1,4,1:2:0:0:
318,123,132379,5,0,1:0:0:0:
396,136,133179,6,0,P|418:227|327:353,1,239.999992675781,4|0,1:0|1:0,0:0:0:0:
229,304,133779,1,0,0:0:0:0:
110,320,133979,2,0,P|74:255|76:198,1,119.999996337891,0|0,1:0|1:0,0:0:0:0:
179,153,134379,2,2,P|168:70|117:18,1,119.999996337891,0|0,1:0|0:0,1:2:0:0:
29,57,134779,6,0,P|8:192|54:289,1,239.999992675781,4|0,1:2|1:0,0:0:0:0:
168,273,135379,1,0,0:0:0:0:
168,273,135479,1,0,0:0:0:0:
168,273,135579,2,0,P|216:279|307:327,1,119.999996337891,0|0,1:0|0:0,0:0:0:0:
398,331,135979,2,0,P|462:319|509:280,1,119.999996337891,0|0,1:0|1:0,0:0:0:0:
450,178,136379,6,0,P|371:167|202:207,2,239.999992675781,0|0|0,1:0|1:0|0:0,0:0:0:0:
501,68,137379,1,0,1:0:0:0:
501,68,137479,1,0,0:0:0:0:
501,68,137579,1,2,1:2:0:0:
381,58,137779,1,2,1:2:0:0:
261,55,137979,37,0,0:0:0:0:
261,55,138979,5,0,1:0:0:0:
261,55,139179,1,0,1:0:0:0:
261,55,139379,2,0,P|149:64|44:149,1,239.999992675781,4|8,1:0|0:0,0:0:0:0:
61,259,139979,1,8,0:0:0:0:
171,306,140179,1,0,1:0:0:0:
171,306,140279,1,0,0:0:0:0:
171,306,140379,2,2,L|316:298,1,119.999996337891,0|0,0:0|0:0,1:2:0:0:
400,249,140779,5,8,0:0:0:0:
400,249,140879,1,0,0:0:0:0:
400,249,140979,1,8,0:0:0:0:
400,249,141079,1,0,0:0:0:0:
400,249,141179,2,0,P|415:171|291:75,1,239.999992675781,2|8,1:0|0:0,0:0:0:0:
215,155,141779,2,0,P|136:162|49:38,1,239.999992675781,2|2,1:0|1:0,0:0:0:0:
169,42,142379,2,0,L|311:62,1,119.999996337891,10|0,0:1|0:0,0:0:0:0:
359,153,142779,6,0,B|347:273|259:221|276:368,1,239.999992675781,4|8,1:2|0:0,0:1:0:0:
395,374,143379,2,2,P|460:355|429:198,1,239.999992675781,2|2,1:0|1:0,1:2:0:0:
451,89,143979,1,8,0:0:0:0:
334,60,144179,1,8,0:0:0:0:
215,43,144379,38,0,P|116:66|68:205,1,239.999992675781,6|8,1:0|0:0,0:0:0:0:
162,253,144979,1,2,1:0:0:0:
162,253,145079,1,0,0:0:0:0:
162,253,145179,2,0,L|291:243,1,119.999996337891,0|2,0:0|1:0,0:0:0:0:
341,138,145579,2,0,L|214:149,1,119.999996337891,10|0,0:1|0:0,0:0:0:0:
364,227,145979,6,0,P|371:317|226:318,1,239.999992675781,4|8,1:2|0:0,0:1:0:0:
126,344,146579,1,10,0:1:0:0:
126,344,146679,1,0,1:0:0:0:
126,344,146779,1,0,0:0:0:0:
56,246,146979,1,10,0:1:0:0:
161,188,147179,2,0,P|218:193|283:222,1,119.999996337891,8|2,0:0|1:0,0:0:0:0:
390,183,147579,6,0,P|439:135|329:22,1,239.999992675781,6|8,1:0|0:0,0:0:0:0:
266,94,148179,2,0,P|171:95|33:31,1,239.999992675781,2|2,1:0|1:0,0:0:0:0:
17,155,148779,1,10,0:1:0:0:
100,241,148979,5,0,0:0:0:0:
100,241,149079,1,0,0:0:0:0:
100,241,149179,2,0,P|182:225|322:287,1,239.999992675781,4|8,1:2|0:0,0:1:0:0:
409,366,149779,1,2,1:0:0:0:
409,366,149879,1,0,0:0:0:0:
409,366,149979,1,0,0:0:0:0:
469,262,150179,1,2,1:0:0:0:
411,156,150379,2,0,P|327:161|290:195,1,119.999996337891,10|10,0:1|0:1,0:0:0:0:
237,283,150779,38,0,P|165:287|29:160,1,239.999992675781,4|8,1:0|0:0,0:0:0:0:
113,94,151379,1,0,1:0:0:0:
233,94,151579,2,0,P|207:167|175:205,1,119.999996337891,0|0,1:0|1:0,0:0:0:0:
299,216,151979,2,0,P|367:194|433:198,1,119.999996337891,8|0,0:0|1:0,0:0:0:0:
483,96,152379,54,0,P|415:98|316:47,2,179.999994506836,4|8|8,0:3|0:3|0:3,0:0:0:0:
501,215,153179,2,0,P|465:272|456:365,1,119.999996337891,0|8,1:0|1:1,0:0:0:0:
335,348,153579,5,8,1:2:0:0:
335,348,153679,1,8,1:1:0:0:
335,348,153779,1,8,1:1:0:0:
335,348,153879,1,8,0:2:0:0:
335,348,153979,2,0,B|187:347|268:270|90:273,1,239.999992675781,4|8,1:0|0:0,0:0:0:0:
50,325,154579,1,0,1:0:0:0:
448,308,154979,6,0,P|454:234|446:178,2,119.999996337891,8|0|0,0:0|1:0|1:0,0:0:0:0:
346,243,155579,2,0,P|279:229|174:152,2,179.999994506836,0|0|0,1:0|1:0|1:0,0:0:0:0:
373,126,156379,2,0,P|296:118|256:139,1,119.999996337891,0|0,1:0|1:0,0:0:0:0:
146,95,156779,2,0,P|76:70|25:32,1,119.999996337891,8|0,0:0|1:0,0:0:0:0:
35,164,157179,6,0,P|100:244|35:364,1,239.999992675781,4|0,0:0|1:0,0:0:0:0:
169,356,157779,1,8,0:0:0:0:
169,356,157879,1,0,0:0:0:0:
169,356,157979,2,0,P|232:346|295:348,1,119.999996337891,0|8,0:0|0:0,0:0:0:0:
408,352,158379,2,0,P|438:295|441:232,1,119.999996337891,0|8,1:0|0:0,0:0:0:0:
324,211,158779,6,0,B|203:216|239:133|91:146,1,239.999992675781,2|2,1:0|0:1,0:0:0:0:
44,38,159379,1,2,1:0:0:0:
44,38,159479,1,8,0:1:0:0:
44,38,159579,1,0,0:0:0:0:
163,39,159779,1,10,0:1:0:0:
282,42,159979,2,0,P|342:47|411:62,1,119.999996337891,2|0,1:1|1:0,0:0:0:0:
486,143,160379,6,0,P|425:184|396:225,1,119.999996337891,4|0,1:0|1:0,0:0:0:0:
395,341,160779,2,0,P|304:348|178:261,1,239.999992675781,8|0,0:0|0:0,0:0:0:0:
242,164,161379,1,8,0:0:0:0:
242,164,161479,1,0,0:0:0:0:
242,164,161579,2,0,P|299:199|330:250,1,119.999996337891,4|4,1:2|1:2,0:0:0:0:
146,192,161979,38,0,P|75:217|72:368,1,239.999992675781,4|8,1:0|0:0,0:0:0:0:
180,322,162579,1,2,0:0:0:0:
299,310,162779,2,0,P|364:322|421:353,1,119.999996337891,0|8,1:0|0:0,0:0:0:0:
503,324,163179,2,0,P|469:258|494:91,1,239.999992675781,4|4,1:2|1:0,0:0:0:0:
383,41,163779,5,0,1:0:0:0:
383,41,163879,1,0,0:0:0:0:
383,41,163979,2,0,P|364:113|365:189,1,119.999996337891,0|0,0:0|1:0,0:0:0:0:
278,245,164379,2,0,P|223:202|156:181,1,119.999996337891,4|2,0:0|0:0,0:0:0:0:
148,67,164779,1,8,0:0:0:0:
148,67,164979,1,4,1:2:0:0:
51,138,165179,38,0,B|41:215|41:215|76:254|76:254|62:375,1,239.999992675781,8|8,0:1|0:0,0:0:0:0:
183,364,165779,1,8,0:1:0:0:
183,364,165979,2,0,L|201:228,1,119.999996337891,0|8,0:0|0:0,0:0:0:0:
311,204,166379,5,8,1:2:0:0:
311,204,166479,1,8,1:2:0:0:
311,204,166579,1,8,1:2:0:0:
311,204,166679,1,8,1:2:0:0:
311,204,166779,2,0,P|324:292|471:283,1,239.999992675781,4|8,1:0|0:0,0:0:0:0:
512,182,167379,6,0,P|444:176|272:70,1,239.999992675781,0|8,1:0|0:0,0:0:0:0:
185,45,167979,2,0,P|123:74|81:146,1,119.999996337891,0|0,1:0|1:0,0:0:0:0:
161,212,168379,2,0,P|142:280|30:360,2,179.999994506836,0|0|0,1:0|1:0|1:0,0:0:0:0:
258,141,169179,2,0,P|330:108|400:106,1,119.999996337891,0|0,1:0|1:0,0:0:0:0:
462,181,169579,1,8,0:0:0:0:
462,181,169779,1,0,1:0:0:0:
470,300,169979,6,0,P|381:345|241:276,1,239.999992675781,4|0,0:0|1:0,0:0:0:0:
169,214,170579,1,8,0:0:0:0:
169,214,170679,1,4,1:2:0:0:
169,214,170779,1,0,0:0:0:0:
53,182,170979,1,12,0:0:0:0:
102,72,171179,2,0,P|195:57|326:125,1,239.999992675781,12|0,0:0|1:0,0:0:0:0:
368,231,171779,38,0,P|430:265|499:273,1,119.999996337891,8|0,0:1|0:0,0:0:0:0:
380,344,172179,2,0,P|307:348|128:278,1,239.999992675781,8|8,0:1|0:0,0:0:0:0:
147,174,172779,5,8,0:0:0:0:
147,174,172879,1,8,0:0:0:0:
147,174,172979,1,8,0:0:0:0:
147,174,173079,1,8,0:0:0:0:
147,174,173179,1,4,1:2:0:0:
227,170,173979,6,0,L|356:158,1,119.999996337891,0|0,1:0|1:0,0:0:0:0:
420,64,174379,2,0,L|300:75,1,119.999996337891,0|0,1:0|1:0,0:0:0:0:
181,86,174779,6,0,P|96:91|45:245,1,239.999992675781,4|0,1:0|1:0,0:0:0:0:
113,309,175379,2,0,P|201:284|260:259,1,119.999996337891,2|0,0:0|1:0,0:0:0:0:
320,198,175779,2,0,P|409:227|433:267,2,119.999996337891,0|8|0,1:0|0:0|1:0,0:0:0:0:
318,318,176379,6,0,P|394:343|495:230,1,239.999992675781,4|0,1:2|1:0,0:0:0:0:
465,123,176979,1,0,1:0:0:0:
353,79,177179,2,0,P|283:92|200:81,1,119.999996337891,0|0,0:0|1:0,0:0:0:0:
114,75,177579,2,0,P|48:110|5:143,1,119.999996337891,0|0,1:0|1:0,0:0:0:0:
37,254,177979,22,0,B|112:243|112:243|171:287|171:287|268:266,1,239.999992675781,4|0,1:0|0:0,0:0:0:0:
351,189,178579,1,0,1:0:0:0:
467,215,178779,2,0,P|441:305|331:258,1,239.999992675781,0|8,1:0|0:0,0:0:0:0:
238,185,179379,1,8,0:0:0:0:
317,94,179579,22,0,L|382:98,4,59.9999981689454,6|0|0|2|8,1:0|0:0|0:0|0:0|0:0,0:0:0:0:
197,88,180179,2,0,L|137:84,4,59.9999981689454,4|0|0|0|8,1:2|0:0|0:0|0:0|0:0,0:0:0:0:
238,185,180779,1,4,1:2:0:0:
119,184,180979,1,2,0:1:0:0:
68,292,181179,5,4,1:2:0:0:
68,292,181279,1,0,0:0:0:0:
68,292,181379,1,0,0:0:0:0:
68,292,181479,1,2,0:2:0:0:
68,292,181579,2,0,L|196:304,1,119.999996337891,8|4,0:0|1:2,0:0:0:0:
307,306,181979,2,0,P|291:267|276:242,2,59.9999981689454,0|0|8,0:0|0:0|0:0,0:0:0:0:
345,191,182379,6,0,P|361:129|397:73,1,119.999996337891,4|2,1:2|1:0,0:0:0:0:
508,58,182779,2,0,P|499:86|491:122,4,59.9999981689454,4|0|0|2|8,1:2|0:0|0:0|0:0|0:0,0:0:0:0:
405,0,183379,1,4,1:2:0:0:
299,56,183579,2,0,P|231:78|42:46,1,239.999992675781,0|4,0:0|1:2,0:0:0:0:
21,170,184179,1,0,0:0:0:0:
139,190,184379,5,4,0:0:0:0:
139,190,184479,1,0,0:0:0:0:
139,190,184579,1,2,0:0:0:0:
139,190,184679,1,0,0:0:0:0:
139,190,184779,2,0,P|124:256|116:322,1,119.999996337891,8|4,0:0|1:2,0:0:0:0:
216,374,185179,6,2,P|241:306|226:210,2,119.999996337891,2|2|2,1:0|1:0|1:0,1:2:0:0:
333,348,185779,5,2,1:0:0:0:
401,249,185979,38,0,P|453:253|472:259,4,59.9999981689454,6|0|0|2|8,1:0|0:0|0:0|0:0|0:0,0:0:0:0:
293,194,186579,2,0,P|256:188|223:177,4,59.9999981689454,4|0|0|0|8,1:2|0:0|0:0|0:0|0:0,0:0:0:0:
202,114,187179,1,4,1:2:0:0:
297,41,187379,1,2,0:1:0:0:
420,102,187579,5,4,1:2:0:0:
420,102,187679,1,0,0:0:0:0:
420,102,187779,1,0,0:0:0:0:
420,102,187879,1,2,0:0:0:0:
420,102,187979,2,0,P|411:187|348:225,1,119.999996337891,8|4,0:0|1:2,0:0:0:0:
270,228,188379,2,0,P|241:222|192:218,2,59.9999981689454,0|0|8,0:0|0:0|0:0,0:0:0:0:
188,315,188779,2,0,P|148:263|133:189,1,119.999996337891,4|2,1:2|0:1,0:0:0:0:
76,105,189179,38,0,P|75:68|76:39,4,59.9999981689454,4|0|2|2|8,1:2|0:0|0:1|1:2|0:0,0:0:0:0:
25,214,189779,1,0,0:0:0:0:
112,296,189979,2,0,P|103:323|95:357,2,59.9999981689454,8|0|2,0:0|0:0|1:0,0:0:0:0:
220,347,190379,2,0,P|281:336|341:335,1,119.999996337891,8|2,0:0|0:1,0:0:0:0:
458,349,190779,5,4,1:2:0:0:
418,235,190979,1,8,0:0:0:0:
418,235,191079,1,0,0:1:0:0:
418,235,191179,1,8,0:0:0:0:
378,121,191384,37,2,0:0:0:0:
378,121,191589,1,0,1:0:0:0:
138,119,192000,5,0,1:2:0:0:
138,119,192206,1,0,1:2:0:0:
