osu file format v14

[General]
AudioFilename: audio.mp3
AudioLeadIn: 0
PreviewTime: 47779
Countdown: 0
SampleSet: Soft
StackLeniency: 0.7
Mode: 0
LetterboxInBreaks: 0
WidescreenStoryboard: 0

[Editor]
DistanceSpacing: 1.2
BeatDivisor: 4
GridSize: 4
TimelineZoom: 1.4

[Metadata]
Title:Kagami no Sekai ni wa Watashi shika Inai -another version-
TitleUnicode:鏡の世界には私しかいない -another version-
Artist:monet
ArtistUnicode:monet
Creator:Mirash
Version:Hard
Source:素晴らしき日々~不連続存在~
Tags:PandaHero SubaHibi Subarashiki Hibi ~Furenzoku Sonzai~ Wonderful Everyday ~Diskontinuierliches Dasein~ Naglfar no Senjou nite すかぢ SCA-ji ピクセルビー Pixelbee visual novel vn
BeatmapID:1473232
BeatmapSetID:685725

[Difficulty]
HPDrainRate:6
CircleSize:4
OverallDifficulty:6
ApproachRate:7
SliderMultiplier:1.3
SliderTickRate:1

[Events]
//Background and Video events
0,0,"nospoilers.jpg",0,0
//Break Periods
2,22979,28279
2,86979,92279
//Storyboard Layer 0 (Background)
//Storyboard Layer 1 (Fail)
//Storyboard Layer 2 (Pass)
//Storyboard Layer 3 (Foreground)
//Storyboard Sound Samples

[TimingPoints]
379,400,4,2,1,50,1,0
5179,-100,4,2,1,60,0,0
19579,-100,4,2,1,65,0,0
22779,-100,4,2,1,50,0,0
27579,-200,4,2,1,50,0,0
29179,-142.857142857143,4,2,1,55,0,0
34379,-111.111111111111,4,2,1,55,0,0
35579,-111.111111111111,4,2,1,60,0,0
45179,-111.111111111111,4,2,1,50,0,0
46379,-111.111111111111,4,2,1,60,0,0
48179,-142.857142857143,4,2,1,70,0,0
48379,-83.3333333333333,4,2,1,70,0,0
59579,-83.3333333333333,4,2,3,70,0,0
61179,-83.3333333333333,4,2,1,70,0,0
65979,-83.3333333333333,4,2,3,70,0,0
67579,-83.3333333333333,4,2,1,60,0,0
69179,-83.3333333333333,4,2,1,70,0,0
85379,-83.3333333333333,4,2,3,70,0,0
93179,-86.9565217391304,4,2,1,60,0,0
98379,-86.9565217391304,4,2,1,50,0,0
98779,-86.9565217391304,4,2,1,55,0,0
99179,-86.9565217391304,4,2,1,60,0,0
99579,-86.9565217391304,4,2,1,65,0,0
109179,-86.9565217391304,4,2,1,60,0,0
109579,-86.9565217391304,4,2,1,50,0,0
109979,-86.9565217391304,4,2,1,60,0,0
110379,-86.9565217391304,4,2,1,45,0,0
110779,-86.9565217391304,4,2,1,70,0,0
112379,-83.3333333333333,4,2,1,70,0,0
123579,-83.3333333333333,4,2,3,70,0,0
125179,-83.3333333333333,4,2,1,70,0,0
129979,-83.3333333333333,4,2,3,70,0,0
131579,-83.3333333333333,4,2,1,60,0,0
133179,-83.3333333333333,4,2,1,70,0,0
137979,-83.3333333333333,4,2,1,50,0,0
138979,-83.3333333333333,4,2,1,60,0,0
139379,-83.3333333333333,4,2,1,65,0,0
141179,-83.3333333333333,4,2,1,70,0,0
152379,-83.3333333333333,4,2,1,70,0,0
153279,-83.3333333333333,4,2,3,70,0,0
153979,-83.3333333333333,4,2,1,70,0,0
165179,-83.3333333333333,4,2,3,70,0,0
166779,-83.3333333333333,4,2,1,70,0,0
171579,-83.3333333333333,4,2,3,70,0,0
173179,-83.3333333333333,4,2,1,60,0,0
174779,-83.3333333333333,4,2,1,70,0,0
177979,-83.3333333333333,4,2,1,70,0,0
178479,-83.3333333333333,4,2,1,70,0,0
191179,410.958904109589,4,2,1,70,1,0

[Colours]
Combo1 : 70,176,191
Combo2 : 238,30,35
Combo3 : 255,255,255
Combo4 : 72,101,153
Combo5 : 186,67,145
Combo6 : 112,103,186

[HitObjects]
99,342,379,38,0,P|178:307|400:373,1,325,0|0,1:0|1:0,0:0:0:0:
397,369,1979,1,0,1:0:0:0:
397,369,2179,1,0,1:0:0:0:
397,369,3579,6,0,L|406:30,1,325,0|0,1:0|1:0,0:0:0:0:
405,44,5179,6,0,P|326:49|290:57,2,97.5,0|0|0,1:0|1:0|1:0,0:0:0:0:
471,85,5979,1,0,1:0:0:0:
471,85,6079,2,0,P|472:133|466:182,1,97.5,0|0,1:0|1:0,0:0:0:0:
346,149,6579,5,0,1:0:0:0:
346,149,6679,1,0,1:0:0:0:
346,149,6779,2,0,P|268:144|206:143,1,130,4|0,1:0|1:0,0:0:0:0:
147,224,7379,2,0,P|218:223|304:227,1,130,2|0,0:0|1:0,0:0:0:0:
165,305,7979,2,0,P|119:306|82:307,1,65,0|0,1:0|1:0,0:0:0:0:
238,354,8379,38,0,B|310:354|285:310|371:308,1,130,4|0,0:0|1:0,0:0:0:0:
492,267,8979,2,0,P|465:238|365:229,1,130,2|0,0:0|1:0,0:0:0:0:
301,234,9579,1,0,1:0:0:0:
336,164,9779,5,0,1:0:0:0:
336,164,9879,1,0,0:0:0:0:
336,164,9979,2,0,P|335:108|348:20,1,130,4|0,0:0|1:0,0:0:0:0:
266,34,10579,2,0,P|202:32|127:38,1,130,2|8,0:0|0:0,0:0:0:0:
65,70,11179,2,0,P|72:117|76:165,1,65,0|0,1:0|0:0,0:0:0:0:
80,240,11579,6,0,P|146:232|286:277,2,195,4|2|0,0:0|0:0|1:0,0:0:0:0:
26,297,12979,1,2,0:0:0:0:
88,344,13179,6,0,P|132:361|218:342,1,130,4|0,1:0|1:0,0:0:0:0:
288,334,13779,2,0,P|351:330|432:353,1,130,2|0,0:0|1:0,0:0:0:0:
476,296,14379,2,0,P|474:262|474:221,1,65,0|0,1:0|1:0,0:0:0:0:
412,183,14779,37,4,0:0:0:0:
412,183,14979,1,0,0:0:0:0:
338,209,15179,1,0,1:0:0:0:
338,209,15279,1,0,0:0:0:0:
338,209,15379,2,0,P|277:209|198:176,1,130,2|8,0:0|0:0,0:0:0:0:
172,118,15979,2,0,P|207:105|246:102,1,65,0|0,1:0|1:0,0:0:0:0:
307,128,16379,6,0,P|347:89|348:7,1,130,4|0,0:0|1:0,0:0:0:0:
274,9,16979,2,0,P|208:13|136:27,1,130,2|0,0:0|1:0,0:0:0:0:
74,57,17579,2,0,P|88:103|91:142,1,65,0|0,1:0|0:0,0:0:0:0:
49,186,17979,5,4,1:2:0:0:
49,186,18179,1,8,1:0:0:0:
113,241,18379,1,0,1:0:0:0:
113,241,18479,1,0,0:0:0:0:
113,241,18579,2,0,P|106:308|90:372,1,130,4|0,1:2|0:0,0:0:0:0:
169,367,19179,2,2,P|226:358|261:357,1,65,0|2,0:0|0:0,1:2:0:0:
311,362,19579,6,0,P|344:302|337:178,1,195,12|8,1:0|1:0,0:0:0:0:
271,137,20379,2,0,P|283:96|306:73,1,65,4|0,0:0|0:0,0:0:0:0:
374,66,20779,2,0,P|407:88|420:110,1,65,8|8,0:0|0:0,0:0:0:0:
425,187,21179,37,4,1:0:0:0:
425,187,21379,1,0,0:0:0:0:
492,236,21579,1,8,0:0:0:0:
492,236,21679,1,0,0:0:0:0:
492,236,21779,1,8,1:0:0:0:
450,302,21979,2,0,P|413:297|377:295,1,65,0|0,1:0|1:0,0:0:0:0:
308,311,22379,2,0,P|256:311|161:297,1,130,8|4,1:0|0:0,0:0:0:0:
13,194,29179,6,0,P|58:189|118:203,1,90.9999972229005,0|0,1:0|0:0,0:0:0:0:
135,240,29779,2,0,P|171:239|240:222,1,90.9999972229005,0|2,1:0|1:2,0:0:0:0:
263,189,30379,1,0,1:0:0:0:
368,162,30779,6,0,P|397:164|430:163,2,45.4999986114502,0|0|0,1:0|1:0|1:0,0:0:0:0:
343,210,31379,2,0,P|327:253|321:312,1,90.9999972229005,2|0,1:2|0:0,0:0:0:0:
356,339,31979,1,0,1:0:0:0:
248,360,32379,6,0,P|205:353|163:348,2,68.2499979171754,0|0|0,1:0|1:0|1:2,0:0:0:0:
201,261,33379,1,0,0:0:0:0:
146,261,33579,2,0,P|144:213|168:157,1,90.9999972229005,0|4,1:0|1:0,0:0:0:0:
283,109,34379,38,0,P|316:122|337:144,1,58.4999982147217,0|2,1:0|0:0,0:0:0:0:
398,161,34779,2,0,P|413:212|406:285,1,116.999996429443,4|0,0:0|1:0,0:0:0:0:
316,304,35379,5,0,1:0:0:0:
316,304,35479,1,0,0:0:0:0:
316,304,35579,2,0,P|245:292|200:298,1,116.999996429443,4|0,1:0|1:0,0:0:0:0:
138,330,36179,2,0,P|110:279|107:216,1,116.999996429443,0|0,1:0|1:0,0:0:0:0:
166,186,36779,2,0,P|183:156|192:117,1,58.4999982147217,0|0,1:0|0:0,0:0:0:0:
151,73,37179,5,4,0:0:0:0:
151,73,37379,1,4,0:0:0:0:
151,73,37579,2,0,P|211:52|280:55,1,116.999996429443,4|0,1:0|1:0,0:0:0:0:
316,99,38179,2,0,P|350:129|363:138,1,58.4999982147217,0|0,1:0|1:0,0:0:0:0:
429,122,38579,1,0,0:0:0:0:
483,166,38779,6,0,P|471:220|468:277,2,87.7499973220826,4|0|0,1:0|0:0|1:0,0:0:0:0:
496,97,39579,2,0,P|479:45|455:12,2,87.7499973220826,0|0|0,1:0|1:0|1:0,0:0:0:0:
397,209,40379,37,4,1:2:0:0:
397,209,40579,1,0,0:0:0:0:
344,256,40779,2,0,P|311:248|173:269,1,175.499994644165,0|0,1:0|1:0,1:0:0:0:
147,333,41579,1,0,1:0:0:0:
61,260,41779,5,0,1:0:0:0:
61,260,41879,1,0,0:0:0:0:
61,260,41979,2,0,P|55:186|59:125,1,116.999996429443,4|0,1:0|1:0,0:0:0:0:
235,31,42979,2,0,P|228:74|226:103,1,58.4999982147217,0|0,1:0|1:0,0:0:0:0:
173,219,43579,5,0,1:0:0:0:
173,219,43779,1,0,1:0:0:0:
173,219,43979,2,0,P|254:212|375:222,1,175.499994644165,0|2,1:0|0:0,0:0:0:0:
396,268,44779,2,0,P|431:218|434:200,1,58.4999982147217,0|0,1:0|1:0,0:0:0:0:
474,166,45179,1,0,3:0:0:0:
256,192,45279,12,0,46379,3:0:0:0:
205,151,46779,6,0,P|157:149|102:123,2,87.7499973220826,4|4|4,1:2|1:2|1:2,0:0:0:0:
205,151,48379,38,0,P|270:137|363:185,1,155.999995239258,4|8,1:0|0:0,0:0:0:0:
367,263,48979,2,0,P|331:277|244:215,1,155.999995239258,0|8,1:0|0:0,0:0:0:0:
150,211,49579,2,0,L|61:225,1,77.999997619629,0|0,1:0|1:0,0:0:0:0:
59,130,49979,6,0,L|186:112,2,116.999996429443,0|0|0,1:0|1:0|1:0,0:0:0:0:
1,204,50779,2,0,P|-1:247|11:286,1,77.999997619629,0|0,1:0|1:0,0:0:0:0:
85,332,51179,2,0,P|129:325|179:329,1,77.999997619629,8|0,0:0|1:0,0:0:0:0:
250,294,51579,6,0,P|322:295|422:338,1,155.999995239258,4|0,0:0|1:0,0:0:0:0:
492,310,52179,1,8,0:0:0:0:
487,216,52379,2,0,P|437:202|398:197,1,77.999997619629,0|8,0:0|0:0,0:0:0:0:
317,209,52779,2,0,P|258:175|232:83,1,155.999995239258,0|2,1:0|1:0,0:0:0:0:
317,60,53379,6,0,P|355:74|393:93,2,77.999997619629,2|0|2,1:0|0:0|1:0,0:0:0:0:
231,19,53979,1,2,1:0:0:0:
145,56,54179,1,2,1:0:0:0:
145,56,54279,1,0,0:0:0:0:
145,56,54379,2,0,P|124:98|111:149,1,77.999997619629,2|0,1:0|0:0,1:0:0:0:
176,198,54779,38,0,P|166:258|72:330,1,155.999995239258,4|8,1:0|0:0,0:0:0:0:
12,287,55379,1,2,0:0:0:0:
35,196,55579,2,0,P|40:143|4:43,1,155.999995239258,0|4,1:0|1:2,0:0:0:0:
99,32,56179,5,4,1:2:0:0:
99,32,56279,1,0,0:0:0:0:
99,32,56379,2,0,L|193:45,1,77.999997619629,4|0,1:0|1:0,0:0:0:0:
248,101,56779,2,0,L|334:98,1,77.999997619629,8|2,0:0|0:0,0:0:0:0:
412,60,57179,2,0,P|440:120|425:233,1,155.999995239258,0|4,1:0|1:2,0:0:0:0:
375,280,57779,1,4,0:0:0:0:
287,247,57979,6,0,P|232:281|222:380,1,155.999995239258,4|0,1:0|0:0,0:0:0:0:
310,369,58579,2,0,P|347:370|405:351,1,77.999997619629,0|4,1:0|0:0,0:0:0:0:
480,356,58979,2,0,P|494:310|492:267,2,77.999997619629,2|8|4,0:0|0:0|1:2,0:0:0:0:
415,287,59579,22,0,P|405:213|444:120,1,155.999995239258,8|8,0:1|0:0,0:0:0:0:
488,63,60179,6,0,B|392:62|432:21|327:21,1,155.999995239258,8|8,0:1|0:0,0:0:0:0:
279,92,60779,2,0,P|224:106|180:101,1,77.999997619629,8|8,1:2|1:2,0:0:0:0:
120,60,61179,6,0,P|94:95|86:227,1,155.999995239258,4|8,1:0|0:0,0:0:0:0:
148,266,61779,2,0,L|316:269,1,155.999995239258,0|8,1:0|0:0,0:0:0:0:
383,317,62379,2,0,P|450:303|473:294,1,77.999997619629,0|0,1:0|1:0,0:0:0:0:
484,209,62779,6,0,P|436:197|366:230,2,116.999996429443,0|0|0,1:0|1:0|1:0,0:0:0:0:
486,114,63579,2,0,P|489:70|484:24,1,77.999997619629,0|0,1:0|1:0,0:0:0:0:
397,4,63979,1,8,0:0:0:0:
326,65,64179,5,0,1:0:0:0:
326,65,64279,1,0,0:0:0:0:
326,65,64379,2,0,P|261:65|150:33,1,155.999995239258,4|0,0:0|1:0,0:0:0:0:
80,32,64979,1,8,0:0:0:0:
57,124,65179,2,0,P|56:169|35:221,1,77.999997619629,0|12,0:0|0:0,0:0:0:0:
51,294,65579,2,0,P|63:336|87:368,1,77.999997619629,12|0,0:0|1:0,0:0:0:0:
174,344,65979,22,0,B|318:326|231:263|389:250,2,233.999992858887,8|8|8,1:0|0:1|0:0,0:0:0:0:
224,163,67579,22,0,P|212:121|29:192,1,311.999990478516,4|0,1:2|1:0,0:0:0:0:
26,175,69179,6,0,L|136:189,1,77.999997619629,4|0,1:0|0:0,0:0:0:0:
196,174,69579,2,0,L|368:192,1,155.999995239258,0|0,1:0|1:0,0:0:0:0:
424,248,70179,1,0,1:0:0:0:
459,334,70379,2,0,L|363:322,1,77.999997619629,8|0,0:0|1:0,0:0:0:0:
324,265,70779,6,2,P|258:279|152:336,2,155.999995239258,4|0|0,1:2|1:0|0:0,1:2:0:0:
424,248,71779,1,0,1:0:0:0:
468,165,71979,2,2,P|453:116|455:69,1,77.999997619629,0|0,1:0|1:0,1:2:0:0:
373,38,72379,6,2,P|332:70|222:137,1,155.999995239258,4|0,1:0|0:0,1:2:0:0:
162,79,72979,2,2,P|95:116|74:203,1,155.999995239258,0|8,1:0|0:0,1:2:0:0:
140,251,73579,1,8,0:0:0:0:
140,251,73779,1,8,0:0:0:0:
227,217,73979,38,0,P|292:202|343:121,1,155.999995239258,6|8,1:0|0:0,0:1:0:0:
430,100,74579,2,0,L|437:273,1,155.999995239258,4|8,1:2|0:0,0:0:0:0:
372,324,75179,1,4,1:2:0:0:
284,291,75379,5,2,0:1:0:0:
284,291,75479,1,8,0:0:0:0:
284,291,75579,2,0,P|214:300|142:359,1,155.999995239258,4|8,1:2|0:0,0:1:0:0:
56,370,76179,2,0,L|54:208,1,155.999995239258,4|8,1:2|0:0,0:0:0:0:
13,129,76779,2,0,P|74:121|118:127,1,77.999997619629,4|2,1:2|1:0,0:0:0:0:
167,175,77179,6,0,B|250:179|226:138|331:141,1,155.999995239258,4|8,1:2|0:0,0:1:0:0:
404,109,77779,2,0,P|443:177|394:250,1,155.999995239258,4|8,1:2|0:0,0:0:0:0:
317,232,78379,1,4,1:2:0:0:
232,271,78579,5,0,0:0:0:0:
232,271,78679,1,8,0:0:0:0:
232,271,78779,2,0,P|234:327|339:343,1,155.999995239258,4|8,0:0|0:0,0:0:0:0:
419,358,79379,2,0,P|423:302|390:197,1,155.999995239258,4|2,1:2|1:0,0:0:0:0:
327,142,79979,2,0,P|335:88|354:55,1,77.999997619629,2|2,1:0|1:0,0:0:0:0:
263,22,80379,38,0,P|208:18|120:93,1,155.999995239258,6|8,1:0|0:0,0:0:0:0:
60,137,80979,2,0,P|80:192|173:248,1,155.999995239258,4|8,1:2|0:0,0:0:0:0:
251,243,81579,2,0,P|266:199|266:152,1,77.999997619629,4|2,1:2|0:1,0:0:0:0:
207,95,81979,6,0,P|270:88|355:136,1,155.999995239258,4|8,1:2|0:0,0:1:0:0:
434,171,82579,2,0,P|430:214|357:315,1,155.999995239258,4|8,1:2|0:0,0:0:0:0:
277,288,83179,1,4,1:2:0:0:
277,288,83279,1,0,0:0:0:0:
277,288,83379,1,2,0:0:0:0:
207,350,83579,6,0,P|162:337|122:216,1,155.999995239258,4|4,0:3|0:3,0:0:0:0:
196,198,84179,2,0,P|194:141|180:102,1,77.999997619629,8|4,0:3|0:3,0:0:0:0:
114,63,84579,2,0,P|106:103|109:152,2,77.999997619629,4|8|4,0:3|0:3|0:3,0:0:0:0:
202,31,85179,5,4,1:2:0:0:
290,62,85379,1,8,0:0:0:0:
290,62,85479,1,8,0:1:0:0:
290,62,85579,2,0,P|346:58|389:56,1,77.999997619629,8|2,0:0|0:0,0:0:0:0:
455,89,85979,2,0,P|475:95|503:99,4,38.9999988098145,8|8|8|0|8,0:0|0:1|0:0|0:0|0:0,0:0:0:0:
392,160,86579,1,8,0:0:0:0:
392,160,86679,1,8,0:0:0:0:
392,160,86779,1,2,0:0:0:0:
494,199,93179,38,0,P|445:187|336:232,1,149.500002851486,0|0,1:0|1:0,0:0:0:0:
294,285,93779,2,0,P|242:293|209:200,1,149.500002851486,0|0,1:0|1:0,0:0:0:0:
280,175,94379,2,0,P|305:137|308:102,1,74.7500014257431,4|0,1:2|0:0,0:0:0:0:
230,64,94779,6,0,P|180:76|98:88,2,112.125002138615,0|0|0,1:0|1:0|1:0,0:0:0:0:
313,30,95579,1,0,0:0:0:0:
384,84,95779,1,0,1:0:0:0:
384,84,95879,1,0,0:0:0:0:
384,84,95979,2,0,P|396:124|392:181,1,74.7500014257431,0|4,1:0|0:0,0:0:0:0:
346,231,96379,6,0,P|326:283|328:363,2,112.125002138615,4|0|0,1:0|1:0|1:0,0:0:0:0:
435,231,97179,2,0,P|472:248|503:288,1,74.7500014257431,0|0,1:0|0:0,0:0:0:0:
476,360,97579,2,0,P|430:367|393:356,1,74.7500014257431,0|0,1:0|1:0,0:0:0:0:
316,337,97979,6,0,P|232:347|151:362,1,149.500002851486,0|8,1:0|0:0,0:0:0:0:
86,322,98579,1,8,0:0:0:0:
86,322,98679,1,0,0:0:0:0:
86,322,98779,2,0,P|88:268|84:226,1,74.7500014257431,8|8,0:0|0:0,0:0:0:0:
142,176,99179,2,0,P|139:127|146:88,1,74.7500014257431,8|8,0:0|0:0,0:0:0:0:
58,28,99579,38,0,P|61:87|53:184,1,149.500002851486,4|8,1:0|0:0,0:0:0:0:
99,255,100179,2,0,P|163:256|238:196,1,149.500002851486,0|8,1:0|0:0,0:0:0:0:
224,118,100779,1,0,1:0:0:0:
224,118,100979,1,0,1:0:0:0:
305,154,101179,6,0,B|360:158|375:137|421:143,2,112.125002138615,4|0|8,0:0|1:0|0:0,0:0:0:0:
224,118,101979,1,0,1:0:0:0:
148,166,102179,1,0,1:0:0:0:
148,166,102279,1,0,0:0:0:0:
148,166,102379,2,2,P|138:108|147:60,1,74.7500014257431,6|0,0:0|0:0,1:2:0:0:
206,33,102779,6,0,P|271:42|341:66,2,112.125002138615,4|0|8,1:0|1:0|0:0,0:0:0:0:
118,15,103579,2,0,P|53:36|5:39,2,112.125002138615,4|0|8,1:0|1:0|0:0,0:0:0:0:
147,100,104379,6,0,P|124:140|106:185,1,74.7500014257431,4|0,1:0|0:0,0:0:0:0:
155,245,104779,2,0,P|174:289|196:314,1,74.7500014257431,8|0,0:0|1:0,0:0:0:0:
280,322,105179,2,0,P|333:321|399:231,1,149.500002851486,0|0,0:0|1:0,0:0:0:0:
369,168,105779,37,0,1:0:0:0:
369,168,105879,1,0,0:0:0:0:
369,168,105979,2,0,P|376:96|463:42,2,149.500002851486,4|8|0,1:0|0:0|1:0,0:0:0:0:
287,206,106979,1,8,0:0:0:0:
287,206,107079,1,0,0:0:0:0:
287,206,107179,2,0,P|234:196|185:197,1,74.7500014257431,2|8,0:0|0:0,0:0:0:0:
127,168,107579,6,0,P|97:215|104:317,1,149.500002851486,4|0,1:0|1:0,0:0:0:0:
188,300,108179,1,0,1:0:0:0:
254,360,108379,2,0,P|313:347|341:336,1,74.7500014257431,0|8,1:0|0:0,0:0:0:0:
371,264,108779,2,0,P|411:263|460:276,1,74.7500014257431,0|0,1:0|1:0,0:0:0:0:
496,196,109179,6,0,P|425:113|272:192,1,299.000005702973,4|4,1:0|1:0,0:0:0:0:
274,183,110779,6,0,L|399:189,2,112.125002138615,4|4|4,1:0|0:3|0:3,0:0:0:0:
240,206,112379,38,0,P|162:204|105:142,1,155.999995239258,4|8,1:0|0:0,0:0:0:0:
177,87,112979,2,0,L|263:92,1,77.999997619629,0|0,1:0|0:0,0:0:0:0:
329,148,113379,2,0,P|328:189|319:255,2,77.999997619629,8|0|0,0:0|1:0|1:0,0:0:0:0:
328,53,113979,6,0,P|272:14|217:4,2,116.999996429443,0|0|0,1:0|1:0|1:0,0:0:0:0:
408,100,114779,2,0,P|442:91|491:84,1,77.999997619629,0|0,1:0|1:0,0:0:0:0:
469,177,115179,2,0,P|416:191|376:197,1,77.999997619629,8|0,0:0|1:0,0:0:0:0:
346,276,115579,6,0,P|369:348|451:378,1,155.999995239258,4|0,0:0|1:0,0:0:0:0:
490,301,116179,1,8,0:0:0:0:
490,301,116279,1,0,0:0:0:0:
490,301,116379,2,0,L|466:213,1,77.999997619629,0|8,0:0|0:0,0:0:0:0:
393,170,116779,2,0,L|318:139,1,77.999997619629,0|8,1:0|0:0,0:0:0:0:
227,150,117179,6,2,P|184:174|154:285,1,155.999995239258,2|2,1:0|0:1,0:1:0:0:
209,343,117779,2,0,L|299:307,2,77.999997619629,2|2|2,1:0|1:0|1:0,0:0:0:0:
115,352,118379,1,2,1:1:0:0:
43,291,118579,37,0,0:0:0:0:
43,291,118679,1,0,1:0:0:0:
43,291,118779,2,0,P|31:235|41:180,1,77.999997619629,4|0,1:0|1:0,0:0:0:0:
89,140,119179,2,0,P|92:96|80:53,1,77.999997619629,8|2,0:0|0:0,0:0:0:0:
168,21,119579,2,0,L|333:49,1,155.999995239258,0|4,1:0|1:2,0:0:0:0:
395,104,120179,5,4,1:2:0:0:
395,104,120279,1,0,0:0:0:0:
395,104,120379,2,0,P|375:150|362:202,1,77.999997619629,4|0,1:0|1:0,0:0:0:0:
393,266,120779,2,0,P|377:304|335:344,1,77.999997619629,8|2,0:0|0:0,0:0:0:0:
261,353,121179,2,0,P|252:292|322:234,1,155.999995239258,0|4,1:0|1:2,0:0:0:0:
270,153,121779,5,4,0:0:0:0:
186,195,121979,2,0,P|140:195|96:182,1,77.999997619629,4|0,1:0|1:0,0:0:0:0:
41,122,122379,2,0,P|78:79|103:57,1,77.999997619629,0|0,0:0|1:0,0:0:0:0:
182,34,122779,2,0,P|211:89|221:134,1,77.999997619629,4|2,0:0|0:0,0:0:0:0:
186,195,123179,1,8,0:0:0:0:
186,195,123379,1,4,1:2:0:0:
137,275,123579,22,0,P|216:331|305:321,1,155.999995239258,8|8,0:1|0:0,0:0:0:0:
321,251,124179,6,0,P|372:238|486:253,1,155.999995239258,8|8,0:1|0:0,0:0:0:0:
488,340,124779,2,0,P|425:341|396:337,1,77.999997619629,8|8,1:2|1:2,0:0:0:0:
316,332,125179,6,0,P|239:333|149:366,1,155.999995239258,4|8,1:0|0:0,0:0:0:0:
70,363,125779,2,0,P|76:305|66:208,1,155.999995239258,0|8,1:0|0:0,0:0:0:0:
90,117,126379,2,0,P|141:108|181:114,1,77.999997619629,0|0,1:0|1:0,0:0:0:0:
253,146,126779,6,0,P|296:161|369:174,2,116.999996429443,0|0|0,1:0|1:0|1:0,0:0:0:0:
179,203,127579,2,0,P|171:253|151:285,1,77.999997619629,0|0,1:0|1:0,0:0:0:0:
238,324,127979,2,0,P|281:291|318:279,1,77.999997619629,8|0,0:0|1:0,0:0:0:0:
390,248,128379,6,0,P|448:267|504:349,2,155.999995239258,4|0|0,0:0|1:0|0:0,0:0:0:0:
303,211,129379,2,0,P|308:152|330:103,1,77.999997619629,12|12,0:0|0:0,0:0:0:0:
399,96,129779,21,0,1:0:0:0:
399,96,129879,1,0,0:0:0:0:
399,96,129979,2,0,P|362:57|241:49,1,155.999995239258,8|0,1:0|0:0,0:0:0:0:
199,108,130579,2,0,P|149:121|44:101,1,155.999995239258,8|8,0:1|0:0,0:0:0:0:
0,20,131179,2,0,P|17:17|39:16,4,38.9999988098145,8|8|8|8|4,0:0|0:0|0:0|0:0|1:2,0:0:0:0:
0,190,132379,21,0,1:0:0:0:
0,190,133179,6,0,P|84:179|165:197,1,155.999995239258,4|0,1:0|1:0,0:0:0:0:
213,263,133779,2,0,P|285:275|315:272,1,77.999997619629,0|0,0:0|1:0,0:0:0:0:
365,219,134179,1,0,1:0:0:0:
451,254,134379,1,0,1:0:0:0:
451,254,134479,1,0,0:0:0:0:
451,254,134579,1,0,0:0:0:0:
487,167,134779,6,0,P|450:117|333:117,1,155.999995239258,4|0,1:2|1:0,0:0:0:0:
286,159,135379,1,0,0:0:0:0:
286,159,135579,1,0,1:0:0:0:
202,117,135779,2,0,P|159:126|111:152,1,77.999997619629,0|0,0:0|1:0,0:0:0:0:
112,232,136179,1,0,1:0:0:0:
181,303,136379,5,0,1:0:0:0:
181,303,136479,1,0,0:0:0:0:
181,303,136579,1,2,0:0:0:0:
274,312,136779,2,0,P|321:294|366:290,1,77.999997619629,0|2,1:0|1:2,0:0:0:0:
441,299,137179,2,0,P|441:239|415:120,1,155.999995239258,0|2,0:0|1:2,0:0:0:0:
336,110,137779,37,2,1:2:0:0:
336,110,137979,1,0,0:0:0:0:
336,110,138979,5,0,1:0:0:0:
336,110,139179,1,0,1:0:0:0:
336,110,139379,2,0,P|271:112|174:64,1,155.999995239258,4|8,1:0|0:0,0:0:0:0:
101,40,139979,2,0,P|56:70|37:98,1,77.999997619629,8|0,0:0|0:0,0:0:0:0:
83,173,140379,2,2,P|78:225|38:347,1,155.999995239258,0|8,1:0|0:0,1:2:0:0:
136,357,140979,5,8,0:0:0:0:
136,357,141079,1,0,0:0:0:0:
136,357,141179,2,0,B|217:355|196:306|282:305,1,155.999995239258,2|8,1:0|0:0,0:0:0:0:
372,312,141779,2,0,P|400:258|371:159,1,155.999995239258,2|2,1:0|1:0,0:0:0:0:
301,115,142379,2,0,P|262:137|219:185,1,77.999997619629,10|0,0:1|0:0,0:0:0:0:
187,238,142779,6,0,P|155:180|169:79,1,155.999995239258,4|8,1:2|0:0,0:0:0:0:
247,54,143379,2,2,L|408:69,1,155.999995239258,2|2,1:0|1:0,1:2:0:0:
482,116,143979,2,0,P|461:167|422:187,1,77.999997619629,8|8,0:0|0:0,0:0:0:0:
350,191,144379,38,0,P|324:262|391:342,1,155.999995239258,6|8,1:0|0:0,0:0:0:0:
276,367,144979,2,0,L|111:357,1,155.999995239258,2|2,1:0|1:0,0:0:0:0:
41,307,145579,1,10,0:1:0:0:
67,217,145779,5,0,0:0:0:0:
67,217,145879,1,0,0:0:0:0:
67,217,145979,2,0,P|84:159|63:94,2,116.999996429443,4|2|10,1:2|1:0|0:1,0:0:0:0:
148,263,146779,2,0,L|252:273,1,77.999997619629,0|10,0:0|0:1,0:0:0:0:
307,225,147179,2,0,L|412:233,1,77.999997619629,8|0,0:0|1:0,0:0:0:0:
467,186,147579,6,0,P|471:104|394:33,1,155.999995239258,6|8,1:0|0:0,0:0:0:0:
340,82,148179,2,0,L|166:91,1,155.999995239258,2|2,1:0|1:0,0:0:0:0:
97,55,148779,1,10,0:1:0:0:
97,55,148879,1,0,0:0:0:0:
97,55,148979,1,0,0:0:0:0:
56,139,149179,6,0,P|105:190|192:165,1,155.999995239258,4|8,1:2|0:0,0:1:0:0:
274,159,149779,2,0,L|247:325,1,155.999995239258,2|2,1:0|1:0,0:0:0:0:
314,379,150379,2,0,P|369:368|401:354,1,77.999997619629,10|10,0:1|0:1,0:0:0:0:
480,378,150779,38,0,P|488:317|413:253,1,155.999995239258,4|8,1:0|0:0,0:0:0:0:
340,212,151379,1,0,1:0:0:0:
310,300,151579,2,0,P|248:313|141:278,1,155.999995239258,0|8,1:0|0:0,0:0:0:0:
136,199,152179,1,0,1:0:0:0:
187,120,152379,54,0,L|343:142,1,155.999995239258,4|0,0:3|0:0,0:0:0:0:
422,95,152979,6,0,P|443:168|408:269,1,155.999995239258,8|8,0:3|1:1,0:0:0:0:
362,314,153579,2,0,P|329:291|279:283,1,77.999997619629,8|8,1:2|1:1,0:0:0:0:
209,325,153979,6,0,P|150:338|83:270,1,155.999995239258,4|8,1:0|0:0,0:0:0:0:
7,223,154579,2,0,P|28:150|110:129,1,155.999995239258,0|8,1:0|0:0,0:0:0:0:
151,203,155179,2,0,L|257:219,1,77.999997619629,0|0,1:0|1:0,0:0:0:0:
315,182,155579,6,0,P|355:159|397:88,2,116.999996429443,0|0|0,1:0|1:0|1:0,0:0:0:0:
301,275,156379,2,0,P|300:328|313:366,1,77.999997619629,0|0,1:0|1:0,0:0:0:0:
399,365,156779,1,8,0:0:0:0:
399,365,156979,1,0,1:0:0:0:
470,304,157179,6,0,P|492:262|480:139,1,155.999995239258,4|0,0:0|1:0,0:0:0:0:
406,110,157779,1,8,0:0:0:0:
312,115,157979,2,0,P|256:122|200:115,1,77.999997619629,0|8,0:0|0:0,0:0:0:0:
150,80,158379,2,0,P|90:88|52:103,1,77.999997619629,0|8,1:0|0:0,0:0:0:0:
62,186,158779,6,0,B|72:261|17:255|57:363,1,155.999995239258,2|0,1:0|0:0,0:0:0:0:
133,379,159379,2,2,B|199:335|199:335|298:349,1,155.999995239258,2|2,1:0|1:0,1:2:0:0:
365,368,159979,1,2,1:1:0:0:
401,281,160179,37,0,1:0:0:0:
401,281,160279,1,0,1:0:0:0:
401,281,160379,2,0,P|389:227|400:175,1,77.999997619629,4|0,1:0|1:0,0:0:0:0:
460,142,160779,2,0,P|452:93|441:58,1,77.999997619629,8|2,0:0|0:0,0:0:0:0:
356,31,161179,2,0,P|321:62|323:176,1,155.999995239258,0|4,0:0|1:2,0:0:0:0:
276,250,161779,5,4,1:2:0:0:
276,250,161879,1,0,0:0:0:0:
276,250,161979,2,0,P|219:250|176:242,1,77.999997619629,4|0,1:0|1:0,0:0:0:0:
105,261,162379,2,0,P|57:240|29:212,1,77.999997619629,8|2,0:0|0:0,0:0:0:0:
9,133,162779,2,0,P|43:91|161:113,1,155.999995239258,0|4,1:0|1:2,0:0:0:0:
186,172,163379,5,0,0:0:0:0:
265,123,163579,2,0,P|314:104|344:105,1,77.999997619629,4|0,1:0|1:0,0:0:0:0:
406,169,163979,2,0,P|395:220|378:245,1,77.999997619629,0|0,0:0|1:0,0:0:0:0:
297,282,164379,2,0,P|259:244|248:217,2,77.999997619629,4|2|8,0:0|0:0|0:0,0:0:0:0:
374,334,164979,1,4,1:2:0:0:
289,374,165179,22,0,P|243:358|105:358,1,155.999995239258,8|8,0:1|0:0,0:0:0:0:
43,341,165779,6,0,P|38:270|92:193,1,155.999995239258,8|8,0:1|0:0,0:0:0:0:
174,216,166379,2,0,P|196:168|200:129,1,77.999997619629,8|8,1:2|1:2,0:0:0:0:
159,58,166779,6,0,P|242:63|332:98,1,155.999995239258,4|8,1:0|0:0,0:0:0:0:
390,136,167379,2,0,P|332:178|281:263,1,155.999995239258,0|8,1:0|0:0,0:0:0:0:
273,341,167979,2,0,P|327:345|381:337,1,77.999997619629,0|0,1:0|1:0,0:0:0:0:
437,308,168379,6,0,P|467:261|469:180,2,116.999996429443,0|0|0,1:0|1:0|1:0,0:0:0:0:
352,268,169179,2,0,P|294:261|251:268,1,77.999997619629,0|0,1:0|1:0,0:0:0:0:
195,311,169579,2,0,P|148:312|99:309,1,77.999997619629,8|0,0:0|1:0,0:0:0:0:
33,268,169979,6,0,P|56:196|261:196,1,311.999990478516,4|0,0:0|0:0,0:0:0:0:
234,283,170979,1,12,0:0:0:0:
234,283,171079,1,0,0:0:0:0:
234,283,171179,2,0,P|275:290|321:280,1,77.999997619629,12|0,0:0|1:0,0:0:0:0:
408,294,171579,22,0,B|415:214|415:214|451:181|451:181|453:73,2,233.999992858887,8|8|8,1:0|0:1|0:0,0:0:0:0:
255,371,173179,5,4,1:2:0:0:
254,192,173979,5,0,1:0:0:0:
254,192,174179,1,0,1:0:0:0:
254,98,174379,1,0,1:0:0:0:
254,98,174579,1,0,1:0:0:0:
250,4,174779,6,0,P|194:11|109:81,1,155.999995239258,4|0,1:0|1:0,0:0:0:0:
149,156,175379,2,0,P|106:197|68:217,1,77.999997619629,2|0,0:0|1:0,0:0:0:0:
10,255,175779,1,0,1:0:0:0:
78,318,175979,2,0,P|142:321|175:333,1,77.999997619629,8|0,0:0|1:0,0:0:0:0:
235,275,176379,6,0,P|297:270|406:288,1,155.999995239258,4|0,1:2|1:0,0:0:0:0:
451,352,176979,1,0,1:0:0:0:
484,264,177179,1,0,1:0:0:0:
484,264,177279,1,0,0:0:0:0:
484,264,177379,1,0,1:0:0:0:
439,181,177579,2,0,P|386:154|353:155,1,77.999997619629,0|0,1:0|1:0,0:0:0:0:
275,165,177979,22,0,L|227:172,2,38.9999988098145,4|0|8,1:0|0:0|0:0,0:0:0:0:
313,79,178379,1,0,0:0:0:0:
228,38,178579,2,0,L|221:-10,2,38.9999988098145,0|0|0,1:0|0:0|1:0,0:0:0:0:
182,113,178979,1,8,0:0:0:0:
94,80,179179,2,0,P|85:140|87:175,1,77.999997619629,8|8,0:0|0:0,0:0:0:0:
149,224,179579,22,0,P|216:257|330:267,1,155.999995239258,6|8,1:0|0:0,0:0:0:0:
365,206,180179,1,4,1:2:0:0:
454,234,180379,2,0,P|467:291|373:339,1,155.999995239258,0|4,0:0|1:2,0:0:0:0:
303,348,180979,1,2,0:1:0:0:
212,309,181179,6,0,P|168:312|117:328,1,77.999997619629,4|0,1:2|0:0,0:0:0:0:
42,307,181579,1,8,0:0:0:0:
42,307,181779,1,4,1:2:0:0:
93,228,181979,2,0,P|96:181|76:70,1,155.999995239258,0|4,0:0|1:2,0:0:0:0:
160,30,182579,1,2,1:0:0:0:
245,67,182779,6,0,L|338:54,1,77.999997619629,4|0,1:2|0:0,0:0:0:0:
410,25,183179,2,0,P|456:36|490:52,1,77.999997619629,8|4,0:0|1:2,0:0:0:0:
489,142,183579,2,0,P|441:150|332:129,1,155.999995239258,0|4,0:0|1:2,0:0:0:0:
245,151,184179,1,0,0:0:0:0:
203,235,184379,6,0,P|209:282|244:320,1,77.999997619629,4|2,0:0|0:0,0:0:0:0:
317,324,184779,1,8,0:0:0:0:
382,256,184979,2,2,P|432:255|470:263,2,77.999997619629,4|2|2,1:2|1:0|1:0,1:2:0:0:
306,199,185579,2,2,P|337:167|360:132,1,77.999997619629,2|2,1:0|1:0,1:2:0:0:
449,134,185979,38,0,P|460:73|365:30,1,155.999995239258,6|8,1:0|0:0,0:0:0:0:
310,72,186579,1,4,1:2:0:0:
221,41,186779,2,0,P|173:56|129:101,1,77.999997619629,0|8,0:0|0:0,0:0:0:0:
59,91,187179,1,4,1:2:0:0:
59,91,187379,1,2,0:1:0:0:
125,156,187579,6,0,P|114:204|61:310,1,155.999995239258,4|8,1:2|0:0,0:0:0:0:
125,374,188179,1,4,1:2:0:0:
200,319,188379,2,0,L|371:341,1,155.999995239258,0|4,0:0|1:2,0:0:0:0:
444,309,188979,1,2,0:1:0:0:
400,226,189179,5,4,1:2:0:0:
400,226,189279,1,0,0:0:0:0:
400,226,189379,2,0,P|345:210|317:216,1,77.999997619629,2|8,0:1|0:0,0:0:0:0:
237,244,189779,1,0,0:0:0:0:
237,244,189979,2,0,P|211:189|234:97,1,155.999995239258,8|8,0:0|0:0,0:0:0:0:
322,76,190579,1,2,0:1:0:0:
406,115,190779,2,0,L|451:126,4,38.9999988098145,4|0|8|0|8,1:2|0:0|0:0|0:1|0:0,0:0:0:0:
394,21,191384,21,2,0:0:0:0:
394,21,191589,1,0,1:0:0:0:
206,21,192000,5,0,1:2:0:0:
206,21,192206,1,0,1:2:0:0:
