osu file format v14

[General]
AudioFilename: audio.mp3
AudioLeadIn: 0
PreviewTime: 47779
Countdown: 0
SampleSet: Soft
StackLeniency: 0.7
Mode: 0
LetterboxInBreaks: 0
WidescreenStoryboard: 0

[Editor]
DistanceSpacing: 1
BeatDivisor: 4
GridSize: 4
TimelineZoom: 1.4

[Metadata]
Title:Kagami no Sekai ni wa Watashi shika Inai -another version-
TitleUnicode:鏡の世界には私しかいない -another version-
Artist:monet
ArtistUnicode:monet
Creator:Mirash
Version:End sky
Source:素晴らしき日々~不連続存在~
Tags:PandaHero SubaHibi Subarashiki Hibi ~Furenzoku Sonzai~ Wonderful Everyday ~Diskontinuierliches Dasein~ Naglfar no Senjou nite すかぢ SCA-ji ピクセルビー Pixelbee visual novel vn
BeatmapID:1451540
BeatmapSetID:685725

[Difficulty]
HPDrainRate:7
CircleSize:4
OverallDifficulty:9
ApproachRate:9.5
SliderMultiplier:3.2
SliderTickRate:1

[Events]
//Background and Video events
0,0,"nospoilers.jpg",0,0
//Break Periods
2,86979,92379
//Storyboard Layer 0 (Background)
//Storyboard Layer 1 (Fail)
//Storyboard Layer 2 (Pass)
//Storyboard Layer 3 (Foreground)
//Storyboard Sound Samples

[TimingPoints]
379,400,4,2,1,50,1,0
5179,-100,4,2,1,60,0,0
19579,-100,4,2,1,65,0,0
22779,-100,4,2,1,50,0,0
29179,-142.857142857143,4,2,1,55,0,0
34379,-111.111111111111,4,2,1,55,0,0
35579,-111.111111111111,4,2,1,60,0,0
45179,-111.111111111111,4,2,1,50,0,0
46379,-111.111111111111,4,2,1,60,0,0
48179,-142.857142857143,4,2,1,70,0,0
48379,-83.3333333333333,4,2,1,70,0,0
59579,-71.4285714285714,4,2,3,70,0,0
61179,-83.3333333333333,4,2,1,70,0,0
65979,-71.4285714285714,4,2,3,70,0,0
67579,-71.4285714285714,4,2,1,60,0,0
69179,-83.3333333333333,4,2,1,70,0,0
85379,-83.3333333333333,4,2,3,70,0,0
93179,-86.9565217391304,4,2,1,60,0,0
98379,-86.9565217391304,4,2,1,50,0,0
98779,-86.9565217391304,4,2,1,55,0,0
99179,-86.9565217391304,4,2,1,60,0,0
99579,-86.9565217391304,4,2,1,65,0,0
109179,-86.9565217391304,4,2,1,60,0,0
109579,-86.9565217391304,4,2,1,50,0,0
109979,-86.9565217391304,4,2,1,60,0,0
110379,-86.9565217391304,4,2,1,45,0,0
110779,-86.9565217391304,4,2,1,70,0,0
112379,-83.3333333333333,4,2,1,70,0,0
123579,-71.4285714285714,4,2,3,70,0,0
125179,-83.3333333333333,4,2,1,70,0,0
129979,-83.3333333333333,4,2,3,70,0,0
131579,-83.3333333333333,4,2,1,60,0,0
133179,-83.3333333333333,4,2,1,70,0,0
137979,-83.3333333333333,4,2,1,50,0,0
138979,-83.3333333333333,4,2,1,60,0,0
139379,-83.3333333333333,4,2,1,65,0,0
141179,-83.3333333333333,4,2,1,70,0,0
152379,-71.4285714285714,4,2,1,70,0,0
153279,-71.4285714285714,4,2,3,70,0,0
153979,-83.3333333333333,4,2,1,70,0,0
165179,-71.4285714285714,4,2,3,70,0,0
166779,-83.3333333333333,4,2,1,70,0,0
171579,-83.3333333333333,4,2,3,70,0,0
173179,-83.3333333333333,4,2,1,60,0,0
174779,-83.3333333333333,4,2,1,70,0,0
177979,-71.4285714285714,4,2,1,70,0,0
178479,-83.3333333333333,4,2,1,70,0,0
191179,410.958904109589,4,2,1,70,1,0

[Colours]
Combo1 : 70,176,191
Combo2 : 238,30,35
Combo3 : 255,255,255
Combo4 : 72,101,153
Combo5 : 186,67,145
Combo6 : 112,103,186

[HitObjects]
443,114,379,37,0,1:0:0:0:
443,114,479,1,0,0:0:0:0:
443,114,579,1,0,0:0:0:0:
443,114,679,1,0,0:0:0:0:
256,264,1379,1,0,1:0:0:0:
256,264,1579,1,0,0:0:0:0:
69,114,1979,1,0,1:0:0:0:
69,114,2179,1,0,1:0:0:0:
256,120,3179,5,0,0:0:0:0:
443,114,3579,5,0,1:0:0:0:
443,114,3679,1,0,0:0:0:0:
443,114,3779,1,0,0:0:0:0:
443,114,3879,1,0,0:0:0:0:
256,264,4579,1,0,1:0:0:0:
256,264,4779,1,0,0:0:0:0:
69,114,5179,5,0,1:0:0:0:
31,184,5479,1,0,1:0:0:0:
109,220,5779,1,0,1:0:0:0:
155,147,5979,1,0,1:0:0:0:
155,147,6079,1,0,0:0:0:0:
262,177,6279,1,0,1:0:0:0:
262,177,6379,1,0,0:0:0:0:
405,155,6579,37,0,1:0:0:0:
405,155,6679,1,0,1:0:0:0:
405,155,6779,2,0,P|444:241|319:312,1,240,4|0,1:0|0:0,0:0:0:0:
272,280,7179,2,0,P|228:286|197:306,1,80,0|0,1:0|0:0,0:0:0:0:
153,372,7379,2,0,P|71:333|103:196,1,240,2|0,0:0|0:0,0:0:0:0:
171,192,7779,1,0,1:0:0:0:
234,143,7879,1,0,0:0:0:0:
297,191,7979,2,0,P|333:222|356:266,1,80,0|0,1:0|0:0,0:0:0:0:
378,141,8179,5,0,1:0:0:0:
351,66,8279,1,0,0:0:0:0:
271,66,8379,2,0,B|351:66|351:66|410:105|410:105|510:103,1,240,4|0,0:0|0:0,0:0:0:0:
404,327,8779,2,0,L|309:331,1,80,0|0,1:0|0:0,0:0:0:0:
134,154,8979,2,0,P|200:137|259:282,1,240,2|0,0:0|0:0,0:0:0:0:
158,281,9379,1,0,1:0:0:0:
80,299,9479,1,0,0:0:0:0:
38,367,9579,2,0,P|82:372|129:375,1,80,0|0,1:0|0:0,0:0:0:0:
324,330,9779,2,0,P|372:333|426:338,1,80,0|0,1:0|0:0,0:0:0:0:
204,340,9979,6,0,B|195:207|275:239|263:107,1,240,4|0,0:0|0:0,0:0:0:0:
328,224,10379,2,0,B|367:219|367:219|428:232,1,80,0|0,1:0|0:0,0:0:0:0:
471,280,10579,1,2,0:0:0:0:
471,280,10679,2,0,P|492:193|441:133,1,160
373,142,10979,2,0,P|354:94|356:59,1,80,8|0,0:0|0:0,0:0:0:0:
166,43,11179,2,0,P|161:100|144:144,1,80,0|0,1:0|0:0,0:0:0:0:
47,268,11379,5,0,0:0:0:0:
116,307,11479,1,0,0:0:0:0:
189,275,11579,2,0,P|290:255|408:340,1,240,4|0,0:0|0:0,0:0:0:0:
427,172,11979,2,0,P|456:231|489:275,1,80,0|0,1:0|0:0,0:0:0:0:
370,23,12179,2,0,P|382:90|206:138,1,240,2|0,0:0|1:0,0:0:0:0:
111,90,12579,2,0,B|137:166|137:166|115:270,2,160,0|0|2,1:0|1:0|0:0,0:0:0:0:
52,293,13179,38,0,B|200:276|150:358|305:338,1,240,4|0,1:0|0:0,0:0:0:0:
435,325,13579,2,0,P|420:279|386:247,1,80,0|0,1:0|0:0,0:0:0:0:
189,200,13779,2,0,P|244:122|383:148,1,240,2|0,0:0|0:0,0:0:0:0:
438,186,14179,2,0,P|464:201|518:208,1,80,0|0,1:0|0:0,0:0:0:0:
326,292,14379,2,0,P|291:268|237:258,1,80,0|0,1:0|0:0,0:0:0:0:
56,172,14579,5,0,1:0:0:0:
43,251,14679,1,0,0:0:0:0:
92,314,14779,2,0,P|156:256|113:107,1,240,4|0,0:0|0:0,0:0:0:0:
264,143,15179,2,0,B|295:121|295:121|363:139,1,80,0|0,1:0|0:0,0:0:0:0:
476,243,15379,2,0,B|392:228|392:228|329:275|329:275|228:252,1,240,2|0,0:0|0:0,0:0:0:0:
197,317,15779,1,8,0:0:0:0:
137,263,15879,1,0,1:0:0:0:
187,201,15979,2,0,L|184:122,1,80,0|0,1:0|0:0,0:0:0:0:
384,32,16179,5,0,1:0:0:0:
316,75,16279,1,0,0:0:0:0:
334,153,16379,2,0,P|381:237|306:355,1,240,4|0,0:0|0:0,0:0:0:0:
197,317,16779,2,0,P|166:314|103:325,1,80,0|0,1:0|0:0,0:0:0:0:
141,201,16979,2,0,P|71:117|182:47,1,240,2|0,0:0|0:0,0:0:0:0:
226,189,17379,2,0,P|251:238|256:287,1,80,0|0,1:0|0:0,0:0:0:0:
346,43,17579,2,0,P|406:81|339:207,1,240,0|0,1:0|0:0,0:0:0:0:
83,258,17979,6,0,L|180:264,1,80,4|0,1:2|0:0,0:0:0:0:
32,192,18179,2,0,L|60:374,1,160,8|0,1:0|0:0,0:0:0:0:
429,258,18579,2,0,L|332:264,1,80,4|0,1:2|0:0,0:0:0:0:
480,192,18779,2,0,L|452:374,1,160,8|0,1:0|0:0,0:0:0:0:
258,77,19179,2,2,L|256:244,1,160,0|2,0:0|0:0,1:2:0:0:
23,60,19579,38,0,B|19:100|19:100|42:158,1,80,12|0,1:0|0:0,0:0:0:0:
174,142,19779,2,0,B|179:101|179:101|158:55,1,80,0|0,1:0|0:0,0:0:0:0:
58,211,19979,1,8,1:0:0:0:
18,276,20079,1,0,0:0:0:0:
96,280,20179,1,8,1:0:0:0:
136,211,20279,1,0,0:0:0:0:
174,142,20379,6,0,B|162:220|215:214|193:314,1,160,4|0,0:0|0:0,0:0:0:0:
307,290,20679,1,0,1:0:0:0:
346,188,20779,2,2,P|291:171|261:169,1,80,8|0,0:0|0:0,0:0:0:0:
401,266,20979,2,2,P|447:260|486:261,1,80,8|0,0:0|0:0,0:0:0:0:
425,140,21179,2,0,P|429:89|502:5,1,160,4|0,1:0|0:0,0:0:0:0:
336,46,21479,1,8,1:0:0:0:
336,46,21579,2,0,B|273:47|273:47|241:68|241:68|155:66,1,160,8|8,0:0|1:0,0:0:0:0:
129,146,21879,5,0,0:0:0:0:
33,97,21979,2,0,P|72:56|112:45,1,80,0|8,1:0|0:0,0:0:0:0:
48,224,22179,2,0,P|91:251|156:253,1,80,0|8,1:0|0:0,0:0:0:0:
259,108,22379,2,0,P|258:194|196:254,1,160,8|8,1:0|1:0,0:0:0:0:
56,333,22779,5,4,0:0:0:0:
56,333,23779,37,0,1:0:0:0:
56,333,24379,5,0,1:0:0:0:
56,333,25179,5,0,1:0:0:0:
56,333,25379,1,0,1:0:0:0:
344,280,25979,5,4,0:0:0:0:
344,280,26979,37,0,1:0:0:0:
344,280,27579,5,0,1:0:0:0:
344,280,27879,5,0,1:0:0:0:
344,280,28779,5,0,1:0:0:0:
344,280,29179,38,0,P|281:290|248:359,1,111.999996582031,0|0,1:0|0:0,0:0:0:0:
226,208,29479,2,0,P|190:251|171:323,1,111.999996582031,0|0,1:0|0:0,0:0:0:0:
116,219,29779,1,0,1:0:0:0:
116,219,30179,6,0,L|110:155,1,55.9999982910157,2|0,1:2|0:0,0:0:0:0:
65,115,30379,2,0,P|141:122|264:29,1,223.999993164063,0|0,1:0|1:0,0:0:0:0:
257,41,30979,1,0,1:0:0:0:
459,116,31379,6,0,P|428:168|283:151,1,223.999993164063,2|0,1:2|0:0,0:0:0:0:
481,230,31979,2,0,L|471:366,1,111.999996582031,0|0,1:0|0:0,0:0:0:0:
359,318,32379,5,0,1:0:0:0:
237,313,32679,1,0,1:0:0:0:
124,355,32979,1,0,1:2:0:0:
124,355,33079,2,0,P|96:297|139:194,1,167.999994873047,2|0,0:0|0:0,0:0:0:0:
203,233,33579,2,0,L|357:231,1,111.999996582031,0|0,1:0|0:0,0:0:0:0:
378,185,33979,1,4,1:0:0:0:
378,185,34379,37,0,1:0:0:0:
287,147,34579,1,2,0:0:0:0:
287,147,34779,1,4,0:0:0:0:
134,104,35079,5,0,1:0:0:0:
134,104,35179,1,0,1:0:0:0:
239,78,35379,1,0,1:0:0:0:
287,147,35579,6,0,B|255:263|337:243|294:368,1,215.999993408203,4|0,1:0|0:0,0:0:0:0:
220,328,35979,2,0,L|144:310,1,71.9999978027344,0|0,1:0|0:0,0:0:0:0:
171,243,36179,2,0,P|147:196|48:178,1,143.999995605469,0|0,1:0|0:0,0:0:0:0:
4,229,36479,1,0,1:0:0:0:
4,229,36579,2,0,P|6:267|20:309,1,71.9999978027344,0|0,1:0|0:0,0:0:0:0:
93,371,36779,2,0,P|176:368|231:329,1,143.999995605469,0|0,1:0|0:0,0:0:0:0:
271,279,37079,1,0,1:0:0:0:
300,308,37179,5,4,0:0:0:0:
384,292,37379,37,4,0:0:0:0:
468,273,37579,5,4,1:0:0:0:
442,182,37779,5,0,0:0:0:0:
442,182,37879,2,0,P|395:183|351:211,1,71.9999978027344,0|0,1:0|1:0,0:0:0:0:
300,195,38079,1,0,0:0:0:0:
228,195,38179,1,0,1:0:0:0:
170,151,38279,1,0,0:0:0:0:
179,79,38379,2,0,P|268:72|350:90,1,143.999995605469,0|0,1:0|0:0,1:0:0:0:
77,94,38779,6,0,B|92:180|92:180|61:223|61:223|75:313,1,215.999993408203,4|0,1:0|0:0,0:0:0:0:
145,291,39179,2,0,L|222:255,1,71.9999978027344,0|0,1:0|0:0,0:0:0:0:
282,260,39379,2,0,L|362:291,1,71.9999978027344,0|0,1:0|0:0,0:0:0:0:
186,366,39579,2,0,P|165:259|212:154,1,215.999993408203,0|0,1:0|1:0,0:0:0:0:
273,183,39979,2,0,L|369:169,1,71.9999978027344,0|0,1:0|0:0,0:0:0:0:
414,192,40179,2,0,L|505:178,1,71.9999978027344,0|0,1:0|0:0,0:0:0:0:
414,270,40379,38,0,B|292:267|335:338|216:336,1,215.999993408203,4|0,1:2|0:0,0:0:0:0:
173,232,40779,2,0,P|133:263|112:285,1,71.9999978027344,0|0,1:0|0:0,0:0:0:0:
13,318,40979,2,0,P|14:264|23:228,1,71.9999978027344,0|0,1:0|0:0,0:0:0:0:
87,134,41179,2,0,P|166:121|250:197,1,143.999995605469,0|0,0:0|1:0,1:0:0:0:
220,149,41579,1,0,1:0:0:0:
220,149,41779,5,0,1:0:0:0:
294,186,41879,1,0,0:0:0:0:
363,166,41979,2,0,P|438:126|404:13,1,215.999993408203,4|0,1:0|0:0,0:0:0:0:
304,63,42379,2,0,P|224:64|135:52,2,143.999995605469,0|0|0,1:0|0:0|0:0,0:0:0:0:
47,62,42979,5,0,1:0:0:0:
132,129,43179,2,0,P|116:214|58:355,1,215.999993408203,0|0,1:0|0:0,0:0:0:0:
3,364,43579,1,0,1:0:0:0:
190,290,43779,1,0,1:0:0:0:
353,377,43979,1,0,1:0:0:0:
307,316,44179,5,0,0:0:0:0:
307,316,44279,1,2,0:0:0:0:
367,261,44479,1,0,0:0:0:0:
367,261,44579,1,2,0:0:0:0:
293,206,44779,2,0,B|290:128|344:142|341:66,1,143.999995605469,0|0,1:0|1:0,0:0:0:0:
223,249,45179,37,0,3:0:0:0:
213,260,45279,1,0,3:0:0:0:
203,270,45379,1,0,3:0:0:0:
190,277,45479,1,0,3:0:0:0:
176,281,45579,1,0,3:0:0:0:
161,281,45679,1,0,3:0:0:0:
147,277,45779,1,0,3:0:0:0:
135,268,45879,1,0,3:0:0:0:
126,256,45979,1,0,3:0:0:0:
121,242,46079,1,0,3:0:0:0:
121,227,46179,1,0,3:0:0:0:
254,154,46379,5,0,1:0:0:0:
254,154,46779,5,4,1:2:0:0:
356,194,47079,5,4,1:2:0:0:
476,147,47379,37,4,1:2:0:0:
476,147,47779,5,2,0:0:0:0:
356,194,47979,1,2,0:0:0:0:
254,154,48179,6,2,L|196:182,1,55.9999982910157,0|0,0:0|0:0,1:2:0:0:
141,111,48379,6,0,P|190:213|91:354,1,287.999991210938,4|0,1:0|0:0,0:0:0:0:
15,250,48779,2,0,P|69:220|118:231,1,95.9999970703126,8|0,0:0|0:0,0:0:0:0:
254,323,48979,2,0,P|386:323|466:201,1,287.999991210938,0|0,1:0|0:0,0:0:0:0:
329,129,49379,2,0,P|362:201|400:220,1,95.9999970703126,8|0,0:0|0:0,0:0:0:0:
210,113,49579,2,0,P|249:86|260:41,1,95.9999970703126,0|0,1:0|0:0,0:0:0:0:
131,146,49779,37,0,1:0:0:0:
86,60,49879,1,0,0:0:0:0:
17,93,49979,2,0,B|35:179|35:179|108:233|108:233|130:344,2,287.999991210938,0|0|0,1:0|1:0|1:0,0:0:0:0:
195,297,50779,6,0,P|242:283|332:285,1,95.9999970703126,0|0,1:0|0:0,0:0:0:0:
374,321,50979,1,0,1:0:0:0:
453,267,51079,1,0,0:0:0:0:
422,175,51179,2,0,P|402:130|405:66,1,95.9999970703126,8|0,0:0|0:0,0:0:0:0:
331,17,51379,2,0,P|281:62|216:87,1,95.9999970703126,0|0,1:0|0:0,0:0:0:0:
185,140,51579,2,0,P|273:171|353:229,2,191.999994140625,4|0|0,0:0|1:0|1:0,0:0:0:0:
106,84,52079,5,0,0:0:0:0:
171,14,52179,2,0,P|85:50|70:59,1,95.9999970703126,8|0,0:0|0:0,0:0:0:0:
67,177,52379,2,0,P|124:216|186:245,1,95.9999970703126
307,210,52579,1,8,0:0:0:0:
346,122,52679,1,0,0:0:0:0:
303,35,52779,2,0,L|249:137,1,95.9999970703126,0|0,1:0|0:0,0:0:0:0:
135,322,52979,5,8,0:0:0:0:
223,361,53079,1,0,0:0:0:0:
310,318,53179,2,0,L|208:264,1,95.9999970703126,2|0,1:0|0:0,0:0:0:0:
391,303,53379,37,0,1:0:0:0:
334,232,53479,2,0,L|446:197,1,95.9999970703126,2|0,1:0|0:0,0:0:0:0:
252,193,53679,5,0,1:0:0:0:
183,141,53779,2,0,L|71:182,1,95.9999970703126,2|0,1:0|0:0,0:0:0:0:
323,136,53979,5,2,1:0:0:0:
408,92,54079,1,0,0:0:0:0:
340,24,54179,1,2,1:0:0:0:
253,66,54279,1,0,0:0:0:0:
253,66,54379,2,2,P|153:53|54:102,1,191.999994140625,0|0,1:0|0:0,1:0:0:0:
15,216,54679,5,0,1:0:0:0:
86,171,54779,2,0,P|128:254|112:305,1,95.9999970703126,4|0,1:0|0:0,0:0:0:0:
80,359,54979,2,0,P|119:353|168:319,1,95.9999970703126,0|0,1:0|0:0,0:0:0:0:
223,245,55179,2,0,B|329:238|292:306|441:298,1,191.999994140625,8|2,0:0|0:0,1:0:0:0:
472,232,55479,1,0,0:0:0:0:
447,139,55579,2,0,P|376:214|405:299,1,191.999994140625,0|8,1:0|0:0,0:0:0:0:
268,111,55879,1,0,0:0:0:0:
301,21,55979,2,0,P|332:62|352:118,1,95.9999970703126,4|0,1:2|0:0,0:0:0:0:
350,218,56179,37,4,1:2:0:0:
264,260,56279,1,0,0:0:0:0:
229,335,56379,2,0,P|326:352|407:306,1,191.999994140625,4|0,1:0|1:0,0:0:0:0:
271,174,56679,1,0,0:0:0:0:
194,215,56779,2,0,P|123:304|77:311,1,95.9999970703126,8|0,0:0|0:0,0:0:0:0:
12,238,56979,2,0,P|58:213|111:206,1,95.9999970703126,2|0,0:0|0:0,0:0:0:0:
87,379,57179,2,0,P|12:310|6:200,1,191.999994140625,0|8,1:0|0:0,0:0:0:0:
11,129,57479,1,0,0:0:0:0:
106,122,57579,2,0,L|206:122,1,95.9999970703126,4|0,1:2|0:0,0:0:0:0:
272,65,57779,2,2,L|395:66,1,95.9999970703126,4|0,0:0|0:0,1:2:0:0:
416,121,57979,6,0,B|445:166|445:166|422:218,1,95.9999970703126,4|0,1:0|0:0,0:0:0:0:
372,283,58179,2,0,L|493:313,1,95.9999970703126,0|0,1:0|0:0,0:0:0:0:
337,365,58379,1,0,0:0:0:0:
265,301,58479,1,0,1:0:0:0:
180,346,58579,2,0,P|149:269|158:231,1,95.9999970703126,0|0,1:0|0:0,0:0:0:0:
279,141,58779,2,2,P|278:85|179:6,1,191.999994140625,4|2,0:0|0:0,1:2:0:0:
103,50,59079,1,0,1:0:0:0:
90,135,59179,2,0,P|131:126|197:130,1,95.9999970703126,8|0,0:0|0:0,0:0:0:0:
360,180,59379,2,0,P|395:209|420:257,1,95.9999970703126,4|0,1:2|0:0,0:0:0:0:
0,302,59579,38,0,B|103:271|103:271|204:361,1,223.999993164063,8|0,0:1|0:0,0:0:0:0:
279,379,59879,1,8,0:0:0:0:
258,291,59979,1,8,0:0:0:0:
347,290,60079,1,8,0:0:0:0:
326,202,60179,2,0,B|331:78|436:147|435:23,1,223.999993164063,8|0,0:1|0:0,0:0:0:0:
316,58,60479,5,8,0:0:0:0:
241,108,60579,1,8,0:0:0:0:
160,69,60679,1,8,0:0:0:0:
85,118,60779,1,8,1:2:0:0:
72,206,60879,1,8,1:2:0:0:
112,285,60979,1,8,1:2:0:0:
70,359,61079,1,8,1:2:0:0:
158,292,61179,6,0,B|271:291|237:344|352:338,1,191.999994140625,4|0,1:0|0:0,0:0:0:0:
386,276,61479,1,0,0:0:0:0:
461,289,61579,2,0,P|477:212|477:166,1,95.9999970703126,8|0,0:0|0:0,0:0:0:0:
356,107,61779,2,0,P|344:181|342:230,1,95.9999970703126,0|0,1:0|0:0,0:0:0:0:
464,32,61979,2,0,P|458:146|438:260,1,191.999994140625,0|8,0:0|0:0,0:0:0:0:
385,269,62279,1,0,0:0:0:0:
308,272,62379,1,0,1:0:0:0:
264,208,62479,1,0,0:0:0:0:
271,131,62579,2,0,P|239:84|182:62,1,95.9999970703126,0|0,1:0|0:0,0:0:0:0:
29,93,62779,6,0,B|23:238|163:177|159:354,2,287.999991210938,0|0|0,1:0|1:0|1:0,0:0:0:0:
239,282,63579,2,0,L|353:259,1,95.9999970703126,0|0,1:0|0:0,0:0:0:0:
474,199,63779,1,0,1:0:0:0:
455,273,63879,1,0,0:0:0:0:
439,348,63979,2,0,L|413:254,1,95.9999970703126,8|0,0:0|0:0,0:0:0:0:
420,146,64179,2,0,L|461:45,1,95.9999970703126,0|0,1:0|0:0,0:0:0:0:
339,176,64379,6,0,P|256:172|186:82,1,191.999994140625,4|0,0:0|1:0,0:0:0:0:
261,18,64679,1,0,0:0:0:0:
337,21,64779,2,0,P|307:76|278:102,1,95.9999970703126,0|0,1:0|0:0,0:0:0:0:
117,142,64979,1,8,0:0:0:0:
41,145,65079,2,0,P|71:200|201:254,1,191.999994140625,4|0,1:2|0:0,0:0:0:0:
284,227,65379,1,12,0:0:0:0:
339,279,65479,2,0,P|292:313|230:324,2,95.9999970703126,0|12|0,0:0|0:0|0:0,0:0:0:0:
409,173,65779,6,2,P|465:176|515:194,1,95.9999970703126,0|0,1:0|0:0,1:2:0:0:
352,113,65979,6,0,B|225:106|267:165|129:152,1,223.999993164063,8|0,1:0|0:0,0:0:0:0:
46,166,66279,1,8,0:0:0:0:
31,77,66379,2,0,P|62:69|155:67,1,111.999996582031,8|0,0:1|0:0,0:0:0:0:
231,254,66579,2,0,P|99:278|-3:260,1,223.999993164063,8|0,0:1|0:0,0:0:0:0:
3,354,66879,1,8,0:0:0:0:
92,355,66979,1,8,0:0:0:0:
181,356,67079,1,8,0:0:0:0:
270,357,67179,21,8,0:0:0:0:
291,329,67279,5,8,0:0:0:0:
312,301,67379,5,8,0:0:0:0:
333,273,67479,5,8,0:0:0:0:
354,245,67579,21,4,1:2:0:0:
423,269,68379,5,0,1:0:0:0:
492,293,69179,6,0,B|501:205|501:205|445:107,1,191.999994140625,4|0,1:0|0:0,0:0:0:0:
386,171,69479,1,0,0:0:0:0:
386,171,69579,2,0,B|341:151|341:151|295:161,1,95.9999970703126,0|0,1:0|0:0,0:0:0:0:
247,230,69779,2,0,B|203:256|203:256|188:302,1,95.9999970703126,2|0,0:0|0:0,0:0:0:0:
333,249,69979,5,0,1:0:0:0:
295,160,70079,1,0,0:0:0:0:
199,148,70179,1,0,1:0:0:0:
122,205,70279,1,0,0:0:0:0:
26,194,70379,2,0,P|12:87|112:47,1,191.999994140625,8|0,0:0|1:0,0:0:0:0:
125,124,70679,5,0,0:0:0:0:
155,59,70779,2,2,B|250:43|250:43|353:106,1,191.999994140625,4|0,1:2|0:0,1:2:0:0:
382,174,71079,1,0,0:0:0:0:
423,87,71179,2,2,L|507:36,1,95.9999970703126,0|0,1:0|0:0,1:2:0:0:
208,132,71379,2,2,L|211:329,1,191.999994140625,0|0,1:0|0:0,1:2:0:0:
274,366,71679,37,0,0:0:0:0:
335,300,71779,2,2,P|387:260|414:219,1,95.9999970703126,0|0,1:0|0:0,1:2:0:0:
93,230,71979,2,2,P|101:275|128:325,1,95.9999970703126,0|0,1:0|0:0,1:2:0:0:
300,217,72179,2,2,P|309:148|306:113,1,95.9999970703126,0|0,1:0|0:0,1:2:0:0:
152,29,72379,6,2,P|142:109|186:223,1,191.999994140625,4|8,1:0|0:0,1:2:0:0:
307,121,72679,2,2,P|261:212|276:315,1,191.999994140625,0|8,1:0|0:0,1:2:0:0:
408,363,72979,2,2,P|457:271|451:171,2,191.999994140625,0|0|8,1:0|1:0|0:0,1:2:0:0:
312,360,73479,1,0,0:0:0:0:
216,354,73579,2,2,L|106:369,1,95.9999970703126,8|0,0:0|0:0,1:2:0:0:
52,299,73779,2,2,L|159:283,1,95.9999970703126,8|0,0:0|0:0,1:2:0:0:
186,221,73979,6,0,P|167:103|50:82,1,191.999994140625,6|0,1:0|0:0,0:0:0:0:
19,107,74279,1,2,0:0:0:0:
2,201,74379,1,8,0:0:0:0:
94,176,74479,1,0,0:0:0:0:
94,176,74579,2,2,B|212:173|165:229|291:226,1,191.999994140625,4|0,1:2|0:0,0:1:0:0:
361,184,74879,1,0,0:0:0:0:
448,222,74979,2,0,P|489:204|509:151,1,95.9999970703126,8|0,0:0|0:0,0:0:0:0:
336,66,75179,2,2,P|304:91|291:144,1,95.9999970703126,4|0,1:2|0:1,0:1:0:0:
373,266,75379,5,2,0:1:0:0:
341,356,75479,1,8,0:0:0:0:
274,307,75579,2,2,P|175:303|76:346,1,191.999994140625,4|0,1:2|0:0,0:1:0:0:
12,334,75879,1,2,0:2:0:0:
49,267,75979,2,0,P|64:209|56:158,1,95.9999970703126,8|0,0:0|0:0,0:0:0:0:
55,54,76179,2,2,B|149:35|149:35|268:106,1,191.999994140625,4|0,1:2|0:0,0:1:0:0:
225,160,76479,1,0,0:0:0:0:
307,203,76579,2,0,B|354:210|354:210|403:195,1,95.9999970703126,8|0,0:0|0:0,0:0:0:0:
404,27,76779,2,2,B|360:45|360:45|337:95,1,95.9999970703126,4|0,1:2|0:0,0:1:0:0:
236,246,76979,37,2,1:0:0:0:
272,313,77079,1,0,0:0:0:0:
352,293,77179,2,2,P|436:303|499:388,2,191.999994140625,4|0|8,1:2|0:0|0:0,0:1:0:0:
272,313,77679,1,0,0:0:0:0:
191,335,77779,2,2,P|155:265|211:151,1,191.999994140625,4|0,1:2|0:0,0:1:0:0:
270,151,78079,1,0,0:0:0:0:
350,136,78179,2,2,L|478:142,1,95.9999970703126,8|0,0:0|0:0,0:1:0:0:
312,55,78379,2,2,B|214:36|214:36|109:82,1,191.999994140625,4|0,1:2|0:0,0:1:0:0:
29,133,78679,5,8,0:0:0:0:
99,166,78779,2,2,B|147:155|147:155|208:168,1,95.9999970703126,4|0,0:0|0:0,0:1:0:0:
203,291,78979,2,2,B|157:304|157:304|99:293,1,95.9999970703126,2|0,0:0|0:0,0:1:0:0:
247,221,79179,2,2,L|466:205,1,191.999994140625,8|4,0:0|1:2,0:1:0:0:
490,126,79479,1,2,0:1:0:0:
390,42,79579,6,0,L|397:142,1,95.9999970703126,2|0,1:0|0:0,0:0:0:0:
424,382,79779,2,0,L|417:282,1,95.9999970703126,2|0,1:0|0:0,0:0:0:0:
308,43,79979,2,0,L|315:143,1,95.9999970703126,2|0,1:0|0:0,0:0:0:0:
342,383,80179,2,0,L|335:283,1,95.9999970703126,2|0,1:0|0:0,0:0:0:0:
247,221,80379,6,0,B|135:219|176:278|47:273,1,191.999994140625,6|0,1:0|0:0,0:0:0:0:
3,199,80679,1,2,0:0:0:0:
48,114,80779,1,8,0:0:0:0:
140,138,80879,1,0,0:0:0:0:
187,74,80979,2,2,P|245:73|302:199,2,191.999994140625,4|0|8,1:2|0:0|0:0,0:1:0:0:
110,67,81479,1,0,0:0:0:0:
78,185,81579,2,2,P|55:232|149:327,1,191.999994140625,4|0,1:2|0:0,0:1:0:0:
218,283,81879,37,8,0:0:0:0:
264,353,81979,2,2,B|353:339|353:339|400:363|400:363|454:356,1,191.999994140625,4|0,1:2|0:0,0:1:0:0:
495,272,82279,1,2,0:0:0:0:
416,263,82379,2,0,P|409:219|382:156,1,95.9999970703126,8|0,0:0|0:0,0:0:0:0:
247,141,82579,2,2,P|247:71|255:35,1,95.9999970703126,4|0,1:2|0:0,0:1:0:0:
341,41,82779,2,2,P|348:171|293:266,1,191.999994140625,0|8,0:0|0:0,0:1:0:0:
238,269,83079,1,0,0:0:0:0:
157,216,83179,2,2,P|148:111|174:28,1,191.999994140625,4|2,1:2|0:0,1:2:0:0:
12,307,83579,6,0,P|70:332|102:321,1,95.9999970703126,4|0,0:3|0:0,0:0:0:0:
111,305,83779,1,0,0:0:0:0:
125,323,83879,2,0,P|183:348|215:337,1,95.9999970703126,8|4,0:3|0:3,0:0:0:0:
224,321,84079,1,0,0:0:0:0:
238,339,84179,2,0,P|296:364|328:353,1,95.9999970703126,8|4,0:3|0:3,0:0:0:0:
414,246,84379,6,0,L|396:357,1,95.9999970703126,4|0,0:3|0:0,0:0:0:0:
497,221,84579,2,0,L|479:332,1,95.9999970703126,4|0,0:3|0:0,0:0:0:0:
307,178,84779,2,0,L|325:289,1,95.9999970703126,8|0,0:3|0:0,0:0:0:0:
224,153,84979,2,0,L|242:264,1,95.9999970703126,4|0,0:3|0:0,0:0:0:0:
403,92,85179,5,4,1:2:0:0:
146,43,85379,1,8,0:0:0:0:
55,76,85479,1,8,0:1:0:0:
108,155,85579,1,8,0:0:0:0:
331,188,85779,37,2,0:0:0:0:
30,225,85979,1,8,0:0:0:0:
121,258,86079,1,8,0:1:0:0:
68,337,86179,1,8,0:0:0:0:
318,378,86379,5,8,0:0:0:0:
358,283,86479,1,8,0:0:0:0:
265,240,86579,1,8,0:0:0:0:
220,333,86679,1,8,0:0:0:0:
289,310,86779,53,2,0:0:0:0:
403,346,93179,6,0,P|306:306|227:317,1,184.000003509522,0|0,1:0|0:0,0:0:0:0:
140,340,93479,1,0,0:0:0:0:
74,275,93579,2,0,L|91:83,1,184.000003509522,0|0,1:0|1:0,0:0:0:0:
168,146,93879,2,0,L|281:134,2,92.0000017547608,0|0|0,1:0|0:0|0:0,0:0:0:0:
230,298,94179,2,0,L|145:231,1,92.0000017547608,0|0,1:0|0:0,0:0:0:0:
333,183,94379,2,0,L|310:277,1,92.0000017547608,4|0,1:2|0:0,0:0:0:0:
378,346,94579,5,0,0:0:0:0:
466,372,94679,1,0,1:0:0:0:
463,298,94779,2,0,B|456:232|456:232|486:206|486:206|473:117,1,184.000003509522,0|0,1:0|1:0,0:0:0:0:
406,87,95079,1,0,0:0:0:0:
335,49,95179,2,0,P|292:46|241:51,1,92.0000017547608,0|0,1:0|0:0,0:0:0:0:
122,183,95379,1,0,0:0:0:0:
172,238,95479,2,0,P|286:249|378:218,1,184.000003509522,0|0,1:0|0:0,0:0:0:0:
170,113,95779,2,0,B|159:66|159:66|172:20,2,92.0000017547608,0|0|0,1:0|0:0|1:0,0:0:0:0:
117,274,96179,6,0,P|94:332|91:373,1,92.0000017547608,4|0,0:0|0:0,0:0:0:0:
11,370,96379,2,0,B|160:371|129:290|289:289,1,276.000005264282,4|0,1:0|0:0,0:0:0:0:
362,293,96779,2,0,P|446:311|509:381,1,184.000003509522,0|0,1:0|0:0,0:0:0:0:
379,265,97179,2,0,P|319:263|217:362,1,184.000003509522,0|0,1:0|0:0,0:0:0:0:
419,155,97579,1,0,1:0:0:0:
425,146,97679,1,0,0:0:0:0:
432,139,97779,1,0,1:0:0:0:
441,132,97879,1,0,0:0:0:0:
470,161,97979,6,0,B|368:154|368:154|309:181|309:181|195:174,1,276.000005264282,0|0,1:0|0:0,0:0:0:0:
112,142,98379,2,0,P|93:209|99:248,1,92.0000017547608,8|0,0:0|0:0,0:0:0:0:
222,352,98579,2,0,P|239:301|238:248,1,92.0000017547608,8|0,0:0|0:0,0:0:0:0:
16,213,98779,2,0,P|43:283|64:305,1,92.0000017547608,8|0,0:0|0:0,0:0:0:0:
339,294,98979,2,0,P|316:239|293:203,1,92.0000017547608,8|0,0:0|0:0,0:0:0:0:
136,353,99179,37,8,0:0:0:0:
166,266,99279,1,0,0:0:0:0:
202,181,99379,1,8,0:0:0:0:
249,102,99479,1,0,0:0:0:0:
321,134,99579,2,0,P|388:122|489:203,1,184.000003509522,4|0,1:0|0:0,0:0:0:0:
459,273,99879,5,0,1:0:0:0:
367,283,99979,2,0,P|343:343|336:383,1,92.0000017547608,8|0,0:0|0:0,0:0:0:0:
244,373,100179,2,0,P|131:343|25:351,1,184.000003509522,0|0,1:0|0:0,0:0:0:0:
11,267,100479,1,0,0:0:0:0:
11,267,100579,2,0,B|58:257|58:257|101:267,1,92.0000017547608,8|0,0:0|0:0,0:0:0:0:
178,215,100779,2,0,B|258:192|258:192|371:223,1,184.000003509522,0|0,1:0|1:0,0:0:0:0:
465,152,101079,5,0,0:0:0:0:
387,181,101179,2,0,P|381:245|406:375,1,184.000003509522,4|8,0:0|0:0,0:0:0:0:
475,305,101479,1,0,1:0:0:0:
490,228,101579,2,0,P|498:174|492:120,1,92.0000017547608
298,87,101779,2,0,P|282:189|307:313,1,184.000003509522,8|0,0:0|1:0,0:0:0:0:
382,289,102079,1,0,0:0:0:0:
393,197,102179,1,0,1:0:0:0:
406,105,102279,1,0,0:0:0:0:
421,14,102379,2,2,B|318:20|318:20|283:47|283:47|142:52,1,276.000005264282,6|0,0:0|0:0,1:2:0:0:
65,26,102779,6,0,P|81:125|52:236,1,184.000003509522,4|0,1:0|0:0,0:0:0:0:
13,283,103079,1,0,1:0:0:0:
72,213,103179,2,0,L|179:215,1,92.0000017547608,8|0,0:0|0:0,0:0:0:0:
205,289,103379,2,0,L|316:290,1,92.0000017547608,8|0,0:0|0:0,0:0:0:0:
431,212,103579,2,0,L|215:209,1,184.000003509522,4|0,1:0|0:0,0:0:0:0:
126,289,103879,1,0,1:0:0:0:
70,362,103979,2,0,L|182:363,1,92.0000017547608,8|0,0:0|0:0,0:0:0:0:
253,364,104179,2,0,L|348:364,1,92.0000017547608,8|0,0:0|0:0,0:0:0:0:
406,316,104379,38,0,B|399:218|460:239|445:121,1,184.000003509522,4|0,1:0|0:0,0:0:0:0:
376,106,104679,1,0,1:0:0:0:
291,69,104779,2,0,P|297:156|315:187,1,92.0000017547608,8|0,0:0|0:0,0:0:0:0:
192,196,104979,1,0,1:0:0:0:
136,268,105079,2,0,P|220:305|313:254,1,184.000003509522,8|0,0:0|1:0,0:0:0:0:
209,95,105379,1,2,0:0:0:0:
126,53,105479,1,0,1:0:0:0:
55,112,105579,1,0,1:0:0:0:
88,197,105679,1,0,0:0:0:0:
192,196,105779,5,0,1:0:0:0:
276,160,105879,1,0,0:0:0:0:
362,191,105979,2,0,P|393:298|338:364,1,184.000003509522,4|0,1:0|0:0,0:0:0:0:
266,369,106279,1,0,1:0:0:0:
181,332,106379,2,0,P|110:333|53:346,1,92.0000017547608,8|0,0:0|0:0,0:0:0:0:
15,246,106579,2,0,P|65:238|117:240,1,92.0000017547608,0|0,1:0|0:0,0:0:0:0:
198,238,106779,1,0,1:0:0:0:
289,248,106879,1,0,0:0:0:0:
376,275,106979,1,8,0:0:0:0:
465,297,107079,1,0,0:0:0:0:
499,232,107179,2,0,B|485:178|485:178|496:136|496:136|472:40,1,184.000003509522,2|8,0:0|0:0,0:0:0:0:
353,32,107479,5,0,1:0:0:0:
386,117,107579,2,0,P|286:113|188:47,1,184.000003509522,4|8,1:0|0:0,0:0:0:0:
109,65,107879,1,0,0:0:0:0:
23,31,107979,2,0,L|28:127,1,92.0000017547608,0|0,1:0|0:0,0:0:0:0:
131,157,108179,2,0,L|136:266,1,92.0000017547608,0|0,1:0|0:0,0:0:0:0:
245,368,108379,2,0,L|238:170,1,184.000003509522,0|8,1:0|0:0,0:0:0:0:
306,145,108679,1,2,0:0:0:0:
376,248,108779,2,0,L|381:157,1,92.0000017547608,0|0,1:0|0:0,0:0:0:0:
484,122,108979,2,0,L|489:31,1,92.0000017547608,0|0,1:0|0:0,0:0:0:0:
392,83,109179,6,0,B|235:92|308:16|113:25,1,276.000005264282,4|0,1:0|0:0,0:0:0:0:
40,103,109579,2,0,P|81:132|145:153,1,92.0000017547608,8|0,0:0|0:0,0:0:0:0:
208,182,109779,2,0,P|255:188|324:183,1,92.0000017547608,8|0,0:0|0:0,0:0:0:0:
486,106,109979,2,0,B|454:212|454:212|402:225|402:225|360:346,1,276.000005264282,4|0,1:0|0:0,0:0:0:0:
272,329,110379,2,0,B|226:317|226:317|170:329,1,92.0000017547608,8|0,0:0|0:0,0:0:0:0:
100,368,110579,2,0,B|54:356|54:356|-2:368,1,92.0000017547608,8|0,0:0|0:0,0:0:0:0:
115,282,110779,38,0,P|94:239|96:171,1,92.0000017547608,4|0,1:0|0:0,0:0:0:0:
164,139,110979,1,0,1:0:0:0:
256,139,111079,2,0,P|258:204|239:260,1,92.0000017547608,4|0,0:3|0:0,0:0:0:0:
328,270,111279,1,0,1:0:0:0:
328,270,111379,1,4,0:3:0:0:
328,270,112379,6,0,P|340:161|322:58,1,191.999994140625,4|0,1:0|0:0,0:0:0:0:
244,32,112679,1,0,0:0:0:0:
164,85,112779,2,0,P|167:163|272:169,1,191.999994140625,8|0,0:0|1:0,0:0:0:0:
410,62,113079,2,0,P|460:57|486:199,1,191.999994140625,0|0,0:0|0:0,0:0:0:0:
419,348,113379,2,0,B|429:302|429:302|416:255,1,95.9999970703126,8|0,0:0|0:0,0:0:0:0:
250,264,113579,2,0,B|248:315|248:315|262:358,1,95.9999970703126,0|0,1:0|0:0,0:0:0:0:
338,291,113779,2,0,L|329:184,1,95.9999970703126,0|0,1:0|0:0,0:0:0:0:
258,183,113979,2,0,B|73:172|163:276|-15:261,2,287.999991210938,0|0|0,1:0|1:0|1:0,0:0:0:0:
457,17,114779,6,0,P|462:53|454:128,1,95.9999970703126,0|0,1:0|0:0,0:0:0:0:
350,159,114979,1,0,1:0:0:0:
353,254,115079,1,0,0:0:0:0:
413,313,115179,2,0,P|407:259|408:202,1,95.9999970703126,8|0,0:0|0:0,0:0:0:0:
261,124,115379,2,0,P|217:156|180:206,1,95.9999970703126,0|0,1:0|0:0,0:0:0:0:
116,355,115579,2,0,P|217:323|304:327,2,191.999994140625,4|0|0,0:0|1:0|1:0,0:0:0:0:
60,275,116079,5,0,0:0:0:0:
122,201,116179,2,0,P|162:211|260:248,1,95.9999970703126,8|0,0:0|0:0,0:0:0:0:
95,44,116379,2,0,P|85:84|48:182,1,95.9999970703126,0|0,0:0|0:0,0:0:0:0:
219,137,116579,1,8,0:0:0:0:
311,161,116679,1,0,0:0:0:0:
376,90,116779,2,0,P|366:130|329:228,1,95.9999970703126,0|0,1:0|0:0,0:0:0:0:
324,258,116979,37,8,0:0:0:0:
302,351,117079,1,0,0:0:0:0:
217,373,117179,2,0,P|215:307|197:261,1,95.9999970703126,2|0,1:0|0:0,0:0:0:0:
13,303,117379,5,0,1:0:0:0:
98,325,117479,2,0,P|100:259|118:213,1,95.9999970703126,2|0,1:0|0:0,0:0:0:0:
291,176,117679,5,0,1:0:0:0:
206,198,117779,2,0,P|204:132|186:86,1,95.9999970703126,2|0,1:0|0:0,0:0:0:0:
7,78,117979,5,2,1:0:0:0:
34,159,118079,1,0,0:0:0:0:
112,121,118179,1,2,1:0:0:0:
87,38,118279,1,0,0:0:0:0:
87,38,118379,2,0,P|27:126|37:234,1,191.999994140625,2|0,1:1|0:0,0:0:0:0:
105,303,118679,37,0,1:0:0:0:
158,235,118779,2,0,B|209:222|209:222|256:235,1,95.9999970703126,4|0,1:0|0:0,0:0:0:0:
473,331,118979,2,0,B|425:314|425:314|378:324,1,95.9999970703126,0|0,1:0|0:0,0:0:0:0:
283,367,119179,2,0,B|282:264|351:286|345:160,1,191.999994140625,8|2,0:0|0:0,0:0:0:0:
378,92,119479,1,0,0:0:0:0:
306,123,119579,2,0,B|258:114|258:114|205:123,1,95.9999970703126,0|0,1:0|0:0,0:0:0:0:
417,163,119779,2,0,B|463:155|463:155|511:167,1,95.9999970703126,8|0,0:0|0:0,0:0:0:0:
292,38,119979,2,0,B|172:29|202:60|78:57,1,191.999994140625,4|4,1:2|1:2,0:0:0:0:
29,153,120279,5,0,0:0:0:0:
21,239,120379,2,0,P|56:338|81:357,1,95.9999970703126,4|0,1:0|0:0,0:0:0:0:
262,288,120579,2,0,P|235:234|183:205,1,95.9999970703126,0|0,1:0|0:0,0:0:0:0:
113,158,120779,2,0,P|126:246|133:352,1,191.999994140625,8|2,0:0|0:0,0:0:0:0:
219,373,121079,1,0,0:0:0:0:
307,357,121179,2,0,P|298:249|294:142,1,191.999994140625,0|8,1:0|0:0,0:0:0:0:
406,343,121579,2,0,P|480:275|407:242,1,191.999994140625,4|4,1:2|0:0,0:0:0:0:
127,180,121979,5,4,1:0:0:0:
212,195,122079,1,0,0:0:0:0:
294,165,122179,1,0,1:0:0:0:
373,128,122279,1,0,0:0:0:0:
457,148,122379,2,0,P|456:180|425:246,1,95.9999970703126,0|0,0:0|1:0,0:0:0:0:
208,118,122579,2,0,P|216:80|264:36,1,95.9999970703126,0|0,1:0|0:0,0:0:0:0:
451,328,122779,2,0,P|392:319|345:286,1,95.9999970703126,4|0,0:0|0:0,0:0:0:0:
127,180,122979,2,0,P|84:186|23:226,1,95.9999970703126,2|0,0:0|1:0,0:0:0:0:
217,346,123179,1,8,0:0:0:0:
216,336,123279,1,0,0:0:0:0:
213,327,123379,1,4,1:2:0:0:
209,319,123479,1,0,0:0:0:0:
176,337,123579,22,0,B|312:326|256:386|409:364,1,223.999993164063,8|0,0:1|0:0,0:0:0:0:
474,303,123879,1,8,0:0:0:0:
492,204,123979,1,8,0:0:0:0:
409,146,124079,1,8,0:0:0:0:
324,200,124179,2,0,P|270:123|314:-1,1,223.999993164063,8|0,0:1|0:0,0:0:0:0:
428,31,124479,5,8,0:0:0:0:
436,131,124579,1,8,0:0:0:0:
412,229,124679,1,8,0:0:0:0:
342,302,124779,1,8,1:2:0:0:
246,271,124879,1,8,1:2:0:0:
145,275,124979,1,8,1:2:0:0:
73,346,125079,1,8,1:2:0:0:
104,261,125179,6,0,B|103:161|186:194|176:70,1,191.999994140625,4|0,1:0|0:0,0:0:0:0:
245,38,125479,1,0,0:0:0:0:
331,42,125579,2,0,P|354:106|344:164,1,95.9999970703126,8|0,0:0|0:0,0:0:0:0:
85,107,125779,2,0,P|76:61|85:1,1,95.9999970703126,0|0,1:0|0:0,0:0:0:0:
248,151,125979,2,0,P|253:249|230:364,1,191.999994140625,0|8,0:0|0:0,0:0:0:0:
130,340,126279,5,0,0:0:0:0:
76,272,126379,2,0,B|123:262|123:262|169:278,1,95.9999970703126,0|0,1:0|0:0,0:0:0:0:
333,302,126579,2,0,B|380:292|380:292|426:308,1,95.9999970703126,0|0,1:0|0:0,0:0:0:0:
311,37,126779,2,0,P|276:147|259:331,2,287.999991210938,0|0|0,1:0|1:0|1:0,0:0:0:0:
446,214,127579,6,0,P|441:263|425:307,1,95.9999970703126,0|0,1:0|0:0,0:0:0:0:
345,340,127779,1,0,1:0:0:0:
258,345,127879,1,0,0:0:0:0:
175,317,127979,2,0,P|159:280|154:208,1,95.9999970703126,8|0,0:0|0:0,0:0:0:0:
356,199,128179,2,0,P|304:215|261:210,1,95.9999970703126,0|0,1:0|0:0,0:0:0:0:
208,137,128379,6,0,B|101:153|130:85|25:102,2,191.999994140625,4|0|0,0:0|1:0|1:0,0:0:0:0:
290,108,128879,1,0,0:0:0:0:
368,71,128979,2,0,P|417:71|507:211,1,191.999994140625,8|0,0:0|0:0,0:0:0:0:
428,204,129279,1,0,0:0:0:0:
351,244,129379,2,0,L|361:351,1,95.9999970703126,12|0,0:0|0:0,0:0:0:0:
444,335,129579,2,0,P|463:288|524:268,1,95.9999970703126,12|0,0:0|0:0,0:0:0:0:
242,224,129779,5,0,1:0:0:0:
242,224,129879,1,0,0:0:0:0:
242,224,129979,1,8,1:0:0:0:
422,87,130179,1,0,0:0:0:0:
422,87,130279,1,8,0:0:0:0:
274,54,130479,1,0,0:0:0:0:
274,54,130579,1,8,0:1:0:0:
257,323,130779,1,0,0:0:0:0:
250,316,130879,1,8,0:0:0:0:
266,313,130979,1,8,0:0:0:0:
255,306,131079,1,8,0:0:0:0:
290,280,131179,5,8,0:0:0:0:
309,282,131279,1,8,0:0:0:0:
327,285,131379,1,8,0:0:0:0:
345,289,131479,1,8,0:0:0:0:
380,282,131579,69,4,1:2:0:0:
380,282,132379,21,0,1:0:0:0:
380,282,133179,6,0,P|415:187|383:92,1,191.999994140625,4|0,1:0|0:0,0:0:0:0:
293,105,133479,1,0,0:0:0:0:
197,108,133579,2,0,P|179:62|183:7,1,95.9999970703126,0|0,1:0|0:0,0:0:0:0:
319,28,133779,2,0,P|367:35|413:66,1,95.9999970703126,0|0,0:0|0:0,0:0:0:0:
323,183,133979,1,0,1:0:0:0:
248,239,134079,1,0,0:0:0:0:
153,225,134179,2,0,P|121:241|73:298,1,95.9999970703126,0|0,1:0|0:0,0:0:0:0:
247,363,134379,2,2,P|318:320|242:167,1,287.999991210938,0|0,1:0|0:0,1:2:0:0:
239,177,134779,6,0,P|289:162|349:164,1,95.9999970703126,4|0,1:2|0:0,0:0:0:0:
421,200,134979,2,0,P|440:233|447:312,1,95.9999970703126
406,117,135179,1,0,1:0:0:0:
356,34,135279,1,0,0:0:0:0:
451,42,135379,6,0,B|340:40|373:87|234:86,1,191.999994140625,0|0,0:0|1:0,0:0:0:0:
170,75,135679,1,0,0:0:0:0:
92,131,135779,2,0,P|61:73|62:27,1,95.9999970703126
176,171,135979,1,0,1:0:0:0:
182,266,136079,1,0,0:0:0:0:
120,340,136179,2,0,L|21:305,1,95.9999970703126,0|0,1:0|0:0,0:0:0:0:
143,250,136379,38,0,B|228:249|228:249|258:269|258:269|359:268,1,191.999994140625,0|2,1:0|0:0,0:0:0:0:
408,324,136679,1,0,0:0:0:0:
483,264,136779,1,0,1:0:0:0:
456,171,136879,1,0,0:0:0:0:
360,165,136979,2,0,B|344:114|344:114|348:62,1,95.9999970703126,2|0,1:2|0:0,0:0:0:0:
213,20,137179,2,0,B|172:55|172:55|123:72,1,95.9999970703126,0|2,0:0|1:2,0:0:0:0:
145,225,137379,2,0,B|196:239|196:239|237:271,1,95.9999970703126,0|0,1:0|0:0,0:0:0:0:
243,136,137579,1,2,1:2:0:0:
228,144,137679,1,0,0:0:0:0:
248,152,137779,1,2,1:2:0:0:
442,75,137979,5,0,0:0:0:0:
442,75,138979,5,0,1:0:0:0:
442,75,139179,1,0,1:0:0:0:
363,47,139379,6,0,B|348:170|465:158|433:315,1,287.999991210938,4|0,1:0|1:0,0:0:0:0:
364,263,139779,2,0,B|318:252|318:252|270:257,1,95.9999970703126,8|0,0:0|0:0,0:0:0:0:
58,191,139979,2,0,B|104:180|104:180|152:185,1,95.9999970703126,8|0,0:0|0:0,0:0:0:0:
192,344,140179,38,0,P|218:234|179:154,1,191.999994140625,0|0,1:0|0:0,0:0:0:0:
91,77,140479,2,2,B|201:96|169:45|296:64,1,191.999994140625,0|0,1:0|0:0,1:2:0:0:
398,28,140779,1,8,0:0:0:0:
382,122,140879,1,0,0:0:0:0:
366,216,140979,1,8,0:0:0:0:
351,310,141079,1,0,0:0:0:0:
323,222,141179,6,2,P|218:237|178:313,1,191.999994140625,0|0,1:0|0:0,0:1:0:0:
263,352,141479,1,0,0:0:0:0:
351,310,141579,1,8,0:0:0:0:
436,266,141679,1,0,0:0:0:0:
477,179,141779,2,0,P|446:74|336:48,1,191.999994140625,2|0,1:0|0:0,0:0:0:0:
284,72,142079,1,0,0:0:0:0:
284,72,142179,2,0,L|290:177,1,95.9999970703126,2|0,1:0|0:0,0:0:0:0:
178,305,142379,2,0,L|172:209,2,95.9999970703126,10|0|0,0:1|0:0|0:0,0:0:0:0:
49,164,142679,5,2,0:1:0:0:
49,164,142779,2,2,P|136:108|245:153,1,191.999994140625,4|0,1:2|0:0,0:1:0:0:
275,204,143079,1,0,0:0:0:0:
339,274,143179,2,0,P|382:283|438:266,1,95.9999970703126,8|0,0:0|0:0,0:0:0:0:
422,174,143379,2,2,P|392:94|290:70,1,191.999994140625,2|0,1:0|0:0,1:2:0:0:
216,127,143679,1,0,0:0:0:0:
138,183,143779,2,0,B|111:221|111:221|110:275,1,95.9999970703126,2|0,1:0|0:0,0:0:0:0:
226,370,143979,2,0,B|253:332|253:332|254:278,1,95.9999970703126,8|0,0:0|0:0,0:0:0:0:
216,127,144179,5,8,0:0:0:0:
127,90,144279,1,0,0:0:0:0:
51,151,144379,2,0,P|36:248|114:270,1,191.999994140625,6|0,1:0|0:0,0:0:0:0:
188,216,144679,1,0,0:0:0:0:
253,282,144779,2,0,P|323:289|397:277,1,95.9999970703126,8|0,0:0|0:0,0:0:0:0:
438,250,144979,1,2,1:0:0:0:
510,312,145079,2,0,P|511:201|454:126,1,191.999994140625
372,116,145379,1,2,1:0:0:0:
281,147,145479,1,0,0:0:0:0:
230,228,145579,2,0,P|201:293|209:349,1,95.9999970703126,10|0,0:1|0:0,0:0:0:0:
322,373,145779,2,0,P|355:303|354:263,1,95.9999970703126,0|0,0:0|0:0,0:0:0:0:
199,153,145979,38,2,B|100:125|100:125|8:174,1,191.999994140625,4|0,1:2|0:0,0:1:0:0:
7,262,146279,1,2,1:0:0:0:
81,322,146379,2,0,L|185:314,1,95.9999970703126,8|0,0:0|0:0,0:0:0:0:
258,262,146579,1,10,0:1:0:0:
321,334,146679,2,0,L|531:322,1,191.999994140625,0|0,1:0|0:0,0:1:0:0:
359,258,146979,2,0,L|352:154,1,95.9999970703126,10|0,0:1|0:0,0:0:0:0:
176,39,147179,1,8,0:0:0:0:
176,135,147279,1,2,0:1:0:0:
174,229,147379,1,0,1:0:0:0:
461,73,147579,6,0,B|350:70|392:124|280:122,1,191.999994140625,6|0,1:0|0:0,0:0:0:0:
192,163,147879,1,0,0:0:0:0:
96,174,147979,1,8,0:0:0:0:
15,121,148079,1,0,0:0:0:0:
0,34,148179,2,0,P|70:19|115:29,1,95.9999970703126,2|0,1:0|0:0,0:0:0:0:
281,107,148379,6,0,P|275:167|283:231,1,95.9999970703126
340,278,148579,1,2,1:0:0:0:
304,362,148679,1,0,0:0:0:0:
209,353,148779,1,10,0:1:0:0:
200,259,148879,1,0,0:0:0:0:
128,194,148979,2,0,P|147:244|185:277,1,95.9999970703126,0|0,0:0|0:0,0:0:0:0:
23,350,149179,6,2,P|131:317|242:323,1,191.999994140625,4|2,1:2|0:1,0:1:0:0:
294,363,149479,1,0,0:0:0:0:
388,343,149579,1,8,0:0:0:0:
428,255,149679,1,0,0:0:0:0:
379,172,149779,2,0,B|369:109|369:109|409:73|409:73|397:-1,1,191.999994140625,2|0,1:0|0:0,0:0:0:0:
300,3,150079,1,0,0:0:0:0:
204,0,150179,2,0,B|192:74|192:74|232:110|232:110|222:173,1,191.999994140625,2|10,1:0|0:1,0:0:0:0:
298,248,150479,1,0,0:0:0:0:
298,267,150579,2,0,L|299:374,1,95.9999970703126,10|0,0:1|0:0,0:0:0:0:
222,262,150779,38,2,B|115:263|159:326|45:321,1,191.999994140625,4|0,1:0|0:0,1:1:0:0:
0,236,151079,1,0,0:0:0:0:
69,170,151179,2,0,B|77:119|77:119|65:74,1,95.9999970703126,8|0,0:0|0:0,0:0:0:0:
165,197,151379,1,0,1:0:0:0:
234,131,151479,2,0,B|242:80|242:80|230:35,2,95.9999970703126,0|0|0,0:0|1:0|0:0,0:0:0:0:
316,182,151779,2,0,P|405:170|434:61,1,191.999994140625,0|8,1:0|0:0,0:0:0:0:
350,25,152079,1,0,0:0:0:0:
350,25,152179,1,0,1:0:0:0:
350,25,152379,54,0,B|294:12|294:12|209:62,1,111.999996582031,4|0,0:3|0:0,0:0:0:0:
136,80,152579,1,4,0:3:0:0:
136,80,152679,2,0,B|155:133|155:133|243:177,1,111.999996582031,8|0,0:3|0:0,0:0:0:0:
299,346,152879,1,4,0:3:0:0:
299,346,152979,2,0,B|334:229|334:229|306:118,1,223.999993164063,8|0,0:3|1:0,0:0:0:0:
239,43,153279,5,8,1:2:0:0:
171,132,153379,1,8,1:1:0:0:
110,226,153479,1,8,1:2:0:0:
196,297,153579,1,8,1:2:0:0:
291,354,153679,1,8,1:1:0:0:
364,269,153779,1,8,1:1:0:0:
429,178,153879,1,8,0:2:0:0:
341,107,153979,6,0,B|233:110|278:167|161:165,1,191.999994140625,4|0,1:0|0:0,0:0:0:0:
91,228,154279,1,0,0:0:0:0:
28,155,154379,2,0,P|37:76|59:41,1,95.9999970703126,8|0,0:0|0:0,0:0:0:0:
293,206,154579,2,0,P|271:337|231:386,1,191.999994140625,0|0,1:0|0:0,0:0:0:0:
87,304,154879,1,0,0:0:0:0:
170,350,154979,2,0,B|185:298|181:246,1,95.9999970703126,8|0,0:0|0:0,0:0:0:0:
158,64,155179,2,0,P|206:86|248:120,1,95.9999970703126,0|0,1:0|0:0,0:0:0:0:
457,280,155379,2,0,P|389:252|348:246,1,95.9999970703126,0|0,1:0|0:0,0:0:0:0:
361,29,155579,6,0,B|263:134|360:176|238:310,2,287.999991210938,0|0|0,1:0|1:0|1:0,0:0:0:0:
85,254,156379,6,0,P|136:240|187:210,1,95.9999970703126,0|0,1:0|0:0,0:0:0:0:
201,126,156579,1,0,1:0:0:0:
296,112,156679,1,0,0:0:0:0:
357,38,156779,2,0,P|425:49|462:68,1,95.9999970703126,8|0,0:0|0:0,0:0:0:0:
443,223,156979,2,0,P|379:217|332:198,1,95.9999970703126,0|0,1:0|0:0,0:0:0:0:
280,271,157179,6,0,B|296:304|296:304|277:374,1,95.9999970703126,4|0,0:0|0:0,0:0:0:0:
8,285,157379,2,0,B|7:227|7:227|128:149,1,191.999994140625,0|0,1:0|1:0,0:0:0:0:
170,238,157679,1,0,0:0:0:0:
91,271,157779,1,8,0:0:0:0:
133,347,157879,1,0,0:0:0:0:
133,347,157979,2,0,B|173:315|173:315|222:315,1,95.9999970703126,0|0,0:0|0:0,0:0:0:0:
429,254,158179,2,0,B|389:222|389:222|340:222,1,95.9999970703126,8|0,0:0|0:0,0:0:0:0:
300,337,158379,1,0,1:0:0:0:
292,241,158479,1,0,0:0:0:0:
289,145,158579,1,8,0:0:0:0:
308,50,158679,1,0,0:0:0:0:
345,87,158779,38,0,B|234:76|264:141|147:124,1,191.999994140625,2|0,1:0|1:0,0:0:0:0:
65,118,159079,2,0,P|75:182|207:263,1,191.999994140625,2|0,1:0|1:0,0:0:0:0:
257,221,159379,2,2,P|393:203|441:71,1,287.999991210938,2|0,1:0|0:0,1:2:0:0:
347,52,159779,5,2,1:0:0:0:
283,124,159879,1,0,0:0:0:0:
188,139,159979,1,2,1:1:0:0:
92,132,160079,1,0,0:0:0:0:
43,214,160179,1,0,1:0:0:0:
72,305,160279,1,0,1:0:0:0:
166,303,160379,6,0,B|236:298|236:298|267:326|267:326|351:318,1,191.999994140625,4|0,1:0|1:0,0:0:0:0:
398,252,160679,1,0,0:0:0:0:
477,211,160779,2,0,L|487:315,1,95.9999970703126,8|0,0:0|0:0,0:0:0:0:
380,164,160979,1,2,0:0:0:0:
294,206,161079,2,0,L|279:12,1,191.999994140625,0|0,1:0|0:0,0:0:0:0:
462,19,161379,1,8,0:0:0:0:
469,114,161479,1,0,0:0:0:0:
477,211,161579,2,0,L|487:315,1,95.9999970703126,4|0,1:2|0:0,0:0:0:0:
301,301,161779,5,4,1:2:0:0:
294,206,161879,1,0,0:0:0:0:
286,109,161979,2,0,L|277:4,1,95.9999970703126,4|0,1:0|0:0,0:0:0:0:
462,19,162179,2,0,L|470:133,1,95.9999970703126,0|0,1:0|0:0,0:0:0:0:
301,301,162379,2,0,L|286:102,2,191.999994140625,8|2|0,0:0|0:0|1:0,0:0:0:0:
235,370,162879,1,0,0:0:0:0:
160,309,162979,1,8,0:0:0:0:
70,343,163079,1,0,0:0:0:0:
0,273,163179,2,0,P|77:183|26:60,1,191.999994140625,4|0,1:2|1:0,0:0:0:0:
233,57,163579,38,0,B|191:81|191:81|173:140,1,95.9999970703126,4|0,1:0|0:0,0:0:0:0:
232,264,163779,2,0,B|279:266|279:266|331:237,1,95.9999970703126,0|0,1:0|0:0,0:0:0:0:
394,144,163979,2,0,B|391:93|391:93|347:60,1,95.9999970703126,0|0,0:0|1:0,0:0:0:0:
199,77,164179,6,0,B|162:108|162:108|155:169,1,95.9999970703126,0|0,1:0|0:0,0:0:0:0:
237,280,164379,2,0,B|283:272|283:272|329:234,1,95.9999970703126,4|0,0:0|0:0,0:0:0:0:
373,131,164579,2,0,B|360:81|360:81|310:57,1,95.9999970703126,2|0,0:0|1:0,0:0:0:0:
102,236,164779,6,0,P|117:280|149:317,1,95.9999970703126,8|0,0:0|0:0,0:0:0:0:
436,299,164979,2,0,P|441:257|430:188,1,95.9999970703126,4|0,1:2|0:0,0:0:0:0:
157,155,165179,22,0,B|279:153|233:249|368:246,1,223.999993164063,8|0,0:1|0:0,0:0:0:0:
434,169,165479,1,8,0:0:0:0:
361,83,165579,1,8,0:0:0:0:
249,83,165679,1,8,0:0:0:0:
140,54,165779,2,0,P|34:120|82:248,1,223.999993164063,8|0,0:1|0:0,0:0:0:0:
93,305,166079,1,8,0:0:0:0:
200,337,166179,1,8,0:0:0:0:
301,289,166279,1,8,0:0:0:0:
328,180,166379,5,8,1:2:0:0:
424,120,166479,1,8,1:2:0:0:
510,192,166579,1,8,1:2:0:0:
472,297,166679,1,8,1:2:0:0:
398,243,166779,6,0,B|470:184|470:184|469:82,1,191.999994140625,4|0,1:0|0:0,0:0:0:0:
380,46,167079,1,0,0:0:0:0:
279,80,167179,2,0,B|256:118|256:118|264:187,1,95.9999970703126,8|0,0:0|0:0,0:0:0:0:
312,228,167379,2,0,P|287:337|163:346,1,191.999994140625,0|0,1:0|0:0,0:0:0:0:
127,339,167679,1,0,0:0:0:0:
103,246,167779,2,0,P|169:244|212:259,1,95.9999970703126,8|0,0:0|0:0,0:0:0:0:
85,156,167979,2,0,P|53:119|12:95,1,95.9999970703126,0|0,1:0|0:0,0:0:0:0:
13,226,168179,2,0,P|6:274|8:322,1,95.9999970703126,0|0,1:0|0:0,0:0:0:0:
179,152,168379,6,0,B|341:142|283:247|462:235,2,287.999991210938,0|0|0,1:0|1:0|1:0,0:0:0:0:
110,84,169079,1,0,0:0:0:0:
79,175,169179,2,0,P|88:273|206:331,1,191.999994140625,0|0,1:0|1:0,0:0:0:0:
249,356,169479,2,0,P|292:298|284:253,1,95.9999970703126,0|8,0:0|0:0,0:0:0:0:
341,193,169679,1,0,0:0:0:0:
270,111,169779,2,0,P|255:166|260:227,1,95.9999970703126,0|0,1:0|0:0,0:0:0:0:
441,350,169979,6,0,P|463:243|423:138,1,191.999994140625,4|0,0:0|1:0,0:0:0:0:
359,111,170279,1,0,0:0:0:0:
306,30,170379,2,0,P|349:19|410:27,1,95.9999970703126,0|0,1:0|0:0,0:0:0:0:
217,41,170579,2,0,P|173:44|115:28,1,95.9999970703126,8|4,0:0|1:2,0:0:0:0:
264,122,170779,2,0,L|242:364,1,191.999994140625,0|12,0:0|0:0,0:0:0:0:
56,369,171179,2,0,L|73:177,1,191.999994140625,12|0,0:0|1:0,0:0:0:0:
404,371,171579,21,8,1:0:0:0:
165,304,171779,1,0,0:0:0:0:
165,304,171879,1,8,0:0:0:0:
171,206,172079,1,0,0:0:0:0:
171,206,172179,1,8,0:1:0:0:
388,64,172379,5,0,0:0:0:0:
405,87,172479,1,8,0:0:0:0:
383,105,172579,1,8,0:0:0:0:
364,82,172679,1,8,0:0:0:0:
303,34,172779,69,8,0:0:0:0:
282,108,172879,1,8,0:0:0:0:
315,177,172979,1,8,0:0:0:0:
390,190,173079,1,8,0:0:0:0:
456,151,173179,5,4,1:2:0:0:
456,151,173979,5,0,1:0:0:0:
456,151,174179,1,0,1:0:0:0:
364,178,174379,1,0,1:0:0:0:
364,178,174579,1,0,1:0:0:0:
236,122,174779,6,0,P|195:199|310:288,1,191.999994140625,4|0,1:0|0:0,0:0:0:0:
342,272,175079,1,0,0:0:0:0:
437,269,175179,2,0,P|459:318|454:362,1,95.9999970703126,0|0,1:0|0:0,0:0:0:0:
160,374,175379,2,0,P|147:330|158:283,1,95.9999970703126,2|0,0:0|0:0,0:0:0:0:
331,101,175579,6,0,B|356:140|356:140|341:203,1,95.9999970703126,0|0,1:0|0:0,0:0:0:0:
239,206,175779,2,0,B|216:158|216:158|226:103,1,95.9999970703126,0|0,1:0|0:0,0:0:0:0:
343,25,175979,2,0,B|242:17|272:67|149:56,1,191.999994140625,8|0,0:0|1:0,0:0:0:0:
60,45,176279,5,0,0:0:0:0:
113,124,176379,2,0,B|129:177|129:177|87:237|87:237|106:311,1,191.999994140625,4|0,1:2|0:0,0:0:0:0:
183,351,176679,1,0,0:0:0:0:
242,275,176779,2,0,L|348:285,1,95.9999970703126,0|0,1:0|0:0,0:0:0:0:
478,206,176979,2,0,L|254:188,1,191.999994140625,0|0,1:0|0:0,0:0:0:0:
207,121,177279,1,0,0:0:0:0:
256,57,177379,2,0,L|360:65,1,95.9999970703126,0|0,1:0|0:0,0:0:0:0:
480,206,177579,1,0,1:0:0:0:
467,301,177679,1,0,0:0:0:0:
403,352,177779,2,0,L|307:344,1,95.9999970703126,0|0,1:0|0:0,0:0:0:0:
178,268,177979,6,0,B|119:286|119:286|55:263,1,111.999996582031,4|0,1:0|0:0,0:0:0:0:
15,190,178179,2,0,B|84:162|84:162|253:202,1,223.999993164063,8|0,0:0|0:0,0:0:0:0:
304,256,178479,5,8,0:0:0:0:
398,272,178579,2,0,P|409:217|390:164,1,95.9999970703126,0|0,1:0|0:0,0:0:0:0:
304,156,178779,2,0,P|300:61|389:31,1,191.999994140625,0|8,1:0|0:0,0:0:0:0:
458,81,179079,1,0,0:0:0:0:
491,170,179179,2,0,P|496:220|493:281,1,95.9999970703126,8|0,0:0|0:0,0:0:0:0:
310,360,179379,2,0,P|306:305|307:262,1,95.9999970703126,8|0,0:0|0:0,0:0:0:0:
225,103,179579,5,6,1:0:0:0:
182,81,179679,1,0,0:0:0:0:
136,96,179779,1,0,0:0:0:0:
90,80,179879,1,2,0:0:0:0:
51,108,179979,2,0,P|68:221|152:302,1,191.999994140625,8|4,0:0|1:2,0:0:0:0:
211,321,180279,5,0,0:0:0:0:
258,319,180379,1,0,0:0:0:0:
300,340,180479,1,0,0:0:0:0:
347,336,180579,2,0,L|315:230,1,95.9999970703126,8|0,0:0|0:0,0:0:0:0:
373,108,180779,6,0,P|418:150|416:212,1,95.9999970703126,4|0,1:2|0:1,0:0:0:0:
188,246,180979,2,0,P|170:198|193:127,1,95.9999970703126,2|8,0:1|0:0,0:0:0:0:
288,63,181179,5,4,1:2:0:0:
263,104,181279,1,0,0:0:0:0:
284,146,181379,1,0,0:0:0:0:
265,190,181479,1,2,0:2:0:0:
281,235,181579,2,0,P|378:247|386:359,1,191.999994140625,8|4,0:0|1:2,0:0:0:0:
239,317,181879,37,0,0:0:0:0:
192,330,181979,1,0,0:0:0:0:
152,302,182079,1,0,0:0:0:0:
107,320,182179,2,0,P|61:275|62:205,1,95.9999970703126,8|0,0:0|0:0,0:0:0:0:
188,109,182379,6,0,B|159:144|159:144|160:203,1,95.9999970703126,4|0,1:2|0:0,0:0:0:0:
261,236,182579,2,0,B|296:203|296:203|299:150,1,95.9999970703126,2|0,1:0|0:0,0:0:0:0:
274,37,182779,5,4,1:2:0:0:
270,53,182879,1,0,0:0:0:0:
262,45,182979,1,0,0:0:0:0:
283,52,183079,1,2,0:0:0:0:
274,37,183179,2,0,B|369:34|340:101|476:106,1,191.999994140625,8|4,0:0|1:2,0:0:0:0:
501,184,183479,5,0,0:0:0:0:
467,230,183579,1,0,0:0:0:0:
477,281,183679,1,0,0:0:0:0:
456,334,183779,2,0,P|403:331|361:335,1,95.9999970703126,8|0,0:0|0:0,0:0:0:0:
169,207,183979,38,0,P|140:240|136:311,1,95.9999970703126,4|0,1:2|0:0,0:0:0:0:
302,359,184179,2,0,P|317:309|315:251,1,95.9999970703126,0|8,0:0|0:0,0:0:0:0:
272,116,184379,5,4,0:0:0:0:
254,190,184479,1,0,0:0:0:0:
236,264,184579,1,2,0:0:0:0:
207,335,184679,1,0,0:0:0:0:
172,362,184779,2,0,P|93:362|63:244,1,191.999994140625,8|4,0:0|1:2,0:0:0:0:
95,192,185079,5,2,0:1:0:0:
137,127,185179,1,2,1:0:0:0:
79,75,185279,1,0,0:0:0:0:
15,114,185379,1,2,1:0:0:0:
19,191,185479,1,0,0:0:0:0:
30,182,185579,22,2,P|88:175|132:191,1,95.9999970703126,2|0,1:0|0:0,1:2:0:0:
244,265,185779,6,2,P|298:271|372:252,1,95.9999970703126,2|0,1:0|0:0,1:2:0:0:
438,144,185979,5,6,1:0:0:0:
399,174,186079,1,0,0:0:0:0:
351,180,186179,1,0,0:0:0:0:
307,158,186279,1,2,0:0:0:0:
259,163,186379,2,0,P|191:132|278:53,1,191.999994140625,8|4,0:0|1:2,0:0:0:0:
309,0,186679,5,0,0:0:0:0:
353,18,186779,1,0,0:0:0:0:
375,60,186879,1,0,0:0:0:0:
372,107,186979,2,0,L|478:88,1,95.9999970703126,8|0,0:0|0:0,0:0:0:0:
475,275,187179,6,0,P|378:239|350:241,1,95.9999970703126,4|0,1:2|0:0,0:0:0:0:
161,348,187379,2,0,P|203:369|255:372,1,95.9999970703126,2|8,0:1|0:0,0:0:0:0:
351,358,187579,5,4,1:2:0:0:
322,286,187679,1,0,0:0:0:0:
252,253,187779,1,0,0:0:0:0:
223,181,187879,1,2,0:0:0:0:
264,116,187979,2,0,P|183:115|132:231,1,191.999994140625,8|4,0:0|1:2,0:0:0:0:
52,291,188279,37,0,0:0:0:0:
0,316,188379,1,0,0:0:0:0:
26,367,188479,1,0,0:0:0:0:
77,341,188579,2,0,P|49:235|58:137,1,191.999994140625,8|4,0:0|1:2,0:0:0:0:
126,107,188879,5,0,0:0:0:0:
156,122,188979,2,0,L|257:117,1,95.9999970703126,2|0,0:1|0:0,0:0:0:0:
317,63,189179,2,2,L|427:71,1,95.9999970703126,4|0,1:2|0:0,0:1:0:0:
472,113,189379,1,2,0:1:0:0:
445,183,189479,1,2,1:2:0:0:
461,259,189579,2,2,L|262:245,1,191.999994140625,8|0,0:0|0:0,0:1:0:0:
198,274,189879,5,2,0:1:0:0:
141,325,189979,1,8,0:0:0:0:
209,359,190079,1,0,0:0:0:0:
276,323,190179,2,0,L|479:338,1,191.999994140625,2|8,1:0|0:0,0:1:0:0:
478,262,190479,5,0,0:0:0:0:
460,241,190579,2,0,L|358:231,1,95.9999970703126,2|0,0:1|0:0,0:0:0:0:
221,147,190779,5,4,1:2:0:0:
414,121,190979,1,8,0:0:0:0:
414,121,191079,1,0,0:1:0:0:
414,121,191179,1,8,0:0:0:0:
92,86,191384,5,2,0:0:0:0:
57,158,191589,1,0,1:0:0:0:
57,158,191692,1,0,1:1:0:0:
248,330,192000,69,0,1:2:0:0:
248,330,192206,5,0,1:2:0:0:
