osu file format v14

[General]
AudioFilename: audio.mp3
AudioLeadIn: 0
PreviewTime: 47779
Countdown: 0
SampleSet: Soft
StackLeniency: 0.7
Mode: 0
LetterboxInBreaks: 0
WidescreenStoryboard: 0

[Editor]
DistanceSpacing: 1.2
BeatDivisor: 4
GridSize: 4
TimelineZoom: 1.4

[Metadata]
Title:Kagami no Sekai ni wa Watashi shika Inai -another version-
TitleUnicode:鏡の世界には私しかいない -another version-
Artist:monet
ArtistUnicode:monet
Creator:Mirash
Version:Easy
Source:素晴らしき日々~不連続存在~
Tags:PandaHero SubaHibi Subarashiki Hibi ~Furenzoku Sonzai~ Wonderful Everyday ~Diskontinuierliches Dasein~ Naglfar no Senjou nite すかぢ SCA-ji ピクセルビー Pixelbee visual novel vn
BeatmapID:1478540
BeatmapSetID:685725

[Difficulty]
HPDrainRate:3
CircleSize:3
OverallDifficulty:3
ApproachRate:3
SliderMultiplier:0.5
SliderTickRate:1

[Events]
//Background and Video events
0,0,"nospoilers.jpg",0,0
//Break Periods
2,22979,27739
2,86979,91739
2,137979,139379
//Storyboard Layer 0 (Background)
//Storyboard Layer 1 (Fail)
//Storyboard Layer 2 (Pass)
//Storyboard Layer 3 (Foreground)
//Storyboard Sound Samples

[TimingPoints]
379,400,4,2,1,50,1,0
5179,-100,4,2,1,60,0,0
19579,-100,4,2,1,65,0,0
22779,-100,4,2,1,30,0,0
27579,-100,4,2,1,50,0,0
29179,-100,4,2,1,55,0,0
34379,-100,4,2,1,55,0,0
35579,-100,4,2,1,60,0,0
45179,-100,4,2,1,50,0,0
46379,-100,4,2,1,60,0,0
48179,-100,4,2,1,70,0,0
48379,-100,4,2,1,70,0,0
59579,-100,4,2,3,70,0,0
61179,-100,4,2,1,70,0,0
65979,-100,4,2,3,70,0,0
67579,-100,4,2,1,60,0,0
69179,-100,4,2,1,70,0,0
85379,-100,4,2,3,70,0,0
86779,-100,4,2,3,30,0,0
93179,-100,4,2,1,60,0,0
98379,-100,4,2,1,50,0,0
98779,-100,4,2,1,55,0,0
99179,-100,4,2,1,60,0,0
99579,-100,4,2,1,65,0,0
109179,-100,4,2,1,60,0,0
109579,-100,4,2,1,50,0,0
109979,-100,4,2,1,60,0,0
110379,-100,4,2,1,45,0,0
110779,-100,4,2,1,70,0,0
112379,-100,4,2,1,70,0,0
123579,-100,4,2,3,70,0,0
125179,-100,4,2,1,70,0,0
129979,-100,4,2,3,70,0,0
131579,-100,4,2,1,60,0,0
133179,-100,4,2,1,70,0,0
137979,-100,4,2,1,50,0,0
138979,-100,4,2,1,60,0,0
139379,-100,4,2,1,65,0,0
141179,-100,4,2,1,70,0,0
152379,-100,4,2,1,70,0,0
153579,-100,4,2,3,70,0,0
153979,-100,4,2,1,70,0,0
165179,-100,4,2,3,70,0,0
166779,-100,4,2,1,70,0,0
171579,-100,4,2,3,70,0,0
173179,-100,4,2,1,60,0,0
174779,-100,4,2,1,70,0,0
177979,-100,4,2,1,70,0,0
178479,-100,4,2,1,70,0,0
191179,410.958904109589,4,2,1,70,1,0

[Colours]
Combo1 : 70,176,191
Combo2 : 238,30,35
Combo3 : 255,255,255
Combo4 : 72,101,153
Combo5 : 186,67,145
Combo6 : 112,103,186

[HitObjects]
377,86,379,38,0,P|332:96|274:158,1,125,0|0,1:0|1:0,0:0:0:0:
287,239,1979,1,0,1:0:0:0:
287,239,3579,6,0,P|236:242|174:187,1,125,0|0,1:0|1:0,0:0:0:0:
148,114,5179,2,0,P|119:116|24:210,1,150,0|0,1:0|0:0,0:0:0:0:
15,248,6779,6,0,P|47:245|95:251,1,75,4|0,1:0|0:0,0:0:0:0:
150,315,7979,1,0,1:0:0:0:
207,332,8379,2,0,P|242:306|277:299,1,75,4|0,0:0|0:0,0:0:0:0:
359,320,9579,1,0,1:0:0:0:
403,279,9979,6,0,P|420:229|342:99,1,200,4|4,0:0|0:0,0:0:0:0:
291,43,12179,2,0,P|272:71|258:113,1,75,2|0,0:0|1:0,0:0:0:0:
224,159,13179,38,0,P|186:183|76:175,1,150,4|0,1:0|1:0,0:0:0:0:
29,154,14779,2,0,P|46:98|131:52,1,150,4|0,0:0|1:0,0:0:0:0:
173,82,16379,6,0,P|242:85|257:90,1,75,4|2,0:0|0:0,0:0:0:0:
313,147,17579,1,0,1:0:0:0:
372,137,17979,2,0,P|394:181|398:214,1,75,4|4,1:2|1:2,0:0:0:0:
341,276,19179,1,0,1:0:0:0:
256,192,19579,12,0,22779,0:0:0:0:
137,271,29179,6,0,P|211:268|255:201,1,150,0|0,1:0|1:0,0:0:0:0:
226,157,30779,2,0,P|175:147|134:145,2,75,0|2|0,1:0|1:2|1:0,0:0:0:0:
282,136,32379,6,0,P|332:125|395:248,1,200,0|4,1:0|1:0,0:0:0:0:
188,344,35579,38,0,P|140:337|111:321,1,75,4|0,1:0|1:0,0:0:0:0:
96,237,36779,1,0,1:0:0:0:
135,191,37179,2,0,L|303:207,1,150,4|0,0:0|1:0,0:0:0:0:
328,245,38779,6,0,P|376:199|382:178,2,75,4|0|0,1:0|1:0|1:0,0:0:0:0:
284,205,40379,2,0,P|273:143|300:51,1,150,4|0,1:2|1:0,0:0:0:0:
353,47,41979,6,0,P|391:66|435:172,1,150,4|0,1:0|1:0,0:0:0:0:
398,206,43579,2,0,P|383:251|396:364,1,150,0|0,1:0|1:0,0:0:0:0:
331,361,45179,6,0,L|168:352,1,150,0|0,3:0|1:0,0:0:0:0:
181,352,48379,38,0,P|139:298|146:258,1,100,4|0,1:0|0:0,0:0:0:0:
188,232,49579,1,0,1:0:0:0:
244,210,49979,2,0,L|333:223,2,75,0|0|8,1:0|1:0|0:0,0:0:0:0:
202,166,51579,6,0,P|139:144|89:144,1,100,4|0,0:0|0:0,0:0:0:0:
47,156,52779,1,0,1:0:0:0:
27,99,53179,2,0,P|69:48|161:46,1,150,2|4,1:0|1:0,0:1:0:0:
176,93,54779,6,0,L|227:97,1,50,4|8,1:2|0:0,0:0:0:0:
281,118,55579,2,0,L|341:113,1,50,0|4,1:0|1:2,0:0:0:0:
379,80,56379,2,0,P|410:122|406:224,1,150,4|4,1:0|1:2,0:0:0:0:
353,238,57979,6,0,P|340:263|333:309,2,75,4|0|8,1:0|1:0|0:0,0:0:0:0:
412,233,59579,22,0,P|451:266|424:362,1,150,8|8,0:1|1:2,0:0:0:0:
375,365,61179,6,0,L|226:342,1,150,4|0,1:0|1:0,0:0:0:0:
190,294,62779,2,0,P|151:292|110:302,2,75,0|0|8,1:0|1:0|0:0,0:0:0:0:
241,263,64379,6,0,P|252:175|206:66,1,200,4|8,0:0|1:0,0:0:0:0:
19,216,67579,6,0,L|6:335,2,100,4|0|4,1:2|1:0|1:0,0:0:0:0:
51,165,69579,1,0,1:0:0:0:
105,139,69979,2,0,L|168:148,1,50,0|8,1:0|0:0,0:0:0:0:
198,187,70779,6,0,P|248:194|286:173,2,75,4|0|0,1:2|1:0|1:0,0:0:0:0:
154,146,72379,2,0,P|232:93|299:107,1,150,4|8,1:0|0:0,0:0:0:0:
338,124,73979,38,0,P|363:157|374:206,2,75,6|4|4,1:0|1:2|1:2,0:1:0:0:
349,65,75579,2,0,P|386:53|429:49,2,75,4|4|4,1:2|1:2|1:2,0:1:0:0:
297,94,77179,6,0,P|258:108|141:81,1,150,4|4,1:2|1:2,0:1:0:0:
95,75,78779,2,0,P|58:104|64:219,1,150,4|2,1:2|1:0,0:1:0:0:
107,220,80379,6,0,P|145:219|184:211,2,75,6|4|4,1:0|1:2|1:2,0:0:0:0:
67,265,81979,2,0,P|49:298|24:326,2,75,4|4|4,1:2|1:2|1:2,0:1:0:0:
256,192,83579,12,0,86779,0:0:0:0:
417,242,93179,6,0,P|371:243|335:250,1,75,0|0,1:0|1:0,0:0:0:0:
267,287,94379,1,4,1:2:0:0:
208,272,94779,2,0,B|215:193|164:206|171:123,1,150,0|0,1:0|1:0,0:0:0:0:
207,82,96379,38,0,P|246:74|381:165,1,200,4|0,1:0|1:0,0:0:0:0:
360,209,98379,1,8,0:0:0:0:
397,255,98779,2,0,L|470:251,1,50,8|8,0:0|0:0,0:0:0:0:
482,300,99579,6,0,P|461:341|358:353,1,150,4|0,1:0|1:0,0:0:0:0:
309,337,101179,2,0,P|270:336|221:350,2,75,4|8|6,0:0|0:0|0:0,0:0:0:0:
347,291,102779,6,0,P|350:254|260:199,1,150,4|8,1:0|0:0,0:0:0:0:
220,236,104379,2,0,L|141:225,1,75,4|0,1:0|1:0,0:0:0:0:
63,189,105579,1,0,1:0:0:0:
73,129,105979,6,0,P|127:87|228:94,1,150,4|2,1:0|0:0,0:0:0:0:
256,116,107579,2,0,P|305:130|334:130,2,75,4|0|0,1:0|1:0|1:0,0:0:0:0:
205,83,109179,38,0,P|239:48|389:72,1,200,4|4,1:0|1:0,0:0:0:0:
460,285,112379,6,0,B|375:283|393:323|309:315,1,150,4|0,1:0|1:0,0:0:0:0:
256,303,113979,2,0,P|220:323|194:357,2,75,0|0|8,1:0|1:0|0:0,0:0:0:0:
281,248,115579,6,0,P|291:195|217:120,1,150,4|0,0:0|1:0,0:0:0:0:
180,150,117179,2,0,L|100:142,2,75,2|2|2,1:0|1:0|1:1,0:0:0:0:
234,124,118779,6,0,P|279:100|382:105,1,150,4|4,1:0|1:2,0:0:0:0:
419,143,120379,2,0,P|399:219|370:296,1,150,4|4,1:0|1:2,0:0:0:0:
256,192,121979,12,4,123579,1:0:0:0:
54,207,125179,38,0,L|211:220,1,150,4|0,1:0|1:0,0:0:0:0:
262,207,126779,2,0,P|272:172|272:128,2,75,0|0|8,1:0|1:0|0:0,0:0:0:0:
249,265,128379,6,0,P|276:304|376:300,1,150,4|12,0:0|0:0,0:0:0:0:
420,268,129979,38,0,P|468:265|512:283,2,75,8|8|8,1:0|0:1|0:0,0:0:0:0:
372,232,131579,21,4,1:2:0:0:
295,139,132379,1,0,1:0:0:0:
185,188,133179,2,0,P|147:227|157:322,1,150,4|0,1:0|1:0,0:0:0:0:
210,335,134779,6,0,L|369:313,1,150,4|0,1:2|1:0,0:0:0:0:
397,268,136379,2,0,P|380:228|374:187,2,75,0|2|2,1:0|1:2|1:2,0:0:0:0:
397,268,141179,6,0,P|350:283|303:286,1,75,2|2,1:0|1:0,0:0:0:0:
235,298,142379,1,10,0:1:0:0:
187,262,142779,2,0,P|204:227|213:173,2,75,4|2|8,1:2|1:0|0:0,0:0:0:0:
135,293,144379,6,0,P|82:274|72:170,1,150,6|10,1:0|0:1,0:0:0:0:
114,161,145979,2,0,P|151:172|192:197,2,75,4|10|8,1:2|0:1|0:0,0:0:0:0:
64,126,147579,38,0,P|89:78|194:82,1,150,6|10,1:0|0:1,0:0:0:0:
212,117,149179,2,0,L|376:128,1,150,4|10,1:2|0:1,0:0:0:0:
416,103,150779,6,0,P|467:130|478:229,1,150,4|8,1:0|0:0,0:0:0:0:
465,272,152379,54,0,P|432:297|324:284,1,150,4|8,0:3|1:2,0:0:0:0:
279,254,153979,6,0,P|245:252|195:265,2,75,4|0|0,1:0|1:0|1:0,0:0:0:0:
328,288,155579,2,0,P|315:331|309:380,2,75,0|0|8,1:0|1:0|0:0,0:0:0:0:
356,234,157179,6,0,P|362:189|291:111,1,150,4|0,0:0|1:0,0:0:0:0:
244,137,158779,2,0,P|210:157|159:158,1,75,2|2,1:0|1:0,0:0:0:0:
90,128,159979,1,2,1:1:0:0:
30,133,160379,6,0,P|18:183|30:244,1,100,4|0,1:0|1:0,0:0:0:0:
74,264,161579,1,4,1:2:0:0:
131,247,161979,2,0,P|180:253|242:275,1,100,4|0,1:0|1:0,0:0:0:0:
252,323,163179,1,4,1:2:0:0:
311,314,163579,6,0,P|353:284|350:184,1,150,4|8,1:0|0:0,0:0:0:0:
295,190,165179,6,0,P|254:176|135:198,1,150,8|8,0:1|1:2,0:0:0:0:
91,176,166779,22,0,P|72:274|69:333,1,150,4|0,1:0|1:0,0:0:0:0:
119,356,168379,2,0,P|175:344|214:340,1,75,0|0,1:0|1:0,0:0:0:0:
281,353,169579,1,8,0:0:0:0:
340,358,169979,6,0,P|360:307|327:201,1,150,4|12,0:0|0:0,0:0:0:0:
256,192,171579,12,4,173179,1:0:0:0:
339,216,174779,6,0,P|346:166|420:91,1,150,4|8,1:0|0:0,0:0:0:0:
451,139,176379,6,0,L|427:309,1,150,4|0,1:2|1:0,0:0:0:0:
375,311,177979,22,0,P|337:338|312:360,2,75,4|0|8,1:0|1:0|0:0,0:0:0:0:
376,250,179579,6,0,P|332:236|309:208,1,75,6|4,1:0|1:2,0:0:0:0:
287,129,180779,1,4,1:2:0:0:
227,127,181179,2,0,L|143:137,1,75,4|4,1:2|1:2,0:0:0:0:
63,149,182379,1,4,1:2:0:0:
44,207,182779,6,0,P|71:264|74:297,2,75,4|4|4,1:2|1:2|1:2,0:0:0:0:
23,150,184379,2,0,P|20:103|116:61,1,150,4|2,0:2|1:0,0:0:0:0:
148,91,185979,6,0,L|225:99,1,75,6|4,1:0|1:2,0:0:0:0:
312,91,187179,1,4,1:2:0:0:
365,64,187579,2,0,P|381:101|385:141,1,75,4|4,1:2|1:2,0:0:0:0:
340,213,188779,1,4,1:2:0:0:
308,264,189179,6,0,P|313:313|323:336,2,75,4|4|8,1:2|1:2|0:0,0:0:0:0:
265,220,190779,5,4,1:2:0:0:
202,282,191385,2,0,P|167:301|124:307,1,75,0|0,1:0|1:2,0:0:0:0:
