osu file format v14

[General]
AudioFilename: audio.mp3
AudioLeadIn: 0
PreviewTime: 84663
Countdown: 0
SampleSet: Normal
StackLeniency: 0.7
Mode: 1
LetterboxInBreaks: 0
WidescreenStoryboard: 0

[Editor]
Bookmarks: 35913,59328
DistanceSpacing: 1.3
BeatDivisor: 8
GridSize: 4
TimelineZoom: 2.999999

[Metadata]
Title:GHOSTxGRADUATION
TitleUnicode:GHOST×GRADUATION
Artist:monet
ArtistUnicode:monet
Creator:Skylish
Version:GraduatiOni
Source:はつゆきさくら
Tags:Hatsuyuki Sakura ending VisualArt's SAGA PLANETS galgame eroge
BeatmapID:1107717
BeatmapSetID:521523

[Difficulty]
HPDrainRate:6
CircleSize:5
OverallDifficulty:5
ApproachRate:5
SliderMultiplier:1.6
SliderTickRate:1

[Events]
//Background and Video events
0,0,"SiglusEngine 2013-06-18 19-32-23-78.jpg",0,40
//Break Periods
//Storyboard Layer 0 (Background)
//Storyboard Layer 1 (Fail)
//Storyboard Layer 2 (Pass)
//Storyboard Layer 3 (Foreground)
//Storyboard Sound Samples

[TimingPoints]
792,731.707317073171,4,1,0,20,1,0
14694,-100,4,1,0,30,0,0
15060,-100,4,1,0,20,0,0
59328,-100,4,1,0,35,0,0
79816,-100,4,1,0,45,0,0
84206,-100,4,1,0,50,0,0
85670,-100,4,1,0,55,0,1
112011,-100,4,1,0,55,0,0
120792,-100,4,1,0,30,0,0
122255,-100,4,1,0,35,0,0
122895,-100,4,1,0,40,0,0
123718,-100,4,1,0,45,0,0
144206,-100,4,1,0,50,0,0
150060,-100,4,1,0,55,0,1
173474,-100,4,1,0,30,0,0
180974,-100,4,1,0,45,0,0
182255,-100,4,1,0,30,0,0
184816,-100,4,1,0,35,0,0
185182,733.94495412844,4,1,0,40,1,0
187383,-100,4,1,0,45,0,0
187750,-100,4,1,0,40,0,0
189952,743.034055727554,4,1,0,40,1,8
191066,740.740740740741,4,1,0,40,1,0
192547,750,4,1,0,35,1,8
193857,-100,4,1,0,45,0,0
194047,757.097791798107,4,1,0,45,1,0
194047,-97.0873786407767,4,1,0,45,0,0
196696,-97.0873786407767,4,1,0,20,0,0
197075,740.740740740741,4,1,0,20,1,0
208186,750,4,1,0,60,1,8
208936,740.740740740741,4,1,0,30,1,0
213380,750,4,1,0,30,1,8
214130,731.707317073171,4,1,0,30,1,8
214861,731.707317073171,4,1,0,35,1,0
217787,731.707317073171,4,1,0,30,1,8
218153,769.230769230769,4,1,0,20,1,0
218153,-94.3396226415094,4,1,0,20,0,0
219883,729.483282674772,4,1,0,20,1,8
220794,731.707317073171,4,1,0,20,1,0
223720,-100,4,1,0,30,0,0
225915,-100,4,1,0,30,0,0
226647,736.196319018405,4,1,0,20,1,0
228119,747.663551401869,4,1,0,30,1,8
228119,-98.0392156862745,4,1,0,30,0,0
228866,740.740740740741,4,1,0,20,1,8
228866,-99.009900990099,4,1,0,20,0,0
229606,714.285714285714,4,1,0,30,1,0
229606,-103.092783505155,4,1,0,30,0,0
230320,789.473684210526,4,1,0,20,1,8
230320,-93.4579439252336,4,1,0,20,0,0
230714,740.740740740741,4,1,0,20,1,8
232565,736.196319018405,4,1,0,30,1,0
234037,-100,4,1,0,35,0,0
235509,-100,4,1,0,30,0,0
238454,740.740740740741,4,1,0,25,1,0
238454,-99.009900990099,4,1,0,25,0,0
241046,-99.009900990099,4,1,0,30,0,0
241231,-99.009900990099,4,1,0,35,0,0
241411,731.707317073171,4,1,0,45,1,0
242142,-100,4,1,0,50,0,0
242874,-100,4,1,0,45,0,0
244337,-100,4,1,0,50,0,0
245069,-100,4,1,0,45,0,0
246167,-100,4,1,0,50,0,0
246532,-100,4,1,0,45,0,0
247264,-100,4,1,0,50,0,0
247996,-100,4,1,0,35,0,0
248728,-100,4,1,0,50,0,0
251654,-100,4,1,0,30,0,0
253850,-100,4,1,0,55,0,0
254581,731.707317073171,4,1,0,55,1,1
283849,-100,4,1,0,55,0,0
307263,731.707317073171,4,1,0,60,1,0
307269,722.89156626506,4,1,0,25,1,0
307269,-101.010101010101,4,1,0,25,0,8
309437,705.882352941176,4,1,0,40,1,8
309437,-104.166666666667,4,1,0,40,0,0
309789,769.230769230769,4,1,0,40,1,8
309789,-95.2380952380952,4,1,0,40,0,0
310173,736.196319018405,4,1,0,35,1,0
310173,-101.010101010101,4,1,0,35,0,0
312381,-100,4,1,0,30,0,0
313117,769.230769230769,4,1,0,20,1,0
313117,-105.263157894737,4,1,0,20,0,0
314655,1379.31034482759,4,1,0,20,1,0
316034,1726.61870503597,4,1,0,20,1,0

[HitObjects]
248,192,426,5,0,0:0:0:0:
248,192,609,1,0,0:0:0:0:
248,192,792,5,8,0:0:0:0:
256,176,1157,1,0,0:0:0:0:
248,196,1523,1,8,0:0:0:0:
248,196,1889,1,8,0:0:0:0:
244,200,2255,1,0,0:0:0:0:
244,192,2987,1,0,0:0:0:0:
244,192,3352,1,8,0:0:0:0:
244,192,3718,1,0,0:0:0:0:
248,180,4450,1,0,0:0:0:0:
248,180,4816,1,0,0:0:0:0:
248,180,5182,1,8,0:0:0:0:
248,180,5548,1,0,0:0:0:0:
248,180,5913,1,8,0:0:0:0:
248,180,6279,1,8,0:0:0:0:
244,184,6645,1,0,0:0:0:0:
244,180,7743,1,8,0:0:0:0:
240,184,9206,1,8,0:0:0:0:
240,184,9572,1,0,0:0:0:0:
240,184,9938,1,0,0:0:0:0:
240,184,10304,1,8,0:0:0:0:
240,184,11035,1,0,0:0:0:0:
236,200,11767,1,0,0:0:0:0:
248,196,11950,1,8,0:0:0:0:
248,192,12133,1,0,0:0:0:0:
248,192,12316,1,0,0:0:0:0:
248,192,12499,5,8,0:0:0:0:
256,192,13231,1,0,0:0:0:0:
256,192,13962,1,8,0:0:0:0:
256,192,14694,1,0,0:0:0:0:
264,184,15060,1,8,0:0:0:0:
264,184,15243,1,8,0:0:0:0:
264,184,15426,1,0,0:0:0:0:
260,184,16523,1,8,0:0:0:0:
260,176,16889,1,0,0:0:0:0:
260,184,17255,1,0,0:0:0:0:
260,184,17621,1,8,0:0:0:0:
256,172,17987,1,0,0:0:0:0:
256,176,18352,1,8,0:0:0:0:
268,184,19999,1,0,0:0:0:0:
268,184,20182,1,0,0:0:0:0:
268,184,20365,1,8,0:0:0:0:
264,188,20548,1,8,0:0:0:0:
268,184,20731,1,0,0:0:0:0:
268,188,20913,1,8,0:0:0:0:
268,188,21096,1,0,0:0:0:0:
280,180,21279,1,0,0:0:0:0:
280,180,21645,1,0,0:0:0:0:
280,184,22011,1,8,0:0:0:0:
276,192,22377,1,0,0:0:0:0:
276,192,22560,1,8,0:0:0:0:
272,176,22743,1,0,0:0:0:0:
272,184,23840,1,0,0:0:0:0:
272,184,24206,5,8,0:0:0:0:
252,184,25304,1,8,0:0:0:0:
256,184,26767,1,0,0:0:0:0:
256,184,27133,1,8,0:0:0:0:
256,184,28231,1,8,0:0:0:0:
256,184,29694,1,0,0:0:0:0:
256,184,30060,1,8,0:0:0:0:
280,180,31157,1,8,0:0:0:0:
280,184,32621,1,8,0:0:0:0:
280,184,32987,1,8,0:0:0:0:
280,192,34084,1,8,0:0:0:0:
240,184,35913,5,0,0:0:0:0:
200,140,36645,1,0,0:0:0:0:
200,140,37011,1,8,0:0:0:0:
200,140,37377,1,0,0:0:0:0:
224,176,38109,1,8,0:0:0:0:
224,176,38840,1,0,0:0:0:0:
224,176,39572,1,0,0:0:0:0:
224,176,39938,1,8,0:0:0:0:
232,180,40670,1,0,0:0:0:0:
232,184,41035,1,8,0:0:0:0:
232,184,41401,1,0,0:0:0:0:
232,184,41767,1,8,0:0:0:0:
248,200,42499,1,0,0:0:0:0:
248,200,42865,1,8,0:0:0:0:
248,200,43231,1,0,0:0:0:0:
248,200,43962,1,8,0:0:0:0:
248,200,44328,1,8,0:0:0:0:
248,200,44694,1,0,0:0:0:0:
240,180,45792,1,0,0:0:0:0:
240,180,46157,1,0,0:0:0:0:
240,180,46523,1,0,0:0:0:0:
240,180,46889,1,8,0:0:0:0:
240,180,47255,1,0,0:0:0:0:
240,180,47438,1,0,0:0:0:0:
240,180,47621,1,8,0:0:0:0:
252,200,48352,1,8,0:0:0:0:
252,200,49084,1,8,0:0:0:0:
248,188,49816,1,0,0:0:0:0:
248,188,50548,1,8,0:0:0:0:
248,192,51279,1,8,0:0:0:0:
248,192,52011,1,0,0:0:0:0:
236,164,52377,1,0,0:0:0:0:
236,164,52743,1,8,0:0:0:0:
236,164,53109,1,0,0:0:0:0:
236,164,53292,1,0,0:0:0:0:
236,164,53474,1,8,0:0:0:0:
236,164,54206,1,8,0:0:0:0:
236,168,54938,1,8,0:0:0:0:
236,168,55670,1,0,0:0:0:0:
236,168,56401,1,12,0:0:0:0:
264,192,57865,1,4,0:0:0:0:
268,176,58413,1,0,0:0:0:0:
268,176,58505,1,0,0:0:0:0:
268,184,58596,1,8,0:0:0:0:
260,176,58779,1,0,0:0:0:0:
268,184,58962,1,8,0:0:0:0:
264,184,59328,5,4,0:0:0:0:
256,164,59694,1,0,0:0:0:0:
256,164,60060,1,8,0:0:0:0:
256,164,60426,1,8,0:0:0:0:
256,164,60609,1,0,0:0:0:0:
248,156,60792,1,0,0:0:0:0:
248,156,61157,1,0,0:0:0:0:
248,156,61523,1,8,0:0:0:0:
236,152,61889,1,8,0:0:0:0:
232,136,62255,1,0,0:0:0:0:
228,144,62621,1,0,0:0:0:0:
228,144,62987,1,8,0:0:0:0:
208,132,63170,1,8,0:0:0:0:
216,128,63352,1,0,0:0:0:0:
212,128,63718,1,8,0:0:0:0:
248,176,64450,1,8,0:0:0:0:
248,176,64816,1,0,0:0:0:0:
248,176,65182,5,8,0:0:0:0:
260,184,65548,1,0,0:0:0:0:
260,184,65913,1,8,0:0:0:0:
260,184,66279,1,8,0:0:0:0:
260,184,66462,1,0,0:0:0:0:
260,184,66645,1,0,0:0:0:0:
260,184,67011,1,0,0:0:0:0:
260,184,67377,1,8,0:0:0:0:
280,184,67743,1,0,0:0:0:0:
280,184,68109,1,8,0:0:0:0:
280,184,68474,1,0,0:0:0:0:
280,184,68840,1,8,0:0:0:0:
280,184,69206,1,0,0:0:0:0:
280,184,69572,1,8,0:0:0:0:
280,184,69755,1,8,0:0:0:0:
280,184,69938,1,0,0:0:0:0:
240,144,70121,1,0,0:0:0:0:
280,184,70304,1,8,0:0:0:0:
264,156,70670,1,0,0:0:0:0:
264,156,70852,1,0,0:0:0:0:
264,156,71035,1,8,0:0:0:0:
276,168,71401,1,0,0:0:0:0:
264,156,71767,1,8,0:0:0:0:
276,168,72133,1,0,0:0:0:0:
276,168,72316,1,8,0:0:0:0:
276,168,72499,1,0,0:0:0:0:
276,168,72865,1,0,0:0:0:0:
264,156,73231,1,8,0:0:0:0:
268,148,73596,1,8,0:0:0:0:
268,148,73779,1,0,0:0:0:0:
268,148,73962,1,8,0:0:0:0:
264,144,74328,1,0,0:0:0:0:
264,144,74694,1,8,0:0:0:0:
264,144,75060,1,0,0:0:0:0:
264,144,75243,1,8,0:0:0:0:
264,144,75426,1,0,0:0:0:0:
264,144,75792,1,0,0:0:0:0:
264,144,76157,1,8,0:0:0:0:
268,148,76523,1,8,0:0:0:0:
268,148,76889,1,0,0:0:0:0:
260,136,77255,1,0,0:0:0:0:
260,136,77621,1,8,0:0:0:0:
260,128,77987,1,8,0:0:0:0:
212,108,78170,1,8,0:0:0:0:
260,128,78352,1,0,0:0:0:0:
260,128,78718,1,8,0:0:0:0:
260,132,79084,1,8,0:0:0:0:
264,116,79267,1,0,0:0:0:0:
264,116,79450,1,0,0:0:0:0:
256,120,79816,1,8,0:0:0:0:
256,116,80548,1,8,0:0:0:0:
256,116,80913,1,0,0:0:0:0:
256,116,81645,1,0,0:0:0:0:
256,116,82011,1,8,0:0:0:0:
248,116,82377,1,0,0:0:0:0:
248,116,82560,1,0,0:0:0:0:
248,116,82743,1,12,0:0:0:0:
208,96,84206,1,8,0:0:0:0:
208,96,84572,1,8,0:0:0:0:
208,96,84938,1,8,0:0:0:0:
180,68,85121,1,8,0:0:0:0:
180,68,85304,1,0,0:0:0:0:
208,96,85670,5,12,0:0:0:0:
200,80,86035,1,8,0:0:0:0:
200,80,86218,1,0,0:0:0:0:
196,84,86401,1,8,0:0:0:0:
200,80,86767,1,0,0:0:0:0:
200,80,87133,1,8,0:0:0:0:
200,80,87316,1,8,0:0:0:0:
200,80,87499,1,0,0:0:0:0:
200,88,87682,1,0,0:0:0:0:
200,80,87865,1,8,0:0:0:0:
200,88,88231,1,0,0:0:0:0:
200,88,88596,1,8,0:0:0:0:
212,108,88962,1,0,0:0:0:0:
200,88,89328,1,8,0:0:0:0:
204,112,89694,1,0,0:0:0:0:
220,120,89877,1,0,0:0:0:0:
220,120,90243,1,8,0:0:0:0:
220,120,90426,1,8,0:0:0:0:
232,112,90609,1,0,0:0:0:0:
220,120,90792,1,8,0:0:0:0:
224,116,91157,1,0,0:0:0:0:
220,120,91340,1,8,0:0:0:0:
220,120,91523,1,4,0:0:0:0:
228,80,91889,1,8,0:0:0:0:
228,80,92072,1,0,0:0:0:0:
212,80,92255,1,8,0:0:0:0:
224,92,92438,1,0,0:0:0:0:
220,96,92804,1,0,0:0:0:0:
224,92,93170,1,8,0:0:0:0:
224,92,93352,1,8,0:0:0:0:
224,92,93535,1,0,0:0:0:0:
224,92,93718,1,8,0:0:0:0:
216,88,94084,1,8,0:0:0:0:
216,88,94267,1,0,0:0:0:0:
216,88,94450,1,8,0:0:0:0:
220,96,94816,1,0,0:0:0:0:
220,96,95182,1,8,0:0:0:0:
220,96,95548,1,0,0:0:0:0:
220,96,95731,1,8,0:0:0:0:
224,112,95913,1,0,0:0:0:0:
220,96,96096,1,8,0:0:0:0:
220,96,96279,1,8,0:0:0:0:
224,112,96462,1,0,0:0:0:0:
220,92,96645,1,8,0:0:0:0:
184,96,97011,1,8,0:0:0:0:
188,96,97194,1,8,0:0:0:0:
188,96,97377,5,4,0:0:0:0:
256,180,98109,1,8,0:0:0:0:
260,184,98474,1,0,0:0:0:0:
264,184,98840,1,0,0:0:0:0:
264,184,99023,1,8,0:0:0:0:
264,184,99206,1,0,0:0:0:0:
264,184,99572,1,8,0:0:0:0:
248,164,99938,1,0,0:0:0:0:
248,164,100121,1,0,0:0:0:0:
248,164,100304,1,8,0:0:0:0:
268,168,100670,1,0,0:0:0:0:
272,168,101035,1,8,0:0:0:0:
256,152,101401,1,8,0:0:0:0:
252,152,101584,1,0,0:0:0:0:
248,164,101767,1,8,0:0:0:0:
248,164,101950,1,8,0:0:0:0:
248,164,102133,1,0,0:0:0:0:
248,164,102316,1,0,0:0:0:0:
252,160,102499,1,8,0:0:0:0:
256,164,102865,1,0,0:0:0:0:
256,180,103048,1,8,0:0:0:0:
248,180,103231,1,4,0:0:0:0:
256,164,103596,1,8,0:0:0:0:
256,164,103779,1,0,0:0:0:0:
260,184,103962,1,8,0:0:0:0:
256,164,104328,1,0,0:0:0:0:
252,160,104511,1,8,0:0:0:0:
264,180,104694,1,0,0:0:0:0:
252,160,104877,1,8,0:0:0:0:
252,160,105060,1,8,0:0:0:0:
264,180,105243,1,0,0:0:0:0:
252,172,105426,1,8,0:0:0:0:
252,160,105609,1,8,0:0:0:0:
252,160,105792,1,0,0:0:0:0:
252,160,105974,1,8,0:0:0:0:
248,160,106157,5,4,0:0:0:0:
272,160,106889,1,8,0:0:0:0:
272,168,107255,1,0,0:0:0:0:
280,160,107621,1,8,0:0:0:0:
268,168,107804,1,8,0:0:0:0:
272,168,107987,1,0,0:0:0:0:
272,168,108170,1,0,0:0:0:0:
260,192,108352,1,8,0:0:0:0:
236,168,108718,1,8,0:0:0:0:
224,184,109084,1,4,0:0:0:0:
236,168,109450,1,0,0:0:0:0:
228,148,109816,1,0,0:0:0:0:
228,148,110182,1,0,0:0:0:0:
264,188,110548,1,4,0:0:0:0:
264,188,110913,1,8,0:0:0:0:
264,188,111096,1,8,0:0:0:0:
256,172,111279,1,0,0:0:0:0:
256,172,111462,1,0,0:0:0:0:
256,172,111645,1,8,0:0:0:0:
252,172,111828,1,8,0:0:0:0:
252,184,112011,5,4,0:0:0:0:
256,156,112377,1,0,0:0:0:0:
240,164,112743,1,8,0:0:0:0:
252,188,113474,1,0,0:0:0:0:
252,188,113657,1,8,0:0:0:0:
252,188,113840,1,0,0:0:0:0:
252,188,114206,1,8,0:0:0:0:
252,184,114938,1,0,0:0:0:0:
256,156,115304,1,0,0:0:0:0:
240,164,115670,1,8,0:0:0:0:
252,188,116401,1,0,0:0:0:0:
252,188,116584,1,8,0:0:0:0:
252,188,116767,1,0,0:0:0:0:
260,188,116950,1,0,0:0:0:0:
252,188,117133,1,8,0:0:0:0:
248,196,117499,1,8,0:0:0:0:
248,196,117682,1,8,0:0:0:0:
248,196,117865,1,4,0:0:0:0:
244,200,118596,1,8,0:0:0:0:
248,184,118962,1,0,0:0:0:0:
248,184,119145,1,8,0:0:0:0:
248,184,119328,1,0,0:0:0:0:
228,176,119511,1,8,0:0:0:0:
232,176,119694,1,8,0:0:0:0:
232,176,120060,1,8,0:0:0:0:
228,164,120243,1,8,0:0:0:0:
224,160,120426,1,0,0:0:0:0:
224,168,120792,5,0,0:0:0:0:
224,168,121157,1,0,0:0:0:0:
224,168,121523,1,8,0:0:0:0:
224,168,121889,1,8,0:0:0:0:
212,160,122255,1,0,0:0:0:0:
200,148,122621,1,8,0:0:0:0:
240,180,122895,1,0,0:0:0:0:
200,148,122987,1,8,0:0:0:0:
232,176,123170,1,8,0:0:0:0:
240,188,123352,1,0,0:0:0:0:
248,180,123718,5,4,0:0:0:0:
252,172,124084,1,0,0:0:0:0:
252,172,124450,1,8,0:0:0:0:
252,172,124816,1,8,0:0:0:0:
252,172,124999,1,0,0:0:0:0:
252,172,125182,1,8,0:0:0:0:
252,172,125548,1,0,0:0:0:0:
260,176,125913,1,8,0:0:0:0:
252,172,126279,1,0,0:0:0:0:
248,168,126645,1,8,0:0:0:0:
252,172,127011,1,8,0:0:0:0:
252,172,127194,1,0,0:0:0:0:
248,168,127377,1,8,0:0:0:0:
252,172,127743,1,0,0:0:0:0:
252,172,128109,1,8,0:0:0:0:
248,168,128292,1,0,0:0:0:0:
248,168,128474,1,8,0:0:0:0:
248,168,128840,1,8,0:0:0:0:
248,168,129206,1,0,0:0:0:0:
248,168,129572,1,8,0:0:0:0:
248,168,129938,1,0,0:0:0:0:
248,168,130304,1,8,0:0:0:0:
248,168,130670,1,8,0:0:0:0:
248,168,130852,1,0,0:0:0:0:
248,168,131035,1,0,0:0:0:0:
248,168,131218,1,8,0:0:0:0:
248,168,131401,1,0,0:0:0:0:
248,168,131767,1,8,0:0:0:0:
240,164,132133,1,8,0:0:0:0:
240,168,132499,1,0,0:0:0:0:
240,164,132865,1,0,0:0:0:0:
236,160,133231,1,8,0:0:0:0:
240,164,133596,1,0,0:0:0:0:
236,160,133962,1,0,0:0:0:0:
236,160,134145,1,0,0:0:0:0:
236,160,134328,1,8,0:0:0:0:
236,160,134694,1,8,0:0:0:0:
236,160,135060,1,8,0:0:0:0:
236,160,135243,1,0,0:0:0:0:
236,160,135426,1,8,0:0:0:0:
236,160,135792,1,0,0:0:0:0:
236,160,136157,1,8,0:0:0:0:
236,160,136523,1,0,0:0:0:0:
236,160,136706,1,8,0:0:0:0:
236,160,136889,1,0,0:0:0:0:
236,160,137072,1,0,0:0:0:0:
236,160,137255,1,8,0:0:0:0:
240,160,137621,1,8,0:0:0:0:
236,152,137987,1,8,0:0:0:0:
236,152,138170,1,0,0:0:0:0:
236,152,138352,1,8,0:0:0:0:
236,144,138718,1,8,0:0:0:0:
236,144,138901,1,0,0:0:0:0:
236,144,139084,1,8,0:0:0:0:
236,144,139450,1,0,0:0:0:0:
236,144,139633,1,8,0:0:0:0:
240,152,139816,1,0,0:0:0:0:
252,128,139999,1,8,0:0:0:0:
256,128,140182,1,0,0:0:0:0:
252,128,140365,1,0,0:0:0:0:
212,124,140548,1,8,0:0:0:0:
264,188,140913,1,8,0:0:0:0:
264,188,141279,1,0,0:0:0:0:
244,168,141645,1,0,0:0:0:0:
244,168,142011,1,8,0:0:0:0:
260,180,142377,1,0,0:0:0:0:
252,176,142560,1,8,0:0:0:0:
252,176,142743,1,0,0:0:0:0:
252,176,142926,1,0,0:0:0:0:
256,180,143109,1,8,0:0:0:0:
256,180,143474,1,8,0:0:0:0:
252,176,143657,1,8,0:0:0:0:
252,176,143840,1,0,0:0:0:0:
228,152,144206,5,0,0:0:0:0:
276,156,144572,1,8,0:0:0:0:
276,156,144938,1,12,0:0:0:0:
256,160,145304,1,8,0:0:0:0:
256,160,145487,1,0,0:0:0:0:
256,160,145670,1,8,0:0:0:0:
240,148,146035,1,8,0:0:0:0:
240,148,146401,1,12,0:0:0:0:
256,200,146767,1,8,0:0:0:0:
252,196,147133,1,4,0:0:0:0:
264,188,147499,1,8,0:0:0:0:
264,188,147865,1,0,0:0:0:0:
264,188,148231,1,12,0:0:0:0:
264,188,148779,1,0,0:0:0:0:
264,188,148962,1,8,0:0:0:0:
248,188,149145,1,8,0:0:0:0:
248,188,149237,1,0,0:0:0:0:
248,188,149328,1,8,0:0:0:0:
252,192,149511,1,0,0:0:0:0:
260,196,149694,1,8,0:0:0:0:
256,196,149877,1,0,0:0:0:0:
252,176,150060,5,12,0:0:0:0:
248,176,150426,1,8,0:0:0:0:
248,176,150609,1,0,0:0:0:0:
248,176,150792,1,8,0:0:0:0:
240,168,151157,1,0,0:0:0:0:
244,168,151523,1,8,0:0:0:0:
244,168,151706,1,8,0:0:0:0:
244,168,151889,1,0,0:0:0:0:
244,168,152072,1,0,0:0:0:0:
244,168,152255,1,8,0:0:0:0:
256,160,152621,1,8,0:0:0:0:
256,160,152987,1,0,0:0:0:0:
256,160,153352,1,0,0:0:0:0:
256,160,153718,1,8,0:0:0:0:
256,160,154084,1,8,0:0:0:0:
256,160,154267,1,0,0:0:0:0:
256,160,154450,1,0,0:0:0:0:
248,152,154633,1,8,0:0:0:0:
248,160,154816,1,8,0:0:0:0:
248,160,154999,1,0,0:0:0:0:
249,158,155182,1,8,0:0:0:0:
248,148,155548,1,8,0:0:0:0:
248,152,155731,1,8,0:0:0:0:
252,144,155913,1,4,0:0:0:0:
256,152,156279,1,0,0:0:0:0:
256,152,156462,1,8,0:0:0:0:
256,152,156645,1,8,0:0:0:0:
264,144,156828,1,0,0:0:0:0:
264,156,157194,1,8,0:0:0:0:
256,152,157377,1,0,0:0:0:0:
256,152,157560,1,8,0:0:0:0:
256,152,157743,1,0,0:0:0:0:
256,152,157926,1,0,0:0:0:0:
256,152,158109,1,8,0:0:0:0:
256,156,158474,1,8,0:0:0:0:
256,156,158657,1,0,0:0:0:0:
256,156,158840,1,8,0:0:0:0:
256,156,159206,1,0,0:0:0:0:
256,156,159572,1,12,0:0:0:0:
260,160,159938,1,0,0:0:0:0:
260,160,160121,1,8,0:0:0:0:
260,160,160304,1,8,0:0:0:0:
260,160,160487,1,0,0:0:0:0:
260,160,160670,1,8,0:0:0:0:
260,160,160852,1,0,0:0:0:0:
260,160,161035,1,8,0:0:0:0:
256,156,161401,1,8,0:0:0:0:
256,156,161584,1,8,0:0:0:0:
256,156,161767,1,4,0:0:0:0:
260,160,162499,1,12,0:0:0:0:
260,168,163231,1,0,0:0:0:0:
260,168,163413,1,8,0:0:0:0:
260,168,163596,1,0,0:0:0:0:
260,168,163962,1,8,0:0:0:0:
296,176,164328,1,0,0:0:0:0:
280,176,164694,1,8,0:0:0:0:
264,176,164877,1,8,0:0:0:0:
280,176,165060,1,0,0:0:0:0:
260,168,165426,1,8,0:0:0:0:
264,172,165792,1,8,0:0:0:0:
264,172,165974,1,0,0:0:0:0:
264,176,166157,1,8,0:0:0:0:
264,172,166340,1,8,0:0:0:0:
264,172,166523,1,0,0:0:0:0:
264,172,166706,1,0,0:0:0:0:
264,172,166889,1,8,0:0:0:0:
184,104,167255,1,0,0:0:0:0:
144,72,167438,1,8,0:0:0:0:
264,172,167621,1,4,0:0:0:0:
252,160,167987,1,8,0:0:0:0:
252,160,168170,1,0,0:0:0:0:
256,160,168352,1,8,0:0:0:0:
256,192,168535,1,0,0:0:0:0:
252,188,168901,1,0,0:0:0:0:
256,192,169267,1,8,0:0:0:0:
256,192,169450,1,8,0:0:0:0:
252,188,169633,1,0,0:0:0:0:
252,188,169816,1,8,0:0:0:0:
248,192,170182,1,0,0:0:0:0:
248,192,170365,1,8,0:0:0:0:
248,192,170548,1,4,0:0:0:0:
248,204,170913,1,8,0:0:0:0:
248,204,171096,1,0,0:0:0:0:
248,204,171279,1,8,0:0:0:0:
240,196,171462,1,8,0:0:0:0:
248,204,171645,1,4,0:0:0:0:
248,204,172011,1,0,0:0:0:0:
240,204,172194,1,0,0:0:0:0:
240,204,172377,1,0,0:0:0:0:
244,200,172743,1,8,0:0:0:0:
244,184,173109,1,8,0:0:0:0:
244,184,173474,5,4,0:0:0:0:
248,176,173840,1,0,0:0:0:0:
244,176,174206,1,0,0:0:0:0:
248,176,174572,1,8,0:0:0:0:
244,176,174938,1,8,0:0:0:0:
244,176,175121,1,0,0:0:0:0:
240,160,175304,1,0,0:0:0:0:
240,168,175670,1,8,0:0:0:0:
240,164,176035,1,0,0:0:0:0:
240,164,176218,1,0,0:0:0:0:
240,168,176401,1,8,0:0:0:0:
240,164,176767,1,8,0:0:0:0:
240,164,177133,1,8,0:0:0:0:
248,160,177499,1,0,0:0:0:0:
248,160,177865,1,8,0:0:0:0:
248,160,178231,1,8,0:0:0:0:
248,160,178596,1,8,0:0:0:0:
248,160,178779,1,0,0:0:0:0:
248,160,178962,1,8,0:0:0:0:
248,160,179328,1,0,0:0:0:0:
248,160,179694,1,8,0:0:0:0:
244,184,180974,1,0,0:0:0:0:
244,184,181157,1,0,0:0:0:0:
244,184,181340,1,8,0:0:0:0:
244,184,181523,1,8,0:0:0:0:
236,184,181706,1,0,0:0:0:0:
236,184,181889,1,8,0:0:0:0:
236,184,182072,1,0,0:0:0:0:
248,184,182255,1,8,0:0:0:0:
248,184,182621,1,0,0:0:0:0:
252,184,182987,1,8,0:0:0:0:
248,184,183352,1,0,0:0:0:0:
236,180,183718,1,8,0:0:0:0:
244,196,184450,1,0,0:0:0:0:
240,192,184633,1,0,0:0:0:0:
244,196,184816,1,8,0:0:0:0:
244,196,184999,1,0,0:0:0:0:
244,196,185182,1,0,0:0:0:0:
248,192,185915,1,0,0:0:0:0:
248,192,186649,1,8,0:0:0:0:
248,192,187383,1,0,0:0:0:0:
248,192,187750,1,0,0:0:0:0:
248,192,187934,1,8,0:0:0:0:
248,192,188117,1,0,0:0:0:0:
248,192,188851,1,0,0:0:0:0:
248,192,189218,1,0,0:0:0:0:
248,192,189402,1,8,0:0:0:0:
248,192,189585,1,0,0:0:0:0:
248,180,189952,5,8,0:0:0:0:
248,180,190323,1,0,0:0:0:0:
248,180,190695,1,8,0:0:0:0:
244,192,191066,5,8,0:0:0:0:
252,188,191806,1,0,0:0:0:0:
248,184,192177,1,0,0:0:0:0:
244,184,192547,1,8,0:0:0:0:
224,168,193859,1,0,0:0:0:0:
224,168,194047,5,8,0:0:0:0:
248,184,196696,1,0,0:0:0:0:
248,184,197075,5,8,0:0:0:0:
252,184,198186,1,8,0:0:0:0:
252,184,198371,1,8,0:0:0:0:
252,184,198556,1,0,0:0:0:0:
240,180,199667,1,0,0:0:0:0:
240,180,199852,1,0,0:0:0:0:
240,180,200037,1,8,0:0:0:0:
244,184,202630,1,0,0:0:0:0:
244,184,203000,1,8,0:0:0:0:
244,184,204482,1,0,0:0:0:0:
244,184,205593,1,0,0:0:0:0:
244,184,205778,1,8,0:0:0:0:
244,184,205963,1,0,0:0:0:0:
244,184,207075,1,8,0:0:0:0:
244,184,207445,1,0,0:0:0:0:
244,184,207815,1,8,0:0:0:0:
244,184,208000,1,8,0:0:0:0:
224,200,209306,5,0,0:0:0:0:
232,200,209676,1,8,0:0:0:0:
236,196,211528,1,0,0:0:0:0:
236,196,211713,1,8,0:0:0:0:
236,196,211898,1,0,0:0:0:0:
256,208,212639,1,0,0:0:0:0:
248,200,213010,1,8,0:0:0:0:
248,200,213380,1,0,0:0:0:0:
228,176,214495,1,0,0:0:0:0:
232,176,214678,1,8,0:0:0:0:
232,176,214861,1,0,0:0:0:0:
232,176,215043,1,8,0:0:0:0:
216,172,215226,1,0,0:0:0:0:
224,172,215958,1,0,0:0:0:0:
236,184,216141,1,0,0:0:0:0:
232,184,216324,1,0,0:0:0:0:
232,184,216507,1,8,0:0:0:0:
232,184,216690,1,0,0:0:0:0:
276,172,217604,1,8,0:0:0:0:
272,168,217787,1,0,0:0:0:0:
272,172,217969,1,0,0:0:0:0:
272,172,218153,1,8,0:0:0:0:
248,180,219883,1,8,0:0:0:0:
248,180,220065,1,8,0:0:0:0:
248,180,220247,1,0,0:0:0:0:
248,180,220430,1,8,0:0:0:0:
248,180,220612,1,0,0:0:0:0:
256,184,220794,5,12,0:0:0:0:
252,176,222257,1,8,0:0:0:0:
248,188,223720,1,0,0:0:0:0:
248,184,225184,1,0,0:0:0:0:
248,184,225550,1,0,0:0:0:0:
248,184,225915,1,8,0:0:0:0:
248,184,226647,1,8,0:0:0:0:
248,184,228119,1,8,0:0:0:0:
248,184,228866,1,8,0:0:0:0:
248,184,229606,1,0,0:0:0:0:
248,184,230320,1,0,0:0:0:0:
248,184,230714,1,8,0:0:0:0:
248,184,231084,1,0,0:0:0:0:
252,196,232565,1,0,0:0:0:0:
252,196,233301,1,8,0:0:0:0:
252,192,234037,1,8,0:0:0:0:
260,192,234773,1,8,0:0:0:0:
260,192,235509,1,0,0:0:0:0:
272,196,236798,1,0,0:0:0:0:
272,196,236982,1,0,0:0:0:0:
272,196,238270,1,8,0:0:0:0:
264,200,238454,1,0,0:0:0:0:
268,204,238639,1,0,0:0:0:0:
264,204,238824,1,8,0:0:0:0:
264,204,239009,1,0,0:0:0:0:
260,188,239379,1,0,0:0:0:0:
260,188,239750,1,0,0:0:0:0:
260,188,240120,1,8,0:0:0:0:
256,192,240305,1,8,0:0:0:0:
244,192,241046,1,0,0:0:0:0:
248,192,241231,1,8,0:0:0:0:
244,192,241411,5,0,0:0:0:0:
252,192,241776,1,0,0:0:0:0:
248,192,242142,1,8,0:0:0:0:
248,192,242874,1,0,0:0:0:0:
248,192,243240,1,0,0:0:0:0:
248,192,243423,1,0,0:0:0:0:
240,196,243606,1,8,0:0:0:0:
244,192,243971,1,8,0:0:0:0:
244,192,244337,1,4,0:0:0:0:
256,176,245069,1,0,0:0:0:0:
256,176,245435,1,0,0:0:0:0:
256,176,245801,1,8,0:0:0:0:
256,176,246167,1,12,0:0:0:0:
256,176,246532,1,0,0:0:0:0:
256,176,246715,1,8,0:0:0:0:
256,176,246898,1,0,0:0:0:0:
260,180,247264,1,12,0:0:0:0:
260,196,247996,1,0,0:0:0:0:
264,200,248362,1,0,0:0:0:0:
264,200,248728,1,4,0:0:0:0:
256,196,249093,1,12,0:0:0:0:
256,196,249459,1,12,0:0:0:0:
260,196,249825,1,12,0:0:0:0:
260,196,250191,1,4,0:0:0:0:
248,176,251654,5,0,0:0:0:0:
256,192,252386,1,8,0:0:0:0:
256,176,252752,1,0,0:0:0:0:
256,180,252935,1,0,0:0:0:0:
254,181,253118,1,8,0:0:0:0:
252,184,253484,1,0,0:0:0:0:
240,164,253667,1,0,0:0:0:0:
240,164,253758,1,0,0:0:0:0:
240,164,253850,1,8,0:0:0:0:
240,168,254581,5,12,0:0:0:0:
240,160,254946,1,0,0:0:0:0:
240,156,255312,1,8,0:0:0:0:
244,204,255678,1,0,0:0:0:0:
248,204,255861,1,8,0:0:0:0:
244,204,256044,1,0,0:0:0:0:
244,204,256227,1,8,0:0:0:0:
244,204,256410,1,0,0:0:0:0:
244,204,256593,1,0,0:0:0:0:
256,200,256776,1,8,0:0:0:0:
248,204,257141,1,8,0:0:0:0:
244,204,257324,1,8,0:0:0:0:
244,204,257507,1,4,0:0:0:0:
248,192,257873,1,0,0:0:0:0:
248,192,258056,1,8,0:0:0:0:
248,192,258239,1,8,0:0:0:0:
240,200,258422,1,0,0:0:0:0:
248,192,258788,1,8,0:0:0:0:
248,192,258971,1,0,0:0:0:0:
248,192,259154,1,8,0:0:0:0:
244,192,259337,1,0,0:0:0:0:
248,192,259520,1,0,0:0:0:0:
252,196,259702,1,8,0:0:0:0:
248,192,260068,1,8,0:0:0:0:
244,192,260251,1,0,0:0:0:0:
248,192,260434,1,12,0:0:0:0:
248,192,260800,1,0,0:0:0:0:
244,192,261166,1,8,0:0:0:0:
240,192,261532,1,0,0:0:0:0:
240,192,261715,1,12,0:0:0:0:
240,192,262081,1,8,0:0:0:0:
240,192,262263,1,0,0:0:0:0:
240,192,262446,1,0,0:0:0:0:
240,192,262629,1,8,0:0:0:0:
240,192,262812,1,8,0:0:0:0:
248,184,262904,1,8,0:0:0:0:
248,192,262995,1,8,0:0:0:0:
244,200,263087,1,8,0:0:0:0:
244,192,263178,1,8,0:0:0:0:
244,192,263361,5,4,0:0:0:0:
248,192,264093,1,8,0:0:0:0:
236,188,264733,1,0,0:0:0:0:
240,192,264824,1,8,0:0:0:0:
236,188,265007,1,8,0:0:0:0:
240,192,265190,1,0,0:0:0:0:
236,188,265373,1,0,0:0:0:0:
244,196,265556,1,8,0:0:0:0:
244,184,265922,1,8,0:0:0:0:
244,184,266105,1,8,0:0:0:0:
244,184,266288,1,0,0:0:0:0:
244,184,266654,1,0,0:0:0:0:
244,184,267020,1,8,0:0:0:0:
244,184,267385,1,8,0:0:0:0:
244,184,267568,1,8,0:0:0:0:
244,184,267751,1,0,0:0:0:0:
244,184,267934,1,8,0:0:0:0:
244,184,268117,1,8,0:0:0:0:
244,184,268300,1,0,0:0:0:0:
244,184,268483,1,8,0:0:0:0:
244,184,268849,1,0,0:0:0:0:
248,180,269032,1,8,0:0:0:0:
248,180,269215,1,4,0:0:0:0:
248,180,269581,1,8,0:0:0:0:
248,180,269763,1,0,0:0:0:0:
248,180,269946,1,8,0:0:0:0:
248,180,270129,1,0,0:0:0:0:
248,180,270495,1,0,0:0:0:0:
248,180,270861,1,8,0:0:0:0:
248,180,271044,1,8,0:0:0:0:
240,172,271227,1,0,0:0:0:0:
252,180,271410,1,12,0:0:0:0:
248,180,271776,1,0,0:0:0:0:
248,180,271959,1,0,0:0:0:0:
252,180,272141,1,8,0:0:0:0:
240,172,272324,1,8,0:0:0:0:
240,172,272507,1,0,0:0:0:0:
240,172,272690,1,0,0:0:0:0:
240,172,272873,1,8,0:0:0:0:
240,172,273056,1,8,0:0:0:0:
240,172,273239,1,0,0:0:0:0:
240,172,273422,1,8,0:0:0:0:
240,172,273605,1,8,0:0:0:0:
264,172,273788,1,8,0:0:0:0:
264,172,273971,1,0,0:0:0:0:
264,172,274337,1,8,0:0:0:0:
256,180,274520,1,8,0:0:0:0:
256,180,274702,1,0,0:0:0:0:
252,180,274885,1,8,0:0:0:0:
256,184,275068,1,4,0:0:0:0:
256,180,275434,1,8,0:0:0:0:
260,184,275800,1,8,0:0:0:0:
256,180,276166,1,8,0:0:0:0:
256,180,276349,1,8,0:0:0:0:
252,176,276532,1,0,0:0:0:0:
256,172,276715,1,0,0:0:0:0:
256,172,276898,1,8,0:0:0:0:
248,168,277081,1,0,0:0:0:0:
252,168,277263,1,8,0:0:0:0:
248,168,277446,1,8,0:0:0:0:
248,168,277629,1,0,0:0:0:0:
248,168,277995,1,12,0:0:0:0:
268,184,278361,1,0,0:0:0:0:
268,184,278544,1,0,0:0:0:0:
260,164,278727,1,8,0:0:0:0:
260,164,278910,1,0,0:0:0:0:
260,164,279093,1,0,0:0:0:0:
256,184,279276,1,12,0:0:0:0:
264,184,279641,1,0,0:0:0:0:
268,192,279824,1,8,0:0:0:0:
264,192,280190,1,0,0:0:0:0:
264,192,280556,1,8,0:0:0:0:
264,192,280922,1,4,0:0:0:0:
276,180,281288,1,0,0:0:0:0:
276,180,281654,1,0,0:0:0:0:
276,180,282020,1,8,0:0:0:0:
276,180,282385,1,8,0:0:0:0:
276,180,282751,1,12,0:0:0:0:
256,176,283026,1,0,0:0:0:0:
260,192,283117,1,8,0:0:0:0:
260,192,283483,1,0,0:0:0:0:
260,196,283849,5,12,0:0:0:0:
256,192,284581,1,8,0:0:0:0:
256,192,284946,1,0,0:0:0:0:
256,192,285312,1,0,0:0:0:0:
256,192,285495,1,8,0:0:0:0:
256,192,285678,1,0,0:0:0:0:
256,192,286044,1,8,0:0:0:0:
264,192,286410,1,0,0:0:0:0:
264,192,286776,1,8,0:0:0:0:
264,192,287507,1,8,0:0:0:0:
268,184,287873,1,0,0:0:0:0:
268,184,288239,1,8,0:0:0:0:
268,184,288422,1,0,0:0:0:0:
268,184,288605,1,0,0:0:0:0:
268,184,288788,1,0,0:0:0:0:
268,184,288971,1,8,0:0:0:0:
268,184,289337,1,0,0:0:0:0:
268,184,289702,1,12,0:0:0:0:
268,176,290068,1,0,0:0:0:0:
268,184,290251,1,0,0:0:0:0:
264,180,290434,1,8,0:0:0:0:
252,176,290800,1,8,0:0:0:0:
260,176,291166,1,0,0:0:0:0:
264,180,291349,1,8,0:0:0:0:
260,176,291532,1,0,0:0:0:0:
260,176,291715,1,0,0:0:0:0:
260,176,291898,1,8,0:0:0:0:
252,176,292263,1,0,0:0:0:0:
252,176,292446,1,0,0:0:0:0:
252,176,292629,1,8,0:0:0:0:
252,176,292995,1,0,0:0:0:0:
252,176,293361,1,12,0:0:0:0:
252,176,293727,1,0,0:0:0:0:
252,176,294093,1,0,0:0:0:0:
252,176,294276,1,8,0:0:0:0:
252,176,294459,1,0,0:0:0:0:
252,176,294641,1,0,0:0:0:0:
252,176,294824,1,8,0:0:0:0:
252,176,295190,1,8,0:0:0:0:
252,176,295373,1,8,0:0:0:0:
252,176,295556,5,4,0:0:0:0:
252,176,296288,1,8,0:0:0:0:
264,184,296654,1,8,0:0:0:0:
260,188,296837,1,0,0:0:0:0:
260,188,297020,1,8,0:0:0:0:
260,184,297202,1,8,0:0:0:0:
260,188,297385,1,0,0:0:0:0:
260,188,297568,1,0,0:0:0:0:
264,188,297751,1,8,0:0:0:0:
256,168,298117,1,0,0:0:0:0:
252,172,298483,1,0,0:0:0:0:
252,172,298666,1,0,0:0:0:0:
256,168,298849,1,0,0:0:0:0:
264,176,299215,1,8,0:0:0:0:
252,172,299581,1,0,0:0:0:0:
252,172,299763,1,8,0:0:0:0:
252,172,299946,1,0,0:0:0:0:
252,168,300129,1,8,0:0:0:0:
252,172,300312,1,0,0:0:0:0:
252,172,300495,1,0,0:0:0:0:
252,172,300678,1,8,0:0:0:0:
256,172,301044,1,8,0:0:0:0:
252,172,301410,1,4,0:0:0:0:
248,168,301776,1,0,0:0:0:0:
248,168,301959,1,0,0:0:0:0:
252,172,302141,1,8,0:0:0:0:
256,172,302507,1,8,0:0:0:0:
256,172,302873,1,0,0:0:0:0:
256,172,303056,1,8,0:0:0:0:
256,172,303239,1,0,0:0:0:0:
256,172,303422,1,0,0:0:0:0:
256,172,303605,1,8,0:0:0:0:
256,164,303971,1,8,0:0:0:0:
256,164,304337,1,4,0:0:0:0:
256,164,304702,1,0,0:0:0:0:
256,164,305068,1,8,0:0:0:0:
264,188,305434,1,8,0:0:0:0:
264,188,305800,1,0,0:0:0:0:
268,188,305983,1,8,0:0:0:0:
268,188,306166,1,0,0:0:0:0:
268,188,306532,1,8,0:0:0:0:
268,188,306715,1,0,0:0:0:0:
272,176,306898,1,8,0:0:0:0:
256,200,307269,5,4,0:0:0:0:
248,192,309076,1,0,0:0:0:0:
248,192,309437,1,8,0:0:0:0:
248,192,309789,1,8,0:0:0:0:
248,192,310173,1,0,0:0:0:0:
264,196,312381,1,0,0:0:0:0:
264,196,313117,1,4,0:0:0:0:
264,196,314655,1,8,0:0:0:0:
256,196,316034,1,8,0:0:0:0:
256,192,317760,12,0,324667,0:0:0:0:
